  0
SECTION
  2
HEADER
  9
$ACADVER
  1
AC1009
  9
$INSBASE
 10
0
 20
0
  9
$EXTMIN
 10
-152.7536590521315
 20
-213.3570649426357
  9
$EXTMAX
 10
148.305076349448
 20
128.9190642692398
  9
$LIMMIN
 10
-152.7536590521315
 20
-213.3570649426357
  9
$LIMMAX
 10
148.305076349448
 20
128.9190642692398
  9
$VIEWCTR
 10
10
 20
10
  9
$VIEWSIZE
 40
10
  9
$SNAPMODE
 70
0
  9
$SNAPUNIT
 10
1
 20
1
  9
$SNAPBASE
 10
0
 20
0
  9
$SNAPANG
 50
0
  9
$SNAPSTYLE
 70
0
  9
$SNAPISOPAIR
 70
0
  9
$GRIDMODE
 70
0
  9
$GRIDUNIT
 10
0
 20
0
  9
$ORTHOMODE
 70
0
  9
$REGENMODE
 70
1
  9
$FILLMODE
 70
1
  9
$QTEXTMODE
 70
0
  9
$DRAGMODE
 70
2
  9
$LTSCALE
 40
1
  9
$OSMODE
 70
0
  9
$ATTMODE
 70
1
  9
$TEXTSIZE
 40
3.5
  9
$TRACEWID
 40
0.5
  9
$TEXTSTYLE
  7
STANDARD
  9
$CLAYER
  8
0
  9
$CELTYPE
  6
BYLAYER
  9
$CECOLOR
 62
256
  9
$DIMSCALE
 40
1
  9
$DIMASZ
 40
0.18
  9
$DIMEXO
 40
0.0625
  9
$DIMDLI
 40
0.38
  9
$DIMRND
 40
0
  9
$DIMDLE
 40
0
  9
$DIMEXE
 40
0.18
  9
$DIMTP
 40
0
  9
$DIMTM
 40
0
  9
$DIMTXT
 40
0.18
  9
$DIMCEN
 40
0.09
  9
$DIMTSZ
 40
0
  9
$DIMTOL
 70
0
  9
$DIMLIM
 70
0
  9
$DIMTIH
 70
1
  9
$DIMTOH
 70
1
  9
$DIMSE1
 70
0
  9
$DIMSE2
 70
0
  9
$DIMTAD
 70
0
  9
$DIMZIN
 70
0
  9
$DIMBLK
  1

  9
$DIMASO
 70
1
  9
$DIMSHO
 70
1
  9
$DIMPOST
  1

  9
$DIMAPOST
  1

  9
$DIMALT
 70
0
  9
$DIMALTD
 70
2
  9
$DIMALTF
 40
25.4
  9
$DIMLFAC
 40
1
  9
$DIMTOFL
 70
0
  9
$DIMTVP
 40
0
  9
$DIMTIX
 70
0
  9
$DIMSOXD
 70
0
  9
$DIMSAH
 70
0
  9
$DIMBLK1
  1

  9
$DIMBLK2
  1

  9
$DIMSTYLE
  2
*UNNAMED
  9
$DIMCLRD
 70
0
  9
$DIMCLRE
 70
0
  9
$DIMCLRT
 70
0
  9
$DIMTFAC
 40
1
  9
$DIMGAP
 40
0.09
  9
$LUNITS
 70
2
  9
$LUPREC
 70
4
  9
$AXISMODE
 70
0
  9
$AXISUNIT
 10
0
 20
0
  9
$SKETCHINC
 40
0.1
  9
$FILLETRAD
 40
2
  9
$AUNITS
 70
0
  9
$AUPREC
 70
0
  9
$MENU
  1
ACAD
  9
$ELEVATION
 40
0
  9
$THICKNESS
 40
0
  9
$VIEWDIR
 10
0
 20
0
 30
1
  9
$LIMCHECK
 70
0
  9
$BLIPMODE
 70
1
  9
$CHAMFERA
 40
0
  9
$CHAMFERB
 40
0
  9
$FASTZOOM
 70
1
  9
$SKPOLY
 70
0
  9
$ANGBASE
 50
0
  9
$ANGDIR
 70
0
  9
$PDMODE
 70
0
  9
$PDSIZE
 40
0
  9
$PLINEWID
 40
0
  9
$COORDS
 70
2
  0
ENDSEC
  0
SECTION
  2
TABLES
  0
TABLE
  2
DIMSTYLE
 70
4
  0
DIMSTYLE
  2
DMST_1
 70
0
  3

  4

  5

  6

  7

 40
1
 41
5
 42
0
 43
7
 44
2
 45
0
 46
0
 47
0
 48
0
140
5
141
0
142
0
143
25.4
144
1
145
0
146
1
147
0.09
 71
0
 72
0
 73
0
 74
0
 75
0
 76
0
 77
1
 78
9
170
0
171
2
172
0
173
0
174
0
175
0
176
1
177
1
178
7
  0
DIMSTYLE
  2
DMST_2
 70
0
  3

  4

  5

  6

  7

 40
1
 41
5
 42
0
 43
7
 44
1
 45
0
 46
0
 47
0
 48
0
140
5
141
0
142
0
143
25.4
144
1
145
0
146
1
147
0.09
 71
0
 72
0
 73
0
 74
0
 75
0
 76
0
 77
1
 78
9
170
0
171
2
172
0
173
0
174
0
175
0
176
1
177
1
178
7
  0
DIMSTYLE
  2
DMST_3
 70
0
  3

  4

  5

  6

  7

 40
1
 41
5
 42
0
 43
7
 44
2
 45
0
 46
0
 47
0
 48
0
140
5
141
0
142
0
143
25.4
144
1
145
0
146
1
147
0.09
 71
0
 72
0
 73
0
 74
0
 75
0
 76
0
 77
1
 78
9
170
0
171
2
172
1
173
0
174
0
175
0
176
1
177
1
178
7
  0
DIMSTYLE
  2
DMST_4
 70
0
  3

  4

  5

  6

  7

 40
1
 41
5
 42
0
 43
7
 44
2
 45
0
 46
0
 47
0
 48
0
140
5
141
-1.5
142
0
143
25.4
144
1
145
0
146
1
147
0.09
 71
0
 72
0
 73
0
 74
0
 75
0
 76
0
 77
1
 78
9
170
0
171
2
172
1
173
0
174
0
175
0
176
1
177
1
178
7
  0
ENDTAB
  0
TABLE
  2
LTYPE
 70
9
  0
LTYPE
  2
CONTINUOUS
 70
64
  3
Solid line
 72
65
 73
0
 40
0
  0
LTYPE
  2
BORDER
 70
64
  3
__ __ . __ __ .
 72
65
 73
6
 40
15.76271647686269
 49
4.503633279103625
 49
-2.251816639551813
 49
4.503633279103625
 49
-2.251816639551813
 49
0
 49
-2.251816639551813
  0
LTYPE
  2
CENTER
 70
64
  3
____ _ ____ _
 72
65
 73
4
 40
18.0145331164145
 49
11.25908319775906
 49
-2.251816639551813
 49
2.251816639551813
 49
-2.251816639551813
  0
LTYPE
  2
DASHDOT
 70
64
  3
__ . __ . __ .
 72
65
 73
4
 40
9.007266558207251
 49
4.503633279103625
 49
-2.251816639551813
 49
0
 49
-2.251816639551813
  0
LTYPE
  2
DASHED
 70
64
  3
__ __ __ __ __
 72
65
 73
2
 40
6.755449918655438
 49
4.503633279103625
 49
-2.251816639551813
  0
LTYPE
  2
DIVIDE
 70
64
  3
__ . . __ . . 
 72
65
 73
6
 40
11.25908319775906
 49
4.503633279103625
 49
-2.251816639551813
 49
0
 49
-2.251816639551813
 49
0
 49
-2.251816639551813
  0
LTYPE
  2
DOT
 70
64
  3
..............
 72
65
 73
4
 40
4.503633279103625
 49
0
 49
-2.251816639551813
 49
0
 49
-2.251816639551813
  0
LTYPE
  2
HIDDEN
 70
64
  3
_ _ _ _ _ _ _
 72
65
 73
2
 40
3.377724959327719
 49
2.251816639551813
 49
-1.125908319775906
  0
LTYPE
  2
PHANTOM
 70
64
  3
_____ _ _ _____ _ _ 
 72
65
 73
6
 40
22.51816639551813
 49
11.25908319775906
 49
-2.251816639551813
 49
2.251816639551813
 49
-2.251816639551813
 49
2.251816639551813
 49
-2.251816639551813
  0
ENDTAB
  0
TABLE
  2
LAYER
 70
3
  0
LAYER
  2
1
 70
0
 62
7
  6
CONTINUOUS
  0
LAYER
  2
0
 70
0
 62
7
  6
CONTINUOUS
  0
ENDTAB
  0
TABLE
  2
STYLE
 70
4
  0
STYLE
  2
STANDARD
 70
0
 40
0
 41
1
 50
0
 71
0
 42
3.5
  3
txt
  4

  0
STYLE
  2
SIMPLEX
 70
0
 40
0
 41
1
 50
0
 71
0
 42
3.5
  3
simplex
  4

  0
STYLE
  2
COMPLEX
 70
0
 40
0
 41
1
 50
0
 71
0
 42
3.5
  3
complex
  4

  0
STYLE
  2
ITALIC
 70
0
 40
0
 41
1
 50
0
 71
0
 42
3.5
  3
italic
  4

  0
ENDTAB
  0
TABLE
  2
VIEW
 70
0
  0
ENDTAB
  0
ENDSEC
  0
SECTION
  2
BLOCKS
  0
BLOCK
  8
1
  2
*D0
 70
1
 10
0
 20
0
 30
0
  0
LINE
  8
1
 62
1
 10
-6.64518728118099
 20
10.41906426923981
 30
0
 11
-6.64518728118099
 21
31.91906426923981
 31
0
  0
LINE
  8
1
 62
1
 10
-41.64807635039611
 20
31.91906426923981
 30
0
 11
-4.64518728118099
 21
31.91906426923981
 31
0
  0
LINE
  8
1
 62
1
 10
-46.448076350396
 20
10.41906426923981
 30
0
 11
-4.64518728118099
 21
10.41906426923981
 31
0
  0
SOLID
  8
1
 62
1
 10
-6.64518728118099
 20
31.91906426923981
 30
0
 11
-5.995187281180991
 21
26.91906426923981
 31
0
 12
-7.29518728118099
 22
26.91906426923981
 32
0
 13
-7.29518728118099
 23
26.91906426923981
 33
0
  0
SOLID
  8
1
 62
1
 10
-6.64518728118099
 20
10.41906426923981
 30
0
 11
-7.295187281180991
 21
15.41906426923981
 31
0
 12
-5.995187281180992
 22
15.41906426923981
 32
0
 13
-5.995187281180992
 23
15.41906426923981
 33
0
  0
TEXT
  8
1
 62
7
 10
-8.14518728118099
 20
15.04406426923981
 30
0
 40
5
  1
21,5
 50
90
 41
0.9
  0
ENDBLK
  8
0
  0
BLOCK
  8
1
  2
*D1
 70
1
 10
0
 20
0
 30
0
  0
LINE
  8
1
 62
1
 10
-108.5480763503959
 20
105.185408856712
 30
0
 11
-96.1787091761385
 21
105.185408856712
 31
0
  0
LINE
  8
1
 62
1
 10
-111.5480763503959
 20
105.185408856712
 30
0
 11
-108.5480763503959
 21
105.185408856712
 31
0
  0
LINE
  8
1
 62
1
 10
-121.5480763503959
 20
105.185408856712
 30
0
 11
-111.5480763503959
 21
105.185408856712
 31
0
  0
LINE
  8
1
 62
1
 10
-108.5480763503959
 20
118.9190642692399
 30
0
 11
-108.5480763503959
 21
103.185408856712
 31
0
  0
LINE
  8
1
 62
1
 10
-111.5480763503959
 20
118.9190642692399
 30
0
 11
-111.5480763503959
 21
103.185408856712
 31
0
  0
SOLID
  8
1
 62
1
 10
-111.5480763503959
 20
105.185408856712
 30
0
 11
-116.5480763503959
 21
104.535408856712
 31
0
 12
-116.5480763503959
 22
105.835408856712
 32
0
 13
-116.5480763503959
 23
105.835408856712
 33
0
  0
SOLID
  8
1
 62
1
 10
-108.5480763503959
 20
105.185408856712
 30
0
 11
-103.5480763503959
 21
105.835408856712
 31
0
 12
-103.5480763503959
 22
104.535408856712
 32
0
 13
-103.5480763503959
 23
104.535408856712
 33
0
  0
TEXT
  8
1
 62
7
 10
-99.1787091761385
 20
106.185408856712
 30
0
 40
5
  1
3
 41
0.9
  0
ENDBLK
  8
0
  0
BLOCK
  8
1
  2
*D2
 70
1
 10
0
 20
0
 30
0
  0
LINE
  8
1
 62
1
 10
111.4519236496041
 20
-126.2497774053473
 30
0
 11
131.4519236496041
 21
-126.2497774053473
 31
0
  0
LINE
  8
1
 62
1
 10
131.4519236496041
 20
-111.080935730759
 30
0
 11
131.4519236496041
 21
-127.2497774053473
 31
0
  0
LINE
  8
1
 62
1
 10
111.4519236496041
 20
-111.080935730759
 30
0
 11
111.4519236496041
 21
-127.2497774053473
 31
0
  0
SOLID
  8
1
 62
1
 10
111.4519236496041
 20
-126.2497774053473
 30
0
 11
116.4519236496041
 21
-125.5997774053473
 31
0
 12
116.4519236496041
 22
-126.8997774053473
 32
0
 13
116.4519236496041
 23
-126.8997774053473
 33
0
  0
SOLID
  8
1
 62
1
 10
131.4519236496041
 20
-126.2497774053473
 30
0
 11
126.4519236496041
 21
-126.8997774053473
 31
0
 12
126.4519236496041
 22
-125.5997774053473
 32
0
 13
126.4519236496041
 23
-125.5997774053473
 33
0
  0
TEXT
  8
1
 62
7
 10
117.7019236496041
 20
-125.2497774053473
 30
0
 40
5
  1
20
 41
0.9
  0
ENDBLK
  8
0
  0
BLOCK
  8
1
  2
*D3
 70
1
 10
0
 20
0
 30
0
  0
LINE
  8
1
 62
1
 10
-111.548076350396
 20
21.931038601609
 30
0
 11
-101.548076350396
 21
21.931038601609
 31
0
  0
LINE
  8
1
 62
1
 10
-121.5480763503951
 20
21.931038601609
 30
0
 11
-131.5480763503951
 21
21.931038601609
 31
0
  0
LINE
  8
1
 62
1
 10
-121.5480763503951
 20
21.931038601609
 30
0
 11
-111.548076350396
 21
21.931038601609
 31
0
  0
LINE
  8
1
 62
1
 10
-111.548076350396
 20
36.91906426923981
 30
0
 11
-111.548076350396
 21
20.931038601609
 31
0
  0
LINE
  8
1
 62
1
 10
-121.5480763503951
 20
39.41906426923981
 30
0
 11
-121.5480763503951
 21
20.931038601609
 31
0
  0
SOLID
  8
1
 62
1
 10
-121.5480763503951
 20
21.931038601609
 30
0
 11
-126.5480763503951
 21
21.281038601609
 31
0
 12
-126.5480763503951
 22
22.581038601609
 32
0
 13
-126.5480763503951
 23
22.581038601609
 33
0
  0
SOLID
  8
1
 62
1
 10
-111.548076350396
 20
21.931038601609
 30
0
 11
-106.548076350396
 21
22.581038601609
 31
0
 12
-106.548076350396
 22
21.281038601609
 32
0
 13
-106.548076350396
 23
21.281038601609
 33
0
  0
TEXT
  8
1
 62
7
 10
-119.5480763503955
 20
22.931038601609
 30
0
 40
5
  1
10
 41
0.9
  0
ENDBLK
  8
0
  0
BLOCK
  8
1
  2
*D4
 70
1
 10
0
 20
0
 30
0
  0
LINE
  8
1
 62
1
 10
56.45192364960411
 20
-125.8596263365744
 30
0
 11
74.45192364960411
 21
-125.8596263365744
 31
0
  0
LINE
  8
1
 62
1
 10
74.45192364960411
 20
-102.080935730759
 30
0
 11
74.45192364960411
 21
-126.8596263365744
 31
0
  0
LINE
  8
1
 62
1
 10
56.45192364960411
 20
-102.080935730759
 30
0
 11
56.45192364960411
 21
-126.8596263365744
 31
0
  0
SOLID
  8
1
 62
1
 10
56.45192364960411
 20
-125.8596263365744
 30
0
 11
61.45192364960411
 21
-125.2096263365744
 31
0
 12
61.45192364960411
 22
-126.5096263365744
 32
0
 13
61.45192364960411
 23
-126.5096263365744
 33
0
  0
SOLID
  8
1
 62
1
 10
74.45192364960411
 20
-125.8596263365744
 30
0
 11
69.45192364960411
 21
-126.5096263365744
 31
0
 12
69.45192364960411
 22
-125.2096263365744
 32
0
 13
69.45192364960411
 23
-125.2096263365744
 33
0
  0
TEXT
  8
1
 62
7
 10
62.45192364960411
 20
-124.8596263365744
 30
0
 40
5
  1
18
 41
0.9
  0
ENDBLK
  8
0
  0
BLOCK
  8
1
  2
*D5
 70
1
 10
0
 20
0
 30
0
  0
LINE
  8
1
 62
1
 10
-70.5480763503959
 20
-29.454554487612
 30
0
 11
-32.54807635039589
 21
-29.454554487612
 31
0
  0
LINE
  8
1
 62
1
 10
-32.54807635039589
 20
-49.9559357307611
 30
0
 11
-32.54807635039589
 21
-28.454554487612
 31
0
  0
LINE
  8
1
 62
1
 10
-70.5480763503959
 20
-49.95593573076019
 30
0
 11
-70.5480763503959
 21
-28.454554487612
 31
0
  0
SOLID
  8
1
 62
1
 10
-70.5480763503959
 20
-29.454554487612
 30
0
 11
-65.5480763503959
 21
-28.804554487612
 31
0
 12
-65.5480763503959
 22
-30.104554487612
 32
0
 13
-65.5480763503959
 23
-30.104554487612
 33
0
  0
SOLID
  8
1
 62
1
 10
-32.54807635039589
 20
-29.454554487612
 30
0
 11
-37.54807635039589
 21
-30.104554487612
 31
0
 12
-37.54807635039589
 22
-28.804554487612
 32
0
 13
-37.54807635039589
 23
-28.804554487612
 33
0
  0
TEXT
  8
1
 62
7
 10
-55.2980763503959
 20
-28.454554487612
 30
0
 40
5
  1
38
 41
0.9
  0
ENDBLK
  8
0
  0
BLOCK
  8
1
  2
*D6
 70
1
 10
0
 20
0
 30
0
  0
LINE
  8
1
 62
1
 10
-47.5480763503959
 20
46.22509053262002
 30
0
 11
-34.80777425751612
 21
46.22509053262002
 31
0
  0
LINE
  8
1
 62
1
 10
-55.54807635039592
 20
46.22509053262002
 30
0
 11
-47.5480763503959
 21
46.22509053262002
 31
0
  0
LINE
  8
1
 62
1
 10
-65.54807635039592
 20
46.22509053262002
 30
0
 11
-55.54807635039592
 21
46.22509053262002
 31
0
  0
LINE
  8
1
 62
1
 10
-47.5480763503959
 20
35.91906426923983
 30
0
 11
-47.5480763503959
 21
47.22509053262002
 31
0
  0
LINE
  8
1
 62
1
 10
-55.54807635039592
 20
35.91906426923983
 30
0
 11
-55.54807635039592
 21
47.22509053262002
 31
0
  0
SOLID
  8
1
 62
1
 10
-55.54807635039592
 20
46.22509053262002
 30
0
 11
-60.54807635039592
 21
45.57509053262002
 31
0
 12
-60.54807635039592
 22
46.87509053262002
 32
0
 13
-60.54807635039592
 23
46.87509053262002
 33
0
  0
SOLID
  8
1
 62
1
 10
-47.5480763503959
 20
46.22509053262002
 30
0
 11
-42.5480763503959
 21
46.87509053262002
 31
0
 12
-42.5480763503959
 22
45.57509053262002
 32
0
 13
-42.5480763503959
 23
45.57509053262002
 33
0
  0
TEXT
  8
1
 62
7
 10
-45.80777425751612
 20
47.22509053262002
 30
0
 40
5
  1
8/9
 41
0.9
  0
ENDBLK
  8
0
  0
BLOCK
  8
1
  2
*D7
 70
1
 10
0
 20
0
 30
0
  0
LINE
  8
1
 62
1
 10
-6.508232950921011
 20
-46.08093573076019
 30
0
 11
-6.508232950921011
 21
-36.08093573076019
 31
0
  0
LINE
  8
1
 62
1
 10
-6.508232950921011
 20
-54.08093573076019
 30
0
 11
-6.508232950921011
 21
-64.08093573076019
 31
0
  0
LINE
  8
1
 62
1
 10
-6.508232950921011
 20
-54.08093573076019
 30
0
 11
-6.508232950921011
 21
-46.08093573076019
 31
0
  0
LINE
  8
1
 62
1
 10
-39.59603443516499
 20
-46.08093573076019
 30
0
 11
-5.508232950921011
 21
-46.08093573076019
 31
0
  0
LINE
  8
1
 62
1
 10
-28.42307635039711
 20
-54.08093573076019
 30
0
 11
-5.508232950921011
 21
-54.08093573076019
 31
0
  0
SOLID
  8
1
 62
1
 10
-6.508232950921011
 20
-46.08093573076019
 30
0
 11
-7.158232950921012
 21
-41.08093573076019
 31
0
 12
-5.858232950921013
 22
-41.08093573076019
 32
0
 13
-5.858232950921013
 23
-41.08093573076019
 33
0
  0
SOLID
  8
1
 62
1
 10
-6.508232950921011
 20
-54.08093573076019
 30
0
 11
-5.858232950921012
 21
-59.08093573076019
 31
0
 12
-7.158232950921011
 22
-59.08093573076019
 32
0
 13
-7.158232950921011
 23
-59.08093573076019
 33
0
  0
TEXT
  8
1
 62
7
 10
-7.508232950921011
 20
-51.58093573076019
 30
0
 40
5
  1
8
 50
90
 41
0.9
  0
ENDBLK
  8
0
  0
BLOCK
  8
1
  2
*D8
 70
1
 10
0
 20
0
 30
0
  0
LINE
  8
1
 62
1
 10
-70.5480763503959
 20
58.25841808466399
 30
0
 11
-32.54807635039589
 21
58.25841808466399
 31
0
  0
LINE
  8
1
 62
1
 10
-32.54807635039589
 20
36.04406426923981
 30
0
 11
-32.54807635039589
 21
60.25841808466399
 31
0
  0
LINE
  8
1
 62
1
 10
-70.5480763503959
 20
36.04406426923981
 30
0
 11
-70.5480763503959
 21
60.25841808466399
 31
0
  0
SOLID
  8
1
 62
1
 10
-70.5480763503959
 20
58.25841808466399
 30
0
 11
-65.5480763503959
 21
58.90841808466399
 31
0
 12
-65.5480763503959
 22
57.60841808466399
 32
0
 13
-65.5480763503959
 23
57.60841808466399
 33
0
  0
SOLID
  8
1
 62
1
 10
-32.54807635039589
 20
58.25841808466399
 30
0
 11
-37.54807635039589
 21
57.60841808466399
 31
0
 12
-37.54807635039589
 22
58.90841808466399
 32
0
 13
-37.54807635039589
 23
58.90841808466399
 33
0
  0
TEXT
  8
1
 62
7
 10
-55.2980763503959
 20
59.25841808466399
 30
0
 40
5
  1
38
 41
0.9
  0
ENDBLK
  8
0
  0
BLOCK
  8
1
  2
*D9
 70
1
 10
0
 20
0
 30
0
  0
LINE
  8
1
 62
1
 10
-146.741979669704
 20
83.91906426923974
 30
0
 11
-146.741979669704
 21
118.9190642692399
 31
0
  0
LINE
  8
1
 62
1
 10
-111.5480763503959
 20
118.9190642692399
 30
0
 11
-148.741979669704
 21
118.9190642692399
 31
0
  0
LINE
  8
1
 62
1
 10
-103.5480763503959
 20
83.91906426923974
 30
0
 11
-148.741979669704
 21
83.91906426923974
 31
0
  0
SOLID
  8
1
 62
1
 10
-146.741979669704
 20
118.9190642692399
 30
0
 11
-146.091979669704
 21
113.9190642692399
 31
0
 12
-147.391979669704
 22
113.9190642692399
 32
0
 13
-147.391979669704
 23
113.9190642692399
 33
0
  0
SOLID
  8
1
 62
1
 10
-146.741979669704
 20
83.91906426923974
 30
0
 11
-147.391979669704
 21
88.91906426923974
 31
0
 12
-146.091979669704
 22
88.91906426923974
 32
0
 13
-146.091979669704
 23
88.91906426923974
 33
0
  0
TEXT
  8
1
 62
7
 10
-147.741979669704
 20
97.6690642692398
 30
0
 40
5
  1
35
 50
90
 41
0.9
  0
ENDBLK
  8
0
  0
BLOCK
  8
1
  2
*D10
 70
1
 10
0
 20
0
 30
0
  0
LINE
  8
1
 62
1
 10
-146.7536590521315
 20
66.91906426923978
 30
0
 11
-146.7536590521315
 21
83.91906426923978
 31
0
  0
LINE
  8
1
 62
1
 10
-103.5480763503959
 20
83.91906426923978
 30
0
 11
-148.7536590521315
 21
83.91906426923978
 31
0
  0
LINE
  8
1
 62
1
 10
-119.548076350395
 20
66.91906426923978
 30
0
 11
-148.7536590521315
 21
66.91906426923978
 31
0
  0
SOLID
  8
1
 62
1
 10
-146.7536590521315
 20
83.91906426923978
 30
0
 11
-146.1036590521315
 21
78.91906426923978
 31
0
 12
-147.4036590521315
 22
78.91906426923978
 32
0
 13
-147.4036590521315
 23
78.91906426923978
 33
0
  0
SOLID
  8
1
 62
1
 10
-146.7536590521315
 20
66.91906426923978
 30
0
 11
-147.4036590521315
 21
71.91906426923978
 31
0
 12
-146.1036590521315
 22
71.91906426923978
 32
0
 13
-146.1036590521315
 23
71.91906426923978
 33
0
  0
TEXT
  8
1
 62
7
 10
-147.7536590521315
 20
72.41906426923978
 30
0
 40
5
  1
17
 50
90
 41
0.9
  0
ENDBLK
  8
0
  0
BLOCK
  8
1
  2
*D11
 70
1
 10
0
 20
0
 30
0
  0
LINE
  8
1
 62
1
 10
-146.6282255899516
 20
-111.080935730759
 30
0
 11
-146.6282255899516
 21
-76.08093573075899
 31
0
  0
LINE
  8
1
 62
1
 10
-104.0480763503959
 20
-76.08093573075899
 30
0
 11
-148.6282255899516
 21
-76.08093573075899
 31
0
  0
LINE
  8
1
 62
1
 10
-111.5480763503959
 20
-111.080935730759
 30
0
 11
-148.6282255899516
 21
-111.080935730759
 31
0
  0
SOLID
  8
1
 62
1
 10
-146.6282255899516
 20
-111.080935730759
 30
0
 11
-147.2782255899516
 21
-106.080935730759
 31
0
 12
-145.9782255899516
 22
-106.080935730759
 32
0
 13
-145.9782255899516
 23
-106.080935730759
 33
0
  0
SOLID
  8
1
 62
1
 10
-146.6282255899516
 20
-76.08093573075899
 30
0
 11
-145.9782255899516
 21
-81.08093573075899
 31
0
 12
-147.2782255899516
 22
-81.08093573075899
 32
0
 13
-147.2782255899516
 23
-81.08093573075899
 33
0
  0
TEXT
  8
1
 62
7
 10
-147.6282255899516
 20
-97.33093573075899
 30
0
 40
5
  1
35
 50
90
 41
0.9
  0
ENDBLK
  8
0
  0
BLOCK
  8
1
  2
*D12
 70
1
 10
0
 20
0
 30
0
  0
LINE
  8
1
 62
1
 10
-146.6329436505925
 20
-76.08093573075899
 30
0
 11
-146.6329436505925
 21
-37.08093573075899
 31
0
  0
LINE
  8
1
 62
1
 10
-130.476279580671
 20
-37.08093573075899
 30
0
 11
-148.6329436505925
 21
-37.08093573075899
 31
0
  0
LINE
  8
1
 62
1
 10
-103.5480763503959
 20
-76.08093573075899
 30
0
 11
-148.6329436505925
 21
-76.08093573075899
 31
0
  0
SOLID
  8
1
 62
1
 10
-146.6329436505925
 20
-37.08093573075899
 30
0
 11
-145.9829436505925
 21
-42.08093573075899
 31
0
 12
-147.2829436505925
 22
-42.08093573075899
 32
0
 13
-147.2829436505925
 23
-42.08093573075899
 33
0
  0
SOLID
  8
1
 62
1
 10
-146.6329436505925
 20
-76.08093573075899
 30
0
 11
-147.2829436505925
 21
-71.08093573075899
 31
0
 12
-145.9829436505925
 22
-71.08093573075899
 32
0
 13
-145.9829436505925
 23
-71.08093573075899
 33
0
  0
TEXT
  8
1
 62
7
 10
-147.6329436505925
 20
-60.33093573075899
 30
0
 40
5
  1
39
 50
90
 41
0.9
  0
ENDBLK
  8
0
  0
BLOCK
  8
1
  2
*D13
 70
1
 10
0
 20
0
 30
0
  0
LINE
  8
1
 62
1
 10
48.38411346993399
 20
118.9190642692013
 30
0
 11
48.38411346993399
 21
128.9190642692013
 31
0
  0
LINE
  8
1
 62
1
 10
48.38411346993399
 20
109.9190642692398
 30
0
 11
48.38411346993399
 21
99.91906426923977
 31
0
  0
LINE
  8
1
 62
1
 10
48.38411346993399
 20
109.9190642692398
 30
0
 11
48.38411346993399
 21
118.9190642692013
 31
0
  0
LINE
  8
1
 62
1
 10
65.45192364960411
 20
118.9190642692013
 30
0
 11
46.38411346993399
 21
118.9190642692013
 31
0
  0
LINE
  8
1
 62
1
 10
60.50192364960401
 20
109.9190642692398
 30
0
 11
46.38411346993399
 21
109.9190642692398
 31
0
  0
SOLID
  8
1
 62
1
 10
48.38411346993399
 20
118.9190642692013
 30
0
 11
47.73411346993399
 21
123.9190642692013
 31
0
 12
49.03411346993399
 22
123.9190642692013
 32
0
 13
49.03411346993399
 23
123.9190642692013
 33
0
  0
SOLID
  8
1
 62
1
 10
48.38411346993399
 20
109.9190642692398
 30
0
 11
49.03411346993399
 21
104.9190642692398
 31
0
 12
47.73411346993399
 22
104.9190642692398
 32
0
 13
47.73411346993399
 23
104.9190642692398
 33
0
  0
TEXT
  8
1
 62
7
 10
47.38411346993399
 20
112.9190642692205
 30
0
 40
5
  1
9
 50
90
 41
0.9
  0
ENDBLK
  8
0
  0
BLOCK
  8
1
  2
*D14
 70
1
 10
0
 20
0
 30
0
  0
LINE
  8
1
 62
1
 10
48.54764026891201
 20
-102.080935730759
 30
0
 11
48.54764026891201
 21
-92.08093573075899
 31
0
  0
LINE
  8
1
 62
1
 10
48.54764026891201
 20
-111.080935730759
 30
0
 11
48.54764026891201
 21
-121.080935730759
 31
0
  0
LINE
  8
1
 62
1
 10
48.54764026891201
 20
-111.080935730759
 30
0
 11
48.54764026891201
 21
-102.080935730759
 31
0
  0
LINE
  8
1
 62
1
 10
60.50192364960401
 20
-102.080935730759
 30
0
 11
46.54764026891201
 21
-102.080935730759
 31
0
  0
LINE
  8
1
 62
1
 10
65.45192364960413
 20
-111.080935730759
 30
0
 11
46.54764026891201
 21
-111.080935730759
 31
0
  0
SOLID
  8
1
 62
1
 10
48.54764026891201
 20
-102.080935730759
 30
0
 11
47.89764026891201
 21
-97.08093573075899
 31
0
 12
49.19764026891201
 22
-97.08093573075899
 32
0
 13
49.19764026891201
 23
-97.08093573075899
 33
0
  0
SOLID
  8
1
 62
1
 10
48.54764026891201
 20
-111.080935730759
 30
0
 11
49.19764026891201
 21
-116.080935730759
 31
0
 12
47.89764026891201
 22
-116.080935730759
 32
0
 13
47.89764026891201
 23
-116.080935730759
 33
0
  0
TEXT
  8
1
 62
7
 10
47.54764026891201
 20
-108.080935730759
 30
0
 40
5
  1
9
 50
90
 41
0.9
  0
ENDBLK
  8
0
  0
BLOCK
  8
1
  2
*D15
 70
1
 10
0
 20
0
 30
0
  0
LINE
  8
1
 62
1
 10
89.387531081459
 20
-111.080935730759
 30
0
 11
89.387531081459
 21
118.9190642692013
 31
0
  0
LINE
  8
1
 62
1
 10
65.45192364960411
 20
118.9190642692013
 30
0
 11
91.387531081459
 21
118.9190642692013
 31
0
  0
LINE
  8
1
 62
1
 10
65.45192364960411
 20
-111.080935730759
 30
0
 11
91.387531081459
 21
-111.080935730759
 31
0
  0
SOLID
  8
1
 62
1
 10
89.387531081459
 20
118.9190642692013
 30
0
 11
90.03753108145901
 21
113.9190642692013
 31
0
 12
88.737531081459
 22
113.9190642692013
 32
0
 13
88.737531081459
 23
113.9190642692013
 33
0
  0
SOLID
  8
1
 62
1
 10
89.387531081459
 20
-111.080935730759
 30
0
 11
88.737531081459
 21
-106.080935730759
 31
0
 12
90.03753108145899
 22
-106.080935730759
 32
0
 13
90.03753108145899
 23
-106.080935730759
 33
0
  0
TEXT
  8
1
 62
7
 10
88.387531081459
 20
-2.080935730778862
 30
0
 40
5
  1
230
 50
90
 41
0.9
  0
ENDBLK
  8
0
  0
BLOCK
  8
1
  2
*D16
 70
1
 10
0
 20
0
 30
0
  0
LINE
  8
1
 62
1
 10
146.305076349448
 20
-111.080935730759
 30
0
 11
146.305076349448
 21
118.9190642692398
 31
0
  0
LINE
  8
1
 62
1
 10
131.4519236496041
 20
118.9190642692398
 30
0
 11
148.305076349448
 21
118.9190642692398
 31
0
  0
LINE
  8
1
 62
1
 10
131.4519236496041
 20
-111.080935730759
 30
0
 11
148.305076349448
 21
-111.080935730759
 31
0
  0
SOLID
  8
1
 62
1
 10
146.305076349448
 20
118.9190642692398
 30
0
 11
146.955076349448
 21
113.9190642692398
 31
0
 12
145.655076349448
 22
113.9190642692398
 32
0
 13
145.655076349448
 23
113.9190642692398
 33
0
  0
SOLID
  8
1
 62
1
 10
146.305076349448
 20
-111.080935730759
 30
0
 11
145.655076349448
 21
-106.080935730759
 31
0
 12
146.955076349448
 22
-106.080935730759
 32
0
 13
146.955076349448
 23
-106.080935730759
 33
0
  0
TEXT
  8
1
 62
7
 10
145.305076349448
 20
-2.080935730759592
 30
0
 40
5
  1
230
 50
90
 41
0.9
  0
ENDBLK
  8
0
  0
BLOCK
  8
1
  2
*D17
 70
1
 10
0
 20
0
 30
0
  0
LINE
  8
1
 62
1
 10
102.289756612402
 20
118.9190642692398
 30
0
 11
102.289756612402
 21
128.9190642692398
 31
0
  0
LINE
  8
1
 62
1
 10
102.289756612402
 20
109.9190642692398
 30
0
 11
102.289756612402
 21
99.9190642692398
 31
0
  0
LINE
  8
1
 62
1
 10
102.289756612402
 20
109.9190642692398
 30
0
 11
102.289756612402
 21
118.9190642692398
 31
0
  0
LINE
  8
1
 62
1
 10
111.4519236496041
 20
118.9190642692398
 30
0
 11
100.289756612402
 21
118.9190642692398
 31
0
  0
LINE
  8
1
 62
1
 10
116.501923649604
 20
109.9190642692398
 30
0
 11
100.289756612402
 21
109.9190642692398
 31
0
  0
SOLID
  8
1
 62
1
 10
102.289756612402
 20
118.9190642692398
 30
0
 11
101.639756612402
 21
123.9190642692398
 31
0
 12
102.939756612402
 22
123.9190642692398
 32
0
 13
102.939756612402
 23
123.9190642692398
 33
0
  0
SOLID
  8
1
 62
1
 10
102.289756612402
 20
109.9190642692398
 30
0
 11
102.939756612402
 21
104.9190642692398
 31
0
 12
101.639756612402
 22
104.9190642692398
 32
0
 13
101.639756612402
 23
104.9190642692398
 33
0
  0
TEXT
  8
1
 62
7
 10
101.289756612402
 20
112.9190642692398
 30
0
 40
5
  1
9
 50
90
 41
0.9
  0
ENDBLK
  8
0
  0
BLOCK
  8
1
  2
*D18
 70
1
 10
0
 20
0
 30
0
  0
LINE
  8
1
 62
1
 10
103.79158486725
 20
-102.080935730759
 30
0
 11
103.79158486725
 21
-92.08093573075899
 31
0
  0
LINE
  8
1
 62
1
 10
103.79158486725
 20
-111.080935730759
 30
0
 11
103.79158486725
 21
-121.080935730759
 31
0
  0
LINE
  8
1
 62
1
 10
103.79158486725
 20
-111.080935730759
 30
0
 11
103.79158486725
 21
-102.080935730759
 31
0
  0
LINE
  8
1
 62
1
 10
116.501923649604
 20
-102.080935730759
 30
0
 11
101.79158486725
 21
-102.080935730759
 31
0
  0
LINE
  8
1
 62
1
 10
111.4519236496041
 20
-111.080935730759
 30
0
 11
101.79158486725
 21
-111.080935730759
 31
0
  0
SOLID
  8
1
 62
1
 10
103.79158486725
 20
-111.080935730759
 30
0
 11
104.44158486725
 21
-116.080935730759
 31
0
 12
103.14158486725
 22
-116.080935730759
 32
0
 13
103.14158486725
 23
-116.080935730759
 33
0
  0
SOLID
  8
1
 62
1
 10
103.79158486725
 20
-102.080935730759
 30
0
 11
103.14158486725
 21
-97.08093573075899
 31
0
 12
104.44158486725
 22
-97.08093573075899
 32
0
 13
104.44158486725
 23
-97.08093573075899
 33
0
  0
TEXT
  8
1
 62
7
 10
102.79158486725
 20
-108.080935730759
 30
0
 40
5
  1
9
 50
90
 41
0.9
  0
ENDBLK
  8
0
  0
BLOCK
  8
1
  2
*D19
 70
1
 10
0
 20
0
 30
0
  0
LINE
  8
1
 62
1
 10
56.45192364960411
 20
75.51068874614899
 30
0
 11
43.74449159036101
 21
75.51068874614899
 31
0
  0
LINE
  8
1
 62
1
 10
56.45192364960411
 20
75.51068874614899
 30
0
 11
60.05192364960399
 21
75.51068874614899
 31
0
  0
LINE
  8
1
 62
1
 10
60.05192364960399
 20
66.91906426923978
 30
0
 11
60.05192364960399
 21
77.51068874614899
 31
0
  0
LINE
  8
1
 62
1
 10
56.45192364960411
 20
109.9190642692401
 30
0
 11
56.45192364960411
 21
73.51068874614899
 31
0
  0
LINE
  8
1
 62
1
 10
61.81969060257036
 20
77.27845569911536
 30
0
 11
58.28415669663762
 21
73.74292179318262
 31
0
  0
SOLID
  8
1
 62
1
 10
56.45192364960411
 20
75.51068874614899
 30
0
 11
51.45192364960411
 21
74.86068874614898
 31
0
 12
51.45192364960411
 22
76.16068874614899
 32
0
 13
51.45192364960411
 23
76.16068874614899
 33
0
  0
TEXT
  8
1
 62
7
 10
43.74449159036101
 20
77.01068874614899
 30
0
 40
5
  1
3,6
 41
0.9
  0
ENDBLK
  8
0
  0
BLOCK
  8
1
  2
*D20
 70
1
 10
0
 20
0
 30
0
  0
LINE
  8
1
 62
1
 10
70.55192364960399
 20
75.51068874614899
 30
0
 11
80.55192364960399
 21
75.51068874614899
 31
0
  0
LINE
  8
1
 62
1
 10
60.05192364960399
 20
75.51068874614899
 30
0
 11
70.55192364960399
 21
75.51068874614899
 31
0
  0
LINE
  8
1
 62
1
 10
70.55192364960399
 20
64.41906426923978
 30
0
 11
70.55192364960399
 21
77.51068874614899
 31
0
  0
LINE
  8
1
 62
1
 10
60.05192364960399
 20
66.91906426923978
 30
0
 11
60.05192364960399
 21
77.51068874614899
 31
0
  0
LINE
  8
1
 62
1
 10
58.81448678252753
 20
74.27325187907253
 30
0
 11
61.28936051668045
 21
76.74812561322544
 31
0
  0
SOLID
  8
1
 62
1
 10
70.55192364960399
 20
75.51068874614899
 30
0
 11
75.55192364960399
 21
76.16068874614899
 31
0
 12
75.55192364960399
 22
74.86068874614898
 32
0
 13
75.55192364960399
 23
74.86068874614898
 33
0
  0
TEXT
  8
1
 62
7
 10
59.05379906958601
 20
77.01068874614899
 30
0
 40
5
  1
10,5
 41
0.9
  0
ENDBLK
  8
0
  0
BLOCK
  8
1
  2
*D21
 70
1
 10
0
 20
0
 30
0
  0
LINE
  8
1
 62
1
 10
111.4519236496041
 20
75.50899647719902
 30
0
 11
99.39390987291
 21
75.50899647719902
 31
0
  0
LINE
  8
1
 62
1
 10
111.4519236496041
 20
75.50899647719902
 30
0
 11
116.051923649604
 21
75.50899647719902
 31
0
  0
LINE
  8
1
 62
1
 10
116.051923649604
 20
75.50899647719902
 30
0
 11
116.051923649604
 21
75.50899647719902
 31
0
  0
LINE
  8
1
 62
1
 10
116.051923649604
 20
66.91906426923978
 30
0
 11
116.051923649604
 21
77.50899647719902
 31
0
  0
LINE
  8
1
 62
1
 10
111.4519236496041
 20
118.9190642692398
 30
0
 11
111.4519236496041
 21
73.50899647719902
 31
0
  0
SOLID
  8
1
 62
1
 10
111.4519236496041
 20
75.50899647719902
 30
0
 11
106.4519236496041
 21
74.85899647719901
 31
0
 12
106.4519236496041
 22
76.15899647719903
 32
0
 13
106.4519236496041
 23
76.15899647719903
 33
0
  0
TEXT
  8
1
 62
7
 10
99.39390987291
 20
77.00899647719902
 30
0
 40
5
  1
4,6
 41
0.9
  0
ENDBLK
  8
0
  0
BLOCK
  8
1
  2
*D22
 70
1
 10
0
 20
0
 30
0
  0
LINE
  8
1
 62
1
 10
126.551923649604
 20
75.50899647719902
 30
0
 11
136.551923649604
 21
75.50899647719902
 31
0
  0
LINE
  8
1
 62
1
 10
116.051923649604
 20
75.50899647719902
 30
0
 11
126.551923649604
 21
75.50899647719902
 31
0
  0
LINE
  8
1
 62
1
 10
126.551923649604
 20
64.41906426923978
 30
0
 11
126.551923649604
 21
77.50899647719902
 31
0
  0
LINE
  8
1
 62
1
 10
116.051923649604
 20
66.91906426923978
 30
0
 11
116.051923649604
 21
77.50899647719902
 31
0
  0
LINE
  8
1
 62
1
 10
114.2841566966376
 20
73.74122952423265
 30
0
 11
117.8196906025704
 21
77.27676343016539
 31
0
  0
SOLID
  8
1
 62
1
 10
126.551923649604
 20
75.50899647719902
 30
0
 11
131.551923649604
 21
76.15899647719903
 31
0
 12
131.551923649604
 22
74.85899647719901
 32
0
 13
131.551923649604
 23
74.85899647719901
 33
0
  0
TEXT
  8
1
 62
7
 10
114.711255629646
 20
77.00899647719902
 30
0
 40
5
  1
10,5
 41
0.9
  0
ENDBLK
  8
0
  0
BLOCK
  8
1
  2
*D23
 70
1
 10
0
 20
0
 30
0
  0
LINE
  8
1
 62
1
 10
56.45192364960411
 20
4.558928484250998
 30
0
 11
42.31875500008101
 21
4.558928484250998
 31
0
  0
LINE
  8
1
 62
1
 10
56.45192364960411
 20
4.558928484250998
 30
0
 11
60.25192364960401
 21
4.558928484250998
 31
0
  0
LINE
  8
1
 62
1
 10
60.25192364960401
 20
-7.080935730760192
 30
0
 11
60.25192364960401
 21
6.558928484250998
 31
0
  0
LINE
  8
1
 62
1
 10
56.45192364960411
 20
-102.080935730759
 30
0
 11
56.45192364960411
 21
6.558928484250998
 31
0
  0
LINE
  8
1
 62
1
 10
62.01969060257038
 20
6.326695437217367
 30
0
 11
58.48415669663764
 21
2.791161531284629
 31
0
  0
SOLID
  8
1
 62
1
 10
56.45192364960411
 20
4.558928484250998
 30
0
 11
51.45192364960411
 21
3.908928484250999
 31
0
 12
51.45192364960411
 22
5.208928484250999
 32
0
 13
51.45192364960411
 23
5.208928484250999
 33
0
  0
TEXT
  8
1
 62
7
 10
42.31875500008101
 20
6.058928484250998
 30
0
 40
5
  1
3,8
 41
0.9
  0
ENDBLK
  8
0
  0
BLOCK
  8
1
  2
*D24
 70
1
 10
0
 20
0
 30
0
  0
LINE
  8
1
 62
1
 10
68.25192364960401
 20
4.57231679953702
 30
0
 11
78.25192364960401
 21
4.57231679953702
 31
0
  0
LINE
  8
1
 62
1
 10
60.25192364960401
 20
4.57231679953702
 30
0
 11
68.25192364960401
 21
4.57231679953702
 31
0
  0
LINE
  8
1
 62
1
 10
68.25192364960401
 20
-7.08093573076019
 30
0
 11
68.25192364960401
 21
6.57231679953702
 31
0
  0
LINE
  8
1
 62
1
 10
60.25192364960401
 20
-7.08093573076019
 30
0
 11
60.25192364960401
 21
6.57231679953702
 31
0
  0
LINE
  8
1
 62
1
 10
58.48415669663764
 20
2.804549846570652
 30
0
 11
62.01969060257038
 21
6.340083752503389
 31
0
  0
SOLID
  8
1
 62
1
 10
68.25192364960401
 20
4.57231679953702
 30
0
 11
73.25192364960401
 21
5.222316799537021
 31
0
 12
73.25192364960401
 22
3.92231679953702
 32
0
 13
73.25192364960401
 23
3.92231679953702
 33
0
  0
TEXT
  8
1
 62
7
 10
62.73620526449901
 20
5.57231679953702
 30
0
 40
5
  1
8
 41
0.9
  0
ENDBLK
  8
0
  0
BLOCK
  8
1
  2
*D25
 70
1
 10
0
 20
0
 30
0
  0
LINE
  8
1
 62
1
 10
111.4519236496041
 20
4.558928484250998
 30
0
 11
98.88284465004401
 21
4.558928484250998
 31
0
  0
LINE
  8
1
 62
1
 10
111.4519236496041
 20
4.558928484250998
 30
0
 11
116.251923649604
 21
4.558928484250998
 31
0
  0
LINE
  8
1
 62
1
 10
116.251923649604
 20
-7.080935730760192
 30
0
 11
116.251923649604
 21
6.558928484250998
 31
0
  0
LINE
  8
1
 62
1
 10
111.4519236496041
 20
-111.080935730759
 30
0
 11
111.4519236496041
 21
6.558928484250998
 31
0
  0
SOLID
  8
1
 62
1
 10
111.4519236496041
 20
4.558928484250998
 30
0
 11
106.4519236496041
 21
3.908928484250999
 31
0
 12
106.4519236496041
 22
5.208928484250999
 32
0
 13
106.4519236496041
 23
5.208928484250999
 33
0
  0
LINE
  8
1
 62
1
 10
118.0196906025703
 20
6.326695437217367
 30
0
 11
114.4841566966376
 21
2.791161531284629
 31
0
  0
TEXT
  8
1
 62
7
 10
98.88284465004401
 20
6.058928484250998
 30
0
 40
5
  1
4,8
 41
0.9
  0
ENDBLK
  8
0
  0
BLOCK
  8
1
  2
*D26
 70
1
 10
0
 20
0
 30
0
  0
LINE
  8
1
 62
1
 10
124.251923649604
 20
4.57231679953702
 30
0
 11
134.251923649604
 21
4.57231679953702
 31
0
  0
LINE
  8
1
 62
1
 10
116.251923649604
 20
4.57231679953702
 30
0
 11
124.251923649604
 21
4.57231679953702
 31
0
  0
LINE
  8
1
 62
1
 10
124.251923649604
 20
-7.08093573076019
 30
0
 11
124.251923649604
 21
6.57231679953702
 31
0
  0
LINE
  8
1
 62
1
 10
116.251923649604
 20
-7.08093573076019
 30
0
 11
116.251923649604
 21
6.57231679953702
 31
0
  0
LINE
  8
1
 62
1
 10
114.4841566966376
 20
2.804549846570652
 30
0
 11
118.0196906025703
 21
6.340083752503389
 31
0
  0
SOLID
  8
1
 62
1
 10
124.251923649604
 20
4.57231679953702
 30
0
 11
129.251923649604
 21
5.222316799537021
 31
0
 12
129.251923649604
 22
3.92231679953702
 32
0
 13
129.251923649604
 23
3.92231679953702
 33
0
  0
TEXT
  8
1
 62
7
 10
118.49223649089
 20
5.57231679953702
 30
0
 40
5
  1
8
 41
0.9
  0
ENDBLK
  8
0
  0
BLOCK
  8
1
  2
*D27
 70
1
 10
0
 20
0
 30
0
  0
LINE
  8
1
 62
1
 10
-6.221153519086982
 20
-186.3480618645249
 30
0
 11
-6.221153519086982
 21
-176.3480618645249
 31
0
  0
LINE
  8
1
 62
1
 10
-6.221153519086982
 20
-200.3480618645249
 30
0
 11
-6.221153519086982
 21
-210.3480618645249
 31
0
  0
LINE
  8
1
 62
1
 10
-6.221153519086982
 20
-200.3480618645249
 30
0
 11
-6.221153519086982
 21
-186.3480618645249
 31
0
  0
LINE
  8
1
 62
1
 10
-21.54807635039589
 20
-186.3480618645249
 30
0
 11
-4.221153519086982
 21
-186.3480618645249
 31
0
  0
LINE
  8
1
 62
1
 10
-34.04807635039589
 20
-200.3480618645249
 30
0
 11
-4.221153519086982
 21
-200.3480618645249
 31
0
  0
SOLID
  8
1
 62
1
 10
-6.221153519086982
 20
-200.3480618645249
 30
0
 11
-5.571153519086984
 21
-205.3480618645249
 31
0
 12
-6.871153519086983
 22
-205.3480618645249
 32
0
 13
-6.871153519086983
 23
-205.3480618645249
 33
0
  0
SOLID
  8
1
 62
1
 10
-6.221153519086982
 20
-186.3480618645249
 30
0
 11
-6.871153519086984
 21
-181.3480618645249
 31
0
 12
-5.571153519086985
 22
-181.3480618645249
 32
0
 13
-5.571153519086985
 23
-181.3480618645249
 33
0
  0
TEXT
  8
1
 62
7
 10
-7.721153519086982
 20
-199.4730618645249
 30
0
 40
5
  1
13,5
 50
90
 41
0.9
  0
ENDBLK
  8
0
  0
BLOCK
  8
1
  2
*D28
 70
1
 10
0
 20
0
 30
0
  0
LINE
  8
1
 62
1
 10
-69.0480763503959
 20
-211.3570649426357
 30
0
 11
-34.04807635039589
 21
-211.3570649426357
 31
0
  0
LINE
  8
1
 62
1
 10
-34.04807635039589
 20
-200.348061864525
 30
0
 11
-34.04807635039589
 21
-213.3570649426357
 31
0
  0
LINE
  8
1
 62
1
 10
-69.0480763503959
 20
-200.348061864525
 30
0
 11
-69.0480763503959
 21
-213.3570649426357
 31
0
  0
SOLID
  8
1
 62
1
 10
-69.0480763503959
 20
-211.3570649426357
 30
0
 11
-64.0480763503959
 21
-210.7070649426357
 31
0
 12
-64.0480763503959
 22
-212.0070649426357
 32
0
 13
-64.0480763503959
 23
-212.0070649426357
 33
0
  0
SOLID
  8
1
 62
1
 10
-34.04807635039589
 20
-211.3570649426357
 30
0
 11
-39.04807635039589
 21
-212.0070649426357
 31
0
 12
-39.04807635039589
 22
-210.7070649426357
 32
0
 13
-39.04807635039589
 23
-210.7070649426357
 33
0
  0
TEXT
  8
1
 62
7
 10
-52.5480763503959
 20
-210.3570649426357
 30
0
 40
5
  1
35
 41
0.9
  0
TEXT
  8
1
 62
7
 10
-58.0480763503959
 20
-210.3570649426357
 30
0
 40
5
  1
Ö
 41
0.9
  0
ENDBLK
  8
0
  0
BLOCK
  8
1
  2
*D29
 70
1
 10
0
 20
0
 30
0
  0
LINE
  8
1
 62
1
 10
-111.5480763503959
 20
-92.27351782227599
 30
0
 11
-51.5480763503959
 21
-92.27351782227599
 31
0
  0
LINE
  8
1
 62
1
 10
-51.5480763503959
 20
-65.13093573076009
 30
0
 11
-51.5480763503959
 21
-93.27351782227599
 31
0
  0
LINE
  8
1
 62
1
 10
-111.5480763503959
 20
-111.080935730759
 30
0
 11
-111.5480763503959
 21
-91.27351782227599
 31
0
  0
SOLID
  8
1
 62
1
 10
-111.5480763503959
 20
-92.27351782227599
 30
0
 11
-106.5480763503959
 21
-91.62351782227599
 31
0
 12
-106.5480763503959
 22
-92.923517822276
 32
0
 13
-106.5480763503959
 23
-92.923517822276
 33
0
  0
SOLID
  8
1
 62
1
 10
-51.5480763503959
 20
-92.27351782227599
 30
0
 11
-56.5480763503959
 21
-92.923517822276
 31
0
 12
-56.5480763503959
 22
-91.62351782227599
 32
0
 13
-56.5480763503959
 23
-91.62351782227599
 33
0
  0
TEXT
  8
1
 62
7
 10
-91.54807635039592
 20
-91.27351782227599
 30
0
 40
5
  1
60/70
 41
0.9
  0
ENDBLK
  8
0
  0
BLOCK
  8
1
  2
*D30
 70
1
 10
0
 20
0
 30
0
  0
LINE
  8
1
 62
1
 10
-51.5480763503959
 20
-92.27351782227599
 30
0
 11
-21.54807635039589
 21
-92.27351782227599
 31
0
  0
LINE
  8
1
 62
1
 10
-21.54807635039589
 20
-54.80580946491219
 30
0
 11
-21.54807635039589
 21
-93.27351782227599
 31
0
  0
LINE
  8
1
 62
1
 10
-51.5480763503959
 20
-65.13093573076009
 30
0
 11
-51.5480763503959
 21
-93.27351782227599
 31
0
  0
SOLID
  8
1
 62
1
 10
-51.5480763503959
 20
-92.27351782227599
 30
0
 11
-46.5480763503959
 21
-91.62351782227599
 31
0
 12
-46.5480763503959
 22
-92.923517822276
 32
0
 13
-46.5480763503959
 23
-92.923517822276
 33
0
  0
SOLID
  8
1
 62
1
 10
-21.54807635039589
 20
-92.27351782227599
 30
0
 11
-26.54807635039589
 21
-92.923517822276
 31
0
 12
-26.54807635039589
 22
-91.62351782227599
 32
0
 13
-26.54807635039589
 23
-91.62351782227599
 33
0
  0
TEXT
  8
1
 62
7
 10
-40.29807635039589
 20
-91.27351782227599
 30
0
 40
5
  1
30
 41
0.9
  0
ENDBLK
  8
0
  0
BLOCK
  8
1
  2
*D31
 70
1
 10
0
 20
0
 30
0
  0
LINE
  8
1
 62
1
 10
-146.6819354191095
 20
-37.08093573075899
 30
0
 11
-146.6819354191095
 21
-7.080935730758991
 31
0
  0
LINE
  8
1
 62
1
 10
-130.476279580671
 20
-7.080935730758991
 30
0
 11
-147.6819354191095
 21
-7.080935730758991
 31
0
  0
LINE
  8
1
 62
1
 10
-130.476279580671
 20
-37.08093573075899
 30
0
 11
-147.6819354191095
 21
-37.08093573075899
 31
0
  0
SOLID
  8
1
 62
1
 10
-146.6819354191095
 20
-37.08093573075899
 30
0
 11
-147.3319354191095
 21
-32.08093573075899
 31
0
 12
-146.0319354191095
 22
-32.08093573075899
 32
0
 13
-146.0319354191095
 23
-32.08093573075899
 33
0
  0
SOLID
  8
1
 62
1
 10
-146.6819354191095
 20
-7.080935730758991
 30
0
 11
-146.0319354191095
 21
-12.08093573075899
 31
0
 12
-147.3319354191095
 22
-12.08093573075899
 32
0
 13
-147.3319354191095
 23
-12.08093573075899
 33
0
  0
TEXT
  8
1
 62
7
 10
-147.6819354191095
 20
-25.83093573075899
 30
0
 40
5
  1
30
 50
90
 41
0.9
  0
ENDBLK
  8
0
  0
BLOCK
  8
1
  2
*D32
 70
1
 10
0
 20
0
 30
0
  0
LINE
  8
1
 62
1
 10
-146.7393989900014
 20
36.91906426923981
 30
0
 11
-146.7393989900014
 21
66.91906426923978
 31
0
  0
LINE
  8
1
 62
1
 10
-119.548076350395
 20
66.91906426923978
 30
0
 11
-147.7393989900014
 21
66.91906426923978
 31
0
  0
LINE
  8
1
 62
1
 10
-119.548076350395
 20
36.91906426923981
 30
0
 11
-147.7393989900014
 21
36.91906426923981
 31
0
  0
SOLID
  8
1
 62
1
 10
-146.7393989900014
 20
36.91906426923981
 30
0
 11
-147.3893989900014
 21
41.91906426923981
 31
0
 12
-146.0893989900014
 22
41.91906426923981
 32
0
 13
-146.0893989900014
 23
41.91906426923981
 33
0
  0
SOLID
  8
1
 62
1
 10
-146.7393989900014
 20
66.91906426923978
 30
0
 11
-146.0893989900014
 21
61.91906426923978
 31
0
 12
-147.3893989900014
 22
61.91906426923978
 32
0
 13
-147.3893989900014
 23
61.91906426923978
 33
0
  0
TEXT
  8
1
 62
7
 10
-147.7393989900014
 20
48.16906426923978
 30
0
 40
5
  1
30
 50
90
 41
0.9
  0
ENDBLK
  8
0
  0
BLOCK
  8
1
  2
*D33
 70
1
 10
0
 20
0
 30
0
  0
LINE
  8
1
 62
1
 10
-146.7095094936664
 20
-7.08093573075899
 30
0
 11
-146.7095094936664
 21
36.91906426923981
 31
0
  0
LINE
  8
1
 62
1
 10
-119.548076350395
 20
36.91906426923981
 30
0
 11
-147.7095094936664
 21
36.91906426923981
 31
0
  0
LINE
  8
1
 62
1
 10
-130.476279580671
 20
-7.08093573075899
 30
0
 11
-147.7095094936664
 21
-7.08093573075899
 31
0
  0
SOLID
  8
1
 62
1
 10
-146.7095094936664
 20
-7.08093573075899
 30
0
 11
-147.3595094936664
 21
-2.08093573075899
 31
0
 12
-146.0595094936664
 22
-2.08093573075899
 32
0
 13
-146.0595094936664
 23
-2.08093573075899
 33
0
  0
SOLID
  8
1
 62
1
 10
-146.7095094936664
 20
36.91906426923981
 30
0
 11
-146.0595094936664
 21
31.91906426923981
 31
0
 12
-147.3595094936664
 22
31.91906426923981
 32
0
 13
-147.3595094936664
 23
31.91906426923981
 33
0
  0
TEXT
  8
1
 62
7
 10
-147.7095094936664
 20
11.16906426924041
 30
0
 40
5
  1
44
 50
90
 41
0.9
  0
ENDBLK
  8
0
  0
BLOCK
  8
1
  2
*D34
 70
1
 10
0
 20
0
 30
0
  0
LINE
  8
1
 62
1
 10
23.64461701305001
 20
-76.08093573076019
 30
0
 11
23.64461701305001
 21
83.91906426923978
 31
0
  0
LINE
  8
1
 62
1
 10
-64.5480763503959
 20
83.91906426923978
 30
0
 11
24.64461701305001
 21
83.91906426923978
 31
0
  0
LINE
  8
1
 62
1
 10
-64.5480763503959
 20
-76.08093573076019
 30
0
 11
24.64461701305001
 21
-76.08093573076019
 31
0
  0
SOLID
  8
1
 62
1
 10
23.64461701305001
 20
-76.08093573076019
 30
0
 11
22.99461701305001
 21
-71.08093573076019
 31
0
 12
24.29461701305001
 22
-71.08093573076019
 32
0
 13
24.29461701305001
 23
-71.08093573076019
 33
0
  0
SOLID
  8
1
 62
1
 10
23.64461701305001
 20
83.91906426923978
 30
0
 11
24.29461701305001
 21
78.91906426923978
 31
0
 12
22.99461701305001
 22
78.91906426923978
 32
0
 13
22.99461701305001
 23
78.91906426923978
 33
0
  0
TEXT
  8
1
 62
7
 10
22.64461701305001
 20
-1.330935730760217
 30
0
 40
5
  1
160
 50
90
 41
0.9
  0
ENDBLK
  8
0
  0
BLOCK
  8
1
  2
*D35
 70
1
 10
0
 20
0
 30
0
  0
LINE
  8
1
 62
1
 10
8.391319278319003
 20
-76.08093573076019
 30
0
 11
8.391319278319003
 21
-46.08093573076019
 31
0
  0
LINE
  8
1
 62
1
 10
-40.43557635039599
 20
-46.08093573076019
 30
0
 11
9.391319278319003
 21
-46.08093573076019
 31
0
  0
LINE
  8
1
 62
1
 10
-64.5480763503959
 20
-76.08093573076019
 30
0
 11
9.391319278319003
 21
-76.08093573076019
 31
0
  0
SOLID
  8
1
 62
1
 10
8.391319278319003
 20
-76.08093573076019
 30
0
 11
7.741319278319001
 21
-71.08093573076019
 31
0
 12
9.041319278319
 22
-71.08093573076019
 32
0
 13
9.041319278319
 23
-71.08093573076019
 33
0
  0
SOLID
  8
1
 62
1
 10
8.391319278319003
 20
-46.08093573076019
 30
0
 11
9.041319278319001
 21
-51.08093573076019
 31
0
 12
7.741319278319002
 22
-51.08093573076019
 32
0
 13
7.741319278319002
 23
-51.08093573076019
 33
0
  0
TEXT
  8
1
 62
7
 10
7.391319278319003
 20
-64.83093573076019
 30
0
 40
5
  1
30
 50
90
 41
0.9
  0
ENDBLK
  8
0
  0
BLOCK
  8
1
  2
*D36
 70
1
 10
0
 20
0
 30
0
  0
LINE
  8
1
 62
1
 10
8.390864557438231
 20
31.91906426923981
 30
0
 11
8.390864557438231
 21
83.91906426923978
 31
0
  0
LINE
  8
1
 62
1
 10
-64.5480763503959
 20
83.91906426923978
 30
0
 11
9.390864557438231
 21
83.91906426923978
 31
0
  0
LINE
  8
1
 62
1
 10
-41.64807635039611
 20
31.91906426923981
 30
0
 11
9.390864557438231
 21
31.91906426923981
 31
0
  0
SOLID
  8
1
 62
1
 10
8.390864557438231
 20
31.91906426923981
 30
0
 11
7.74086455743823
 21
36.91906426923981
 31
0
 12
9.040864557438228
 22
36.91906426923981
 32
0
 13
9.040864557438228
 23
36.91906426923981
 33
0
  0
SOLID
  8
1
 62
1
 10
8.390864557438231
 20
83.91906426923978
 30
0
 11
9.04086455743823
 21
78.91906426923978
 31
0
 12
7.740864557438231
 22
78.91906426923978
 32
0
 13
7.740864557438231
 23
78.91906426923978
 33
0
  0
TEXT
  8
1
 62
7
 10
7.39086455743823
 20
54.1690642692398
 30
0
 40
5
  1
52
 50
90
 41
0.9
  0
ENDBLK
  8
0
  0
BLOCK
  8
1
  2
*D37
 70
1
 10
0
 20
0
 30
0
  0
LINE
  8
1
 62
1
 10
8.402836749745941
 20
-46.08093573076019
 30
0
 11
8.402836749745941
 21
31.91906426923981
 31
0
  0
LINE
  8
1
 62
1
 10
-41.64807635039611
 20
31.91906426923981
 30
0
 11
9.402836749745941
 21
31.91906426923981
 31
0
  0
LINE
  8
1
 62
1
 10
-40.43557635039599
 20
-46.08093573076019
 30
0
 11
9.402836749745941
 21
-46.08093573076019
 31
0
  0
SOLID
  8
1
 62
1
 10
8.402836749745941
 20
-46.08093573076019
 30
0
 11
7.752836749745939
 21
-41.08093573076019
 31
0
 12
9.052836749745937
 22
-41.08093573076019
 32
0
 13
9.052836749745937
 23
-41.08093573076019
 33
0
  0
SOLID
  8
1
 62
1
 10
8.402836749745941
 20
31.91906426923981
 30
0
 11
9.052836749745939
 21
26.91906426923981
 31
0
 12
7.75283674974594
 22
26.91906426923981
 32
0
 13
7.75283674974594
 23
26.91906426923981
 33
0
  0
TEXT
  8
1
 62
7
 10
7.40283674974594
 20
-10.83093573076019
 30
0
 40
5
  1
78
 50
90
 41
0.9
  0
ENDBLK
  8
0
  0
BLOCK
  8
1
  2
*D38
 70
1
 10
0
 20
0
 30
0
  0
LINE
  8
1
 62
1
 10
-80.8912127745172
 20
-139.348061864525
 30
0
 11
-80.8912127745172
 21
-113.5027353680448
 31
0
  0
LINE
  8
1
 62
1
 10
-80.8912127745172
 20
-141.348061864525
 30
0
 11
-80.8912127745172
 21
-139.348061864525
 31
0
  0
LINE
  8
1
 62
1
 10
-80.8912127745172
 20
-151.348061864525
 30
0
 11
-80.8912127745172
 21
-141.348061864525
 31
0
  0
LINE
  8
1
 62
1
 10
-108.5480763503959
 20
-139.348061864525
 30
0
 11
-79.8912127745172
 21
-139.348061864525
 31
0
  0
LINE
  8
1
 62
1
 10
-21.54807635039589
 20
-141.348061864525
 30
0
 11
-81.8912127745172
 21
-141.348061864525
 31
0
  0
SOLID
  8
1
 62
1
 10
-80.8912127745172
 20
-139.348061864525
 30
0
 11
-81.54121277451721
 21
-134.348061864525
 31
0
 12
-80.24121277451721
 22
-134.348061864525
 32
0
 13
-80.24121277451721
 23
-134.348061864525
 33
0
  0
SOLID
  8
1
 62
1
 10
-80.8912127745172
 20
-141.348061864525
 30
0
 11
-80.24121277451719
 21
-146.348061864525
 31
0
 12
-81.54121277451721
 22
-146.348061864525
 32
0
 13
-81.54121277451721
 23
-146.348061864525
 33
0
  0
TEXT
  8
1
 62
7
 10
-82.3912127745172
 20
-135.5027353680448
 30
0
 40
5
  1
1,5/2,5
 50
90
 41
0.9
  0
ENDBLK
  8
0
  0
BLOCK
  8
1
  2
*D39
 70
1
 10
0
 20
0
 30
0
  0
LINE
  8
1
 62
1
 10
-6.61904921835699
 20
-141.3480618645249
 30
0
 11
-6.61904921835699
 21
-131.3480618645249
 31
0
  0
LINE
  8
1
 62
1
 10
-6.61904921835699
 20
-154.3480618645249
 30
0
 11
-6.61904921835699
 21
-164.3480618645249
 31
0
  0
LINE
  8
1
 62
1
 10
-6.61904921835699
 20
-154.3480618645249
 30
0
 11
-6.61904921835699
 21
-141.3480618645249
 31
0
  0
LINE
  8
1
 62
1
 10
-21.54807635039589
 20
-141.3480618645249
 30
0
 11
-5.61904921835699
 21
-141.3480618645249
 31
0
  0
LINE
  8
1
 62
1
 10
-21.54807635039589
 20
-154.3480618645249
 30
0
 11
-5.61904921835699
 21
-154.3480618645249
 31
0
  0
SOLID
  8
1
 62
1
 10
-6.61904921835699
 20
-141.3480618645249
 30
0
 11
-7.269049218356991
 21
-136.3480618645249
 31
0
 12
-5.969049218356992
 22
-136.3480618645249
 32
0
 13
-5.969049218356992
 23
-136.3480618645249
 33
0
  0
SOLID
  8
1
 62
1
 10
-6.61904921835699
 20
-154.3480618645249
 30
0
 11
-5.969049218356991
 21
-159.3480618645249
 31
0
 12
-7.26904921835699
 22
-159.3480618645249
 32
0
 13
-7.26904921835699
 23
-159.3480618645249
 33
0
  0
TEXT
  8
1
 62
7
 10
-7.61904921835699
 20
-150.8480618645249
 30
0
 40
5
  1
13
 50
90
 41
0.9
  0
ENDBLK
  8
0
  0
BLOCK
  8
1
  2
*D40
 70
1
 10
0
 20
0
 30
0
  0
LINE
  8
1
 62
1
 10
-80.8912127745172
 20
-184.3480618645249
 30
0
 11
-80.8912127745172
 21
-160.0879365154624
 31
0
  0
LINE
  8
1
 62
1
 10
-80.8912127745172
 20
-186.3480618645249
 30
0
 11
-80.8912127745172
 21
-184.3480618645249
 31
0
  0
LINE
  8
1
 62
1
 10
-80.8912127745172
 20
-196.3480618645249
 30
0
 11
-80.8912127745172
 21
-186.3480618645249
 31
0
  0
LINE
  8
1
 62
1
 10
-108.5480763503959
 20
-184.3480618645249
 30
0
 11
-79.8912127745172
 21
-184.3480618645249
 31
0
  0
LINE
  8
1
 62
1
 10
-21.54807635039589
 20
-186.3480618645249
 30
0
 11
-81.8912127745172
 21
-186.3480618645249
 31
0
  0
SOLID
  8
1
 62
1
 10
-80.8912127745172
 20
-184.3480618645249
 30
0
 11
-81.54121277451721
 21
-179.3480618645249
 31
0
 12
-80.24121277451721
 22
-179.3480618645249
 32
0
 13
-80.24121277451721
 23
-179.3480618645249
 33
0
  0
SOLID
  8
1
 62
1
 10
-80.8912127745172
 20
-186.3480618645249
 30
0
 11
-80.24121277451719
 21
-191.3480618645249
 31
0
 12
-81.54121277451721
 22
-191.3480618645249
 32
0
 13
-81.54121277451721
 23
-191.3480618645249
 33
0
  0
TEXT
  8
1
 62
7
 10
-82.3912127745172
 20
-182.0879365154624
 30
0
 40
5
  1
1,5/2,5
 50
90
 41
0.9
  0
ENDBLK
  8
0
  0
BLOCK
  8
1
  2
*D41
 70
1
 10
0
 20
0
 30
0
  0
LINE
  8
1
 62
1
 10
-131.5480763503959
 20
-51.84208849311
 30
0
 11
-111.5480763503959
 21
-51.84208849311
 31
0
  0
LINE
  8
1
 62
1
 10
-111.5480763503959
 20
-37.08093573075899
 30
0
 11
-111.5480763503959
 21
-52.84208849311
 31
0
  0
LINE
  8
1
 62
1
 10
-131.5480763503959
 20
-37.08093573075899
 30
0
 11
-131.5480763503959
 21
-52.84208849311
 31
0
  0
SOLID
  8
1
 62
1
 10
-111.5480763503959
 20
-51.84208849311
 30
0
 11
-116.5480763503959
 21
-52.49208849311
 31
0
 12
-116.5480763503959
 22
-51.19208849311
 32
0
 13
-116.5480763503959
 23
-51.19208849311
 33
0
  0
SOLID
  8
1
 62
1
 10
-131.5480763503959
 20
-51.84208849311
 30
0
 11
-126.5480763503959
 21
-51.19208849311
 31
0
 12
-126.5480763503959
 22
-52.49208849311
 32
0
 13
-126.5480763503959
 23
-52.49208849311
 33
0
  0
TEXT
  8
1
 62
7
 10
-125.2980763503959
 20
-50.84208849311
 30
0
 40
5
  1
20
 41
0.9
  0
ENDBLK
  8
0
  0
BLOCK
  8
1
  2
*D42
 70
1
 10
0
 20
0
 30
0
  0
LINE
  8
1
 62
1
 10
-47.15696204704053
 20
20.23133287414808
 30
0
 11
-57.45053923854416
 21
-2.770424158505705
 31
0
  0
SOLID
  8
1
 62
1
 10
-52.87562253513124
 20
7.452564458453594
 30
0
 11
-54.32470131872067
 21
2.623209358758504
 31
0
 12
-55.51130124303516
 22
3.15422783265264
 32
0
 13
-55.51130124303516
 23
3.15422783265264
 33
0
  0
SOLID
  8
1
 62
1
 10
-50.22053016566056
 20
13.38556408002603
 30
0
 11
-48.77145138207113
 21
18.21491917972112
 31
0
 12
-47.58485145775663
 22
17.68390070582699
 32
0
 13
-47.58485145775663
 23
17.68390070582699
 33
0
  0
TEXT
  8
1
 62
7
 10
-58.81969299736856
 20
-2.157710534781716
 30
0
 40
5
  1
6,5
 50
65.89088034846385
 41
0.9
  0
ENDBLK
  8
0
  0
BLOCK
  8
1
  2
*D43
 70
1
 10
0
 20
0
 30
0
  0
LINE
  8
1
 62
1
 10
-61.44807635039601
 20
31.91906426923981
 30
0
 11
-74.6730763503959
 21
31.91906426923981
 31
0
  0
LINE
  8
1
 62
1
 10
-70.5480763503959
 20
36.04406426923981
 30
0
 11
-70.5480763503959
 21
27.79406426923981
 31
0
  0
LINE
  8
1
 62
1
 10
-62.26960082330228
 20
39.53676359038082
 30
0
 11
-83.4544168951637
 21
20.04288956961983
 31
0
  0
SOLID
  8
1
 62
1
 10
-73.30756819276044
 20
29.3798311621928
 30
0
 11
-76.54675691069167
 21
25.51587510012027
 31
0
 12
-77.4270243878013
 22
26.47249893880664
 32
0
 13
-77.4270243878013
 23
26.47249893880664
 33
0
  0
SOLID
  8
1
 62
1
 10
-67.78858450803136
 20
34.45829737628682
 30
0
 11
-64.54939579010014
 21
38.32225343835935
 31
0
 12
-63.6691283129905
 22
37.36562959967298
 32
0
 13
-63.6691283129905
 23
37.36562959967298
 33
0
  0
TEXT
  8
1
 62
7
 10
-84.4701101379825
 20
21.14668630656566
 30
0
 40
5
  1
7,5
 50
42.61968495067279
 41
0.9
  0
ENDBLK
  8
0
  0
BLOCK
  8
1
  2
*D44
 70
1
 10
0
 20
0
 30
0
  0
LINE
  8
1
 62
1
 10
-66.4230763503959
 20
-54.08093573076019
 30
0
 11
-74.6730763503959
 21
-54.08093573076019
 31
0
  0
LINE
  8
1
 62
1
 10
-70.5480763503959
 20
-49.95593573076019
 30
0
 11
-70.5480763503959
 21
-58.20593573076019
 31
0
  0
LINE
  8
1
 62
1
 10
-61.10327769191669
 20
-47.96879385570449
 30
0
 11
-87.71308227862221
 21
-65.1891610421915
 31
0
  0
SOLID
  8
1
 62
1
 10
-73.69634256988948
 20
-56.11831635577909
 30
0
 11
-77.54088488754338
 21
-59.38052333384905
 31
0
 12
-78.24717683754976
 22
-58.28912437775821
 32
0
 13
-78.24717683754976
 23
-58.28912437775821
 33
0
  0
SOLID
  8
1
 62
1
 10
-67.39981013090232
 20
-52.04355510574129
 30
0
 11
-63.55526781324842
 21
-48.78134812767133
 31
0
 12
-62.84897586324204
 22
-49.87274708376217
 32
0
 13
-62.84897586324204
 23
-49.87274708376217
 33
0
  0
TEXT
  8
1
 62
7
 10
-88.52803452862956
 20
-63.92985455439439
 30
0
 40
5
  1
7,5
 50
32.9086703382867
 41
0.9
  0
ENDBLK
  8
0
  0
ENDSEC
  0
SECTION
  2
ENTITIES
  0
LINE
  8
1
 62
7
 10
131.4519236496041
 20
-111.080935730759
 30
0
 11
111.4519236496041
 21
-111.080935730759
 31
0
  0
LINE
  8
1
 62
7
 10
131.4519236496041
 20
118.9190642692398
 30
0
 11
111.4519236496041
 21
118.9190642692398
 31
0
  0
LINE
  8
1
 62
7
 10
116.051923649604
 20
66.91906426923978
 30
0
 11
116.051923649604
 21
36.91906426923981
 31
0
  0
LINE
  8
1
 62
7
 10
116.051923649604
 20
36.91906426923981
 30
0
 11
118.551923649604
 21
36.91906426923981
 31
0
  0
LINE
  8
1
 62
7
 10
118.551923649604
 20
36.91906426923981
 30
0
 11
118.551923649604
 21
39.41906426923981
 31
0
  0
LINE
  8
1
 62
7
 10
116.051923649604
 20
39.41906426923981
 30
0
 11
126.551923649604
 21
39.41906426923981
 31
0
  0
LINE
  8
1
 62
7
 10
126.551923649604
 20
39.41906426923981
 30
0
 11
126.551923649604
 21
64.41906426923978
 31
0
  0
LINE
  8
1
 62
7
 10
116.051923649604
 20
66.91906426923978
 30
0
 11
118.551923649604
 21
66.91906426923978
 31
0
  0
LINE
  8
1
 62
7
 10
118.551923649604
 20
66.91906426923978
 30
0
 11
118.551923649604
 21
64.41906426923978
 31
0
  0
LINE
  8
1
 62
7
 10
116.051923649604
 20
64.41906426923978
 30
0
 11
126.551923649604
 21
64.41906426923978
 31
0
  0
LINE
  8
1
 62
7
 10
124.251923649604
 20
-7.080935730760189
 30
0
 11
116.251923649604
 21
-7.080935730760189
 31
0
  0
LINE
  8
1
 62
7
 10
124.251923649604
 20
-37.08093573076019
 30
0
 11
124.251923649604
 21
-7.080935730760189
 31
0
  0
LINE
  8
1
 62
7
 10
116.251923649604
 20
-37.08093573076019
 30
0
 11
116.251923649604
 21
-7.080935730760189
 31
0
  0
LINE
  8
1
 62
7
 10
116.251923649604
 20
-37.08093573076019
 30
0
 11
124.251923649604
 21
-37.08093573076019
 31
0
  0
LINE
  8
1
 62
7
 10
111.4519236496041
 20
118.9190642692398
 30
0
 11
111.4519236496041
 21
-111.080935730759
 31
0
  0
LINE
  8
1
 62
7
 10
131.4519236496041
 20
-111.080935730759
 30
0
 11
131.4519236496041
 21
118.9190642692398
 31
0
  0
LINE
  8
1
 62
2
  6
CENTER
 10
-48.29807635039589
 20
10.41906426923981
 30
0
 11
-46.44807635039601
 21
10.41906426923981
 31
0
  0
LINE
  8
1
 62
7
 10
-98.54807635039592
 20
38.91906426923981
 30
0
 11
-108.5480763503959
 21
38.91906426923981
 31
0
  0
LINE
  8
1
 62
7
 10
-97.54807635039592
 20
63.91906426923978
 30
0
 11
-97.54807635039592
 21
39.91906426923981
 31
0
  0
LINE
  8
1
 62
7
 10
-108.5480763503959
 20
64.91906426923978
 30
0
 11
-98.54807635039592
 21
64.91906426923978
 31
0
  0
LINE
  8
1
 62
7
 10
-111.5480763503959
 20
-111.080935730759
 30
0
 11
-108.5480763503959
 21
-111.080935730759
 31
0
  0
LINE
  8
1
 62
7
 10
-111.5480763503959
 20
118.9190642692399
 30
0
 11
-108.5480763503959
 21
118.9190642692399
 31
0
  0
LINE
  8
1
 62
7
 10
60.05192364960399
 20
66.91906426923978
 30
0
 11
60.05192364960399
 21
36.91906426923981
 31
0
  0
LINE
  8
1
 62
7
 10
60.05192364960399
 20
36.91906426923981
 30
0
 11
62.55192364960399
 21
36.91906426923981
 31
0
  0
LINE
  8
1
 62
7
 10
62.55192364960399
 20
36.91906426923981
 30
0
 11
62.55192364960399
 21
39.41906426923981
 31
0
  0
LINE
  8
1
 62
7
 10
60.05192364960399
 20
39.41906426923981
 30
0
 11
70.55192364960399
 21
39.41906426923981
 31
0
  0
LINE
  8
1
 62
7
 10
70.55192364960399
 20
39.41906426923981
 30
0
 11
70.55192364960399
 21
64.41906426923978
 31
0
  0
LINE
  8
1
 62
7
 10
60.05192364960399
 20
66.91906426923978
 30
0
 11
62.55192364960399
 21
66.91906426923978
 31
0
  0
LINE
  8
1
 62
7
 10
62.55192364960399
 20
66.91906426923978
 30
0
 11
62.55192364960399
 21
64.41906426923978
 31
0
  0
LINE
  8
1
 62
7
 10
60.05192364960399
 20
64.41906426923978
 30
0
 11
70.55192364960399
 21
64.41906426923978
 31
0
  0
LINE
  8
1
 62
7
 10
68.25192364960401
 20
-7.080935730760189
 30
0
 11
60.25192364960401
 21
-7.080935730760189
 31
0
  0
LINE
  8
1
 62
7
 10
68.25192364960401
 20
-37.08093573076019
 30
0
 11
68.25192364960401
 21
-7.080935730760189
 31
0
  0
LINE
  8
1
 62
7
 10
60.25192364960401
 20
-37.08093573076019
 30
0
 11
60.25192364960401
 21
-7.080935730760189
 31
0
  0
LINE
  8
1
 62
7
 10
60.25192364960401
 20
-37.08093573076019
 30
0
 11
68.25192364960401
 21
-37.08093573076019
 31
0
  0
LINE
  8
1
 62
7
 10
56.45192364960411
 20
109.9190642692401
 30
0
 11
56.45192364960411
 21
-102.080935730759
 31
0
  0
LINE
  8
1
 62
7
 10
-84.54807635039592
 20
-76.08093573076019
 30
0
 11
-64.5480763503959
 21
-76.08093573076019
 31
0
  0
LINE
  8
1
 62
7
 10
-79.54807635039592
 20
83.91906426923978
 30
0
 11
-64.5480763503959
 21
83.91906426923978
 31
0
  0
LINE
  8
1
 62
7
 10
-65.54807635039501
 20
-60.08093573076019
 30
0
 11
-69.5480763503959
 21
-60.08093573076019
 31
0
  0
LINE
  8
1
 62
7
 10
-65.5480763503959
 20
-69.08093573076019
 30
0
 11
-69.5480763503959
 21
-69.08093573075899
 31
0
  0
LINE
  8
1
 62
2
 10
-75.5480763503959
 20
-61.08093573076019
 30
0
 11
-75.5480763503959
 21
-68.08093573076019
 31
0
  0
LINE
  8
1
 62
2
 10
-65.5480763503959
 20
-61.08093573076019
 30
0
 11
-65.5480763503959
 21
-68.08093573076019
 31
0
  0
LINE
  8
1
 62
2
 10
-72.5480763503959
 20
-63.08093573076019
 30
0
 11
-68.5480763503959
 21
-63.08093573076019
 31
0
  0
LINE
  8
1
 62
2
 10
-72.5480763503959
 20
-66.08093573076019
 30
0
 11
-68.54807635039501
 21
-66.08093573076019
 31
0
  0
LINE
  8
1
 62
2
 10
-71.5480763503959
 20
-60.08093573075899
 30
0
 11
-72.5480763503959
 21
-63.08093573076019
 31
0
  0
LINE
  8
1
 62
2
 10
-69.5480763503959
 20
-60.08093573076019
 30
0
 11
-68.5480763503959
 21
-63.08093573076019
 31
0
  0
LINE
  8
1
 62
2
 10
-68.54807635039501
 20
-66.08093573076019
 30
0
 11
-69.5480763503959
 21
-69.08093573075899
 31
0
  0
LINE
  8
1
 62
2
 10
-72.5480763503959
 20
-66.08093573076019
 30
0
 11
-71.5480763503959
 21
-69.08093573075899
 31
0
  0
LINE
  8
1
 62
2
 10
-72.5480763503959
 20
-63.08093573076019
 30
0
 11
-72.5480763503959
 21
-66.08093573076019
 31
0
  0
LINE
  8
1
 62
2
 10
-68.5480763503959
 20
-63.08093573076019
 30
0
 11
-68.54807635039501
 21
-66.08093573076019
 31
0
  0
LINE
  8
1
 62
7
 10
-108.5480763503959
 20
83.91906426923978
 30
0
 11
-106.5480763503959
 21
83.91906426923978
 31
0
  0
LINE
  8
1
 62
7
 10
-41.07320261624389
 20
82.16906426924103
 30
0
 11
-23.29807635039589
 21
64.39393800339289
 31
0
  0
LINE
  8
1
 62
7
 10
-21.54807635039589
 20
23.91906426923981
 30
0
 11
-21.54807635039589
 21
11.41906426923981
 31
0
  0
LINE
  8
1
 62
7
 10
-23.29807635039589
 20
-56.5558094649121
 30
0
 11
-41.07320261624301
 21
-74.33093573076019
 31
0
  0
LINE
  8
1
 62
7
 10
-108.5480763503959
 20
83.91906426923978
 30
0
 11
-108.5480763503959
 21
77.91906426924103
 31
0
  0
LINE
  8
1
 62
7
 10
-108.5480763503959
 20
38.91906426923981
 30
0
 11
-108.5480763503959
 21
35.91906426923981
 31
0
  0
LINE
  8
1
 62
7
 10
-64.1480763503949
 20
-62.58324955413499
 30
0
 11
-64.1480763503961
 21
-57.17862190738498
 31
0
  0
LINE
  8
1
 62
7
 10
-58.9480763503951
 20
-62.58324955413408
 30
0
 11
-58.94807635039601
 21
-59.12854087500008
 31
0
  0
LINE
  8
1
 62
7
 10
-44.14807635039489
 20
-62.58324955413499
 30
0
 11
-44.14807635039611
 21
-59.128540874999
 31
0
  0
LINE
  8
1
 62
7
 10
-38.9480763503951
 20
-62.58324955413408
 30
0
 11
-38.94807635039601
 21
-57.17862190738498
 31
0
  0
LINE
  8
1
 62
7
 10
-43.54807635039589
 20
70.91906426923978
 30
0
 11
-35.54807635039589
 21
70.91906426923978
 31
0
  0
LINE
  8
1
 62
7
 10
-43.54807635039589
 20
60.91906426923978
 30
0
 11
-35.54807635039589
 21
60.91906426923978
 31
0
  0
LINE
  8
1
 62
2
 10
-43.54807635039589
 20
70.41906426923978
 30
0
 11
-43.54807635039589
 21
61.41906426923978
 31
0
  0
LINE
  8
1
 62
2
 10
-39.54807635039589
 20
70.41906426923978
 30
0
 11
-39.54807635039589
 21
61.41906426923978
 31
0
  0
LINE
  8
1
 62
2
 10
-35.54807635039589
 20
70.41906426923978
 30
0
 11
-35.54807635039589
 21
61.41906426923978
 31
0
  0
LINE
  8
1
 62
7
 10
-44.14807635039611
 20
-59.128540874999
 30
0
 11
-44.14807635039611
 21
-57.17862190738498
 31
0
  0
LINE
  8
1
 62
7
 10
-58.94807635039601
 20
-59.12854087500008
 30
0
 11
-58.94807635039601
 21
-57.17862190738498
 31
0
  0
LINE
  8
1
 62
2
  6
PHANTOM
 10
-56.5480763503959
 20
-15.58093573075899
 30
0
 11
-56.5480763503959
 21
-17.08093573075899
 31
0
  0
LINE
  8
1
 62
7
 10
-56.0480763503959
 20
-17.88093573075898
 30
0
 11
-56.0480763503959
 21
-19.58093573075899
 31
0
  0
LINE
  8
1
 62
7
 10
-56.0480763503959
 20
-19.58093573075899
 30
0
 11
-54.3480763503961
 21
-19.58093573075899
 31
0
  0
LINE
  8
1
 62
7
 10
-54.3480763503961
 20
-19.58093573075899
 30
0
 11
-54.3480763503961
 21
-20.08093573075899
 31
0
  0
LINE
  8
1
 62
7
 10
-54.3480763503961
 20
-20.58093573075899
 30
0
 11
-56.0480763503959
 21
-20.58093573075899
 31
0
  0
LINE
  8
1
 62
7
 10
-56.0480763503959
 20
-20.58093573075899
 30
0
 11
-56.0480763503959
 21
-22.28093573075998
 31
0
  0
LINE
  8
1
 62
7
 10
-56.0480763503959
 20
-22.28093573075998
 30
0
 11
-56.5480763503959
 21
-22.28093573075998
 31
0
  0
LINE
  8
1
 62
7
 10
-57.0480763503959
 20
-22.28093573075998
 30
0
 11
-57.0480763503959
 21
-20.58093573075899
 31
0
  0
LINE
  8
1
 62
7
 10
-57.0480763503959
 20
-20.58093573075899
 30
0
 11
-58.748076350396
 21
-20.58093573075899
 31
0
  0
LINE
  8
1
 62
7
 10
-58.748076350396
 20
-20.58093573075899
 30
0
 11
-58.748076350396
 21
-20.08093573075899
 31
0
  0
LINE
  8
1
 62
7
 10
-58.748076350396
 20
-19.58093573075899
 30
0
 11
-57.0480763503959
 21
-19.58093573075899
 31
0
  0
LINE
  8
1
 62
7
 10
-57.0480763503959
 20
-19.58093573075899
 30
0
 11
-57.0480763503959
 21
-17.88093573075898
 31
0
  0
LINE
  8
1
 62
7
 10
-57.0480763503959
 20
-17.88093573075898
 30
0
 11
-56.5480763503959
 21
-17.88093573075898
 31
0
  0
LINE
  8
1
 62
2
  6
PHANTOM
 10
-98.04807635039604
 20
-49.58093573076019
 30
0
 11
-96.54807635039604
 21
-49.58093573076019
 31
0
  0
LINE
  8
1
 62
2
  6
PHANTOM
 10
-93.54807635039604
 20
-45.08093573076019
 30
0
 11
-93.54807635039604
 21
-46.58093573076019
 31
0
  0
LINE
  8
1
 62
7
 10
-93.04807635039604
 20
-47.38093573076009
 30
0
 11
-93.04807635039604
 21
-49.08093573076019
 31
0
  0
LINE
  8
1
 62
7
 10
-93.04807635039604
 20
-49.08093573076019
 30
0
 11
-91.34807635039623
 21
-49.08093573076019
 31
0
  0
LINE
  8
1
 62
7
 10
-91.34807635039623
 20
-49.08093573076019
 30
0
 11
-91.34807635039623
 21
-49.58093573076019
 31
0
  0
LINE
  8
1
 62
7
 10
-91.34807635039623
 20
-50.08093573076019
 30
0
 11
-93.04807635039604
 21
-50.08093573076019
 31
0
  0
LINE
  8
1
 62
7
 10
-93.04807635039604
 20
-50.08093573076019
 30
0
 11
-93.04807635039604
 21
-51.78093573075998
 31
0
  0
LINE
  8
1
 62
7
 10
-93.04807635039604
 20
-51.78093573075998
 30
0
 11
-93.54807635039604
 21
-51.78093573075998
 31
0
  0
LINE
  8
1
 62
7
 10
-94.04807635039604
 20
-51.78093573075998
 30
0
 11
-94.04807635039604
 21
-50.08093573076019
 31
0
  0
LINE
  8
1
 62
7
 10
-94.04807635039604
 20
-50.08093573076019
 30
0
 11
-95.74807635039609
 21
-50.08093573076019
 31
0
  0
LINE
  8
1
 62
7
 10
-95.74807635039609
 20
-50.08093573076019
 30
0
 11
-95.74807635039609
 21
-49.58093573076019
 31
0
  0
LINE
  8
1
 62
7
 10
-95.74807635039609
 20
-49.08093573076019
 30
0
 11
-94.04807635039604
 21
-49.08093573076019
 31
0
  0
LINE
  8
1
 62
7
 10
-94.04807635039604
 20
-49.08093573076019
 30
0
 11
-94.04807635039604
 21
-47.38093573076009
 31
0
  0
LINE
  8
1
 62
7
 10
-94.04807635039604
 20
-47.38093573076009
 30
0
 11
-93.54807635039604
 21
-47.38093573076009
 31
0
  0
LINE
  8
1
 62
2
  6
PHANTOM
 10
-56.04807635039501
 20
51.91906426923978
 30
0
 11
-54.54807635039501
 21
51.91906426923978
 31
0
  0
LINE
  8
1
 62
2
  6
PHANTOM
 10
-51.54807635039501
 20
56.41906426923978
 30
0
 11
-51.54807635039501
 21
54.91906426923978
 31
0
  0
LINE
  8
1
 62
7
 10
-51.04807635039501
 20
54.11906426923989
 30
0
 11
-51.04807635039501
 21
52.41906426923978
 31
0
  0
LINE
  8
1
 62
7
 10
-51.04807635039501
 20
52.41906426923978
 30
0
 11
-49.348076350395
 21
52.41906426923978
 31
0
  0
LINE
  8
1
 62
7
 10
-49.348076350395
 20
52.41906426923978
 30
0
 11
-49.348076350395
 21
51.91906426923978
 31
0
  0
LINE
  8
1
 62
7
 10
-49.348076350395
 20
51.41906426923981
 30
0
 11
-51.04807635039501
 21
51.41906426923981
 31
0
  0
LINE
  8
1
 62
7
 10
-51.04807635039501
 20
51.41906426923981
 30
0
 11
-51.04807635039501
 21
49.71906426924002
 31
0
  0
LINE
  8
1
 62
7
 10
-51.04807635039501
 20
49.71906426924002
 30
0
 11
-51.54807635039501
 21
49.71906426924002
 31
0
  0
LINE
  8
1
 62
7
 10
-52.04807635039501
 20
49.71906426924002
 30
0
 11
-52.04807635039501
 21
51.41906426923981
 31
0
  0
LINE
  8
1
 62
7
 10
-52.04807635039501
 20
51.41906426923981
 30
0
 11
-53.7480763503951
 21
51.41906426923981
 31
0
  0
LINE
  8
1
 62
7
 10
-53.7480763503951
 20
51.41906426923981
 30
0
 11
-53.7480763503951
 21
51.91906426923978
 31
0
  0
LINE
  8
1
 62
7
 10
-53.7480763503951
 20
52.41906426923978
 30
0
 11
-52.04807635039501
 21
52.41906426923978
 31
0
  0
LINE
  8
1
 62
7
 10
-52.04807635039501
 20
52.41906426923978
 30
0
 11
-52.04807635039501
 21
54.11906426923989
 31
0
  0
LINE
  8
1
 62
7
 10
-52.04807635039501
 20
54.11906426923989
 30
0
 11
-51.54807635039501
 21
54.11906426923989
 31
0
  0
LINE
  8
1
 62
2
  6
DASHDOT
 10
-51.5480763503959
 20
-71.82164298330898
 30
0
 11
-51.5480763503959
 21
-70.2434357307601
 31
0
  0
LINE
  8
1
 62
7
 10
-46.43557635039599
 20
-65.13093573076009
 30
0
 11
-46.43557635039599
 21
-55.94754609095898
 31
0
  0
LINE
  8
1
 62
2
  6
DASHDOT
 10
-57.54029248675791
 20
-65.13093573076009
 30
0
 11
-56.6605763503961
 21
-65.13093573076009
 31
0
  0
LINE
  8
1
 62
7
 10
-56.6605763503961
 20
-65.13093573076009
 30
0
 11
-56.6605763503961
 21
-55.94754609095898
 31
0
  0
LINE
  8
1
 62
2
  6
PHANTOM
 10
-63.62967969560201
 20
-46.08093573076019
 30
0
 11
-62.6605763503961
 21
-46.08093573076019
 31
0
  0
LINE
  8
0
 62
7
 10
-108.548076350395
 20
-38.08093573076019
 30
0
 11
-108.5480763503959
 21
-47.83093573076019
 31
0
  0
LINE
  8
0
 62
7
 10
-108.5480763503959
 20
-53.08093573076019
 30
0
 11
-108.5480763503959
 21
-74.33093573076019
 31
0
  0
LINE
  8
0
 62
7
 10
-108.5480763503959
 20
-76.08093573076019
 30
0
 11
-106.5480763503959
 21
-76.08093573075899
 31
0
  0
LINE
  8
0
 62
7
 10
-21.54807635039589
 20
-54.80580946491219
 30
0
 11
-21.54807635039589
 21
-16.08093573076019
 31
0
  0
LINE
  8
0
 62
7
 10
-21.54807635039589
 20
-8.580935730760189
 30
0
 11
-21.54807635039589
 21
11.41906426923981
 31
0
  0
LINE
  8
0
 62
7
 10
-108.5480763503959
 20
35.91906426923981
 30
0
 11
-108.5480763503959
 21
-6.080935730758995
 31
0
  0
LINE
  8
0
 62
7
 10
-21.54807635039589
 20
11.41906426923981
 30
0
 11
-21.54807635039589
 21
23.91906426923981
 31
0
  0
LINE
  8
0
 62
7
 10
-42.8232026162427
 20
83.91906426923978
 30
0
 11
-64.5480763503959
 21
83.91906426923978
 31
0
  0
LINE
  8
0
 62
7
 10
-85.54807635039592
 20
83.91906426923978
 30
0
 11
-103.5480763503959
 21
83.91906426923978
 31
0
  0
LINE
  8
1
 62
7
 10
-108.5480763503959
 20
67.91906426924103
 30
0
 11
-108.5480763503959
 21
77.91906426924103
 31
0
  0
LINE
  8
1
 62
7
 10
-21.54807635039589
 20
-54.80580946491219
 30
0
 11
-23.29807635039589
 21
-56.5558094649121
 31
0
  0
LINE
  8
1
 62
7
 10
-42.8232026162427
 20
83.91906426923978
 30
0
 11
-41.07320261624389
 21
82.16906426924103
 31
0
  0
LINE
  8
1
 62
2
  6
PHANTOM
 10
-51.5480763503959
 20
-70.2434357307601
 30
0
 11
-51.5480763503959
 21
-65.13093573076009
 31
0
  0
LINE
  8
1
 62
2
  6
PHANTOM
 10
-56.6605763503961
 20
-65.13093573076009
 30
0
 11
-51.5480763503959
 21
-65.13093573076009
 31
0
  0
LINE
  8
1
 62
2
  6
DASHDOT
 10
-46.43557635039599
 20
-65.13093573076009
 30
0
 11
-45.75020235899692
 21
-65.13093573076009
 31
0
  0
LINE
  8
1
 62
2
  6
PHANTOM
 10
-51.5480763503959
 20
-65.13093573076009
 30
0
 11
-46.43557635039599
 21
-65.13093573076009
 31
0
  0
LINE
  8
1
 62
2
  6
PHANTOM
 10
-51.5480763503959
 20
-65.13093573076009
 30
0
 11
-51.5480763503959
 21
-46.08093573076019
 31
0
  0
LINE
  8
1
 62
2
  6
PHANTOM
 10
-62.6605763503961
 20
-46.08093573076019
 30
0
 11
-51.5480763503959
 21
-46.08093573076019
 31
0
  0
LINE
  8
1
 62
2
  6
PHANTOM
 10
-40.43557635039599
 20
-46.08093573076019
 30
0
 11
-39.596034435165
 21
-46.08093573076019
 31
0
  0
LINE
  8
1
 62
2
  6
PHANTOM
 10
-51.5480763503959
 20
-46.08093573076019
 30
0
 11
-40.43557635039599
 21
-46.08093573076019
 31
0
  0
LINE
  8
1
 62
2
  6
PHANTOM
 10
-51.5480763503959
 20
-46.08093573076019
 30
0
 11
-51.5480763503959
 21
-32.877998016031
 31
0
  0
LINE
  8
0
 62
7
 10
-21.54807635039589
 20
-16.08093573076019
 30
0
 11
-21.54807635039589
 21
-8.580935730760189
 31
0
  0
LINE
  8
0
 62
7
 10
-103.5480763503959
 20
83.91906426923978
 30
0
 11
-106.0480763503959
 21
83.91906426923978
 31
0
  0
LINE
  8
0
 62
7
 10
-21.54807635039589
 20
23.91906426923981
 30
0
 11
-21.54807635039589
 21
62.64393800339312
 31
0
  0
LINE
  8
0
 62
7
 10
-108.5480763503959
 20
-74.33093573076019
 30
0
 11
-108.5480763503959
 21
-76.08093573076019
 31
0
  0
LINE
  8
0
 62
7
 10
-64.5480763503959
 20
-76.08093573076019
 30
0
 11
-42.82320261624301
 21
-76.08093573075899
 31
0
  0
LINE
  8
0
 62
7
 10
-103.5480763503959
 20
-76.08093573075899
 30
0
 11
-84.54807635039592
 21
-76.08093573076019
 31
0
  0
LINE
  8
0
 62
7
 10
-84.54807635039592
 20
-76.08093573076019
 30
0
 11
-64.5480763503959
 21
-76.08093573076019
 31
0
  0
LINE
  8
0
 62
7
 10
-64.5480763503959
 20
83.91906426923978
 30
0
 11
-85.54807635039592
 21
83.91906426923978
 31
0
  0
LINE
  8
1
 62
2
  6
PHANTOM
 10
-61.0480763503959
 20
-20.08093573075899
 30
0
 11
-59.5480763503959
 21
-20.08093573075899
 31
0
  0
LINE
  8
1
 62
7
 10
-119.548076350395
 20
39.41906426923981
 30
0
 11
-116.548076350395
 21
39.41906426923981
 31
0
  0
LINE
  8
1
 62
7
 10
-119.548076350395
 20
64.41906426923978
 30
0
 11
-116.548076350395
 21
64.41906426923978
 31
0
  0
LINE
  8
1
 62
7
 10
-119.548076350395
 20
39.41906426923981
 30
0
 11
-119.548076350395
 21
36.91906426923981
 31
0
  0
LINE
  8
1
 62
7
 10
-119.548076350395
 20
66.91906426923978
 30
0
 11
-119.548076350395
 21
64.41906426923978
 31
0
  0
LINE
  8
1
 62
7
 10
-119.548076350395
 20
36.91906426923981
 30
0
 11
-111.5480763503959
 21
36.91906426923981
 31
0
  0
LINE
  8
1
 62
7
 10
-119.548076350395
 20
66.91906426923978
 30
0
 11
-111.5480763503959
 21
66.91906426923978
 31
0
  0
LINE
  8
1
 62
7
 10
-121.548076350395
 20
64.41906426923978
 30
0
 11
-121.548076350395
 21
39.41906426923981
 31
0
  0
LINE
  8
1
 62
7
 10
-121.548076350395
 20
39.41906426923981
 30
0
 11
-119.548076350395
 21
39.41906426923981
 31
0
  0
LINE
  8
1
 62
7
 10
-121.548076350395
 20
64.41906426923978
 30
0
 11
-119.548076350395
 21
64.41906426923978
 31
0
  0
LINE
  8
1
 62
7
 10
-131.5480763503959
 20
-37.08093573075899
 30
0
 11
-130.476279580671
 21
-37.08093573075899
 31
0
  0
LINE
  8
1
 62
7
 10
-131.5480763503959
 20
-7.080935730758995
 30
0
 11
-131.5480763503959
 21
-37.08093573075899
 31
0
  0
LINE
  8
1
 62
3
 10
-130.476279580671
 20
-7.080935730758995
 30
0
 11
-130.476279580671
 21
-37.08093573075899
 31
0
  0
LINE
  8
1
 62
7
 10
-131.5480763503959
 20
-7.080935730758995
 30
0
 11
-131.5480763503959
 21
-37.08093573075899
 31
0
  0
LINE
  8
1
 62
7
 10
-131.5480763503959
 20
-7.080935730758995
 30
0
 11
-130.476279580671
 21
-7.080935730758995
 31
0
  0
LINE
  8
1
 62
7
 10
-131.5480763503959
 20
-7.080935730758995
 30
0
 11
-131.5480763503959
 21
-37.08093573075899
 31
0
  0
LINE
  8
1
 62
7
 10
-55.5480763503959
 20
27.91906426923981
 30
0
 11
-47.54807635039589
 21
27.91906426923981
 31
0
  0
LINE
  8
1
 62
7
 10
-47.54807635039589
 20
27.91906426923981
 30
0
 11
-47.54807635039589
 21
35.91906426923981
 31
0
  0
LINE
  8
1
 62
7
 10
-47.54807635039589
 20
35.91906426923981
 30
0
 11
-55.5480763503959
 21
35.91906426923981
 31
0
  0
LINE
  8
1
 62
7
 10
-55.5480763503959
 20
35.91906426923981
 30
0
 11
-55.5480763503959
 21
27.91906426923981
 31
0
  0
LINE
  8
1
 62
7
 10
-108.5480763503959
 20
-96.08093573075899
 30
0
 11
-108.5480763503959
 21
-92.05933384732799
 31
0
  0
LINE
  8
1
 62
7
 10
-93.54807635039604
 20
-51.78093573075998
 30
0
 11
-94.04807635039604
 21
-51.78093573075998
 31
0
  0
LINE
  8
1
 62
2
  6
PHANTOM
 10
-93.54807635039604
 20
-51.78093573075998
 30
0
 11
-93.54807635039604
 21
-52.58093573076019
 31
0
  0
LINE
  8
1
 62
7
 10
-93.54807635039604
 20
-47.38093573076009
 30
0
 11
-93.04807635039604
 21
-47.38093573076009
 31
0
  0
LINE
  8
1
 62
7
 10
-71.5480763503959
 20
-60.08093573075899
 30
0
 11
-75.54807635039501
 21
-60.08093573076019
 31
0
  0
LINE
  8
1
 62
7
 10
-69.5480763503959
 20
-60.08093573076019
 30
0
 11
-71.5480763503959
 21
-60.08093573075899
 31
0
  0
LINE
  8
1
 62
7
 10
-69.5480763503959
 20
-69.08093573075899
 30
0
 11
-71.5480763503959
 21
-69.08093573075899
 31
0
  0
LINE
  8
1
 62
7
 10
-71.5480763503959
 20
-69.08093573075899
 30
0
 11
-75.5480763503959
 21
-69.08093573076019
 31
0
  0
LINE
  8
1
 62
7
 10
-41.07320261624301
 20
-74.33093573076019
 30
0
 11
-42.82320261624301
 21
-76.08093573075899
 31
0
  0
LINE
  8
1
 62
7
 10
-23.29807635039589
 20
-56.5558094649121
 30
0
 11
-41.07320261624301
 21
-74.33093573076019
 31
0
  0
LINE
  8
1
 62
7
 10
-108.5480763503959
 20
-92.05933384732799
 30
0
 11
-108.5480763503959
 21
-89.02907081453809
 31
0
  0
LINE
  8
1
 62
7
 10
-108.5480763503959
 20
-96.08093573075899
 30
0
 11
-108.5480763503959
 21
-92.05933384732799
 31
0
  0
LINE
  8
1
 62
7
 10
-108.5480763503959
 20
-102.0454018248262
 30
0
 11
-108.5480763503959
 21
-97.04540182482619
 31
0
  0
LINE
  8
1
 62
7
 10
-108.5480763503959
 20
-97.04540182482619
 30
0
 11
-108.5480763503959
 21
-96.08093573075899
 31
0
  0
LINE
  8
0
 62
7
 10
-104.0480763503959
 20
-76.08093573075899
 30
0
 11
-103.5480763503959
 21
-76.08093573075899
 31
0
  0
LINE
  8
0
 62
7
 10
-106.5480763503959
 20
-76.08093573075899
 30
0
 11
-104.0480763503959
 21
-76.08093573075899
 31
0
  0
LINE
  8
1
 62
7
 10
-108.5480763503959
 20
-111.080935730759
 30
0
 11
-108.5480763503959
 21
-102.0454018248262
 31
0
  0
LINE
  8
0
 62
7
 10
-106.0480763503959
 20
83.91906426923978
 30
0
 11
-106.5480763503959
 21
83.91906426923978
 31
0
  0
LINE
  8
1
 62
7
 10
-108.5480763503959
 20
77.91906426924103
 30
0
 11
-108.5480763503959
 21
67.91906426924103
 31
0
  0
LINE
  8
1
 62
7
 10
-108.5480763503959
 20
67.91906426924103
 30
0
 11
-108.5480763503959
 21
64.91906426923978
 31
0
  0
LINE
  8
1
 62
7
 10
-106.0480763503959
 20
83.91906426923978
 30
0
 11
-103.5480763503959
 21
83.91906426923978
 31
0
  0
LINE
  8
1
 62
7
 10
-106.5480763503959
 20
83.91906426923978
 30
0
 11
-106.0480763503959
 21
83.91906426923978
 31
0
  0
LINE
  8
1
 62
7
 10
-103.5480763503959
 20
83.91906426923978
 30
0
 11
-85.54807635039592
 21
83.91906426923978
 31
0
  0
LINE
  8
1
 62
7
 10
-119.548076350395
 20
64.41906426923978
 30
0
 11
-116.548076350395
 21
64.41906426923978
 31
0
  0
LINE
  8
1
 62
7
 10
-116.548076350395
 20
64.41906426923978
 30
0
 11
-111.549944889016
 21
64.41906426923978
 31
0
  0
LINE
  8
1
 62
7
 10
-119.548076350395
 20
39.41906426923981
 30
0
 11
-116.548076350395
 21
39.41906426923981
 31
0
  0
LINE
  8
1
 62
7
 10
-116.548076350395
 20
39.41906426923981
 30
0
 11
-111.549944889016
 21
39.41906426923981
 31
0
  0
LINE
  8
1
 62
7
 10
-21.54807635039589
 20
11.41906426923981
 30
0
 11
-21.54807635039589
 21
-8.580935730760189
 31
0
  0
LINE
  8
1
 62
7
 10
-21.54807635039589
 20
-8.580935730760189
 30
0
 11
-21.54807635039589
 21
-16.08093573076019
 31
0
  0
LINE
  8
1
 62
7
 10
-51.54807635039501
 20
49.71906426924002
 30
0
 11
-52.04807635039501
 21
49.71906426924002
 31
0
  0
LINE
  8
1
 62
2
  6
PHANTOM
 10
-51.54807635039501
 20
49.71906426924002
 30
0
 11
-51.54807635039501
 21
48.91906426923981
 31
0
  0
LINE
  8
1
 62
7
 10
-51.54807635039501
 20
54.11906426923989
 30
0
 11
-51.04807635039501
 21
54.11906426923989
 31
0
  0
LINE
  8
1
 62
7
 10
-23.29807635039589
 20
64.39393800339289
 30
0
 11
-21.54807635039589
 21
62.64393800339312
 31
0
  0
LINE
  8
1
 62
7
 10
-56.5480763503959
 20
-17.88093573075898
 30
0
 11
-56.0480763503959
 21
-17.88093573075898
 31
0
  0
LINE
  8
1
 62
2
  6
PHANTOM
 10
-56.5480763503959
 20
-22.28093573075998
 30
0
 11
-56.5480763503959
 21
-23.08093573075899
 31
0
  0
LINE
  8
1
 62
7
 10
-56.5480763503959
 20
-22.28093573075998
 30
0
 11
-57.0480763503959
 21
-22.28093573075998
 31
0
  0
LINE
  8
1
 62
2
  6
PHANTOM
 10
-56.5480763503959
 20
-17.08093573075899
 30
0
 11
-56.5480763503959
 21
-17.88093573075898
 31
0
  0
LINE
  8
1
 62
2
  6
PHANTOM
 10
-56.5480763503959
 20
-23.08093573075899
 30
0
 11
-56.5480763503959
 21
-24.58093573075899
 31
0
  0
LINE
  8
1
 62
7
 10
-58.748076350396
 20
-20.08093573075899
 30
0
 11
-58.748076350396
 21
-19.58093573075899
 31
0
  0
LINE
  8
1
 62
2
  6
PHANTOM
 10
-54.3480763503961
 20
-20.08093573075899
 30
0
 11
-53.5480763503959
 21
-20.08093573075899
 31
0
  0
LINE
  8
1
 62
7
 10
-54.3480763503961
 20
-20.08093573075899
 30
0
 11
-54.3480763503961
 21
-20.58093573075899
 31
0
  0
LINE
  8
1
 62
2
  6
PHANTOM
 10
-59.5480763503959
 20
-20.08093573075899
 30
0
 11
-58.748076350396
 21
-20.08093573075899
 31
0
  0
LINE
  8
1
 62
2
  6
PHANTOM
 10
-53.5480763503959
 20
-20.08093573075899
 30
0
 11
-52.0480763503959
 21
-20.08093573075899
 31
0
  0
LINE
  8
1
 62
2
  6
PHANTOM
 10
-49.348076350395
 20
51.91906426923978
 30
0
 11
-48.54807635039501
 21
51.91906426923978
 31
0
  0
LINE
  8
1
 62
7
 10
-49.348076350395
 20
51.91906426923978
 30
0
 11
-49.348076350395
 21
51.41906426923981
 31
0
  0
LINE
  8
1
 62
7
 10
-53.7480763503951
 20
51.91906426923978
 30
0
 11
-53.7480763503951
 21
52.41906426923978
 31
0
  0
LINE
  8
1
 62
7
 10
-41.07320261624389
 20
82.16906426924103
 30
0
 11
-23.29807635039589
 21
64.39393800339289
 31
0
  0
LINE
  8
1
 62
2
  6
PHANTOM
 10
-51.54807635039501
 20
54.91906426923978
 30
0
 11
-51.54807635039501
 21
54.11906426923989
 31
0
  0
LINE
  8
1
 62
2
  6
PHANTOM
 10
-51.54807635039501
 20
48.91906426923981
 30
0
 11
-51.54807635039501
 21
47.41906426923981
 31
0
  0
LINE
  8
1
 62
2
  6
PHANTOM
 10
-54.54807635039501
 20
51.91906426923978
 30
0
 11
-53.7480763503951
 21
51.91906426923978
 31
0
  0
LINE
  8
1
 62
2
  6
PHANTOM
 10
-48.54807635039501
 20
51.91906426923978
 30
0
 11
-47.04807635039501
 21
51.91906426923978
 31
0
  0
LINE
  8
1
 62
2
  6
PHANTOM
 10
-93.54807635039604
 20
-46.58093573076019
 30
0
 11
-93.54807635039604
 21
-47.38093573076009
 31
0
  0
LINE
  8
1
 62
2
  6
PHANTOM
 10
-93.54807635039604
 20
-52.58093573076019
 30
0
 11
-93.54807635039604
 21
-54.08093573076019
 31
0
  0
LINE
  8
1
 62
7
 10
-108.5480763503959
 20
-47.83093573076019
 30
0
 11
-108.5480763503959
 21
-53.08093573076019
 31
0
  0
LINE
  8
0
 62
7
 10
-108.5480763503959
 20
-47.83093573076019
 30
0
 11
-108.5480763503959
 21
-51.08093573076019
 31
0
  0
LINE
  8
1
 62
7
 10
-108.5480763503959
 20
-74.33093573076019
 30
0
 11
-108.5480763503959
 21
-76.08093573076019
 31
0
  0
LINE
  8
1
 62
7
 10
-108.5480763503959
 20
-53.08093573076019
 30
0
 11
-108.5480763503959
 21
-74.33093573076019
 31
0
  0
LINE
  8
1
 62
7
 10
-108.5480763503959
 20
-6.080935730758995
 30
0
 11
-108.5480763503959
 21
-47.83093573076019
 31
0
  0
LINE
  8
1
 62
7
 10
-108.5480763503959
 20
35.91906426923981
 30
0
 11
-108.5480763503959
 21
-6.080935730758995
 31
0
  0
LINE
  8
1
 62
2
  6
PHANTOM
 10
-91.34807635039623
 20
-49.58093573076019
 30
0
 11
-90.54807635039604
 21
-49.58093573076019
 31
0
  0
LINE
  8
1
 62
7
 10
-91.34807635039623
 20
-49.58093573076019
 30
0
 11
-91.34807635039623
 21
-50.08093573076019
 31
0
  0
LINE
  8
1
 62
7
 10
-95.74807635039609
 20
-49.58093573076019
 30
0
 11
-95.74807635039609
 21
-49.08093573076019
 31
0
  0
LINE
  8
1
 62
2
  6
PHANTOM
 10
-96.54807635039604
 20
-49.58093573076019
 30
0
 11
-95.74807635039609
 21
-49.58093573076019
 31
0
  0
LINE
  8
1
 62
2
  6
PHANTOM
 10
-90.54807635039604
 20
-49.58093573076019
 30
0
 11
-89.04807635039603
 21
-49.58093573076019
 31
0
  0
LINE
  8
1
 62
7
 10
-130.476279580671
 20
-37.08093573075899
 30
0
 11
-111.5480763503959
 21
-37.08093573075899
 31
0
  0
LINE
  8
1
 62
7
 10
-130.476279580671
 20
-7.080935730758995
 30
0
 11
-111.5480763503959
 21
-7.080935730758995
 31
0
  0
LINE
  8
1
 62
7
 10
-111.5480763503959
 20
-37.08093573075899
 30
0
 11
-111.5480763503959
 21
-111.080935730759
 31
0
  0
LINE
  8
1
 62
7
 10
-111.5480763503959
 20
36.91906426923981
 30
0
 11
-111.5480763503959
 21
-7.080935730758995
 31
0
  0
LINE
  8
1
 62
7
 10
-111.5480763503959
 20
66.91906426923978
 30
0
 11
-111.5480763503959
 21
36.91906426923981
 31
0
  0
LINE
  8
1
 62
7
 10
-111.5480763503959
 20
-7.080935730758995
 30
0
 11
-111.5480763503959
 21
-37.08093573075899
 31
0
  0
LINE
  8
1
 62
7
 10
-111.5480763503959
 20
118.9190642692399
 30
0
 11
-111.5480763503959
 21
66.91906426923978
 31
0
  0
LINE
  8
1
 62
7
 10
-108.5480763503959
 20
-96.08093573075899
 30
0
 11
-108.5480763503959
 21
-92.05933384732799
 31
0
  0
LINE
  8
1
 62
7
 10
-108.5480763503959
 20
-51.08093573076019
 30
0
 11
-108.5480763503959
 21
-6.080935730758995
 31
0
  0
LINE
  8
1
 62
7
 10
-108.5480763503959
 20
-74.33093573076019
 30
0
 11
-108.5480763503959
 21
-53.08093573076019
 31
0
  0
LINE
  8
1
 62
7
 10
-108.5480763503959
 20
-53.08093573076019
 30
0
 11
-108.5480763503959
 21
-51.08093573076019
 31
0
  0
LINE
  8
1
 62
7
 10
-108.5480763503959
 20
-76.08093573076019
 30
0
 11
-108.5480763503959
 21
-74.33093573076019
 31
0
  0
LINE
  8
1
 62
7
 10
-108.5480763503959
 20
-97.04540182482619
 30
0
 11
-108.5480763503959
 21
-96.08093573075899
 31
0
  0
LINE
  8
1
 62
7
 10
-108.5480763503959
 20
-102.0454018248262
 30
0
 11
-108.5480763503959
 21
-97.04540182482619
 31
0
  0
LINE
  8
1
 62
7
 10
-108.5480763503959
 20
-92.05933384732799
 30
0
 11
-108.5480763503959
 21
-89.02907081453809
 31
0
  0
LINE
  8
1
 62
7
 10
-108.5480763503959
 20
-89.02907081453809
 30
0
 11
-108.5480763503959
 21
-76.08093573076019
 31
0
  0
LINE
  8
1
 62
7
 10
-108.5480763503959
 20
83.91906426923978
 30
0
 11
-108.5480763503959
 21
118.9190642692399
 31
0
  0
LINE
  8
1
 62
7
 10
-108.5480763503959
 20
64.91906426923978
 30
0
 11
-108.5480763503959
 21
77.91906426924103
 31
0
  0
LINE
  8
1
 62
7
 10
-108.5480763503959
 20
-6.080935730758995
 30
0
 11
-108.5480763503959
 21
35.91906426923981
 31
0
  0
LINE
  8
1
 62
7
 10
-108.5480763503959
 20
35.91906426923981
 30
0
 11
-108.5480763503959
 21
38.91906426923981
 31
0
  0
LINE
  8
1
 62
7
 10
-108.5480763503959
 20
77.91906426924103
 30
0
 11
-108.5480763503959
 21
83.91906426923978
 31
0
  0
LINE
  8
1
 62
7
 10
-108.5480763503959
 20
67.91906426924103
 30
0
 11
-108.5480763503959
 21
77.91906426924103
 31
0
  0
LINE
  8
1
 62
7
 10
-108.5480763503959
 20
77.91906426924103
 30
0
 11
-108.5480763503959
 21
67.91906426924103
 31
0
  0
LINE
  8
1
 62
7
 10
-108.5480763503959
 20
38.91906426923981
 30
0
 11
-108.5480763503959
 21
64.91906426923978
 31
0
  0
LINE
  8
1
 62
7
 10
74.45192364960411
 20
-102.080935730759
 30
0
 11
74.45192364960411
 21
109.9190642692401
 31
0
  0
LINE
  8
1
 62
2
  6
CENTER
 10
-56.6480763503961
 20
10.41906426923981
 30
0
 11
-48.29807635039589
 21
10.41906426923981
 31
0
  0
LINE
  8
1
 62
2
  6
CENTER
 10
-51.5480763503959
 20
15.51906426923992
 30
0
 11
-51.5480763503959
 21
5.319064269239817
 31
0
  0
LINE
  8
1
 62
2
  6
DIVIDE
 10
125.451923649604
 20
-64.58093573076019
 30
0
 11
114.451923649604
 21
-64.58093573076019
 31
0
  0
LINE
  8
1
 62
2
  6
DIVIDE
 10
119.951923649604
 20
-59.08093573076019
 30
0
 11
119.951923649604
 21
-70.08093573076019
 31
0
  0
LINE
  8
1
 62
2
  6
DIVIDE
 10
126.4019236496039
 20
-102.080935730759
 30
0
 11
116.501923649604
 21
-102.080935730759
 31
0
  0
LINE
  8
1
 62
2
  6
DIVIDE
 10
121.4519236496041
 20
-97.13093573075879
 30
0
 11
121.4519236496041
 21
-107.0309357307593
 31
0
  0
LINE
  8
1
 62
2
  6
DIVIDE
 10
69.451923649604
 20
-64.58093573076019
 30
0
 11
58.451923649604
 21
-64.58093573076019
 31
0
  0
LINE
  8
1
 62
2
  6
DIVIDE
 10
63.951923649604
 20
-59.08093573076019
 30
0
 11
63.951923649604
 21
-70.08093573076019
 31
0
  0
LINE
  8
1
 62
2
  6
DIVIDE
 10
70.4019236496039
 20
-102.080935730759
 30
0
 11
60.50192364960401
 21
-102.080935730759
 31
0
  0
LINE
  8
1
 62
2
  6
DIVIDE
 10
65.45192364960411
 20
-97.13093573075879
 30
0
 11
65.45192364960411
 21
-107.0309357307593
 31
0
  0
LINE
  8
1
 62
2
  6
PHANTOM
 10
-41.64807635039611
 20
31.91906426923981
 30
0
 11
-61.44807635039601
 21
31.91906426923981
 31
0
  0
LINE
  8
1
 62
2
  6
PHANTOM
 10
-51.5480763503959
 20
41.81906426923982
 30
0
 11
-51.5480763503959
 21
22.01906426923992
 31
0
  0
LINE
  8
1
 62
2
  6
DIVIDE
 10
-28.42307635039589
 20
31.91906426923981
 30
0
 11
-36.67307635039589
 21
31.91906426923981
 31
0
  0
LINE
  8
1
 62
2
  6
DIVIDE
 10
-32.54807635039589
 20
36.04406426923981
 30
0
 11
-32.54807635039589
 21
27.79406426924101
 31
0
  0
LINE
  8
1
 62
2
  6
PHANTOM
 10
-28.42307635039711
 20
-54.08093573076019
 30
0
 11
-36.67307635039501
 21
-54.08093573076019
 31
0
  0
LINE
  8
1
 62
2
  6
PHANTOM
 10
-32.54807635039589
 20
-49.9559357307611
 30
0
 11
-32.54807635039589
 21
-58.20593573075899
 31
0
  0
LINE
  8
1
 62
2
  6
DIVIDE
 10
126.4019236496039
 20
109.9190642692398
 30
0
 11
116.501923649604
 21
109.9190642692398
 31
0
  0
LINE
  8
1
 62
2
  6
DIVIDE
 10
121.4519236496041
 20
116.874603504498
 30
0
 11
121.4519236496041
 21
104.6690642692398
 31
0
  0
LINE
  8
1
 62
2
  6
PHANTOM
 10
-57.42307635039501
 20
-59.88093573076009
 30
0
 11
-65.6730763503971
 21
-59.88093573076009
 31
0
  0
LINE
  8
1
 62
2
  6
PHANTOM
 10
-61.5480763503959
 20
-55.75593573075898
 30
0
 11
-61.5480763503959
 21
-64.00593573076009
 31
0
  0
LINE
  8
1
 62
2
  6
PHANTOM
 10
-37.42307635039589
 20
-59.88093573076009
 30
0
 11
-45.67307635039711
 21
-59.88093573076009
 31
0
  0
LINE
  8
1
 62
2
  6
PHANTOM
 10
-41.54807635039589
 20
-55.75593573075898
 30
0
 11
-41.54807635039589
 21
-64.00593573076009
 31
0
  0
LINE
  8
1
 62
2
  6
DIVIDE
 10
70.4019236496039
 20
109.9190642692398
 30
0
 11
60.50192364960401
 21
109.9190642692398
 31
0
  0
LINE
  8
1
 62
2
  6
DIVIDE
 10
65.45192364960411
 20
116.874603504498
 30
0
 11
65.45192364960411
 21
104.6690642692398
 31
0
  0
LINE
  8
1
 62
7
 10
-108.5480763503959
 20
-141.348061864525
 30
0
 11
-108.5480763503959
 21
-152.5980618645249
 31
0
  0
LINE
  8
1
 62
7
 10
-108.5480763503959
 20
-156.0980618645249
 30
0
 11
-108.5480763503959
 21
-152.5980618645249
 31
0
  0
LINE
  8
1
 62
7
 10
-121.5480763503959
 20
-146.5328513546254
 30
0
 11
-111.5480763503959
 21
-154.3336442824948
 31
0
  0
LINE
  8
1
 62
7
 10
-108.5480763503959
 20
-139.348061864525
 30
0
 11
-108.5480763503959
 21
-158.3480618645249
 31
0
  0
LINE
  8
1
 62
7
 10
-111.5480763503959
 20
-139.348061864525
 30
0
 11
-111.5480763503959
 21
-158.3480618645249
 31
0
  0
LINE
  8
1
 62
7
 10
-111.5480763503959
 20
-139.348061864525
 30
0
 11
-108.5480763503959
 21
-139.348061864525
 31
0
  0
LINE
  8
1
 62
7
 10
-111.5480763503959
 20
-158.3480618645249
 30
0
 11
-108.5480763503959
 21
-158.3480618645249
 31
0
  0
LINE
  8
1
 62
7
 10
-121.546351201158
 20
-144.1980618645251
 30
0
 11
-123.5509374795871
 21
-144.1980618645251
 31
0
  0
LINE
  8
1
 62
7
 10
-114.2849385489879
 20
-152.1980618645248
 30
0
 11
-123.5480763503959
 21
-152.1980618645248
 31
0
  0
LINE
  8
1
 62
7
 10
-123.5509374795871
 20
-144.1980618645251
 30
0
 11
-130.476279580672
 21
-144.1980618645271
 31
0
  0
LINE
  8
1
 62
7
 10
-123.5480763503959
 20
-152.1980618645248
 30
0
 11
-130.476279580672
 21
-152.1980618645271
 31
0
  0
LINE
  8
1
 62
7
 10
-27.04807635039589
 20
-154.3480618645249
 30
0
 11
-23.54807635039589
 21
-154.3480618645249
 31
0
  0
LINE
  8
1
 62
7
 10
-34.04807635039589
 20
-154.3480618645249
 30
0
 11
-30.54807635039589
 21
-154.3480618645249
 31
0
  0
LINE
  8
1
 62
7
 10
-23.29807635039589
 20
-154.3480618645249
 30
0
 11
-21.54807635039589
 21
-154.3480618645249
 31
0
  0
LINE
  8
1
 62
7
 10
-21.54807635039589
 20
-141.348061864525
 30
0
 11
-21.54807635039589
 21
-154.3480618645249
 31
0
  0
LINE
  8
1
 62
7
 10
-21.54807635039589
 20
-154.3480618645249
 30
0
 11
-108.5480763503959
 21
-154.3480618645249
 31
0
  0
LINE
  8
1
 62
7
 10
-21.54807635039589
 20
-152.5980618645249
 30
0
 11
-21.54807635039589
 21
-154.3480618645249
 31
0
  0
LINE
  8
1
 62
7
 10
-108.5480763503959
 20
-141.348061864525
 30
0
 11
-21.54807635039589
 21
-141.348061864525
 31
0
  0
LINE
  8
1
 62
7
 10
-43.54807635039589
 20
-141.348061864525
 30
0
 11
-43.54807635039589
 21
-154.3480618645249
 31
0
  0
LINE
  8
1
 62
7
 10
-111.5480763503959
 20
-143.934719334307
 30
0
 11
-121.5480763503959
 21
-143.934719334307
 31
0
  0
LINE
  8
1
 62
7
 10
-111.5480763503959
 20
-146.4349059240811
 30
0
 11
-119.5480763503959
 21
-146.4349059240811
 31
0
  0
LINE
  8
1
 62
7
 10
-121.5480763503959
 20
-146.5328513546254
 30
0
 11
-121.5480763503959
 21
-143.934719334307
 31
0
  0
LINE
  8
1
 62
7
 10
-119.5480763503959
 20
-146.5328513546254
 30
0
 11
-119.5480763503959
 21
-143.934719334307
 31
0
  0
LINE
  8
1
 62
7
 10
62.55192364960399
 20
64.41906426923978
 30
0
 11
62.55192364960399
 21
39.41906426923981
 31
0
  0
LINE
  8
1
 62
7
 10
118.551923649604
 20
64.41906426923978
 30
0
 11
118.551923649604
 21
39.41906426923981
 31
0
  0
LINE
  8
1
 62
7
 10
-108.5480763503959
 20
-186.348061864525
 30
0
 11
-108.5480763503959
 21
-197.5980618645249
 31
0
  0
LINE
  8
1
 62
7
 10
-108.5480763503959
 20
-201.0980618645249
 30
0
 11
-108.5480763503959
 21
-197.5980618645249
 31
0
  0
LINE
  8
1
 62
7
 10
-121.5480763503959
 20
-191.5328513546254
 30
0
 11
-111.5480763503959
 21
-199.3336442824948
 31
0
  0
LINE
  8
1
 62
7
 10
-108.5480763503959
 20
-184.348061864525
 30
0
 11
-108.5480763503959
 21
-203.3480618645249
 31
0
  0
LINE
  8
1
 62
7
 10
-111.5480763503959
 20
-184.348061864525
 30
0
 11
-111.5480763503959
 21
-203.3480618645249
 31
0
  0
LINE
  8
1
 62
7
 10
-111.5480763503959
 20
-184.348061864525
 30
0
 11
-108.5480763503959
 21
-184.348061864525
 31
0
  0
LINE
  8
1
 62
7
 10
-111.5480763503959
 20
-203.3480618645249
 30
0
 11
-108.5480763503959
 21
-203.3480618645249
 31
0
  0
LINE
  8
1
 62
7
 10
-121.546351201158
 20
-189.1980618645251
 30
0
 11
-123.5509374795871
 21
-189.1980618645251
 31
0
  0
LINE
  8
1
 62
7
 10
-114.2849385489879
 20
-197.1980618645248
 30
0
 11
-123.5480763503959
 21
-197.1980618645248
 31
0
  0
LINE
  8
1
 62
7
 10
-123.5509374795871
 20
-189.1980618645251
 30
0
 11
-130.476279580672
 21
-189.1980618645271
 31
0
  0
LINE
  8
1
 62
7
 10
-123.5480763503959
 20
-197.1980618645248
 30
0
 11
-130.476279580672
 21
-197.1980618645271
 31
0
  0
LINE
  8
1
 62
7
 10
-27.04807635039589
 20
-199.3480618645249
 30
0
 11
-23.54807635039589
 21
-199.3480618645249
 31
0
  0
LINE
  8
1
 62
7
 10
-33.04807635039589
 20
-199.3480618645249
 30
0
 11
-30.54807635039589
 21
-199.3480618645249
 31
0
  0
LINE
  8
1
 62
7
 10
-23.29807635039589
 20
-199.3480618645249
 30
0
 11
-21.54807635039589
 21
-199.3480618645249
 31
0
  0
LINE
  8
1
 62
7
 10
-21.54807635039589
 20
-186.348061864525
 30
0
 11
-21.54807635039589
 21
-199.3480618645249
 31
0
  0
LINE
  8
1
 62
7
 10
-21.54807635039589
 20
-199.3480618645249
 30
0
 11
-108.5480763503959
 21
-199.3480618645249
 31
0
  0
LINE
  8
1
 62
7
 10
-21.54807635039589
 20
-197.5980618645249
 30
0
 11
-21.54807635039589
 21
-199.3480618645249
 31
0
  0
LINE
  8
1
 62
7
 10
-108.5480763503959
 20
-186.348061864525
 30
0
 11
-21.54807635039589
 21
-186.348061864525
 31
0
  0
LINE
  8
1
 62
7
 10
-43.54807635039589
 20
-186.348061864525
 30
0
 11
-43.54807635039589
 21
-199.3480618645249
 31
0
  0
LINE
  8
1
 62
7
 10
-111.5480763503959
 20
-188.934719334307
 30
0
 11
-121.5480763503959
 21
-188.934719334307
 31
0
  0
LINE
  8
1
 62
7
 10
-111.5480763503959
 20
-191.4349059240811
 30
0
 11
-119.5480763503959
 21
-191.4349059240811
 31
0
  0
LINE
  8
1
 62
7
 10
-121.5480763503959
 20
-191.5328513546254
 30
0
 11
-121.5480763503959
 21
-188.934719334307
 31
0
  0
LINE
  8
1
 62
7
 10
-119.5480763503959
 20
-191.5328513546254
 30
0
 11
-119.5480763503959
 21
-188.934719334307
 31
0
  0
LINE
  8
1
 62
7
 10
-34.04807635039589
 20
-200.3480618645249
 30
0
 11
-69.0480763503959
 21
-200.3480618645249
 31
0
  0
LINE
  8
1
 62
7
 10
-34.04807635039589
 20
-199.3480618645249
 30
0
 11
-34.04807635039589
 21
-200.3480618645249
 31
0
  0
LINE
  8
1
 62
7
 10
-69.0480763503959
 20
-199.3480618645249
 30
0
 11
-69.0480763503959
 21
-200.3480618645249
 31
0
  0
LINE
  8
1
 62
7
 10
-80.94807635039605
 20
-17.53093573076018
 30
0
 11
-66.5480763503961
 21
-17.53093573076018
 31
0
  0
LINE
  8
1
 62
7
 10
-80.94807635039605
 20
-22.6309357307602
 30
0
 11
-66.5480763503961
 21
-22.6309357307602
 31
0
  0
LINE
  8
1
 62
2
  6
DIVIDE
 10
-80.94807635039605
 20
-23.92843573076019
 30
0
 11
-80.94807635039605
 21
-16.23343573076019
 31
0
  0
LINE
  8
1
 62
2
  6
DIVIDE
 10
-66.5480763503961
 20
-23.92843573076019
 30
0
 11
-66.5480763503961
 21
-16.23343573076019
 31
0
  0
LINE
  8
1
 62
7
 10
-75.1480763503954
 20
17.5190642692404
 30
0
 11
-69.9480763503954
 21
17.51906426924032
 31
0
  0
LINE
  8
1
 62
7
 10
-69.9480763503954
 20
12.3190642692403
 30
0
 11
-69.9480763503954
 21
17.51906426924032
 31
0
  0
LINE
  8
1
 62
7
 10
-75.1480763503954
 20
12.31906426924041
 30
0
 11
-69.9480763503954
 21
12.3190642692403
 31
0
  0
LINE
  8
1
 62
7
 10
-75.1480763503954
 20
12.31906426924041
 30
0
 11
-75.1480763503954
 21
17.5190642692404
 31
0
  0
LINE
  8
1
 62
2
  6
DIVIDE
 10
-76.0946504038376
 20
14.91906426924041
 30
0
 11
-69.06844647516961
 21
14.91906426924041
 31
0
  0
LINE
  8
1
 62
2
  6
DIVIDE
 10
-72.54807635039541
 20
11.58799644949582
 30
0
 11
-72.54807635039541
 21
18.4840854905957
 31
0
  0
LINE
  8
1
 62
2
  6
DIVIDE
 10
-84.078849347309
 20
-20.08093573076019
 30
0
 11
-63.261009586508
 21
-20.08093573076019
 31
0
  0
LINE
  8
1
 62
2
  6
DIVIDE
 10
-79.44807635039605
 20
-23.92843573076019
 30
0
 11
-79.44807635039605
 21
-16.23343573076019
 31
0
  0
ARC
  8
1
 62
7
 10
121.4519236496041
 20
109.9190642692401
 30
0
 40
2.199999999999804
 50
0
 51
180
  0
ARC
  8
1
 62
7
 10
121.4519236496041
 20
109.9190642692401
 30
0
 40
2.200000000000102
 50
180
 51
0
  0
ARC
  8
1
 62
7
 10
121.4519236496041
 20
109.9190642692401
 30
0
 40
4.5
 50
0
 51
90
  0
ARC
  8
1
 62
7
 10
121.4519236496041
 20
109.9190642692401
 30
0
 40
4.500000000000298
 50
270
 51
0
  0
ARC
  8
1
 62
7
 10
121.4519236496041
 20
109.9190642692401
 30
0
 40
4.499999999999702
 50
90
 51
270
  0
ARC
  8
1
 62
7
 10
65.45192364960411
 20
109.9190642692401
 30
0
 40
9
 50
0
 51
90
  0
ARC
  8
1
 62
7
 10
65.45192364960411
 20
-102.080935730759
 30
0
 40
9
 50
270
 51
0
  0
ARC
  8
1
 62
7
 10
65.45192364960411
 20
109.9190642692401
 30
0
 40
8.999999999961204
 50
90
 51
180
  0
ARC
  8
1
 62
7
 10
-61.5480763503959
 20
-59.88093573076009
 30
0
 40
3.749999999999947
 50
105.6090681917434
 51
133.8945537636609
  0
ARC
  8
1
 62
7
 10
-61.5480763503959
 20
-59.88093573076009
 30
0
 40
3.749999999999712
 50
226.1054462363499
 51
313.8945537636796
  0
ARC
  8
1
 62
7
 10
-41.54807635039589
 20
-59.88093573076009
 30
0
 40
3.749999999999863
 50
74.39093180826114
 51
133.8945537636612
  0
ARC
  8
1
 62
7
 10
-41.54807635039589
 20
-59.88093573076009
 30
0
 40
3.749999999999712
 50
226.1054462363499
 51
313.8945537636795
  0
ARC
  8
1
 62
7
 10
-41.54807635039589
 20
-59.88093573076009
 30
0
 40
3.750000000000481
 50
46.10544623634252
 51
74.39093180826114
  0
ARC
  8
1
 62
7
 10
-61.5480763503959
 20
-59.88093573076009
 30
0
 40
3.750000000000491
 50
46.10544623634236
 51
105.6090681917434
  0
ARC
  8
1
 62
7
 10
-51.5480763503959
 20
-65.13093573076009
 30
0
 40
5.112500000000011
 50
270
 51
0
  0
ARC
  8
1
 62
7
 10
-51.5480763503959
 20
-46.08093573076019
 30
0
 40
11.1125000000002
 50
180
 51
242.6085373047425
  0
ARC
  8
1
 62
7
 10
-51.5480763503959
 20
-65.13093573076009
 30
0
 40
5.112500000000196
 50
180
 51
270
  0
ARC
  8
1
 62
7
 10
-51.5480763503959
 20
-46.08093573076019
 30
0
 40
11.11249999999991
 50
0
 51
90
  0
ARC
  8
1
 62
7
 10
-51.5480763503959
 20
-46.08093573076019
 30
0
 40
11.11250000000021
 50
90
 51
180
  0
ARC
  8
1
 62
7
 10
-51.5480763503959
 20
-46.08093573076019
 30
0
 40
11.11249999999916
 50
297.3914626952562
 51
0
  0
ARC
  8
1
 62
7
 10
-11.32644465079909
 20
51.91906426923978
 30
0
 40
100.9999999999993
 50
172.8907098069773
 51
187.1092901930227
  0
ARC
  8
1
 62
7
 10
-56.5480763503959
 20
-20.08093573075899
 30
0
 40
3
 50
0
 51
90
  0
ARC
  8
1
 62
7
 10
-56.5480763503959
 20
-20.08093573075899
 30
0
 40
3
 50
270
 51
0
  0
ARC
  8
1
 62
7
 10
-56.5480763503959
 20
-20.08093573075899
 30
0
 40
3
 50
180
 51
270
  0
ARC
  8
1
 62
7
 10
-56.5480763503959
 20
-20.08093573075899
 30
0
 40
3
 50
90
 51
180
  0
ARC
  8
1
 62
7
 10
-51.54807635039501
 20
51.91906426923978
 30
0
 40
3
 50
0
 51
90
  0
ARC
  8
1
 62
7
 10
-51.54807635039501
 20
51.91906426923978
 30
0
 40
2.999999999999972
 50
270
 51
0
  0
ARC
  8
1
 62
7
 10
-51.54807635039501
 20
51.91906426923978
 30
0
 40
3
 50
180
 51
270
  0
ARC
  8
1
 62
7
 10
-51.54807635039501
 20
51.91906426923978
 30
0
 40
3
 50
90
 51
180
  0
ARC
  8
1
 62
7
 10
-93.54807635039604
 20
-49.58093573076039
 30
0
 40
3
 50
0
 51
90
  0
ARC
  8
1
 62
7
 10
-93.54807635039604
 20
-49.58093573076039
 30
0
 40
2.999999999999801
 50
270
 51
0
  0
ARC
  8
1
 62
7
 10
-93.54807635039604
 20
-49.58093573076039
 30
0
 40
3
 50
180
 51
270
  0
ARC
  8
1
 62
7
 10
-93.54807635039604
 20
-49.58093573076039
 30
0
 40
3.000000000000199
 50
90
 51
180
  0
ARC
  8
1
 62
7
 10
65.45192364960411
 20
109.9190642692401
 30
0
 40
2.19999999999979
 50
0
 51
180
  0
ARC
  8
1
 62
7
 10
65.45192364960411
 20
109.9190642692401
 30
0
 40
2.200000000000102
 50
180
 51
0
  0
ARC
  8
1
 62
7
 10
65.45192364960411
 20
109.9190642692401
 30
0
 40
4.5
 50
0
 51
90
  0
ARC
  8
1
 62
7
 10
65.45192364960411
 20
109.9190642692401
 30
0
 40
4.500000000000298
 50
270
 51
0
  0
ARC
  8
1
 62
7
 10
65.45192364960411
 20
109.9190642692401
 30
0
 40
4.499999999999702
 50
90
 51
270
  0
ARC
  8
1
 62
7
 10
-123.5480763503959
 20
-148.1980618645251
 30
0
 40
7.999999999999986
 50
180
 51
210.0000000000102
  0
ARC
  8
1
 62
7
 10
-123.5480763503959
 20
-148.1980618645251
 30
0
 40
7.999999999999527
 50
150.0000000000145
 51
180
  0
ARC
  8
1
 62
7
 10
65.45192364960411
 20
-102.080935730759
 30
0
 40
9
 50
180
 51
270
  0
ARC
  8
1
 62
7
 10
-123.5480763503959
 20
-193.1980618645251
 30
0
 40
7.999999999999986
 50
180
 51
210.0000000000102
  0
ARC
  8
1
 62
7
 10
-123.5480763503959
 20
-193.1980618645251
 30
0
 40
7.999999999999527
 50
150.0000000000145
 51
180
  0
ARC
  8
1
 62
7
 10
-80.94807635039605
 20
-20.08093573076019
 30
0
 40
2.550000000000008
 50
90
 51
270
  0
ARC
  8
1
 62
7
 10
-66.5480763503961
 20
-20.08093573076019
 30
0
 40
2.550000000000011
 50
270
 51
90
  0
CIRCLE
  8
1
 62
7
 10
119.951923649604
 20
-64.58093573076019
 30
0
 40
2.5
  0
CIRCLE
  8
1
 62
7
 10
119.951923649604
 20
-64.58093573076019
 30
0
 40
5
  0
CIRCLE
  8
1
 62
7
 10
121.4519236496041
 20
-102.080935730759
 30
0
 40
2.199999999999804
  0
CIRCLE
  8
1
 62
7
 10
121.4519236496041
 20
-102.080935730759
 30
0
 40
4.5
  0
CIRCLE
  8
1
 62
7
 10
-51.5480763503959
 20
10.41906426923981
 30
0
 40
3.250000000000014
  0
CIRCLE
  8
1
 62
7
 10
63.951923649604
 20
-64.58093573076019
 30
0
 40
2.5
  0
CIRCLE
  8
1
 62
7
 10
63.951923649604
 20
-64.58093573076019
 30
0
 40
5
  0
CIRCLE
  8
1
 62
7
 10
65.45192364960411
 20
-102.080935730759
 30
0
 40
2.19999999999979
  0
CIRCLE
  8
1
 62
7
 10
65.45192364960411
 20
-102.080935730759
 30
0
 40
4.5
  0
CIRCLE
  8
1
 62
7
 10
-51.5480763503959
 20
31.91906426923981
 30
0
 40
9.000000000000014
  0
CIRCLE
  8
1
 62
7
 10
-70.5480763503959
 20
31.91906426923981
 30
0
 40
3.75
  0
CIRCLE
  8
1
 62
7
 10
-32.54807635039589
 20
31.91906426923981
 30
0
 40
3.75
  0
CIRCLE
  8
1
 62
7
 10
-70.5480763503959
 20
-54.08093573076019
 30
0
 40
3.750000000000895
  0
CIRCLE
  8
1
 62
7
 10
-32.54807635039589
 20
-54.08093573076019
 30
0
 40
3.75
  0
CIRCLE
  8
1
 62
7
 10
-79.44807635039605
 20
-20.08093573076019
 30
0
 40
2.500000000000043
  0
ARC
  8
1
 62
7
 10
-98.54807635039592
 20
39.91906426923981
 30
0
 40
1
 50
270
 51
0
  0
ARC
  8
1
 62
7
 10
-98.54807635039592
 20
63.91906426923978
 30
0
 40
1
 50
0
 51
90
  0
TEXT
  8
1
 62
7
 10
-145.1293449747359
 20
-149.3780288184648
 30
0
 40
5
  1
RZ
 41
0.9
  0
TEXT
  8
1
 62
7
 10
-145.1293449747359
 20
-194.3780288184647
 30
0
 40
5
  1
PZ
 41
0.9
  0
TEXT
  8
1
 62
7
 10
56.14001863854304
 20
-171.5376133898358
 30
0
 40
7
  1
1261_6XX_X8X
 41
0.9
  0
DIMENSION
  8
1
  6
CONTINUOUS
 62
1
  2
*D0
  3
DMST_1
 10
-6.64518728118099
 20
31.91906426923981
 30
0
 11
-10.39518728118099
 21
21.16906426923981
 31
0
 12
0
 22
0
 32
0
 70
0
 13
-46.44807635039601
 23
10.41906426923981
 33
0
 14
-41.64807635039611
 24
31.91906426923981
 34
0
 50
90
 53
0
  0
DIMENSION
  8
1
  6
CONTINUOUS
 62
1
  2
*D1
  3
DMST_1
 10
-108.5480763503959
 20
105.185408856712
 30
0
 11
-97.6787091761385
 21
108.685408856712
 31
0
 12
0
 22
0
 32
0
 70
0
 13
-111.5480763503959
 23
118.9190642692399
 33
0
 14
-108.5480763503959
 24
118.9190642692399
 34
0
 53
0
  0
DIMENSION
  8
1
  6
CONTINUOUS
 62
1
  2
*D2
  3
DMST_2
 10
131.4519236496041
 20
-126.2497774053473
 30
0
 11
121.4519236496041
 21
-122.7497774053473
 31
0
 12
0
 22
0
 32
0
 70
0
 13
111.4519236496041
 23
-111.080935730759
 33
0
 14
131.4519236496041
 24
-111.080935730759
 34
0
 53
0
  0
DIMENSION
  8
1
  6
CONTINUOUS
 62
1
  2
*D3
  3
DMST_2
 10
-111.548076350396
 20
21.931038601609
 30
0
 11
-116.5480763503955
 21
25.431038601609
 31
0
 12
0
 22
0
 32
0
 70
0
 13
-121.548076350395
 23
39.41906426923981
 33
0
 14
-111.5480763503959
 24
36.91906426923981
 34
0
 53
0
  0
DIMENSION
  8
1
  6
CONTINUOUS
 62
1
  2
*D4
  3
DMST_2
 10
74.45192364960411
 20
-125.8596263365744
 30
0
 11
65.45192364960411
 21
-122.3596263365744
 31
0
 12
0
 22
0
 32
0
 70
0
 13
56.45192364960411
 23
-102.080935730759
 33
0
 14
74.45192364960411
 24
-102.080935730759
 34
0
 53
0
  0
DIMENSION
  8
1
  6
CONTINUOUS
 62
1
  2
*D5
  3
DMST_2
 10
-70.5480763503959
 20
-29.454554487612
 30
0
 11
-51.5480763503959
 21
-25.954554487612
 31
0
 12
0
 22
0
 32
0
 70
0
 13
-32.54807635039589
 23
-49.9559357307611
 33
0
 14
-70.5480763503959
 24
-49.95593573076019
 34
0
 53
0
  0
DIMENSION
  8
1
  6
CONTINUOUS
 62
1
  2
*D6
  3
DMST_2
 10
-47.5480763503959
 20
46.22509053262002
 30
0
 11
-40.30777425751612
 21
49.72509053262002
 31
0
 12
0
 22
0
 32
0
 70
0
  1
8/9
 13
-55.5480763503959
 23
35.91906426923981
 33
0
 14
-47.54807635039589
 24
35.91906426923981
 34
0
 53
0
  0
DIMENSION
  8
1
  6
CONTINUOUS
 62
1
  2
*D7
  3
DMST_2
 10
-6.508232950921011
 20
-46.08093573076019
 30
0
 11
-10.00823295092101
 21
-50.08093573076019
 31
0
 12
0
 22
0
 32
0
 70
0
 13
-28.42307635039711
 23
-54.08093573076019
 33
0
 14
-39.596034435165
 24
-46.08093573076019
 34
0
 50
90
 53
0
  0
DIMENSION
  8
1
  6
CONTINUOUS
 62
1
  2
*D8
  3
DMST_1
 10
-70.5480763503959
 20
58.25841808466399
 30
0
 11
-51.5480763503959
 21
61.75841808466399
 31
0
 12
0
 22
0
 32
0
 70
0
 13
-32.54807635039589
 23
36.04406426923981
 33
0
 14
-70.5480763503959
 24
36.04406426923981
 34
0
 53
0
  0
DIMENSION
  8
1
  6
CONTINUOUS
 62
1
  2
*D9
  3
DMST_1
 10
-146.741979669704
 20
118.9190642692399
 30
0
 11
-150.241979669704
 21
101.4190642692398
 31
0
 12
0
 22
0
 32
0
 70
0
 13
-103.5480763503959
 23
83.91906426923978
 33
0
 14
-111.5480763503959
 24
118.9190642692399
 34
0
 50
90
 53
0
  0
DIMENSION
  8
1
  6
CONTINUOUS
 62
1
  2
*D10
  3
DMST_1
 10
-146.7536590521315
 20
83.91906426923978
 30
0
 11
-150.2536590521315
 21
75.41906426923978
 31
0
 12
0
 22
0
 32
0
 70
0
 13
-119.548076350395
 23
66.91906426923978
 33
0
 14
-103.5480763503959
 24
83.91906426923978
 34
0
 50
90
 53
0
  0
DIMENSION
  8
1
  6
CONTINUOUS
 62
1
  2
*D11
  3
DMST_1
 10
-146.6282255899516
 20
-76.08093573075899
 30
0
 11
-150.1282255899516
 21
-93.58093573075899
 31
0
 12
0
 22
0
 32
0
 70
0
 13
-111.5480763503959
 23
-111.080935730759
 33
0
 14
-104.0480763503959
 24
-76.08093573075899
 34
0
 50
90
 53
0
  0
DIMENSION
  8
1
  6
CONTINUOUS
 62
1
  2
*D12
  3
DMST_1
 10
-146.6329436505925
 20
-37.08093573075899
 30
0
 11
-150.1329436505925
 21
-56.58093573075899
 31
0
 12
0
 22
0
 32
0
 70
0
 13
-103.5480763503959
 23
-76.08093573075899
 33
0
 14
-130.476279580671
 24
-37.08093573075899
 34
0
 50
90
 53
0
  0
DIMENSION
  8
1
  6
CONTINUOUS
 62
1
  2
*D13
  3
DMST_1
 10
48.38411346993399
 20
109.9190642692398
 30
0
 11
44.88411346993399
 21
114.4190642692205
 31
0
 12
0
 22
0
 32
0
 70
0
 13
65.45192364960411
 23
118.9190642692013
 33
0
 14
60.50192364960401
 24
109.9190642692398
 34
0
 50
90
 53
0
  0
DIMENSION
  8
1
  6
CONTINUOUS
 62
1
  2
*D14
  3
DMST_1
 10
48.54764026891201
 20
-102.080935730759
 30
0
 11
45.04764026891201
 21
-106.580935730759
 31
0
 12
0
 22
0
 32
0
 70
0
 13
65.45192364960411
 23
-111.080935730759
 33
0
 14
60.50192364960401
 24
-102.080935730759
 34
0
 50
90
 53
0
  0
DIMENSION
  8
1
  6
CONTINUOUS
 62
1
  2
*D15
  3
DMST_1
 10
89.387531081459
 20
-111.080935730759
 30
0
 11
85.887531081459
 21
3.919064269221138
 31
0
 12
0
 22
0
 32
0
 70
0
 13
65.45192364960411
 23
118.9190642692013
 33
0
 14
65.45192364960411
 24
-111.080935730759
 34
0
 50
90
 53
0
  0
DIMENSION
  8
1
  6
CONTINUOUS
 62
1
  2
*D16
  3
DMST_1
 10
146.305076349448
 20
118.9190642692398
 30
0
 11
142.805076349448
 21
3.919064269240408
 31
0
 12
0
 22
0
 32
0
 70
0
 13
131.4519236496041
 23
-111.080935730759
 33
0
 14
131.4519236496041
 24
118.9190642692398
 34
0
 50
90
 53
0
  0
DIMENSION
  8
1
  6
CONTINUOUS
 62
1
  2
*D17
  3
DMST_1
 10
102.289756612402
 20
118.9190642692398
 30
0
 11
98.78975661240199
 21
114.4190642692398
 31
0
 12
0
 22
0
 32
0
 70
0
 13
116.501923649604
 23
109.9190642692398
 33
0
 14
111.4519236496041
 24
118.9190642692398
 34
0
 50
90
 53
0
  0
DIMENSION
  8
1
  6
CONTINUOUS
 62
1
  2
*D18
  3
DMST_1
 10
103.79158486725
 20
-102.080935730759
 30
0
 11
100.29158486725
 21
-106.580935730759
 31
0
 12
0
 22
0
 32
0
 70
0
 13
111.4519236496041
 23
-111.080935730759
 33
0
 14
116.501923649604
 24
-102.080935730759
 34
0
 50
90
 53
0
  0
DIMENSION
  8
1
  6
CONTINUOUS
 62
1
  2
*D27
  3
DMST_1
 10
-6.221153519086982
 20
-200.3480618645249
 30
0
 11
-9.971153519086982
 21
-193.3480618645249
 31
0
 12
0
 22
0
 32
0
 70
0
  1
13,5
 13
-21.54807635039589
 23
-186.348061864525
 33
0
 14
-34.04807635039589
 24
-200.3480618645249
 34
0
 50
90
 53
0
  0
DIMENSION
  8
1
  6
CONTINUOUS
 62
1
  2
*D28
  3
DMST_1
 10
-69.0480763503959
 20
-211.3570649426357
 30
0
 11
-51.5480763503959
 21
-207.8570649426357
 31
0
 12
0
 22
0
 32
0
 70
0
  1
Ö<>
 13
-34.04807635039589
 23
-200.3480618645249
 33
0
 14
-69.0480763503959
 24
-200.3480618645249
 34
0
 53
0
  0
DIMENSION
  8
1
  6
CONTINUOUS
 62
1
  2
*D29
  3
DMST_2
 10
-111.5480763503959
 20
-92.27351782227599
 30
0
 11
-81.54807635039592
 21
-88.77351782227599
 31
0
 12
0
 22
0
 32
0
 70
0
  1
60/70
 13
-51.5480763503959
 23
-65.13093573076009
 33
0
 14
-111.5480763503959
 24
-111.080935730759
 34
0
 53
0
  0
DIMENSION
  8
1
  6
CONTINUOUS
 62
1
  2
*D30
  3
DMST_2
 10
-21.54807635039589
 20
-92.27351782227599
 30
0
 11
-36.54807635039589
 21
-88.77351782227599
 31
0
 12
0
 22
0
 32
0
 70
0
 13
-51.5480763503959
 23
-65.13093573076009
 33
0
 14
-21.54807635039589
 24
-54.80580946491219
 34
0
 53
0
  0
DIMENSION
  8
1
  6
CONTINUOUS
 62
1
  2
*D31
  3
DMST_2
 10
-146.6819354191095
 20
-7.080935730758991
 30
0
 11
-150.1819354191095
 21
-22.08093573075899
 31
0
 12
0
 22
0
 32
0
 70
0
 13
-130.476279580671
 23
-37.08093573075899
 33
0
 14
-130.476279580671
 24
-7.080935730758995
 34
0
 50
90
 53
0
  0
DIMENSION
  8
1
  6
CONTINUOUS
 62
1
  2
*D32
  3
DMST_2
 10
-146.7393989900014
 20
36.91906426923981
 30
0
 11
-150.2393989900014
 21
51.91906426923978
 31
0
 12
0
 22
0
 32
0
 70
0
 13
-119.548076350395
 23
66.91906426923978
 33
0
 14
-119.548076350395
 24
36.91906426923981
 34
0
 50
90
 53
0
  0
DIMENSION
  8
1
  6
CONTINUOUS
 62
1
  2
*D33
  3
DMST_2
 10
-146.7095094936664
 20
36.91906426923981
 30
0
 11
-150.2095094936664
 21
14.91906426924041
 31
0
 12
0
 22
0
 32
0
 70
0
 13
-130.476279580671
 23
-7.080935730758995
 33
0
 14
-119.548076350395
 24
36.91906426923981
 34
0
 50
90
 53
0
  0
DIMENSION
  8
1
  6
CONTINUOUS
 62
1
  2
*D34
  3
DMST_2
 10
23.64461701305001
 20
-76.08093573076019
 30
0
 11
20.14461701305001
 21
3.919064269239783
 31
0
 12
0
 22
0
 32
0
 70
0
 13
-64.5480763503959
 23
83.91906426923978
 33
0
 14
-64.5480763503959
 24
-76.08093573076019
 34
0
 50
90
 53
0
  0
DIMENSION
  8
1
  6
CONTINUOUS
 62
1
  2
*D35
  3
DMST_2
 10
8.391319278319003
 20
-46.08093573076019
 30
0
 11
4.891319278319003
 21
-61.08093573076019
 31
0
 12
0
 22
0
 32
0
 70
0
 13
-64.5480763503959
 23
-76.08093573076019
 33
0
 14
-40.43557635039599
 24
-46.08093573076019
 34
0
 50
90
 53
0
  0
DIMENSION
  8
1
  6
CONTINUOUS
 62
1
  2
*D36
  3
DMST_2
 10
8.390864557438231
 20
83.91906426923978
 30
0
 11
4.89086455743823
 21
57.9190642692398
 31
0
 12
0
 22
0
 32
0
 70
0
 13
-41.64807635039611
 23
31.91906426923981
 33
0
 14
-64.5480763503959
 24
83.91906426923978
 34
0
 50
90
 53
0
  0
DIMENSION
  8
1
  6
CONTINUOUS
 62
1
  2
*D37
  3
DMST_2
 10
8.402836749745941
 20
31.91906426923981
 30
0
 11
4.90283674974594
 21
-7.080935730760187
 31
0
 12
0
 22
0
 32
0
 70
0
 13
-40.43557635039599
 23
-46.08093573076019
 33
0
 14
-41.64807635039611
 24
31.91906426923981
 34
0
 50
90
 53
0
  0
DIMENSION
  8
1
  6
CONTINUOUS
 62
1
  2
*D38
  3
DMST_2
 10
-80.8912127745172
 20
-139.348061864525
 30
0
 11
-84.6412127745172
 21
-124.5027353680448
 31
0
 12
0
 22
0
 32
0
 70
0
  1
1,5/2,5
 13
-21.54807635039589
 23
-141.348061864525
 33
0
 14
-108.5480763503959
 24
-139.348061864525
 34
0
 50
90
 53
0
  0
DIMENSION
  8
1
  6
CONTINUOUS
 62
1
  2
*D39
  3
DMST_2
 10
-6.61904921835699
 20
-141.3480618645249
 30
0
 11
-10.11904921835699
 21
-147.8480618645249
 31
0
 12
0
 22
0
 32
0
 70
0
 13
-21.54807635039589
 23
-154.3480618645249
 33
0
 14
-21.54807635039589
 24
-141.348061864525
 34
0
 50
90
 53
0
  0
DIMENSION
  8
1
  6
CONTINUOUS
 62
1
  2
*D40
  3
DMST_2
 10
-80.8912127745172
 20
-184.3480618645249
 30
0
 11
-84.6412127745172
 21
-171.0879365154624
 31
0
 12
0
 22
0
 32
0
 70
0
  1
1,5/2,5
 13
-21.54807635039589
 23
-186.348061864525
 33
0
 14
-108.5480763503959
 24
-184.348061864525
 34
0
 50
90
 53
0
  0
DIMENSION
  8
1
  6
CONTINUOUS
 62
1
  2
*D41
  3
DMST_2
 10
-111.5480763503959
 20
-51.84208849311
 30
0
 11
-121.5480763503959
 21
-48.34208849311
 31
0
 12
0
 22
0
 32
0
 70
0
 13
-131.5480763503959
 23
-37.08093573075899
 33
0
 14
-111.5480763503959
 24
-37.08093573075899
 34
0
 53
0
  0
DIMENSION
  8
1
  6
CONTINUOUS
 62
1
  2
*D42
  3
DMST_3
 10
-50.22053016566055
 20
13.38556408002604
 30
0
 11
-58.9842232957895
 21
2.982917323846209
 31
0
 12
0
 22
0
 32
0
 70
3
 15
-52.87562253513124
 25
7.452564458453574
 35
0
 40
0
 53
0
  0
DIMENSION
  8
1
  6
CONTINUOUS
 62
1
  2
*D43
  3
DMST_4
 10
-67.78858450803136
 20
34.45829737628681
 30
0
 11
-82.5902767299611
 21
25.93410224400901
 31
0
 12
0
 22
0
 32
0
 70
3
 15
-73.30756819276043
 25
29.37983116219281
 35
0
 40
0
 53
0
  0
DIMENSION
  8
1
  6
CONTINUOUS
 62
1
  2
*D44
  3
DMST_4
 10
-67.39981013090232
 20
-52.0435551057413
 30
0
 11
-85.8676012329328
 21
-59.528125385176
 31
0
 12
0
 22
0
 32
0
 70
3
 15
-73.69634256988948
 25
-56.11831635577908
 35
0
 40
0
 53
0
  0
INSERT
  8
1
  2
*D19
 10
0
 20
0
 30
0
  0
INSERT
  8
1
  2
*D20
 10
0
 20
0
 30
0
  0
INSERT
  8
1
  2
*D21
 10
0
 20
0
 30
0
  0
INSERT
  8
1
  2
*D22
 10
0
 20
0
 30
0
  0
INSERT
  8
1
  2
*D23
 10
0
 20
0
 30
0
  0
INSERT
  8
1
  2
*D24
 10
0
 20
0
 30
0
  0
INSERT
  8
1
  2
*D25
 10
0
 20
0
 30
0
  0
INSERT
  8
1
  2
*D26
 10
0
 20
0
 30
0
  0
ENDSEC
  0
EOF
