  0
SECTION
  2
HEADER
  9
$ACADVER
  1
AC1015
  9
$ACADMAINTVER
 70
     6
  9
$DWGCODEPAGE
  3
ANSI_1252
  9
$INSBASE
 10
0.0
 20
0.0
 30
0.0
  9
$EXTMIN
 10
0.0
 20
0.0
 30
0.0
  9
$EXTMAX
 10
420.0
 20
297.0
 30
0.0
  9
$LIMMIN
 10
0.0
 20
0.0
  9
$LIMMAX
 10
420.0
 20
297.0
  9
$ORTHOMODE
 70
     0
  9
$REGENMODE
 70
     1
  9
$FILLMODE
 70
     1
  9
$QTEXTMODE
 70
     0
  9
$MIRRTEXT
 70
     1
  9
$LTSCALE
 40
1.0
  9
$ATTMODE
 70
     1
  9
$TEXTSIZE
 40
4.2333333333
  9
$TRACEWID
 40
1.0
  9
$TEXTSTYLE
  7
Standard
  9
$CLAYER
  8
0
  9
$CELTYPE
  6
ByLayer
  9
$CECOLOR
 62
   256
  9
$CELTSCALE
 40
1.0
  9
$DISPSILH
 70
     0
  9
$DIMSCALE
 40
1.0
  9
$DIMASZ
 40
3.0
  9
$DIMEXO
 40
0.2
  9
$DIMDLI
 40
3.75
  9
$DIMRND
 40
0.0
  9
$DIMDLE
 40
0.0
  9
$DIMEXE
 40
0.5
  9
$DIMTP
 40
0.0
  9
$DIMTM
 40
0.0
  9
$DIMTXT
 40
2.5
  9
$DIMCEN
 40
2.5
  9
$DIMTSZ
 40
0.0
  9
$DIMTOL
 70
     0
  9
$DIMLIM
 70
     0
  9
$DIMTIH
 70
     1
  9
$DIMTOH
 70
     1
  9
$DIMSE1
 70
     0
  9
$DIMSE2
 70
     0
  9
$DIMTAD
 70
     1
  9
$DIMZIN
 70
     0
  9
$DIMBLK
  1

  9
$DIMASO
 70
     1
  9
$DIMSHO
 70
     1
  9
$DIMPOST
  1

  9
$DIMAPOST
  1

  9
$DIMALT
 70
     0
  9
$DIMALTD
 70
     3
  9
$DIMALTF
 40
0.0393700787
  9
$DIMLFAC
 40
1.0
  9
$DIMTOFL
 70
     1
  9
$DIMTVP
 40
0.0
  9
$DIMTIX
 70
     0
  9
$DIMSOXD
 70
     0
  9
$DIMSAH
 70
     0
  9
$DIMBLK1
  1

  9
$DIMBLK2
  1

  9
$DIMSTYLE
  2
ISO-25
  9
$DIMCLRD
 70
     0
  9
$DIMCLRE
 70
     0
  9
$DIMCLRT
 70
     0
  9
$DIMTFAC
 40
1.0
  9
$DIMGAP
 40
1.524
  9
$DIMJUST
 70
     0
  9
$DIMSD1
 70
     0
  9
$DIMSD2
 70
     0
  9
$DIMTOLJ
 70
     0
  9
$DIMTZIN
 70
     0
  9
$DIMALTZ
 70
     0
  9
$DIMALTTZ
 70
     0
  9
$DIMUPT
 70
     0
  9
$DIMDEC
 70
     2
  9
$DIMTDEC
 70
     3
  9
$DIMALTU
 70
     2
  9
$DIMALTTD
 70
     3
  9
$DIMTXSTY
  7
Standard
  9
$DIMAUNIT
 70
     0
  9
$DIMADEC
 70
     1
  9
$DIMALTRND
 40
0.0
  9
$DIMAZIN
 70
     0
  9
$DIMDSEP
 70
    44
  9
$DIMATFIT
 70
     3
  9
$DIMFRAC
 70
     0
  9
$DIMLDRBLK
  1

  9
$DIMLUNIT
 70
     2
  9
$DIMLWD
 70
    -2
  9
$DIMLWE
 70
    -2
  9
$DIMTMOVE
 70
     0
  9
$LUNITS
 70
     2
  9
$LUPREC
 70
     2
  9
$SKETCHINC
 40
1.0
  9
$FILLETRAD
 40
10.0
  9
$AUNITS
 70
     0
  9
$AUPREC
 70
     1
  9
$MENU
  1
.
  9
$ELEVATION
 40
0.0
  9
$PELEVATION
 40
0.0
  9
$THICKNESS
 40
0.0
  9
$LIMCHECK
 70
     0
  9
$CHAMFERA
 40
0.0
  9
$CHAMFERB
 40
0.0
  9
$CHAMFERC
 40
0.0
  9
$CHAMFERD
 40
0.0
  9
$SKPOLY
 70
     0
  9
$TDCREATE
 40
2459033.441324838
  9
$TDUCREATE
 40
2459033.357991504
  9
$TDUPDATE
 40
2459033.441327083
  9
$TDUUPDATE
 40
2459033.35799375
  9
$TDINDWG
 40
0.0000000116
  9
$TDUSRTIMER
 40
0.0000000116
  9
$USRTIMER
 70
     1
  9
$ANGBASE
 50
0.0
  9
$ANGDIR
 70
     0
  9
$PDMODE
 70
     0
  9
$PDSIZE
 40
-1.0
  9
$PLINEWID
 40
0.0
  9
$SPLFRAME
 70
     0
  9
$SPLINETYPE
 70
     6
  9
$SPLINESEGS
 70
     8
  9
$HANDSEED
  5
3EA
  9
$SURFTAB1
 70
     6
  9
$SURFTAB2
 70
     6
  9
$SURFTYPE
 70
     6
  9
$SURFU
 70
     6
  9
$SURFV
 70
     6
  9
$UCSBASE
  2

  9
$UCSNAME
  2

  9
$UCSORG
 10
0.0
 20
0.0
 30
0.0
  9
$UCSXDIR
 10
1.0
 20
0.0
 30
0.0
  9
$UCSYDIR
 10
0.0
 20
1.0
 30
0.0
  9
$UCSORTHOREF
  2

  9
$UCSORTHOVIEW
 70
     0
  9
$UCSORGTOP
 10
0.0
 20
0.0
 30
0.0
  9
$UCSORGBOTTOM
 10
0.0
 20
0.0
 30
0.0
  9
$UCSORGLEFT
 10
0.0
 20
0.0
 30
0.0
  9
$UCSORGRIGHT
 10
0.0
 20
0.0
 30
0.0
  9
$UCSORGFRONT
 10
0.0
 20
0.0
 30
0.0
  9
$UCSORGBACK
 10
0.0
 20
0.0
 30
0.0
  9
$PUCSBASE
  2

  9
$PUCSNAME
  2

  9
$PUCSORG
 10
0.0
 20
0.0
 30
0.0
  9
$PUCSXDIR
 10
1.0
 20
0.0
 30
0.0
  9
$PUCSYDIR
 10
0.0
 20
1.0
 30
0.0
  9
$PUCSORTHOREF
  2

  9
$PUCSORTHOVIEW
 70
     0
  9
$PUCSORGTOP
 10
0.0
 20
0.0
 30
0.0
  9
$PUCSORGBOTTOM
 10
0.0
 20
0.0
 30
0.0
  9
$PUCSORGLEFT
 10
0.0
 20
0.0
 30
0.0
  9
$PUCSORGRIGHT
 10
0.0
 20
0.0
 30
0.0
  9
$PUCSORGFRONT
 10
0.0
 20
0.0
 30
0.0
  9
$PUCSORGBACK
 10
0.0
 20
0.0
 30
0.0
  9
$USERI1
 70
     0
  9
$USERI2
 70
     0
  9
$USERI3
 70
     0
  9
$USERI4
 70
     0
  9
$USERI5
 70
     0
  9
$USERR1
 40
0.0
  9
$USERR2
 40
0.0
  9
$USERR3
 40
0.0
  9
$USERR4
 40
0.0
  9
$USERR5
 40
0.0
  9
$WORLDVIEW
 70
     1
  9
$SHADEDGE
 70
     3
  9
$SHADEDIF
 70
    70
  9
$TILEMODE
 70
     1
  9
$MAXACTVP
 70
    64
  9
$PINSBASE
 10
0.0
 20
0.0
 30
0.0
  9
$PLIMCHECK
 70
     0
  9
$PEXTMIN
 10
1.0000000000E+20
 20
1.0000000000E+20
 30
1.0000000000E+20
  9
$PEXTMAX
 10
-1.0000000000E+20
 20
-1.0000000000E+20
 30
-1.0000000000E+20
  9
$PLIMMIN
 10
0.0
 20
0.0
  9
$PLIMMAX
 10
420.0
 20
297.0
  9
$UNITMODE
 70
     0
  9
$VISRETAIN
 70
     1
  9
$PLINEGEN
 70
     0
  9
$PSLTSCALE
 70
     1
  9
$TREEDEPTH
 70
  3020
  9
$CMLSTYLE
  2
Standard
  9
$CMLJUST
 70
     0
  9
$CMLSCALE
 40
20.0
  9
$PROXYGRAPHICS
 70
     1
  9
$MEASUREMENT
 70
     1
  9
$CELWEIGHT
370
    -1
  9
$ENDCAPS
280
     0
  9
$JOINSTYLE
280
     0
  9
$LWDISPLAY
290
     1
  9
$INSUNITS
 70
     4
  9
$HYPERLINKBASE
  1

  9
$STYLESHEET
  1

  9
$XEDIT
290
     1
  9
$CEPSNTYPE
380
     0
  9
$PSTYLEMODE
290
     1
  9
$FINGERPRINTGUID
  2
{4029c402-73b7-4ac9-9ef3-04e964c4aa6a}
  9
$VERSIONGUID
  2
{FAEB1C32-E019-11D5-929B-00C0DF256EC4}
  9
$EXTNAMES
290
     1
  9
$PSVPSCALE
 40
0.0
  9
$OLESTARTUP
290
     0
  0
ENDSEC
  0
SECTION
  2
CLASSES
  0
CLASS
  1
ACDBDICTIONARYWDFLT
  2
AcDbDictionaryWithDefault
  3
ObjectDBX Classes
 90
        0
280
     0
281
     0
  0
CLASS
  1
VISUALSTYLE
  2
AcDbVisualStyle
  3
ObjectDBX Classes
 90
     4095
280
     0
281
     0
  0
CLASS
  1
MATERIAL
  2
AcDbMaterial
  3
ObjectDBX Classes
 90
     1153
280
     0
281
     0
  0
CLASS
  1
SCALE
  2
AcDbScale
  3
ObjectDBX Classes
 90
     1153
280
     0
281
     0
  0
CLASS
  1
TABLESTYLE
  2
AcDbTableStyle
  3
ObjectDBX Classes
 90
     4095
280
     0
281
     0
  0
CLASS
  1
MLEADERSTYLE
  2
AcDbMLeaderStyle
  3
ACDB_MLEADERSTYLE_CLASS
 90
     4095
280
     0
281
     0
  0
CLASS
  1
SUN
  2
AcDbSun
  3
SCENEOE
 90
     1153
280
     0
281
     0
  0
CLASS
  1
ACDBPLACEHOLDER
  2
AcDbPlaceHolder
  3
ObjectDBX Classes
 90
        0
280
     0
281
     0
  0
CLASS
  1
LAYOUT
  2
AcDbLayout
  3
ObjectDBX Classes
 90
        0
280
     0
281
     0
  0
ENDSEC
  0
SECTION
  2
TABLES
  0
TABLE
  2
VPORT
  5
8
330
0
100
AcDbSymbolTable
 70
     1
  0
VPORT
  5
29
330
8
100
AcDbSymbolTableRecord
100
AcDbViewportTableRecord
  2
*Active
 70
     0
 10
0.0
 20
0.0
 11
1.0
 21
1.0
 12
210.0
 22
148.5
 13
0.0
 23
0.0
 14
10.0
 24
10.0
 15
10.0
 25
10.0
 16
0.0
 26
0.0
 36
1.0
 17
0.0
 27
0.0
 37
0.0
 40
297.0
 41
1.4141414141
 42
50.0
 43
0.0
 44
0.0
 50
0.0
 51
0.0
 71
     0
 72
  2000
 73
     1
 74
     3
 75
     0
 76
     0
 77
     0
 78
     0
281
     0
 65
     1
110
0.0
120
0.0
130
0.0
111
1.0
121
0.0
131
0.0
112
0.0
122
1.0
132
0.0
 79
     0
146
0.0
  0
ENDTAB
  0
TABLE
  2
LTYPE
  5
5
330
0
100
AcDbSymbolTable
 70
     6
  0
LTYPE
  5
14
330
5
100
AcDbSymbolTableRecord
100
AcDbLinetypeTableRecord
  2
ByBlock
 70
     0
  3

 72
    65
 73
     0
 40
0.0
  0
LTYPE
  5
15
330
5
100
AcDbSymbolTableRecord
100
AcDbLinetypeTableRecord
  2
ByLayer
 70
     0
  3

 72
    65
 73
     0
 40
0.0
  0
LTYPE
  5
16
330
5
100
AcDbSymbolTableRecord
100
AcDbLinetypeTableRecord
  2
Continuous
 70
     0
  3
Solid line
 72
    65
 73
     0
 40
0.0
  0
LTYPE
  5
6E
330
5
100
AcDbSymbolTableRecord
100
AcDbLinetypeTableRecord
  2
HIDDEN
 70
     0
  3
Hidden __ __ __ __ __ __ __ __ __ __ __ __ __ __
 72
    65
 73
     2
 40
1.905
 49
1.27
 74
     0
 49
-0.635
 74
     0
  0
LTYPE
  5
6F
330
5
100
AcDbSymbolTableRecord
100
AcDbLinetypeTableRecord
  2
PHANTOM
 70
     0
  3
Phantom ______  __  __  ______  __  __  ______
 72
    65
 73
     6
 40
12.7
 49
6.35
 74
     0
 49
-1.27
 74
     0
 49
1.27
 74
     0
 49
-1.27
 74
     0
 49
1.27
 74
     0
 49
-1.27
 74
     0
  0
LTYPE
  5
70
330
5
100
AcDbSymbolTableRecord
100
AcDbLinetypeTableRecord
  2
CENTER
 70
     0
  3
Center ____ _ ____ _ ____ _ ____ _ ____ _ ____
 72
    65
 73
     4
 40
10.16
 49
6.35
 74
     0
 49
-1.27
 74
     0
 49
1.27
 74
     0
 49
-1.27
 74
     0
  0
LTYPE
  5
71
330
5
100
AcDbSymbolTableRecord
100
AcDbLinetypeTableRecord
  2
CENTERX2
 70
     0
  3
Center (2x) ________  __  ________  __  _____
 72
    65
 73
     4
 40
20.32
 49
12.7
 74
     0
 49
-2.54
 74
     0
 49
2.54
 74
     0
 49
-2.54
 74
     0
  0
LTYPE
  5
72
330
5
100
AcDbSymbolTableRecord
100
AcDbLinetypeTableRecord
  2
DOT2
 70
     0
  3
Dot (.5x) ........................................
 72
    65
 73
     2
 40
0.635
 49
0.0
 74
     0
 49
-0.635
 74
     0
  0
ENDTAB
  0
TABLE
  2
LAYER
  5
2
330
0
100
AcDbSymbolTable
 70
     4
  0
LAYER
  5
10
330
2
100
AcDbSymbolTableRecord
100
AcDbLayerTableRecord
  2
0
 70
     0
 62
     7
  6
Continuous
370
    -3
390
F
  0
LAYER
  5
73
330
2
100
AcDbSymbolTableRecord
100
AcDbLayerTableRecord
  2
VORLAGE_TEXT
 70
     0
 62
     7
  6
Continuous
370
    -3
390
F
  0
LAYER
  5
74
330
2
100
AcDbSymbolTableRecord
100
AcDbLayerTableRecord
  2
LINIEN-NORMAL
 70
     0
 62
     7
  6
Continuous
370
    25
390
F
  0
LAYER
  5
75
330
2
100
AcDbSymbolTableRecord
100
AcDbLayerTableRecord
  2
LINIEN-DÜNN
 70
     0
 62
     7
  6
Continuous
370
    -3
390
F
  0
ENDTAB
  0
TABLE
  2
STYLE
  5
3
330
0
100
AcDbSymbolTable
 70
     3
  0
STYLE
  5
11
330
3
100
AcDbSymbolTableRecord
100
AcDbTextStyleTableRecord
  2
Standard
 70
     0
 40
0.0
 41
1.0
 50
0.0
 71
     0
 42
4.2333333333
  3
txt
  4

  0
STYLE
  5
19C
330
3
100
AcDbSymbolTableRecord
100
AcDbTextStyleTableRecord
  2
SLDTEXTSTYLE0
 70
     0
 40
0.0
 41
0.605
 50
0.0
 71
     0
 42
4.2333333333
  3
TXT
  4

  0
STYLE
  5
21A
330
3
100
AcDbSymbolTableRecord
100
AcDbTextStyleTableRecord
  2
SLDTEXTSTYLE1
 70
     0
 40
0.0
 41
0.575
 50
0.0
 71
     0
 42
4.2333333333
  3
TXT
  4

  0
ENDTAB
  0
TABLE
  2
VIEW
  5
6
330
0
100
AcDbSymbolTable
 70
     0
  0
ENDTAB
  0
TABLE
  2
UCS
  5
7
330
0
100
AcDbSymbolTable
 70
     0
  0
ENDTAB
  0
TABLE
  2
APPID
  5
9
330
0
100
AcDbSymbolTable
 70
     1
  0
APPID
  5
12
330
9
100
AcDbSymbolTableRecord
100
AcDbRegAppTableRecord
  2
ACAD
 70
     0
  0
ENDTAB
  0
TABLE
  2
DIMSTYLE
  5
A
330
0
100
AcDbSymbolTable
 70
     8
100
AcDbDimStyleTable
  0
DIMSTYLE
105
27
330
A
100
AcDbSymbolTableRecord
100
AcDbDimStyleTableRecord
  2
ISO-25
 70
     0
 41
2.5
 42
0.625
 43
3.75
 44
1.25
 73
     0
 74
     0
 77
     1
 78
     8
140
2.5
141
2.5
143
0.0393700787
147
0.625
171
     3
172
     1
178
     0
271
     2
272
     2
274
     3
278
    44
283
     0
284
     8
340
11
  0
DIMSTYLE
105
19D
102
{ACAD_REACTORS
330
19B
330
1A7
330
1B1
330
1D0
330
1DA
330
1F1
330
207
330
336
330
3CC
102
}
330
A
100
AcDbSymbolTableRecord
100
AcDbDimStyleTableRecord
  2
SLDDIMSTYLE0
 70
     0
 41
3.0
 44
0.0
 45
0.000000001
 73
     0
 74
     0
 77
     1
 78
    12
 79
     3
140
2.5
147
0.625
173
     1
178
     0
271
     0
272
     3
276
     2
284
    12
340
19C
  0
DIMSTYLE
105
1BC
102
{ACAD_REACTORS
330
1BB
330
1C6
330
21C
330
23F
330
255
330
3B7
330
3E0
102
}
330
A
100
AcDbSymbolTableRecord
100
AcDbDimStyleTableRecord
  2
SLDDIMSTYLE1
 70
     0
 41
3.0
 44
0.0
 45
0.000000001
 73
     0
 74
     0
 77
     1
 78
    12
 79
     3
140
2.5
147
0.625
173
     1
178
     0
271
     2
272
     3
276
     2
284
    12
340
19C
  0
DIMSTYLE
105
1E5
102
{ACAD_REACTORS
330
1E4
330
35C
102
}
330
A
100
AcDbSymbolTableRecord
100
AcDbDimStyleTableRecord
  2
SLDDIMSTYLE2
 70
     0
 41
3.0
 44
0.0
 45
0.000000001
 73
     0
 74
     0
 77
     1
 78
    12
 79
     3
140
2.5
147
0.625
172
     1
173
     1
178
     0
271
     2
272
     3
276
     2
284
    12
289
     0
340
19C
  0
DIMSTYLE
105
1FC
102
{ACAD_REACTORS
330
1FB
102
}
330
A
100
AcDbSymbolTableRecord
100
AcDbDimStyleTableRecord
  2
SLDDIMSTYLE3
 70
     0
 41
3.0
 44
0.0
 45
0.000000001
 73
     0
 74
     0
 77
     1
 78
    12
 79
     3
140
2.5
147
0.625
172
     1
173
     1
178
     0
271
     0
272
     3
276
     2
284
    12
289
     0
340
19C
  0
DIMSTYLE
105
211
102
{ACAD_REACTORS
330
210
330
249
102
}
330
A
100
AcDbSymbolTableRecord
100
AcDbDimStyleTableRecord
  2
SLDDIMSTYLE4
 70
     0
 41
3.0
 44
0.0
 45
0.000000001
 73
     0
 74
     0
 77
     1
 78
    12
 79
     3
140
2.5
147
0.625
173
     1
178
     0
271
     6
272
     3
276
     2
284
    12
340
19C
  0
DIMSTYLE
105
227
102
{ACAD_REACTORS
330
226
330
233
330
340
330
34E
102
}
330
A
100
AcDbSymbolTableRecord
100
AcDbDimStyleTableRecord
  2
SLDDIMSTYLE5
 70
     0
 41
3.0
 44
0.0
 45
0.000000001
 73
     0
 74
     0
 77
     1
 78
     4
 79
     1
140
2.5
147
0.625
172
     1
173
     1
178
     0
271
     2
272
     3
276
     2
284
    12
289
     0
340
19C
  0
DIMSTYLE
105
3C2
102
{ACAD_REACTORS
330
3C1
330
3D6
102
}
330
A
100
AcDbSymbolTableRecord
100
AcDbDimStyleTableRecord
  2
SLDDIMSTYLE6
 70
     0
 41
3.0
 44
0.0
 45
0.000000001
 73
     0
 74
     0
 77
     1
 78
     4
 79
     1
140
2.5
147
0.625
173
     1
178
     0
271
     2
272
     3
276
     2
284
    12
340
19C
  0
ENDTAB
  0
TABLE
  2
BLOCK_RECORD
  5
1
330
0
100
AcDbSymbolTable
 70
    29
  0
BLOCK_RECORD
  5
1F
330
1
100
AcDbSymbolTableRecord
100
AcDbBlockTableRecord
  2
*Model_Space
340
22
  0
BLOCK_RECORD
  5
1B
330
1
100
AcDbSymbolTableRecord
100
AcDbBlockTableRecord
  2
*Paper_Space
340
1E
  0
BLOCK_RECORD
  5
23
330
1
100
AcDbSymbolTableRecord
100
AcDbBlockTableRecord
  2
*Paper_Space0
340
26
  0
BLOCK_RECORD
  5
19E
330
1
100
AcDbSymbolTableRecord
100
AcDbBlockTableRecord
  2
_D
340
0
  0
BLOCK_RECORD
  5
1A8
330
1
100
AcDbSymbolTableRecord
100
AcDbBlockTableRecord
  2
_D_1
340
0
  0
BLOCK_RECORD
  5
1B2
330
1
100
AcDbSymbolTableRecord
100
AcDbBlockTableRecord
  2
_D_2
340
0
  0
BLOCK_RECORD
  5
1BD
330
1
100
AcDbSymbolTableRecord
100
AcDbBlockTableRecord
  2
_D_3
340
0
  0
BLOCK_RECORD
  5
1C7
330
1
100
AcDbSymbolTableRecord
100
AcDbBlockTableRecord
  2
_D_4
340
0
  0
BLOCK_RECORD
  5
1D1
330
1
100
AcDbSymbolTableRecord
100
AcDbBlockTableRecord
  2
_D_5
340
0
  0
BLOCK_RECORD
  5
1DB
330
1
100
AcDbSymbolTableRecord
100
AcDbBlockTableRecord
  2
_D_6
340
0
  0
BLOCK_RECORD
  5
1E6
330
1
100
AcDbSymbolTableRecord
100
AcDbBlockTableRecord
  2
_D_7
340
0
  0
BLOCK_RECORD
  5
1F2
330
1
100
AcDbSymbolTableRecord
100
AcDbBlockTableRecord
  2
_D_8
340
0
  0
BLOCK_RECORD
  5
1FD
330
1
100
AcDbSymbolTableRecord
100
AcDbBlockTableRecord
  2
_D_9
340
0
  0
BLOCK_RECORD
  5
208
330
1
100
AcDbSymbolTableRecord
100
AcDbBlockTableRecord
  2
_D_10
340
0
  0
BLOCK_RECORD
  5
212
330
1
100
AcDbSymbolTableRecord
100
AcDbBlockTableRecord
  2
_D_11
340
0
  0
BLOCK_RECORD
  5
21D
330
1
100
AcDbSymbolTableRecord
100
AcDbBlockTableRecord
  2
_D_12
340
0
  0
BLOCK_RECORD
  5
228
330
1
100
AcDbSymbolTableRecord
100
AcDbBlockTableRecord
  2
_D_13
340
0
  0
BLOCK_RECORD
  5
234
330
1
100
AcDbSymbolTableRecord
100
AcDbBlockTableRecord
  2
_D_14
340
0
  0
BLOCK_RECORD
  5
240
330
1
100
AcDbSymbolTableRecord
100
AcDbBlockTableRecord
  2
_D_15
340
0
  0
BLOCK_RECORD
  5
24A
330
1
100
AcDbSymbolTableRecord
100
AcDbBlockTableRecord
  2
_D_16
340
0
  0
BLOCK_RECORD
  5
256
330
1
100
AcDbSymbolTableRecord
100
AcDbBlockTableRecord
  2
_D_17
340
0
  0
BLOCK_RECORD
  5
262
330
1
100
AcDbSymbolTableRecord
100
AcDbBlockTableRecord
  2
SW_CENTERMARKSYMBOL_0
340
0
102
{BLKREFS
331
26D
102
}
  0
BLOCK_RECORD
  5
337
330
1
100
AcDbSymbolTableRecord
100
AcDbBlockTableRecord
  2
_D_18
340
0
  0
BLOCK_RECORD
  5
341
330
1
100
AcDbSymbolTableRecord
100
AcDbBlockTableRecord
  2
_D_19
340
0
  0
BLOCK_RECORD
  5
34F
330
1
100
AcDbSymbolTableRecord
100
AcDbBlockTableRecord
  2
_D_20
340
0
  0
BLOCK_RECORD
  5
35D
330
1
100
AcDbSymbolTableRecord
100
AcDbBlockTableRecord
  2
_D_21
340
0
  0
BLOCK_RECORD
  5
3B8
330
1
100
AcDbSymbolTableRecord
100
AcDbBlockTableRecord
  2
_D_22
340
0
  0
BLOCK_RECORD
  5
3C3
330
1
100
AcDbSymbolTableRecord
100
AcDbBlockTableRecord
  2
_D_23
340
0
  0
BLOCK_RECORD
  5
3CD
330
1
100
AcDbSymbolTableRecord
100
AcDbBlockTableRecord
  2
_D_24
340
0
  0
BLOCK_RECORD
  5
3D7
330
1
100
AcDbSymbolTableRecord
100
AcDbBlockTableRecord
  2
_D_25
340
0
  0
BLOCK_RECORD
  5
3E1
330
1
100
AcDbSymbolTableRecord
100
AcDbBlockTableRecord
  2
_D_26
340
0
  0
ENDTAB
  0
ENDSEC
  0
SECTION
  2
BLOCKS
  0
BLOCK
  5
20
330
1F
100
AcDbEntity
  8
0
100
AcDbBlockBegin
  2
*Model_Space
 70
     0
 10
0.0
 20
0.0
 30
0.0
  3
*Model_Space
  1

  0
ENDBLK
  5
21
330
1F
100
AcDbEntity
  8
0
100
AcDbBlockEnd
  0
BLOCK
  5
1C
330
1B
100
AcDbEntity
 67
     1
  8
0
100
AcDbBlockBegin
  2
*Paper_Space
 70
     0
 10
0.0
 20
0.0
 30
0.0
  3
*Paper_Space
  1

  0
ENDBLK
  5
1D
330
1B
100
AcDbEntity
 67
     1
  8
0
100
AcDbBlockEnd
  0
BLOCK
  5
24
330
23
100
AcDbEntity
  8
0
100
AcDbBlockBegin
  2
*Paper_Space0
 70
     0
 10
0.0
 20
0.0
 30
0.0
  3
*Paper_Space0
  1

  0
ENDBLK
  5
25
330
23
100
AcDbEntity
  8
0
100
AcDbBlockEnd
  0
BLOCK
  5
19F
330
19E
100
AcDbEntity
  8
0
100
AcDbBlockBegin
  2
_D
 70
     0
 10
0.0
 20
0.0
 30
0.0
  3
_D
  1

  0
SOLID
  5
1A1
330
19E
100
AcDbEntity
  8
0
  6
Continuous
 62
     7
370
    18
100
AcDbTrace
 10
101.5977262764
 20
145.1386103999
 30
0.0
 11
102.0977262764
 21
148.1386103999
 31
0.0
 12
101.0977262764
 22
148.1386103999
 32
0.0
 13
101.0977262764
 23
148.1386103999
 33
0.0
  0
SOLID
  5
1A2
330
19E
100
AcDbEntity
  8
0
  6
Continuous
 62
     7
370
    18
100
AcDbTrace
 10
101.5977262764
 20
178.9346488145
 30
0.0
 11
101.0977262764
 21
175.9346488145
 31
0.0
 12
102.0977262764
 22
175.9346488145
 32
0.0
 13
102.0977262764
 23
175.9346488145
 33
0.0
  0
LINE
  5
1A3
330
19E
100
AcDbEntity
  8
0
  6
Continuous
 62
     7
370
     0
100
AcDbLine
 10
137.7958216949
 20
145.1386103999
 30
0.0
 11
101.0977262764
 21
145.1386103999
 31
0.0
  0
LINE
  5
1A4
330
19E
100
AcDbEntity
  8
0
  6
Continuous
 62
     7
370
     0
100
AcDbLine
 10
128.3671800548
 20
178.9346488145
 30
0.0
 11
101.0977262764
 21
178.9346488145
 31
0.0
  0
LINE
  5
1A5
330
19E
100
AcDbEntity
  8
0
  6
Continuous
 62
     7
370
     0
100
AcDbLine
 10
101.5977262764
 20
145.1386103999
 30
0.0
 11
101.5977262764
 21
178.9346488145
 31
0.0
  0
MTEXT
  5
1A6
330
19E
100
AcDbEntity
  8
0
  6
Continuous
 62
     7
370
    18
100
AcDbMText
 10
98.3750571016
 20
160.1269073824
 30
0.0
 40
2.5
 41
0.0
 71
     1
 72
     1
  1
34
  7
SLDTEXTSTYLE0
 11
6.123233995736766E-17
 21
1.0
 31
0.0
 73
     1
 44
1.0
  0
ENDBLK
  5
1A0
330
19E
100
AcDbEntity
  8
0
100
AcDbBlockEnd
  0
BLOCK
  5
1A9
330
1A8
100
AcDbEntity
  8
0
100
AcDbBlockBegin
  2
_D_1
 70
     0
 10
0.0
 20
0.0
 30
0.0
  3
_D_1
  1

  0
SOLID
  5
1AB
330
1A8
100
AcDbEntity
  8
0
  6
Continuous
 62
     7
370
    18
100
AcDbTrace
 10
101.5977262764
 20
211.0090441523
 30
0.0
 11
101.0977262764
 21
208.0090441523
 31
0.0
 12
102.0977262764
 22
208.0090441523
 32
0.0
 13
102.0977262764
 23
208.0090441523
 33
0.0
  0
SOLID
  5
1AC
330
1A8
100
AcDbEntity
  8
0
  6
Continuous
 62
     7
370
    18
100
AcDbTrace
 10
101.5977262764
 20
178.9346488145
 30
0.0
 11
102.0977262764
 21
181.9346488145
 31
0.0
 12
101.0977262764
 22
181.9346488145
 32
0.0
 13
101.0977262764
 23
181.9346488145
 33
0.0
  0
LINE
  5
1AD
330
1A8
100
AcDbEntity
  8
0
  6
Continuous
 62
     7
370
     0
100
AcDbLine
 10
136.4564885089
 20
211.0090441523
 30
0.0
 11
101.0977262764
 21
211.0090441523
 31
0.0
  0
LINE
  5
1AE
330
1A8
100
AcDbEntity
  8
0
  6
Continuous
 62
     7
370
     0
100
AcDbLine
 10
128.3671800548
 20
178.9346488145
 30
0.0
 11
101.0977262764
 21
178.9346488145
 31
0.0
  0
LINE
  5
1AF
330
1A8
100
AcDbEntity
  8
0
  6
Continuous
 62
     7
370
     0
100
AcDbLine
 10
101.5977262764
 20
211.0090441523
 30
0.0
 11
101.5977262764
 21
178.9346488145
 31
0.0
  0
MTEXT
  5
1B0
330
1A8
100
AcDbEntity
  8
0
  6
Continuous
 62
     7
370
    18
100
AcDbMText
 10
98.3750571016
 20
193.0621242586
 30
0.0
 40
2.5
 41
0.0
 71
     1
 72
     1
  1
32
  7
SLDTEXTSTYLE0
 11
-7.044195017643634E-15
 21
1.0
 31
0.0
 73
     1
 44
1.0
  0
ENDBLK
  5
1AA
330
1A8
100
AcDbEntity
  8
0
100
AcDbBlockEnd
  0
BLOCK
  5
1B3
330
1B2
100
AcDbEntity
  8
0
100
AcDbBlockBegin
  2
_D_2
 70
     0
 10
0.0
 20
0.0
 30
0.0
  3
_D_2
  1

  0
SOLID
  5
1B5
330
1B2
100
AcDbEntity
  8
0
  6
Continuous
 62
     7
370
    18
100
AcDbTrace
 10
110.0629868377
 20
197.9045691832
 30
0.0
 11
109.5629868377
 21
194.9045691832
 31
0.0
 12
110.5629868377
 22
194.9045691832
 32
0.0
 13
110.5629868377
 23
194.9045691832
 33
0.0
  0
SOLID
  5
1B6
330
1B2
100
AcDbEntity
  8
0
  6
Continuous
 62
     7
370
    18
100
AcDbTrace
 10
110.0629868377
 20
178.9346488145
 30
0.0
 11
110.5629868377
 21
181.9346488145
 31
0.0
 12
109.5629868377
 22
181.9346488145
 32
0.0
 13
109.5629868377
 23
181.9346488145
 33
0.0
  0
LINE
  5
1B7
330
1B2
100
AcDbEntity
  8
0
  6
Continuous
 62
     7
370
     0
100
AcDbLine
 10
132.1461601404
 20
197.9045691832
 30
0.0
 11
109.5629868377
 21
197.9045691832
 31
0.0
  0
LINE
  5
1B8
330
1B2
100
AcDbEntity
  8
0
  6
Continuous
 62
     7
370
     0
100
AcDbLine
 10
128.3671800548
 20
178.9346488145
 30
0.0
 11
109.5629868377
 21
178.9346488145
 31
0.0
  0
LINE
  5
1B9
330
1B2
100
AcDbEntity
  8
0
  6
Continuous
 62
     7
370
     0
100
AcDbLine
 10
110.0629868377
 20
197.9045691832
 30
0.0
 11
110.0629868377
 21
178.9346488145
 31
0.0
  0
MTEXT
  5
1BA
330
1B2
100
AcDbEntity
  8
0
  6
Continuous
 62
     7
370
    18
100
AcDbMText
 10
106.8403176629
 20
186.5098867741
 30
0.0
 40
2.5
 41
0.0
 71
     1
 72
     1
  1
19
  7
SLDTEXTSTYLE0
 11
-7.044195017643634E-15
 21
1.0
 31
0.0
 73
     1
 44
1.0
  0
ENDBLK
  5
1B4
330
1B2
100
AcDbEntity
  8
0
100
AcDbBlockEnd
  0
BLOCK
  5
1BE
330
1BD
100
AcDbEntity
  8
0
100
AcDbBlockBegin
  2
_D_3
 70
     0
 10
0.0
 20
0.0
 30
0.0
  3
_D_3
  1

  0
SOLID
  5
1C0
330
1BD
100
AcDbEntity
  8
0
  6
Continuous
 62
     7
370
    18
100
AcDbTrace
 10
229.5958216949
 20
171.1386103999
 30
0.0
 11
229.0958216949
 21
168.1386103999
 31
0.0
 12
230.0958216949
 22
168.1386103999
 32
0.0
 13
230.0958216949
 23
168.1386103999
 33
0.0
  0
SOLID
  5
1C1
330
1BD
100
AcDbEntity
  8
0
  6
Continuous
 62
     7
370
    18
100
AcDbTrace
 10
229.5958216949
 20
145.1386103999
 30
0.0
 11
230.0958216949
 21
148.1386103999
 31
0.0
 12
229.0958216949
 22
148.1386103999
 32
0.0
 13
229.0958216949
 23
148.1386103999
 33
0.0
  0
LINE
  5
1C2
330
1BD
100
AcDbEntity
  8
0
  6
Continuous
 62
     7
370
     0
100
AcDbLine
 10
194.7958216949
 20
171.1386103999
 30
0.0
 11
230.0958216949
 21
171.1386103999
 31
0.0
  0
LINE
  5
1C3
330
1BD
100
AcDbEntity
  8
0
  6
Continuous
 62
     7
370
     0
100
AcDbLine
 10
211.7958216949
 20
145.1386103999
 30
0.0
 11
230.0958216949
 21
145.1386103999
 31
0.0
  0
LINE
  5
1C4
330
1BD
100
AcDbEntity
  8
0
  6
Continuous
 62
     7
370
     0
100
AcDbLine
 10
229.5958216949
 20
171.1386103999
 30
0.0
 11
229.5958216949
 21
145.1386103999
 31
0.0
  0
MTEXT
  5
1C5
330
1BD
100
AcDbEntity
  8
0
  6
Continuous
 62
     7
370
    18
100
AcDbMText
 10
226.3731525201
 20
156.2288881751
 30
0.0
 40
2.5
 41
0.0
 71
     1
 72
     1
  1
26
  7
SLDTEXTSTYLE0
 11
-7.044195017643634E-15
 21
1.0
 31
0.0
 73
     1
 44
1.0
  0
ENDBLK
  5
1BF
330
1BD
100
AcDbEntity
  8
0
100
AcDbBlockEnd
  0
BLOCK
  5
1C8
330
1C7
100
AcDbEntity
  8
0
100
AcDbBlockBegin
  2
_D_4
 70
     0
 10
0.0
 20
0.0
 30
0.0
  3
_D_4
  1

  0
SOLID
  5
1CA
330
1C7
100
AcDbEntity
  8
0
  6
Continuous
 62
     7
370
    18
100
AcDbTrace
 10
229.5958216949
 20
231.1386103999
 30
0.0
 11
229.0958216949
 21
228.1386103999
 31
0.0
 12
230.0958216949
 22
228.1386103999
 32
0.0
 13
230.0958216949
 23
228.1386103999
 33
0.0
  0
SOLID
  5
1CB
330
1C7
100
AcDbEntity
  8
0
  6
Continuous
 62
     7
370
    18
100
AcDbTrace
 10
229.5958216949
 20
171.1386103999
 30
0.0
 11
230.0958216949
 21
174.1386103999
 31
0.0
 12
229.0958216949
 22
174.1386103999
 32
0.0
 13
229.0958216949
 23
174.1386103999
 33
0.0
  0
LINE
  5
1CC
330
1C7
100
AcDbEntity
  8
0
  6
Continuous
 62
     7
370
     0
100
AcDbLine
 10
211.7958216949
 20
231.1386103999
 30
0.0
 11
230.0958216949
 21
231.1386103999
 31
0.0
  0
LINE
  5
1CD
330
1C7
100
AcDbEntity
  8
0
  6
Continuous
 62
     7
370
     0
100
AcDbLine
 10
194.7958216949
 20
171.1386103999
 30
0.0
 11
230.0958216949
 21
171.1386103999
 31
0.0
  0
LINE
  5
1CE
330
1C7
100
AcDbEntity
  8
0
  6
Continuous
 62
     7
370
     0
100
AcDbLine
 10
229.5958216949
 20
231.1386103999
 30
0.0
 11
229.5958216949
 21
171.1386103999
 31
0.0
  0
MTEXT
  5
1CF
330
1C7
100
AcDbEntity
  8
0
  6
Continuous
 62
     7
370
    18
100
AcDbMText
 10
226.3731525201
 20
199.2288881751
 30
0.0
 40
2.5
 41
0.0
 71
     1
 72
     1
  1
60
  7
SLDTEXTSTYLE0
 11
-7.044195017643634E-15
 21
1.0
 31
0.0
 73
     1
 44
1.0
  0
ENDBLK
  5
1C9
330
1C7
100
AcDbEntity
  8
0
100
AcDbBlockEnd
  0
BLOCK
  5
1D2
330
1D1
100
AcDbEntity
  8
0
100
AcDbBlockBegin
  2
_D_5
 70
     0
 10
0.0
 20
0.0
 30
0.0
  3
_D_5
  1

  0
SOLID
  5
1D4
330
1D1
100
AcDbEntity
  8
0
  6
Continuous
 62
     7
370
    18
100
AcDbTrace
 10
101.5977262764
 20
231.1386103999
 30
0.0
 11
102.0977262764
 21
234.1386103999
 31
0.0
 12
101.0977262764
 22
234.1386103999
 32
0.0
 13
101.0977262764
 23
234.1386103999
 33
0.0
  0
SOLID
  5
1D5
330
1D1
100
AcDbEntity
  8
0
  6
Continuous
 62
     7
370
    18
100
AcDbTrace
 10
101.5977262764
 20
263.1386103999
 30
0.0
 11
101.0977262764
 21
260.1386103999
 31
0.0
 12
102.0977262764
 22
260.1386103999
 32
0.0
 13
102.0977262764
 23
260.1386103999
 33
0.0
  0
LINE
  5
1D6
330
1D1
100
AcDbEntity
  8
0
  6
Continuous
 62
     7
370
     0
100
AcDbLine
 10
137.7958216949
 20
231.1386103999
 30
0.0
 11
101.0977262764
 21
231.1386103999
 31
0.0
  0
LINE
  5
1D7
330
1D1
100
AcDbEntity
  8
0
  6
Continuous
 62
     7
370
     0
100
AcDbLine
 10
134.6958216949
 20
263.1386103999
 30
0.0
 11
101.0977262764
 21
263.1386103999
 31
0.0
  0
LINE
  5
1D8
330
1D1
100
AcDbEntity
  8
0
  6
Continuous
 62
     7
370
     0
100
AcDbLine
 10
101.5977262764
 20
231.1386103999
 30
0.0
 11
101.5977262764
 21
263.1386103999
 31
0.0
  0
MTEXT
  5
1D9
330
1D1
100
AcDbEntity
  8
0
  6
Continuous
 62
     7
370
    18
100
AcDbMText
 10
98.3750571016
 20
245.2288881751
 30
0.0
 40
2.5
 41
0.0
 71
     1
 72
     1
  1
32
  7
SLDTEXTSTYLE0
 11
2.832769448823990E-16
 21
1.0
 31
0.0
 73
     1
 44
1.0
  0
ENDBLK
  5
1D3
330
1D1
100
AcDbEntity
  8
0
100
AcDbBlockEnd
  0
BLOCK
  5
1DC
330
1DB
100
AcDbEntity
  8
0
100
AcDbBlockBegin
  2
_D_6
 70
     0
 10
0.0
 20
0.0
 30
0.0
  3
_D_6
  1

  0
SOLID
  5
1DE
330
1DB
100
AcDbEntity
  8
0
  6
Continuous
 62
     7
370
    18
100
AcDbTrace
 10
101.5977262764
 20
145.1386103999
 30
0.0
 11
101.0977262764
 21
142.1386103999
 31
0.0
 12
102.0977262764
 22
142.1386103999
 32
0.0
 13
102.0977262764
 23
142.1386103999
 33
0.0
  0
SOLID
  5
1DF
330
1DB
100
AcDbEntity
  8
0
  6
Continuous
 62
     7
370
    18
100
AcDbTrace
 10
101.5977262764
 20
117.1386103999
 30
0.0
 11
102.0977262764
 21
120.1386103999
 31
0.0
 12
101.0977262764
 22
120.1386103999
 32
0.0
 13
101.0977262764
 23
120.1386103999
 33
0.0
  0
LINE
  5
1E0
330
1DB
100
AcDbEntity
  8
0
  6
Continuous
 62
     7
370
     0
100
AcDbLine
 10
137.7958216949
 20
145.1386103999
 30
0.0
 11
101.0977262764
 21
145.1386103999
 31
0.0
  0
LINE
  5
1E1
330
1DB
100
AcDbEntity
  8
0
  6
Continuous
 62
     7
370
     0
100
AcDbLine
 10
134.6958216949
 20
117.1386103999
 30
0.0
 11
101.0977262764
 21
117.1386103999
 31
0.0
  0
LINE
  5
1E2
330
1DB
100
AcDbEntity
  8
0
  6
Continuous
 62
     7
370
     0
100
AcDbLine
 10
101.5977262764
 20
145.1386103999
 30
0.0
 11
101.5977262764
 21
117.1386103999
 31
0.0
  0
MTEXT
  5
1E3
330
1DB
100
AcDbEntity
  8
0
  6
Continuous
 62
     7
370
    18
100
AcDbMText
 10
98.3750571016
 20
129.2288881751
 30
0.0
 40
2.5
 41
0.0
 71
     1
 72
     1
  1
28
  7
SLDTEXTSTYLE0
 11
-7.044195017643634E-15
 21
1.0
 31
0.0
 73
     1
 44
1.0
  0
ENDBLK
  5
1DD
330
1DB
100
AcDbEntity
  8
0
100
AcDbBlockEnd
  0
BLOCK
  5
1E7
330
1E6
100
AcDbEntity
  8
0
100
AcDbBlockBegin
  2
_D_7
 70
     0
 10
0.0
 20
0.0
 30
0.0
  3
_D_7
  1

  0
SOLID
  5
1E9
330
1E6
100
AcDbEntity
  8
0
  6
Continuous
 62
     7
370
    18
100
AcDbTrace
 10
137.8958216949
 20
273.1386103999
 30
0.0
 11
140.8958216949
 21
272.6386103999
 31
0.0
 12
140.8958216949
 22
273.6386103999
 32
0.0
 13
140.8958216949
 23
273.6386103999
 33
0.0
  0
SOLID
  5
1EA
330
1E6
100
AcDbEntity
  8
0
  6
Continuous
 62
     7
370
    18
100
AcDbTrace
 10
134.8958216949
 20
273.1386103999
 30
0.0
 11
131.8958216949
 21
273.6386103999
 31
0.0
 12
131.8958216949
 22
272.6386103999
 32
0.0
 13
131.8958216949
 23
272.6386103999
 33
0.0
  0
LINE
  5
1EB
330
1E6
100
AcDbEntity
  8
0
  6
Continuous
 62
     7
370
     0
100
AcDbLine
 10
137.8958216949
 20
263.3386103999
 30
0.0
 11
137.8958216949
 21
273.6386103999
 31
0.0
  0
LINE
  5
1EC
330
1E6
100
AcDbEntity
  8
0
  6
Continuous
 62
     7
370
     0
100
AcDbLine
 10
134.8958216949
 20
263.3386103999
 30
0.0
 11
134.8958216949
 21
273.6386103999
 31
0.0
  0
LINE
  5
1ED
330
1E6
100
AcDbEntity
  8
0
  6
Continuous
 62
     7
370
     0
100
AcDbLine
 10
137.8958216949
 20
273.1386103999
 30
0.0
 11
145.7375497611
 21
273.1386103999
 31
0.0
  0
LINE
  5
1EE
330
1E6
100
AcDbEntity
  8
0
  6
Continuous
 62
     7
370
     0
100
AcDbLine
 10
137.8958216949
 20
273.1386103999
 30
0.0
 11
134.8958216949
 21
273.1386103999
 31
0.0
  0
LINE
  5
1EF
330
1E6
100
AcDbEntity
  8
0
  6
Continuous
 62
     7
370
     0
100
AcDbLine
 10
134.8958216949
 20
273.1386103999
 30
0.0
 11
129.3958216949
 21
273.1386103999
 31
0.0
  0
MTEXT
  5
1F0
330
1E6
100
AcDbEntity
  8
0
  6
Continuous
 62
     7
370
    18
100
AcDbMText
 10
143.8278275363
 20
276.3612795747
 30
0.0
 40
2.5
 41
0.0
 71
     1
 72
     1
  1
3
  7
SLDTEXTSTYLE0
 73
     1
 44
1.0
  0
ENDBLK
  5
1E8
330
1E6
100
AcDbEntity
  8
0
100
AcDbBlockEnd
  0
BLOCK
  5
1F3
330
1F2
100
AcDbEntity
  8
0
100
AcDbBlockBegin
  2
_D_8
 70
     0
 10
0.0
 20
0.0
 30
0.0
  3
_D_8
  1

  0
SOLID
  5
1F5
330
1F2
100
AcDbEntity
  8
0
  6
Continuous
 62
     7
370
    18
100
AcDbTrace
 10
101.5977262764
 20
231.1386103999
 30
0.0
 11
101.0977262764
 21
228.1386103999
 31
0.0
 12
102.0977262764
 22
228.1386103999
 32
0.0
 13
102.0977262764
 23
228.1386103999
 33
0.0
  0
SOLID
  5
1F6
330
1F2
100
AcDbEntity
  8
0
  6
Continuous
 62
     7
370
    18
100
AcDbTrace
 10
101.5977262764
 20
211.0090441523
 30
0.0
 11
102.0977262764
 21
214.0090441523
 31
0.0
 12
101.0977262764
 22
214.0090441523
 32
0.0
 13
101.0977262764
 23
214.0090441523
 33
0.0
  0
LINE
  5
1F7
330
1F2
100
AcDbEntity
  8
0
  6
Continuous
 62
     7
370
     0
100
AcDbLine
 10
137.7958216949
 20
231.1386103999
 30
0.0
 11
101.0977262764
 21
231.1386103999
 31
0.0
  0
LINE
  5
1F8
330
1F2
100
AcDbEntity
  8
0
  6
Continuous
 62
     7
370
     0
100
AcDbLine
 10
136.4564885089
 20
211.0090441523
 30
0.0
 11
101.0977262764
 21
211.0090441523
 31
0.0
  0
LINE
  5
1F9
330
1F2
100
AcDbEntity
  8
0
  6
Continuous
 62
     7
370
     0
100
AcDbLine
 10
101.5977262764
 20
231.1386103999
 30
0.0
 11
101.5977262764
 21
211.0090441523
 31
0.0
  0
MTEXT
  5
1FA
330
1F2
100
AcDbEntity
  8
0
  6
Continuous
 62
     7
370
    18
100
AcDbMText
 10
98.3750571016
 20
219.1641050513
 30
0.0
 40
2.5
 41
0.0
 71
     1
 72
     1
  1
20
  7
SLDTEXTSTYLE0
 11
-7.044195017643634E-15
 21
1.0
 31
0.0
 73
     1
 44
1.0
  0
ENDBLK
  5
1F4
330
1F2
100
AcDbEntity
  8
0
100
AcDbBlockEnd
  0
BLOCK
  5
1FE
330
1FD
100
AcDbEntity
  8
0
100
AcDbBlockBegin
  2
_D_9
 70
     0
 10
0.0
 20
0.0
 30
0.0
  3
_D_9
  1

  0
SOLID
  5
200
330
1FD
100
AcDbEntity
  8
0
  6
Continuous
 62
     7
370
    18
100
AcDbTrace
 10
129.672860301
 20
219.6975800514
 30
0.0
 11
126.672860301
 21
220.1975800514
 31
0.0
 12
126.672860301
 22
219.1975800514
 32
0.0
 13
126.672860301
 23
219.1975800514
 33
0.0
  0
SOLID
  5
201
330
1FD
100
AcDbEntity
  8
0
  6
Continuous
 62
     7
370
    18
100
AcDbTrace
 10
134.8958216949
 20
219.6975800514
 30
0.0
 11
137.8958216949
 21
219.1975800514
 31
0.0
 12
137.8958216949
 22
220.1975800514
 32
0.0
 13
137.8958216949
 23
220.1975800514
 33
0.0
  0
LINE
  5
202
330
1FD
100
AcDbEntity
  8
0
  6
Continuous
 62
     7
370
     0
100
AcDbLine
 10
129.672860301
 20
195.8474235292
 30
0.0
 11
129.672860301
 21
220.1975800514
 31
0.0
  0
LINE
  5
203
330
1FD
100
AcDbEntity
  8
0
  6
Continuous
 62
     7
370
     0
100
AcDbLine
 10
129.672860301
 20
219.6975800514
 30
0.0
 11
124.172860301
 21
219.6975800514
 31
0.0
  0
LINE
  5
204
330
1FD
100
AcDbEntity
  8
0
  6
Continuous
 62
     7
370
     0
100
AcDbLine
 10
129.672860301
 20
219.6975800514
 30
0.0
 11
134.8958216949
 21
219.6975800514
 31
0.0
  0
LINE
  5
205
330
1FD
100
AcDbEntity
  8
0
  6
Continuous
 62
     7
370
     0
100
AcDbLine
 10
134.8958216949
 20
219.6975800514
 30
0.0
 11
140.3958216949
 21
219.6975800514
 31
0.0
  0
MTEXT
  5
206
330
1FD
100
AcDbEntity
  8
0
  6
Continuous
 62
     7
370
    18
100
AcDbMText
 10
131.3294798856
 20
222.9202492263
 30
0.0
 40
2.5
 41
0.0
 71
     1
 72
     1
  1
5
  7
SLDTEXTSTYLE0
 73
     1
 44
1.0
  0
ENDBLK
  5
1FF
330
1FD
100
AcDbEntity
  8
0
100
AcDbBlockEnd
  0
BLOCK
  5
209
330
208
100
AcDbEntity
  8
0
100
AcDbBlockBegin
  2
_D_10
 70
     0
 10
0.0
 20
0.0
 30
0.0
  3
_D_10
  1

  0
SOLID
  5
20B
330
208
100
AcDbEntity
  8
0
  6
Continuous
 62
     7
370
    18
100
AcDbTrace
 10
118.1468051953
 20
166.3291778941
 30
0.0
 11
121.1468051953
 21
165.8291778941
 31
0.0
 12
121.1468051953
 22
166.8291778941
 32
0.0
 13
121.1468051953
 23
166.8291778941
 33
0.0
  0
SOLID
  5
20C
330
208
100
AcDbEntity
  8
0
  6
Continuous
 62
     7
370
    18
100
AcDbTrace
 10
134.8958216949
 20
166.3291778941
 30
0.0
 11
131.8958216949
 21
166.8291778941
 31
0.0
 12
131.8958216949
 22
165.8291778941
 32
0.0
 13
131.8958216949
 23
165.8291778941
 33
0.0
  0
LINE
  5
20D
330
208
100
AcDbEntity
  8
0
  6
Continuous
 62
     7
370
     0
100
AcDbLine
 10
118.1468051953
 20
186.4193589111
 30
0.0
 11
118.1468051953
 21
165.8291778941
 31
0.0
  0
LINE
  5
20E
330
208
100
AcDbEntity
  8
0
  6
Continuous
 62
     7
370
     0
100
AcDbLine
 10
118.1468051953
 20
166.3291778941
 30
0.0
 11
134.8958216949
 21
166.3291778941
 31
0.0
  0
MTEXT
  5
20F
330
208
100
AcDbEntity
  8
0
  6
Continuous
 62
     7
370
    18
100
AcDbMText
 10
124.6115912203
 20
169.5518470689
 30
0.0
 40
2.5
 41
0.0
 71
     1
 72
     1
  1
17
  7
SLDTEXTSTYLE0
 73
     1
 44
1.0
  0
ENDBLK
  5
20A
330
208
100
AcDbEntity
  8
0
100
AcDbBlockEnd
  0
BLOCK
  5
213
330
212
100
AcDbEntity
  8
0
100
AcDbBlockBegin
  2
_D_11
 70
     0
 10
0.0
 20
0.0
 30
0.0
  3
_D_11
  1

  0
SOLID
  5
215
330
212
100
AcDbEntity
  8
0
  6
Continuous
 62
     7
370
    18
100
AcDbTrace
 10
219.5958216949
 20
99.1386103999
 30
0.0
 11
216.5958216949
 21
99.6386103999
 31
0.0
 12
216.5958216949
 22
98.6386103999
 32
0.0
 13
216.5958216949
 23
98.6386103999
 33
0.0
  0
SOLID
  5
216
330
212
100
AcDbEntity
  8
0
  6
Continuous
 62
     7
370
    18
100
AcDbTrace
 10
134.8958216949
 20
99.1386103999
 30
0.0
 11
137.8958216949
 21
98.6386103999
 31
0.0
 12
137.8958216949
 22
99.6386103999
 32
0.0
 13
137.8958216949
 23
99.6386103999
 33
0.0
  0
LINE
  5
217
330
212
100
AcDbEntity
  8
0
  6
Continuous
 62
     7
370
     0
100
AcDbLine
 10
219.5958216949
 20
152.9386103999
 30
0.0
 11
219.5958216949
 21
98.6386103999
 31
0.0
  0
LINE
  5
218
330
212
100
AcDbEntity
  8
0
  6
Continuous
 62
     7
370
     0
100
AcDbLine
 10
134.8958216949
 20
116.9386103999
 30
0.0
 11
134.8958216949
 21
98.6386103999
 31
0.0
  0
LINE
  5
219
330
212
100
AcDbEntity
  8
0
  6
Continuous
 62
     7
370
     0
100
AcDbLine
 10
219.5958216949
 20
99.1386103999
 30
0.0
 11
134.8958216949
 21
99.1386103999
 31
0.0
  0
MTEXT
  5
21B
330
212
100
AcDbEntity
  8
0
  6
Continuous
 62
     7
370
    18
100
AcDbMText
 10
171.9940853148
 20
102.3612795747
 30
0.0
 40
2.5
 41
0.0
 71
     1
 72
     1
  1
75 / 85
  7
SLDTEXTSTYLE1
 73
     1
 44
1.0
  0
ENDBLK
  5
214
330
212
100
AcDbEntity
  8
0
100
AcDbBlockEnd
  0
BLOCK
  5
21E
330
21D
100
AcDbEntity
  8
0
100
AcDbBlockBegin
  2
_D_12
 70
     0
 10
0.0
 20
0.0
 30
0.0
  3
_D_12
  1

  0
SOLID
  5
220
330
21D
100
AcDbEntity
  8
0
  6
Continuous
 62
     7
370
    18
100
AcDbTrace
 10
237.5958216949
 20
145.1386103999
 30
0.0
 11
238.0958216949
 21
148.1386103999
 31
0.0
 12
237.0958216949
 22
148.1386103999
 32
0.0
 13
237.0958216949
 23
148.1386103999
 33
0.0
  0
SOLID
  5
221
330
21D
100
AcDbEntity
  8
0
  6
Continuous
 62
     7
370
    18
100
AcDbTrace
 10
237.5958216949
 20
231.1386103999
 30
0.0
 11
237.0958216949
 21
228.1386103999
 31
0.0
 12
238.0958216949
 22
228.1386103999
 32
0.0
 13
238.0958216949
 23
228.1386103999
 33
0.0
  0
LINE
  5
222
330
21D
100
AcDbEntity
  8
0
  6
Continuous
 62
     7
370
     0
100
AcDbLine
 10
211.7958216949
 20
145.1386103999
 30
0.0
 11
238.0958216949
 21
145.1386103999
 31
0.0
  0
LINE
  5
223
330
21D
100
AcDbEntity
  8
0
  6
Continuous
 62
     7
370
     0
100
AcDbLine
 10
211.7958216949
 20
231.1386103999
 30
0.0
 11
238.0958216949
 21
231.1386103999
 31
0.0
  0
LINE
  5
224
330
21D
100
AcDbEntity
  8
0
  6
Continuous
 62
     7
370
     0
100
AcDbLine
 10
237.5958216949
 20
145.1386103999
 30
0.0
 11
237.5958216949
 21
231.1386103999
 31
0.0
  0
MTEXT
  5
225
330
21D
100
AcDbEntity
  8
0
  6
Continuous
 62
     7
370
    18
100
AcDbMText
 10
234.3731525201
 20
186.2288881751
 30
0.0
 40
2.5
 41
0.0
 71
     1
 72
     1
  1
86
  7
SLDTEXTSTYLE0
 11
2.832769448823990E-16
 21
1.0
 31
0.0
 73
     1
 44
1.0
  0
ENDBLK
  5
21F
330
21D
100
AcDbEntity
  8
0
100
AcDbBlockEnd
  0
BLOCK
  5
229
330
228
100
AcDbEntity
  8
0
100
AcDbBlockBegin
  2
_D_13
 70
     0
 10
0.0
 20
0.0
 30
0.0
  3
_D_13
  1

  0
SOLID
  5
22B
330
228
100
AcDbEntity
  8
0
  6
Continuous
 62
     7
370
    18
100
AcDbTrace
 10
164.7458216949
 20
163.6386103999
 30
0.0
 11
164.2458216949
 21
160.6386103999
 31
0.0
 12
165.2458216949
 22
160.6386103999
 32
0.0
 13
165.2458216949
 23
160.6386103999
 33
0.0
  0
SOLID
  5
22C
330
228
100
AcDbEntity
  8
0
  6
Continuous
 62
     7
370
    18
100
AcDbTrace
 10
164.7458216949
 20
171.1386103999
 30
0.0
 11
165.2458216949
 21
174.1386103999
 31
0.0
 12
164.2458216949
 22
174.1386103999
 32
0.0
 13
164.2458216949
 23
174.1386103999
 33
0.0
  0
LINE
  5
22D
330
228
100
AcDbEntity
  8
0
  6
Continuous
 62
     7
370
     0
100
AcDbLine
 10
213.3958216949
 20
163.6386103999
 30
0.0
 11
164.2458216949
 21
163.6386103999
 31
0.0
  0
LINE
  5
22E
330
228
100
AcDbEntity
  8
0
  6
Continuous
 62
     7
370
     0
100
AcDbLine
 10
213.3958216949
 20
171.1386103999
 30
0.0
 11
164.2458216949
 21
171.1386103999
 31
0.0
  0
LINE
  5
22F
330
228
100
AcDbEntity
  8
0
  6
Continuous
 62
     7
370
     0
100
AcDbLine
 10
164.7458216949
 20
163.6386103999
 30
0.0
 11
164.7458216949
 21
158.1386103999
 31
0.0
  0
LINE
  5
230
330
228
100
AcDbEntity
  8
0
  6
Continuous
 62
     7
370
     0
100
AcDbLine
 10
164.7458216949
 20
163.6386103999
 30
0.0
 11
164.7458216949
 21
171.1386103999
 31
0.0
  0
LINE
  5
231
330
228
100
AcDbEntity
  8
0
  6
Continuous
 62
     7
370
     0
100
AcDbLine
 10
164.7458216949
 20
171.1386103999
 30
0.0
 11
164.7458216949
 21
176.6386103999
 31
0.0
  0
MTEXT
  5
232
330
228
100
AcDbEntity
  8
0
  6
Continuous
 62
     7
370
    18
100
AcDbMText
 10
161.5231525201
 20
164.0465965938
 30
0.0
 40
2.5
 41
0.0
 71
     1
 72
     1
  1
7.50
  7
SLDTEXTSTYLE0
 11
6.123233995736766E-17
 21
1.0
 31
0.0
 73
     1
 44
1.0
  0
ENDBLK
  5
22A
330
228
100
AcDbEntity
  8
0
100
AcDbBlockEnd
  0
BLOCK
  5
235
330
234
100
AcDbEntity
  8
0
100
AcDbBlockBegin
  2
_D_14
 70
     0
 10
0.0
 20
0.0
 30
0.0
  3
_D_14
  1

  0
SOLID
  5
237
330
234
100
AcDbEntity
  8
0
  6
Continuous
 62
     7
370
    18
100
AcDbTrace
 10
178.8458216949
 20
182.0662017984
 30
0.0
 11
181.8458216949
 21
181.5662017984
 31
0.0
 12
181.8458216949
 22
182.5662017984
 32
0.0
 13
181.8458216949
 23
182.5662017984
 33
0.0
  0
SOLID
  5
238
330
234
100
AcDbEntity
  8
0
  6
Continuous
 62
     7
370
    18
100
AcDbTrace
 10
172.3458216949
 20
182.0662017984
 30
0.0
 11
169.3458216949
 21
182.5662017984
 31
0.0
 12
169.3458216949
 22
181.5662017984
 32
0.0
 13
169.3458216949
 23
181.5662017984
 33
0.0
  0
LINE
  5
239
330
234
100
AcDbEntity
  8
0
  6
Continuous
 62
     7
370
     0
100
AcDbLine
 10
178.8458216949
 20
171.3386103999
 30
0.0
 11
178.8458216949
 21
182.5662017984
 31
0.0
  0
LINE
  5
23A
330
234
100
AcDbEntity
  8
0
  6
Continuous
 62
     7
370
     0
100
AcDbLine
 10
172.3458216949
 20
171.3386103999
 30
0.0
 11
172.3458216949
 21
182.5662017984
 31
0.0
  0
LINE
  5
23B
330
234
100
AcDbEntity
  8
0
  6
Continuous
 62
     7
370
     0
100
AcDbLine
 10
178.8458216949
 20
182.0662017984
 30
0.0
 11
184.3458216949
 21
182.0662017984
 31
0.0
  0
LINE
  5
23C
330
234
100
AcDbEntity
  8
0
  6
Continuous
 62
     7
370
     0
100
AcDbLine
 10
178.8458216949
 20
182.0662017984
 30
0.0
 11
172.3458216949
 21
182.0662017984
 31
0.0
  0
LINE
  5
23D
330
234
100
AcDbEntity
  8
0
  6
Continuous
 62
     7
370
     0
100
AcDbLine
 10
172.3458216949
 20
182.0662017984
 30
0.0
 11
166.8458216949
 21
182.0662017984
 31
0.0
  0
MTEXT
  5
23E
330
234
100
AcDbEntity
  8
0
  6
Continuous
 62
     7
370
    18
100
AcDbMText
 10
172.2538078888
 20
185.2888709732
 30
0.0
 40
2.5
 41
0.0
 71
     1
 72
     1
  1
6.50
  7
SLDTEXTSTYLE0
 73
     1
 44
1.0
  0
ENDBLK
  5
236
330
234
100
AcDbEntity
  8
0
100
AcDbBlockEnd
  0
BLOCK
  5
241
330
240
100
AcDbEntity
  8
0
100
AcDbBlockBegin
  2
_D_15
 70
     0
 10
0.0
 20
0.0
 30
0.0
  3
_D_15
  1

  0
SOLID
  5
243
330
240
100
AcDbEntity
  8
0
  6
Continuous
 62
     7
370
    18
100
AcDbTrace
 10
175.5958216949
 20
131.1386103999
 30
0.0
 11
178.5958216949
 21
130.6386103999
 31
0.0
 12
178.5958216949
 22
131.6386103999
 32
0.0
 13
178.5958216949
 23
131.6386103999
 33
0.0
  0
SOLID
  5
244
330
240
100
AcDbEntity
  8
0
  6
Continuous
 62
     7
370
    18
100
AcDbTrace
 10
213.5958216949
 20
131.1386103999
 30
0.0
 11
210.5958216949
 21
131.6386103999
 31
0.0
 12
210.5958216949
 22
130.6386103999
 32
0.0
 13
210.5958216949
 23
130.6386103999
 33
0.0
  0
LINE
  5
245
330
240
100
AcDbEntity
  8
0
  6
Continuous
 62
     7
370
     0
100
AcDbLine
 10
175.5958216949
 20
170.9386103999
 30
0.0
 11
175.5958216949
 21
130.6386103999
 31
0.0
  0
LINE
  5
246
330
240
100
AcDbEntity
  8
0
  6
Continuous
 62
     7
370
     0
100
AcDbLine
 10
213.5958216949
 20
170.9386103999
 30
0.0
 11
213.5958216949
 21
130.6386103999
 31
0.0
  0
LINE
  5
247
330
240
100
AcDbEntity
  8
0
  6
Continuous
 62
     7
370
     0
100
AcDbLine
 10
175.5958216949
 20
131.1386103999
 30
0.0
 11
213.5958216949
 21
131.1386103999
 31
0.0
  0
MTEXT
  5
248
330
240
100
AcDbEntity
  8
0
  6
Continuous
 62
     7
370
    18
100
AcDbMText
 10
192.6860994701
 20
134.3612795747
 30
0.0
 40
2.5
 41
0.0
 71
     1
 72
     1
  1
38
  7
SLDTEXTSTYLE0
 73
     1
 44
1.0
  0
ENDBLK
  5
242
330
240
100
AcDbEntity
  8
0
100
AcDbBlockEnd
  0
BLOCK
  5
24B
330
24A
100
AcDbEntity
  8
0
100
AcDbBlockBegin
  2
_D_16
 70
     0
 10
0.0
 20
0.0
 30
0.0
  3
_D_16
  1

  0
SOLID
  5
24D
330
24A
100
AcDbEntity
  8
0
  6
Continuous
 62
     7
370
    18
100
AcDbTrace
 10
194.5958216949
 20
107.1386103999
 30
0.0
 11
191.5958216949
 21
107.6386103999
 31
0.0
 12
191.5958216949
 22
106.6386103999
 32
0.0
 13
191.5958216949
 23
106.6386103999
 33
0.0
  0
SOLID
  5
24E
330
24A
100
AcDbEntity
  8
0
  6
Continuous
 62
     7
370
    18
100
AcDbTrace
 10
134.8958216949
 20
107.1386103999
 30
0.0
 11
137.8958216949
 21
106.6386103999
 31
0.0
 12
137.8958216949
 22
107.6386103999
 32
0.0
 13
137.8958216949
 23
107.6386103999
 33
0.0
  0
LINE
  5
24F
330
24A
100
AcDbEntity
  8
0
  6
Continuous
 62
     7
370
     0
100
AcDbLine
 10
194.5958216949
 20
170.9386103999
 30
0.0
 11
194.5958216949
 21
167.6386103999
 31
0.0
  0
LINE
  5
250
330
24A
100
AcDbEntity
  8
0
  6
Continuous
 62
     7
370
     0
100
AcDbLine
 10
194.5958216949
 20
159.6386103999
 30
0.0
 11
194.5958216949
 21
135.1386103999
 31
0.0
  0
LINE
  5
251
330
24A
100
AcDbEntity
  8
0
  6
Continuous
 62
     7
370
     0
100
AcDbLine
 10
194.5958216949
 20
127.1386103999
 30
0.0
 11
194.5958216949
 21
106.6386103999
 31
0.0
  0
LINE
  5
252
330
24A
100
AcDbEntity
  8
0
  6
Continuous
 62
     7
370
     0
100
AcDbLine
 10
134.8958216949
 20
116.9386103999
 30
0.0
 11
134.8958216949
 21
106.6386103999
 31
0.0
  0
LINE
  5
253
330
24A
100
AcDbEntity
  8
0
  6
Continuous
 62
     7
370
     0
100
AcDbLine
 10
194.5958216949
 20
107.1386103999
 30
0.0
 11
134.8958216949
 21
107.1386103999
 31
0.0
  0
MTEXT
  5
254
330
24A
100
AcDbEntity
  8
0
  6
Continuous
 62
     7
370
    18
100
AcDbMText
 10
159.4940853148
 20
110.3612795747
 30
0.0
 40
2.5
 41
0.0
 71
     1
 72
     1
  1
50 / 60
  7
SLDTEXTSTYLE1
 73
     1
 44
1.0
  0
ENDBLK
  5
24C
330
24A
100
AcDbEntity
  8
0
100
AcDbBlockEnd
  0
BLOCK
  5
257
330
256
100
AcDbEntity
  8
0
100
AcDbBlockBegin
  2
_D_17
 70
     0
 10
0.0
 20
0.0
 30
0.0
  3
_D_17
  1

  0
SOLID
  5
259
330
256
100
AcDbEntity
  8
0
  6
Continuous
 62
     7
370
    18
100
AcDbTrace
 10
194.5958216949
 20
107.1386103999
 30
0.0
 11
197.5958216949
 21
106.6386103999
 31
0.0
 12
197.5958216949
 22
107.6386103999
 32
0.0
 13
197.5958216949
 23
107.6386103999
 33
0.0
  0
SOLID
  5
25A
330
256
100
AcDbEntity
  8
0
  6
Continuous
 62
     7
370
    18
100
AcDbTrace
 10
219.5958216949
 20
107.1386103999
 30
0.0
 11
216.5958216949
 21
107.6386103999
 31
0.0
 12
216.5958216949
 22
106.6386103999
 32
0.0
 13
216.5958216949
 23
106.6386103999
 33
0.0
  0
LINE
  5
25B
330
256
100
AcDbEntity
  8
0
  6
Continuous
 62
     7
370
     0
100
AcDbLine
 10
194.5958216949
 20
170.9386103999
 30
0.0
 11
194.5958216949
 21
167.6386103999
 31
0.0
  0
LINE
  5
25C
330
256
100
AcDbEntity
  8
0
  6
Continuous
 62
     7
370
     0
100
AcDbLine
 10
194.5958216949
 20
159.6386103999
 30
0.0
 11
194.5958216949
 21
135.1386103999
 31
0.0
  0
LINE
  5
25D
330
256
100
AcDbEntity
  8
0
  6
Continuous
 62
     7
370
     0
100
AcDbLine
 10
194.5958216949
 20
127.1386103999
 30
0.0
 11
194.5958216949
 21
106.6386103999
 31
0.0
  0
LINE
  5
25E
330
256
100
AcDbEntity
  8
0
  6
Continuous
 62
     7
370
     0
100
AcDbLine
 10
219.5958216949
 20
152.9386103999
 30
0.0
 11
219.5958216949
 21
149.1386103999
 31
0.0
  0
LINE
  5
25F
330
256
100
AcDbEntity
  8
0
  6
Continuous
 62
     7
370
     0
100
AcDbLine
 10
219.5958216949
 20
141.1386103999
 30
0.0
 11
219.5958216949
 21
106.6386103999
 31
0.0
  0
LINE
  5
260
330
256
100
AcDbEntity
  8
0
  6
Continuous
 62
     7
370
     0
100
AcDbLine
 10
194.5958216949
 20
107.1386103999
 30
0.0
 11
219.5958216949
 21
107.1386103999
 31
0.0
  0
MTEXT
  5
261
330
256
100
AcDbEntity
  8
0
  6
Continuous
 62
     7
370
    18
100
AcDbMText
 10
205.1860994701
 20
110.3612795747
 30
0.0
 40
2.5
 41
0.0
 71
     1
 72
     1
  1
25
  7
SLDTEXTSTYLE0
 73
     1
 44
1.0
  0
ENDBLK
  5
258
330
256
100
AcDbEntity
  8
0
100
AcDbBlockEnd
  0
BLOCK
  5
263
330
262
100
AcDbEntity
  8
0
100
AcDbBlockBegin
  2
SW_CENTERMARKSYMBOL_0
 70
     0
 10
0.0
 20
0.0
 30
0.0
  3
SW_CENTERMARKSYMBOL_0
  1

  0
LINE
  5
265
330
262
100
AcDbEntity
  8
0
  6
Continuous
 62
     0
370
    18
100
AcDbLine
 10
0.0
 20
0.0
 30
0.0
 11
0.0
 21
2.5
 31
0.0
  0
LINE
  5
266
330
262
100
AcDbEntity
  8
0
  6
Continuous
 62
     0
370
    18
100
AcDbLine
 10
0.0
 20
0.0
 30
0.0
 11
-2.5
 21
0.0
 31
0.0
  0
LINE
  5
267
330
262
100
AcDbEntity
  8
0
  6
Continuous
 62
     0
370
    18
100
AcDbLine
 10
0.0
 20
0.0
 30
0.0
 11
0.0
 21
-2.5
 31
0.0
  0
LINE
  5
268
330
262
100
AcDbEntity
  8
0
  6
Continuous
 62
     0
370
    18
100
AcDbLine
 10
0.0
 20
0.0
 30
0.0
 11
2.5
 21
0.0
 31
0.0
  0
LINE
  5
269
330
262
100
AcDbEntity
  8
0
  6
Continuous
 62
     0
370
    18
100
AcDbLine
 10
0.0
 20
5.0
 30
0.0
 11
0.0
 21
13.615
 31
0.0
  0
LINE
  5
26A
330
262
100
AcDbEntity
  8
0
  6
Continuous
 62
     0
370
    18
100
AcDbLine
 10
-5.0
 20
0.0
 30
0.0
 11
-13.615
 21
0.0
 31
0.0
  0
LINE
  5
26B
330
262
100
AcDbEntity
  8
0
  6
Continuous
 62
     0
370
    18
100
AcDbLine
 10
0.0
 20
-5.0
 30
0.0
 11
0.0
 21
-13.615
 31
0.0
  0
LINE
  5
26C
330
262
100
AcDbEntity
  8
0
  6
Continuous
 62
     0
370
    18
100
AcDbLine
 10
5.0
 20
0.0
 30
0.0
 11
13.615
 21
0.0
 31
0.0
  0
ENDBLK
  5
264
330
262
100
AcDbEntity
  8
0
100
AcDbBlockEnd
  0
BLOCK
  5
338
330
337
100
AcDbEntity
  8
0
100
AcDbBlockBegin
  2
_D_18
 70
     0
 10
0.0
 20
0.0
 30
0.0
  3
_D_18
  1

  0
SOLID
  5
33A
330
337
100
AcDbEntity
  8
0
  6
Continuous
 62
     7
370
    18
100
AcDbTrace
 10
229.5958216949
 20
76.1929679078
 30
0.0
 11
229.0958216949
 21
73.1929679078
 31
0.0
 12
230.0958216949
 22
73.1929679078
 32
0.0
 13
230.0958216949
 23
73.1929679078
 33
0.0
  0
SOLID
  5
33B
330
337
100
AcDbEntity
  8
0
  6
Continuous
 62
     7
370
    18
100
AcDbTrace
 10
229.5958216949
 20
62.2929679078
 30
0.0
 11
230.0958216949
 21
65.2929679078
 31
0.0
 12
229.0958216949
 22
65.2929679078
 32
0.0
 13
229.0958216949
 23
65.2929679078
 33
0.0
  0
LINE
  5
33C
330
337
100
AcDbEntity
  8
0
  6
Continuous
 62
     7
370
     0
100
AcDbLine
 10
185.0708216949
 20
76.1929679078
 30
0.0
 11
230.0958216949
 21
76.1929679078
 31
0.0
  0
LINE
  5
33D
330
337
100
AcDbEntity
  8
0
  6
Continuous
 62
     7
370
     0
100
AcDbLine
 10
219.7958216949
 20
62.2929679078
 30
0.0
 11
230.0958216949
 21
62.2929679078
 31
0.0
  0
LINE
  5
33E
330
337
100
AcDbEntity
  8
0
  6
Continuous
 62
     7
370
     0
100
AcDbLine
 10
229.5958216949
 20
76.1929679078
 30
0.0
 11
229.5958216949
 21
62.2929679078
 31
0.0
  0
MTEXT
  5
33F
330
337
100
AcDbEntity
  8
0
  6
Continuous
 62
     7
370
    18
100
AcDbMText
 10
226.3731525201
 20
67.333245683
 30
0.0
 40
2.5
 41
0.0
 71
     1
 72
     1
  1
14
  7
SLDTEXTSTYLE0
 11
-7.044195017643634E-15
 21
1.0
 31
0.0
 73
     1
 44
1.0
  0
ENDBLK
  5
339
330
337
100
AcDbEntity
  8
0
100
AcDbBlockEnd
  0
BLOCK
  5
342
330
341
100
AcDbEntity
  8
0
100
AcDbBlockBegin
  2
_D_19
 70
     0
 10
0.0
 20
0.0
 30
0.0
  3
_D_19
  1

  0
ARC
  5
344
330
341
100
AcDbEntity
  8
0
  6
Continuous
 62
     7
370
    18
100
AcDbCircle
 10
227.6774189616
 20
90.184634574
 30
0.0
 40
4.289678919838284
100
AcDbArc
 50
243.4349488229
 51
296.5650511771
  0
ARC
  5
345
330
341
100
AcDbEntity
  8
0
  6
Continuous
 62
     7
370
    18
100
AcDbCircle
 10
227.6774189616
 20
89.1950512531
 30
0.0
 40
4.289678919838284
100
AcDbArc
 50
63.4349488229
 51
116.5650511771
  0
SOLID
  5
346
330
341
100
AcDbEntity
  8
0
  6
Continuous
 62
     7
370
    18
100
AcDbTrace
 10
229.5958216949
 20
76.1929679078
 30
0.0
 11
229.0958216949
 21
73.1929679078
 31
0.0
 12
230.0958216949
 22
73.1929679078
 32
0.0
 13
230.0958216949
 23
73.1929679078
 33
0.0
  0
SOLID
  5
347
330
341
100
AcDbEntity
  8
0
  6
Continuous
 62
     7
370
    18
100
AcDbTrace
 10
229.5958216949
 20
79.8929679078
 30
0.0
 11
230.0958216949
 21
82.8929679078
 31
0.0
 12
229.0958216949
 22
82.8929679078
 32
0.0
 13
229.0958216949
 23
82.8929679078
 33
0.0
  0
LINE
  5
348
330
341
100
AcDbEntity
  8
0
  6
Continuous
 62
     7
370
     0
100
AcDbLine
 10
185.0708216949
 20
76.1929679078
 30
0.0
 11
230.0958216949
 21
76.1929679078
 31
0.0
  0
LINE
  5
349
330
341
100
AcDbEntity
  8
0
  6
Continuous
 62
     7
370
     0
100
AcDbLine
 10
138.0958216949
 20
79.8929679078
 30
0.0
 11
230.0958216949
 21
79.8929679078
 31
0.0
  0
LINE
  5
34A
330
341
100
AcDbEntity
  8
0
  6
Continuous
 62
     7
370
     0
100
AcDbLine
 10
229.5958216949
 20
76.1929679078
 30
0.0
 11
229.5958216949
 21
70.6929679078
 31
0.0
  0
LINE
  5
34B
330
341
100
AcDbEntity
  8
0
  6
Continuous
 62
     7
370
     0
100
AcDbLine
 10
229.5958216949
 20
76.1929679078
 30
0.0
 11
229.5958216949
 21
79.8929679078
 31
0.0
  0
LINE
  5
34C
330
341
100
AcDbEntity
  8
0
  6
Continuous
 62
     7
370
     0
100
AcDbLine
 10
229.5958216949
 20
79.8929679078
 30
0.0
 11
229.5958216949
 21
93.4847303369
 31
0.0
  0
MTEXT
  5
34D
330
341
100
AcDbEntity
  8
0
  6
Continuous
 62
     7
370
    18
100
AcDbMText
 10
226.3731525201
 20
86.3478291075
 30
0.0
 40
2.5
 41
0.0
 71
     1
 72
     1
  1
3.70
  7
SLDTEXTSTYLE0
 11
6.123233995736766E-17
 21
1.0
 31
0.0
 73
     1
 44
1.0
  0
ENDBLK
  5
343
330
341
100
AcDbEntity
  8
0
100
AcDbBlockEnd
  0
BLOCK
  5
350
330
34F
100
AcDbEntity
  8
0
100
AcDbBlockBegin
  2
_D_20
 70
     0
 10
0.0
 20
0.0
 30
0.0
  3
_D_20
  1

  0
ARC
  5
352
330
34F
100
AcDbEntity
  8
0
  6
Continuous
 62
     7
370
    18
100
AcDbCircle
 10
227.6774189616
 20
50.5908843878
 30
0.0
 40
4.289678919838284
100
AcDbArc
 50
243.4349488229
 51
296.5650511771
  0
ARC
  5
353
330
34F
100
AcDbEntity
  8
0
  6
Continuous
 62
     7
370
    18
100
AcDbCircle
 10
227.6774189616
 20
49.6013010669
 30
0.0
 40
4.289678919838284
100
AcDbArc
 50
63.4349488229
 51
116.5650511771
  0
SOLID
  5
354
330
34F
100
AcDbEntity
  8
0
  6
Continuous
 62
     7
370
    18
100
AcDbTrace
 10
229.5958216949
 20
62.2929679078
 30
0.0
 11
230.0958216949
 21
65.2929679078
 31
0.0
 12
229.0958216949
 22
65.2929679078
 32
0.0
 13
229.0958216949
 23
65.2929679078
 33
0.0
  0
SOLID
  5
355
330
34F
100
AcDbEntity
  8
0
  6
Continuous
 62
     7
370
    18
100
AcDbTrace
 10
229.5958216949
 20
59.8929679078
 30
0.0
 11
229.0958216949
 21
56.8929679078
 31
0.0
 12
230.0958216949
 22
56.8929679078
 32
0.0
 13
230.0958216949
 23
56.8929679078
 33
0.0
  0
LINE
  5
356
330
34F
100
AcDbEntity
  8
0
  6
Continuous
 62
     7
370
     0
100
AcDbLine
 10
219.7958216949
 20
62.2929679078
 30
0.0
 11
230.0958216949
 21
62.2929679078
 31
0.0
  0
LINE
  5
357
330
34F
100
AcDbEntity
  8
0
  6
Continuous
 62
     7
370
     0
100
AcDbLine
 10
138.0958216949
 20
59.8929679078
 30
0.0
 11
230.0958216949
 21
59.8929679078
 31
0.0
  0
LINE
  5
358
330
34F
100
AcDbEntity
  8
0
  6
Continuous
 62
     7
370
     0
100
AcDbLine
 10
229.5958216949
 20
62.2929679078
 30
0.0
 11
229.5958216949
 21
67.7929679078
 31
0.0
  0
LINE
  5
359
330
34F
100
AcDbEntity
  8
0
  6
Continuous
 62
     7
370
     0
100
AcDbLine
 10
229.5958216949
 20
62.2929679078
 30
0.0
 11
229.5958216949
 21
59.8929679078
 31
0.0
  0
LINE
  5
35A
330
34F
100
AcDbEntity
  8
0
  6
Continuous
 62
     7
370
     0
100
AcDbLine
 10
229.5958216949
 20
59.8929679078
 30
0.0
 11
229.5958216949
 21
46.3012054787
 31
0.0
  0
MTEXT
  5
35B
330
34F
100
AcDbEntity
  8
0
  6
Continuous
 62
     7
370
    18
100
AcDbMText
 10
226.3731525201
 20
46.7540789212
 30
0.0
 40
2.5
 41
0.0
 71
     1
 72
     1
  1
2.40
  7
SLDTEXTSTYLE0
 11
-7.044195017643634E-15
 21
1.0
 31
0.0
 73
     1
 44
1.0
  0
ENDBLK
  5
351
330
34F
100
AcDbEntity
  8
0
100
AcDbBlockEnd
  0
BLOCK
  5
35E
330
35D
100
AcDbEntity
  8
0
100
AcDbBlockBegin
  2
_D_21
 70
     0
 10
0.0
 20
0.0
 30
0.0
  3
_D_21
  1

  0
SOLID
  5
360
330
35D
100
AcDbEntity
  8
0
  6
Continuous
 62
     7
370
    18
100
AcDbTrace
 10
101.4689042674
 20
66.1929679078
 30
0.0
 11
100.9689042674
 21
63.1929679078
 31
0.0
 12
101.9689042674
 22
63.1929679078
 32
0.0
 13
101.9689042674
 23
63.1929679078
 33
0.0
  0
SOLID
  5
361
330
35D
100
AcDbEntity
  8
0
  6
Continuous
 62
     7
370
    18
100
AcDbTrace
 10
101.4689042674
 20
74.1929679078
 30
0.0
 11
101.9689042674
 21
77.1929679078
 31
0.0
 12
100.9689042674
 22
77.1929679078
 32
0.0
 13
100.9689042674
 23
77.1929679078
 33
0.0
  0
LINE
  5
362
330
35D
100
AcDbEntity
  8
0
  6
Continuous
 62
     7
370
     0
100
AcDbLine
 10
118.030866888
 20
66.1929679078
 30
0.0
 11
100.9689042674
 21
66.1929679078
 31
0.0
  0
LINE
  5
363
330
35D
100
AcDbEntity
  8
0
  6
Continuous
 62
     7
370
     0
100
AcDbLine
 10
118.030866888
 20
74.1929679078
 30
0.0
 11
100.9689042674
 21
74.1929679078
 31
0.0
  0
LINE
  5
364
330
35D
100
AcDbEntity
  8
0
  6
Continuous
 62
     7
370
     0
100
AcDbLine
 10
101.4689042674
 20
66.1929679078
 30
0.0
 11
101.4689042674
 21
60.6929679078
 31
0.0
  0
LINE
  5
365
330
35D
100
AcDbEntity
  8
0
  6
Continuous
 62
     7
370
     0
100
AcDbLine
 10
101.4689042674
 20
66.1929679078
 30
0.0
 11
101.4689042674
 21
74.1929679078
 31
0.0
  0
LINE
  5
366
330
35D
100
AcDbEntity
  8
0
  6
Continuous
 62
     7
370
     0
100
AcDbLine
 10
101.4689042674
 20
74.1929679078
 30
0.0
 11
101.4689042674
 21
79.6929679078
 31
0.0
  0
MTEXT
  5
367
330
35D
100
AcDbEntity
  8
0
  6
Continuous
 62
     7
370
    18
100
AcDbMText
 10
98.2462350926
 20
69.2381067954
 30
0.0
 40
2.5
 41
0.0
 71
     1
 72
     1
  1
8
  7
SLDTEXTSTYLE0
 11
4.502124438457994E-15
 21
1.0
 31
0.0
 73
     1
 44
1.0
  0
ENDBLK
  5
35F
330
35D
100
AcDbEntity
  8
0
100
AcDbBlockEnd
  0
BLOCK
  5
3B9
330
3B8
100
AcDbEntity
  8
0
100
AcDbBlockBegin
  2
_D_22
 70
     0
 10
0.0
 20
0.0
 30
0.0
  3
_D_22
  1

  0
SOLID
  5
3BB
330
3B8
100
AcDbEntity
  8
0
  6
Continuous
 62
     7
370
    18
100
AcDbTrace
 10
259.7332729168
 20
263.1386103999
 30
0.0
 11
259.2332729168
 21
260.1386103999
 31
0.0
 12
260.2332729168
 22
260.1386103999
 32
0.0
 13
260.2332729168
 23
260.1386103999
 33
0.0
  0
SOLID
  5
3BC
330
3B8
100
AcDbEntity
  8
0
  6
Continuous
 62
     7
370
    18
100
AcDbTrace
 10
259.7332729168
 20
117.1386103999
 30
0.0
 11
260.2332729168
 21
120.1386103999
 31
0.0
 12
259.2332729168
 22
120.1386103999
 32
0.0
 13
259.2332729168
 23
120.1386103999
 33
0.0
  0
LINE
  5
3BD
330
3B8
100
AcDbEntity
  8
0
  6
Continuous
 62
     7
370
     0
100
AcDbLine
 10
287.5332729168
 20
263.1386103999
 30
0.0
 11
259.2332729168
 21
263.1386103999
 31
0.0
  0
LINE
  5
3BE
330
3B8
100
AcDbEntity
  8
0
  6
Continuous
 62
     7
370
     0
100
AcDbLine
 10
287.5332729168
 20
117.1386103999
 30
0.0
 11
259.2332729168
 21
117.1386103999
 31
0.0
  0
LINE
  5
3BF
330
3B8
100
AcDbEntity
  8
0
  6
Continuous
 62
     7
370
     0
100
AcDbLine
 10
259.7332729168
 20
263.1386103999
 30
0.0
 11
259.7332729168
 21
117.1386103999
 31
0.0
  0
MTEXT
  5
3C0
330
3B8
100
AcDbEntity
  8
0
  6
Continuous
 62
     7
370
    18
100
AcDbMText
 10
256.510603742
 20
187.2740270045
 30
0.0
 40
2.5
 41
0.0
 71
     1
 72
     1
  1
146
  7
SLDTEXTSTYLE0
 11
-7.044195017643634E-15
 21
1.0
 31
0.0
 73
     1
 44
1.0
  0
ENDBLK
  5
3BA
330
3B8
100
AcDbEntity
  8
0
100
AcDbBlockEnd
  0
BLOCK
  5
3C4
330
3C3
100
AcDbEntity
  8
0
100
AcDbBlockBegin
  2
_D_23
 70
     0
 10
0.0
 20
0.0
 30
0.0
  3
_D_23
  1

  0
SOLID
  5
3C6
330
3C3
100
AcDbEntity
  8
0
  6
Continuous
 62
     7
370
    18
100
AcDbTrace
 10
307.7332729168
 20
250.8386103999
 30
0.0
 11
308.2332729168
 21
253.8386103999
 31
0.0
 12
307.2332729168
 22
253.8386103999
 32
0.0
 13
307.2332729168
 23
253.8386103999
 33
0.0
  0
SOLID
  5
3C7
330
3C3
100
AcDbEntity
  8
0
  6
Continuous
 62
     7
370
    18
100
AcDbTrace
 10
307.7332729168
 20
263.1386103999
 30
0.0
 11
307.2332729168
 21
260.1386103999
 31
0.0
 12
308.2332729168
 22
260.1386103999
 32
0.0
 13
308.2332729168
 23
260.1386103999
 33
0.0
  0
LINE
  5
3C8
330
3C3
100
AcDbEntity
  8
0
  6
Continuous
 62
     7
370
     0
100
AcDbLine
 10
287.9332729168
 20
250.8386103999
 30
0.0
 11
308.2332729168
 21
250.8386103999
 31
0.0
  0
LINE
  5
3C9
330
3C3
100
AcDbEntity
  8
0
  6
Continuous
 62
     7
370
     0
100
AcDbLine
 10
287.9332729168
 20
263.1386103999
 30
0.0
 11
308.2332729168
 21
263.1386103999
 31
0.0
  0
LINE
  5
3CA
330
3C3
100
AcDbEntity
  8
0
  6
Continuous
 62
     7
370
     0
100
AcDbLine
 10
307.7332729168
 20
250.8386103999
 30
0.0
 11
307.7332729168
 21
263.1386103999
 31
0.0
  0
MTEXT
  5
3CB
330
3C3
100
AcDbEntity
  8
0
  6
Continuous
 62
     7
370
    18
100
AcDbMText
 10
304.510603742
 20
252.6917353068
 30
0.0
 40
2.5
 41
0.0
 71
     1
 72
     1
  1
12.50
  7
SLDTEXTSTYLE0
 11
-3.047392128993071E-15
 21
1.0
 31
0.0
 73
     1
 44
1.0
  0
ENDBLK
  5
3C5
330
3C3
100
AcDbEntity
  8
0
100
AcDbBlockEnd
  0
BLOCK
  5
3CE
330
3CD
100
AcDbEntity
  8
0
100
AcDbBlockBegin
  2
_D_24
 70
     0
 10
0.0
 20
0.0
 30
0.0
  3
_D_24
  1

  0
SOLID
  5
3D0
330
3CD
100
AcDbEntity
  8
0
  6
Continuous
 62
     7
370
    18
100
AcDbTrace
 10
307.7332729168
 20
250.8386103999
 30
0.0
 11
307.2332729168
 21
247.8386103999
 31
0.0
 12
308.2332729168
 22
247.8386103999
 32
0.0
 13
308.2332729168
 23
247.8386103999
 33
0.0
  0
SOLID
  5
3D1
330
3CD
100
AcDbEntity
  8
0
  6
Continuous
 62
     7
370
    18
100
AcDbTrace
 10
307.7332729168
 20
129.4386103999
 30
0.0
 11
308.2332729168
 21
132.4386103999
 31
0.0
 12
307.2332729168
 22
132.4386103999
 32
0.0
 13
307.2332729168
 23
132.4386103999
 33
0.0
  0
LINE
  5
3D2
330
3CD
100
AcDbEntity
  8
0
  6
Continuous
 62
     7
370
     0
100
AcDbLine
 10
287.9332729168
 20
250.8386103999
 30
0.0
 11
308.2332729168
 21
250.8386103999
 31
0.0
  0
LINE
  5
3D3
330
3CD
100
AcDbEntity
  8
0
  6
Continuous
 62
     7
370
     0
100
AcDbLine
 10
287.9332729168
 20
129.4386103999
 30
0.0
 11
308.2332729168
 21
129.4386103999
 31
0.0
  0
LINE
  5
3D4
330
3CD
100
AcDbEntity
  8
0
  6
Continuous
 62
     7
370
     0
100
AcDbLine
 10
307.7332729168
 20
250.8386103999
 30
0.0
 11
307.7332729168
 21
129.4386103999
 31
0.0
  0
MTEXT
  5
3D5
330
3CD
100
AcDbEntity
  8
0
  6
Continuous
 62
     7
370
    18
100
AcDbMText
 10
304.510603742
 20
187.2740270045
 30
0.0
 40
2.5
 41
0.0
 71
     1
 72
     1
  1
121
  7
SLDTEXTSTYLE0
 11
-7.044195017643634E-15
 21
1.0
 31
0.0
 73
     1
 44
1.0
  0
ENDBLK
  5
3CF
330
3CD
100
AcDbEntity
  8
0
100
AcDbBlockEnd
  0
BLOCK
  5
3D8
330
3D7
100
AcDbEntity
  8
0
100
AcDbBlockBegin
  2
_D_25
 70
     0
 10
0.0
 20
0.0
 30
0.0
  3
_D_25
  1

  0
SOLID
  5
3DA
330
3D7
100
AcDbEntity
  8
0
  6
Continuous
 62
     7
370
    18
100
AcDbTrace
 10
307.7332729168
 20
117.1386103999
 30
0.0
 11
308.2332729168
 21
120.1386103999
 31
0.0
 12
307.2332729168
 22
120.1386103999
 32
0.0
 13
307.2332729168
 23
120.1386103999
 33
0.0
  0
SOLID
  5
3DB
330
3D7
100
AcDbEntity
  8
0
  6
Continuous
 62
     7
370
    18
100
AcDbTrace
 10
307.7332729168
 20
129.4386103999
 30
0.0
 11
307.2332729168
 21
126.4386103999
 31
0.0
 12
308.2332729168
 22
126.4386103999
 32
0.0
 13
308.2332729168
 23
126.4386103999
 33
0.0
  0
LINE
  5
3DC
330
3D7
100
AcDbEntity
  8
0
  6
Continuous
 62
     7
370
     0
100
AcDbLine
 10
287.9332729168
 20
117.1386103999
 30
0.0
 11
308.2332729168
 21
117.1386103999
 31
0.0
  0
LINE
  5
3DD
330
3D7
100
AcDbEntity
  8
0
  6
Continuous
 62
     7
370
     0
100
AcDbLine
 10
287.9332729168
 20
129.4386103999
 30
0.0
 11
308.2332729168
 21
129.4386103999
 31
0.0
  0
LINE
  5
3DE
330
3D7
100
AcDbEntity
  8
0
  6
Continuous
 62
     7
370
     0
100
AcDbLine
 10
307.7332729168
 20
117.1386103999
 30
0.0
 11
307.7332729168
 21
129.4386103999
 31
0.0
  0
MTEXT
  5
3DF
330
3D7
100
AcDbEntity
  8
0
  6
Continuous
 62
     7
370
    18
100
AcDbMText
 10
304.510603742
 20
118.9917353068
 30
0.0
 40
2.5
 41
0.0
 71
     1
 72
     1
  1
12.50
  7
SLDTEXTSTYLE0
 11
2.832769448823990E-16
 21
1.0
 31
0.0
 73
     1
 44
1.0
  0
ENDBLK
  5
3D9
330
3D7
100
AcDbEntity
  8
0
100
AcDbBlockEnd
  0
BLOCK
  5
3E2
330
3E1
100
AcDbEntity
  8
0
100
AcDbBlockBegin
  2
_D_26
 70
     0
 10
0.0
 20
0.0
 30
0.0
  3
_D_26
  1

  0
SOLID
  5
3E4
330
3E1
100
AcDbEntity
  8
0
  6
Continuous
 62
     7
370
    18
100
AcDbTrace
 10
277.7332729168
 20
107.1386103999
 30
0.0
 11
280.7332729168
 21
106.6386103999
 31
0.0
 12
280.7332729168
 22
107.6386103999
 32
0.0
 13
280.7332729168
 23
107.6386103999
 33
0.0
  0
SOLID
  5
3E5
330
3E1
100
AcDbEntity
  8
0
  6
Continuous
 62
     7
370
    18
100
AcDbTrace
 10
297.7332729168
 20
107.1386103999
 30
0.0
 11
294.7332729168
 21
107.6386103999
 31
0.0
 12
294.7332729168
 22
106.6386103999
 32
0.0
 13
294.7332729168
 23
106.6386103999
 33
0.0
  0
LINE
  5
3E6
330
3E1
100
AcDbEntity
  8
0
  6
Continuous
 62
     7
370
     0
100
AcDbLine
 10
277.7332729168
 20
126.9386103999
 30
0.0
 11
277.7332729168
 21
106.6386103999
 31
0.0
  0
LINE
  5
3E7
330
3E1
100
AcDbEntity
  8
0
  6
Continuous
 62
     7
370
     0
100
AcDbLine
 10
297.7332729168
 20
126.9386103999
 30
0.0
 11
297.7332729168
 21
106.6386103999
 31
0.0
  0
LINE
  5
3E8
330
3E1
100
AcDbEntity
  8
0
  6
Continuous
 62
     7
370
     0
100
AcDbLine
 10
277.7332729168
 20
107.1386103999
 30
0.0
 11
297.7332729168
 21
107.1386103999
 31
0.0
  0
MTEXT
  5
3E9
330
3E1
100
AcDbEntity
  8
0
  6
Continuous
 62
     7
370
    18
100
AcDbMText
 10
285.823550692
 20
110.3612795747
 30
0.0
 40
2.5
 41
0.0
 71
     1
 72
     1
  1
20
  7
SLDTEXTSTYLE0
 73
     1
 44
1.0
  0
ENDBLK
  5
3E3
330
3E1
100
AcDbEntity
  8
0
100
AcDbBlockEnd
  0
ENDSEC
  0
SECTION
  2
ENTITIES
  0
LINE
  5
76
330
1F
100
AcDbEntity
  8
0
  6
Continuous
 62
     7
370
    50
100
AcDbLine
 10
137.8958216949
 20
263.1386103999
 30
0.0
 11
134.8958216949
 21
263.1386103999
 31
0.0
  0
LINE
  5
77
330
1F
100
AcDbEntity
  8
0
  6
Continuous
 62
     7
370
    50
100
AcDbLine
 10
134.8958216949
 20
117.1386103999
 30
0.0
 11
137.8958216949
 21
117.1386103999
 31
0.0
  0
ARC
  5
78
330
1F
100
AcDbEntity
  8
0
  6
Continuous
 62
     7
370
    50
100
AcDbCircle
 10
165.9958216949
 20
208.0386103999
 30
0.0
 40
5.999999999999972
100
AcDbArc
 50
0.0
 51
90.0
  0
ARC
  5
79
330
1F
100
AcDbEntity
  8
0
  6
Continuous
 62
     7
370
    50
100
AcDbCircle
 10
160.4958216949
 20
207.0386103999
 30
0.0
 40
1.0
100
AcDbArc
 50
0.0
 51
90.0
  0
LINE
  5
7A
330
1F
100
AcDbEntity
  8
0
  6
Continuous
 62
     7
370
    50
100
AcDbLine
 10
160.4958216949
 20
208.0386103999
 30
0.0
 11
137.9958216949
 21
208.0386103999
 31
0.0
  0
LINE
  5
7B
330
1F
100
AcDbEntity
  8
0
  6
Continuous
 62
     7
370
    50
100
AcDbLine
 10
137.9958216949
 20
214.0386103999
 30
0.0
 11
137.9958216949
 21
208.0386103999
 31
0.0
  0
LINE
  5
7C
330
1F
100
AcDbEntity
  8
0
  6
Continuous
 62
     7
370
    50
100
AcDbLine
 10
165.9958216949
 20
214.0386103999
 30
0.0
 11
137.9958216949
 21
214.0386103999
 31
0.0
  0
ARC
  5
7D
330
1F
100
AcDbEntity
  8
0
  6
Continuous
 62
     7
370
    50
100
AcDbCircle
 10
165.9958216949
 20
196.0386103999
 30
0.0
 40
6.0
100
AcDbArc
 50
270.0000000024
 51
0.0
  0
LINE
  5
7E
330
1F
100
AcDbEntity
  8
0
  6
Continuous
 62
     7
370
    50
100
AcDbLine
 10
137.9958216949
 20
190.0386103999
 30
0.0
 11
165.9958216952
 21
190.0386103999
 31
0.0
  0
LINE
  5
7F
330
1F
100
AcDbEntity
  8
0
  6
Continuous
 62
     7
370
    50
100
AcDbLine
 10
137.9958216949
 20
190.0386103999
 30
0.0
 11
137.9958216949
 21
196.0386103999
 31
0.0
  0
LINE
  5
80
330
1F
100
AcDbEntity
  8
0
  6
Continuous
 62
     7
370
    50
100
AcDbLine
 10
137.9958216949
 20
196.0386103999
 30
0.0
 11
160.4958216949
 21
196.0386103999
 31
0.0
  0
ARC
  5
81
330
1F
100
AcDbEntity
  8
0
  6
Continuous
 62
     7
370
    50
100
AcDbCircle
 10
160.4958216949
 20
197.0386103999
 30
0.0
 40
1.0
100
AcDbArc
 50
270.0
 51
0.0
  0
LINE
  5
82
330
1F
100
AcDbEntity
  8
0
  6
Continuous
 62
     7
370
    50
100
AcDbLine
 10
161.4958216949
 20
197.0386103999
 30
0.0
 11
161.4958216949
 21
207.0386103999
 31
0.0
  0
LINE
  5
83
330
1F
100
AcDbEntity
  8
0
  6
Continuous
 62
     7
370
    50
100
AcDbLine
 10
171.9958216949
 20
196.0386103999
 30
0.0
 11
171.9958216949
 21
208.0386103999
 31
0.0
  0
LINE
  5
84
330
1F
100
AcDbEntity
  8
0
  6
Continuous
 62
     7
370
    50
100
AcDbLine
 10
211.5958216949
 20
231.1386103999
 30
0.0
 11
137.9958216949
 21
231.1386103999
 31
0.0
  0
LINE
  5
85
330
1F
100
AcDbEntity
  8
0
  6
Continuous
 62
     7
370
    50
100
AcDbLine
 10
219.5958216949
 20
223.1386103999
 30
0.0
 11
211.5958216949
 21
231.1386103999
 31
0.0
  0
LINE
  5
86
330
1F
100
AcDbEntity
  8
0
  6
Continuous
 62
     7
370
    50
100
AcDbLine
 10
219.5958216949
 20
153.1386103999
 30
0.0
 11
219.5958216949
 21
223.1386103999
 31
0.0
  0
LINE
  5
87
330
1F
100
AcDbEntity
  8
0
  6
Continuous
 62
     7
370
    50
100
AcDbLine
 10
211.5958216949
 20
145.1386103999
 30
0.0
 11
219.5958216949
 21
153.1386103999
 31
0.0
  0
LINE
  5
88
330
1F
100
AcDbEntity
  8
0
  6
Continuous
 62
     7
370
    50
100
AcDbLine
 10
137.9958216949
 20
145.1386103999
 30
0.0
 11
211.5958216949
 21
145.1386103999
 31
0.0
  0
ARC
  5
89
330
1F
100
AcDbEntity
  8
0
  6
Continuous
 62
     7
370
    50
100
AcDbCircle
 10
194.5958216949
 20
171.1386103999
 30
0.0
 40
11.115
100
AcDbArc
 50
297.3992997312
 51
242.6007002688
  0
LINE
  5
8A
330
1F
100
AcDbEntity
  8
0
  6
Continuous
 62
     7
370
    50
100
AcDbLine
 10
189.4808216949
 20
161.2704798779
 30
0.0
 11
189.4808216949
 21
152.0886103999
 31
0.0
  0
ARC
  5
8B
330
1F
100
AcDbEntity
  8
0
  6
Continuous
 62
     7
370
    50
100
AcDbCircle
 10
194.5958216949
 20
152.0886103999
 30
0.0
 40
5.115000000000009
100
AcDbArc
 50
180.0
 51
0.0
  0
LINE
  5
8C
330
1F
100
AcDbEntity
  8
0
  6
Continuous
 62
     7
370
    50
100
AcDbLine
 10
199.7108216949
 20
152.0886103999
 30
0.0
 11
199.7108216949
 21
161.2704798779
 31
0.0
  0
CIRCLE
  5
8D
330
1F
100
AcDbEntity
  8
0
  6
Continuous
 62
     7
370
    50
100
AcDbCircle
 10
204.5958216949
 20
158.1386103999
 30
0.0
 40
2.600000000000023
  0
CIRCLE
  5
8E
330
1F
100
AcDbEntity
  8
0
  6
Continuous
 62
     7
370
    50
100
AcDbCircle
 10
184.5958216949
 20
158.1386103999
 30
0.0
 40
2.600000000000023
  0
LINE
  5
8F
330
1F
100
AcDbEntity
  8
0
  6
Continuous
 62
     7
370
    50
100
AcDbLine
 10
181.0958216949
 20
150.4386103999
 30
0.0
 11
181.0958216949
 21
154.9386103999
 31
0.0
  0
LINE
  5
90
330
1F
100
AcDbEntity
  8
0
  6
Continuous
 62
     7
370
    50
100
AcDbLine
 10
181.0958216949
 20
154.9386103999
 30
0.0
 11
177.8958216949
 21
154.9386103999
 31
0.0
  0
LINE
  5
91
330
1F
100
AcDbEntity
  8
0
  6
Continuous
 62
     7
370
    50
100
AcDbLine
 10
177.8958216949
 20
154.9386103999
 30
0.0
 11
177.8958216949
 21
150.4386103999
 31
0.0
  0
LINE
  5
92
330
1F
100
AcDbEntity
  8
0
  6
Continuous
 62
     7
370
    50
100
AcDbLine
 10
177.8958216949
 20
150.4386103999
 30
0.0
 11
181.0958216949
 21
150.4386103999
 31
0.0
  0
CIRCLE
  5
93
330
1F
100
AcDbEntity
  8
0
  6
Continuous
 62
     7
370
    50
100
AcDbCircle
 10
212.1958216949
 20
223.8386103999
 30
0.0
 40
2.0
  0
CIRCLE
  5
94
330
1F
100
AcDbEntity
  8
0
  6
Continuous
 62
     7
370
    50
100
AcDbCircle
 10
151.1958216949
 20
182.5386103999
 30
0.0
 40
1.650000000000006
  0
CIRCLE
  5
95
330
1F
100
AcDbEntity
  8
0
  6
Continuous
 62
     7
370
    50
100
AcDbCircle
 10
212.1958216949
 20
152.6386103999
 30
0.0
 40
3.5
  0
CIRCLE
  5
96
330
1F
100
AcDbEntity
  8
0
  6
Continuous
 62
     7
370
    50
100
AcDbCircle
 10
173.5958216949
 20
223.8386103999
 30
0.0
 40
3.5
  0
ARC
  5
97
330
1F
100
AcDbEntity
  8
0
  6
Continuous
 62
     7
370
    50
100
AcDbCircle
 10
213.5958216949
 20
163.6386103999
 30
0.0
 40
3.25
100
AcDbArc
 50
180.0
 51
0.0
  0
LINE
  5
98
330
1F
100
AcDbEntity
  8
0
  6
Continuous
 62
     7
370
    50
100
AcDbLine
 10
216.8458216949
 20
163.6386103999
 30
0.0
 11
216.8458216949
 21
171.1386103999
 31
0.0
  0
ARC
  5
99
330
1F
100
AcDbEntity
  8
0
  6
Continuous
 62
     7
370
    50
100
AcDbCircle
 10
213.5958216949
 20
171.1386103999
 30
0.0
 40
3.25
100
AcDbArc
 50
0.0
 51
180.0
  0
LINE
  5
9A
330
1F
100
AcDbEntity
  8
0
  6
Continuous
 62
     7
370
    50
100
AcDbLine
 10
210.3458216949
 20
171.1386103999
 30
0.0
 11
210.3458216949
 21
163.6386103999
 31
0.0
  0
ARC
  5
9B
330
1F
100
AcDbEntity
  8
0
  6
Continuous
 62
     7
370
    50
100
AcDbCircle
 10
175.5958216949
 20
163.6386103999
 30
0.0
 40
3.25
100
AcDbArc
 50
180.0
 51
0.0
  0
LINE
  5
9C
330
1F
100
AcDbEntity
  8
0
  6
Continuous
 62
     7
370
    50
100
AcDbLine
 10
178.8458216949
 20
163.6386103999
 30
0.0
 11
178.8458216949
 21
171.1386103999
 31
0.0
  0
ARC
  5
9D
330
1F
100
AcDbEntity
  8
0
  6
Continuous
 62
     7
370
    50
100
AcDbCircle
 10
175.5958216949
 20
171.1386103999
 30
0.0
 40
3.250000000000028
100
AcDbArc
 50
0.0
 51
180.0
  0
LINE
  5
9E
330
1F
100
AcDbEntity
  8
0
  6
Continuous
 62
     7
370
    50
100
AcDbLine
 10
172.3458216949
 20
171.1386103999
 30
0.0
 11
172.3458216949
 21
163.6386103999
 31
0.0
  0
LINE
  5
9F
330
1F
100
AcDbEntity
  8
0
  6
Continuous
 62
     7
370
    50
100
AcDbLine
 10
137.9958216949
 20
190.0386103999
 30
0.0
 11
137.9958216949
 21
145.1386103999
 31
0.0
  0
LINE
  5
A0
330
1F
100
AcDbEntity
  8
0
  6
Continuous
 62
     7
370
    50
100
AcDbLine
 10
137.9958216949
 20
231.1386103999
 30
0.0
 11
137.9958216949
 21
214.0386103999
 31
0.0
  0
LINE
  5
A1
330
1F
100
AcDbEntity
  8
0
  6
Continuous
 62
     7
370
    50
100
AcDbLine
 10
137.9958216949
 20
208.0386103999
 30
0.0
 11
137.9958216949
 21
196.0386103999
 31
0.0
  0
LINE
  5
A2
330
1F
100
AcDbEntity
  8
0
  6
Continuous
 62
     7
370
    50
100
AcDbLine
 10
137.8958216949
 20
145.1386103999
 30
0.0
 11
137.9958216949
 21
145.1386103999
 31
0.0
  0
LINE
  5
A3
330
1F
100
AcDbEntity
  8
0
  6
Continuous
 62
     7
370
    50
100
AcDbLine
 10
137.8958216949
 20
176.1386103999
 30
0.0
 11
137.9958216949
 21
176.1386103999
 31
0.0
  0
LINE
  5
A4
330
1F
100
AcDbEntity
  8
0
  6
Continuous
 62
     7
370
    50
100
AcDbLine
 10
137.8958216949
 20
215.0386103999
 30
0.0
 11
137.9958216949
 21
215.0386103999
 31
0.0
  0
LINE
  5
A5
330
1F
100
AcDbEntity
  8
0
  6
Continuous
 62
     7
370
    50
100
AcDbLine
 10
137.8958216949
 20
231.1386103999
 30
0.0
 11
137.9958216949
 21
231.1386103999
 31
0.0
  0
LINE
  5
A6
330
1F
100
AcDbEntity
  8
0
  6
Continuous
 62
     7
370
    50
100
AcDbLine
 10
137.9958216949
 20
178.1386103999
 30
0.0
 11
137.8958216949
 21
178.1386103999
 31
0.0
  0
LINE
  5
A7
330
1F
100
AcDbEntity
  8
0
  6
Continuous
 62
     7
370
    50
100
AcDbLine
 10
137.8958216949
 20
213.0386103999
 30
0.0
 11
137.9958216949
 21
213.0386103999
 31
0.0
  0
LINE
  5
A8
330
1F
100
AcDbEntity
  8
0
  6
Continuous
 62
     7
370
    50
100
AcDbLine
 10
211.9253663775
 20
152.7505112911
 30
0.0
 11
211.5027985207
 21
152.9253487475
 31
0.0
  0
LINE
  5
A9
330
1F
100
AcDbEntity
  8
0
  6
Continuous
 62
     7
370
    50
100
AcDbLine
 10
211.9253663775
 20
152.7505112911
 30
0.0
 11
211.1056207878
 21
152.2825028409
 31
0.0
  0
LINE
  5
AA
330
1F
100
AcDbEntity
  8
0
  6
Continuous
 62
     7
370
    50
100
AcDbLine
 10
211.1056207878
 20
152.2825028409
 30
0.0
 11
210.94620691
 21
152.6075799417
 31
0.0
  0
LINE
  5
AB
330
1F
100
AcDbEntity
  8
0
  6
Continuous
 62
     7
370
    50
100
AcDbLine
 10
211.5027985207
 20
152.9253487475
 30
0.0
 11
210.94620691
 21
152.6075799417
 31
0.0
  0
LINE
  5
AC
330
1F
100
AcDbEntity
  8
0
  6
Continuous
 62
     7
370
    50
100
AcDbLine
 10
210.6481924534
 20
152.092817711
 30
0.0
 11
210.1759935986
 21
152.2881899934
 31
0.0
  0
LINE
  5
AD
330
1F
100
AcDbEntity
  8
0
  6
Continuous
 62
     7
370
    50
100
AcDbLine
 10
210.6481924534
 20
152.092817711
 30
0.0
 11
210.7161099883
 21
151.929033629
 31
0.0
  0
LINE
  5
AE
330
1F
100
AcDbEntity
  8
0
  6
Continuous
 62
     7
370
    50
100
AcDbLine
 10
210.7161099883
 20
151.929033629
 30
0.0
 11
210.5207377058
 21
151.4568347742
 31
0.0
  0
LINE
  5
AF
330
1F
100
AcDbEntity
  8
0
  6
Continuous
 62
     7
370
    50
100
AcDbLine
 10
210.1759935986
 20
152.2881899934
 30
0.0
 11
210.5207377058
 21
151.4568347742
 31
0.0
  0
LINE
  5
B0
330
1F
100
AcDbEntity
  8
0
  6
Continuous
 62
     7
370
    50
100
AcDbLine
 10
211.9090833474
 20
151.9455872257
 30
0.0
 11
212.2268521532
 21
151.388995615
 31
0.0
  0
LINE
  5
B1
330
1F
100
AcDbEntity
  8
0
  6
Continuous
 62
     7
370
    50
100
AcDbLine
 10
212.2268521532
 20
151.388995615
 30
0.0
 11
212.5462421014
 21
150.6187823036
 31
0.0
  0
LINE
  5
B2
330
1F
100
AcDbEntity
  8
0
  6
Continuous
 62
     7
370
    50
100
AcDbLine
 10
212.5462421014
 20
150.6187823036
 30
0.0
 11
213.3775973206
 21
150.9635264109
 31
0.0
  0
LINE
  5
B3
330
1F
100
AcDbEntity
  8
0
  6
Continuous
 62
     7
370
    50
100
AcDbLine
 10
213.3775973206
 20
150.9635264109
 30
0.0
 11
213.0582073724
 21
151.7337397223
 31
0.0
  0
LINE
  5
B4
330
1F
100
AcDbEntity
  8
0
  6
Continuous
 62
     7
370
    50
100
AcDbLine
 10
213.0582073724
 20
151.7337397223
 30
0.0
 11
212.8888448692
 21
152.3518720524
 31
0.0
  0
LINE
  5
B5
330
1F
100
AcDbEntity
  8
0
  6
Continuous
 62
     7
370
    50
100
AcDbLine
 10
212.8888448692
 20
152.3518720524
 30
0.0
 11
213.4454364798
 21
152.6696408582
 31
0.0
  0
LINE
  5
B6
330
1F
100
AcDbEntity
  8
0
  6
Continuous
 62
     7
370
    50
100
AcDbLine
 10
213.4454364798
 20
152.6696408582
 30
0.0
 11
214.2156497912
 21
152.9890308065
 31
0.0
  0
LINE
  5
B7
330
1F
100
AcDbEntity
  8
0
  6
Continuous
 62
     7
370
    50
100
AcDbLine
 10
214.2156497912
 20
152.9890308065
 30
0.0
 11
213.870905684
 21
153.8203860257
 31
0.0
  0
LINE
  5
B8
330
1F
100
AcDbEntity
  8
0
  6
Continuous
 62
     7
370
    50
100
AcDbLine
 10
213.870905684
 20
153.8203860257
 30
0.0
 11
213.1006923726
 21
153.5009960774
 31
0.0
  0
LINE
  5
B9
330
1F
100
AcDbEntity
  8
0
  6
Continuous
 62
     7
370
    50
100
AcDbLine
 10
213.1006923726
 20
153.5009960774
 30
0.0
 11
212.4825600425
 21
153.3316335742
 31
0.0
  0
LINE
  5
BA
330
1F
100
AcDbEntity
  8
0
  6
Continuous
 62
     7
370
    50
100
AcDbLine
 10
212.4825600425
 20
153.3316335742
 30
0.0
 11
212.1647912366
 21
153.8882251848
 31
0.0
  0
LINE
  5
BB
330
1F
100
AcDbEntity
  8
0
  6
Continuous
 62
     7
370
    50
100
AcDbLine
 10
212.1647912366
 20
153.8882251848
 30
0.0
 11
211.8454012884
 21
154.6584384963
 31
0.0
  0
LINE
  5
BC
330
1F
100
AcDbEntity
  8
0
  6
Continuous
 62
     7
370
    50
100
AcDbLine
 10
211.8454012884
 20
154.6584384963
 30
0.0
 11
211.0140460692
 21
154.313694389
 31
0.0
  0
LINE
  5
BD
330
1F
100
AcDbEntity
  8
0
  6
Continuous
 62
     7
370
    50
100
AcDbLine
 10
211.0140460692
 20
154.313694389
 30
0.0
 11
211.3334360174
 21
153.5434810776
 31
0.0
  0
LINE
  5
BE
330
1F
100
AcDbEntity
  8
0
  6
Continuous
 62
     7
370
    50
100
AcDbLine
 10
211.3334360174
 20
153.5434810776
 30
0.0
 11
211.5027985207
 21
152.9253487475
 31
0.0
  0
LINE
  5
BF
330
1F
100
AcDbEntity
  8
0
  6
Continuous
 62
     7
370
    50
100
AcDbLine
 10
210.94620691
 20
152.6075799417
 30
0.0
 11
210.1759935986
 21
152.2881899934
 31
0.0
  0
LINE
  5
C0
330
1F
100
AcDbEntity
  8
0
  6
Continuous
 62
     7
370
    50
100
AcDbLine
 10
210.5207377058
 20
151.4568347742
 30
0.0
 11
211.2909510173
 21
151.7762247225
 31
0.0
  0
LINE
  5
C1
330
1F
100
AcDbEntity
  8
0
  6
Continuous
 62
     7
370
    50
100
AcDbLine
 10
211.2909510173
 20
151.7762247225
 30
0.0
 11
211.9090833474
 21
151.9455872257
 31
0.0
  0
LINE
  5
C2
330
1F
100
AcDbEntity
  8
0
  6
Continuous
 62
     7
370
    50
100
AcDbLine
 10
210.7161099883
 20
151.929033629
 30
0.0
 11
211.1735383227
 21
152.118718759
 31
0.0
  0
LINE
  5
C3
330
1F
100
AcDbEntity
  8
0
  6
Continuous
 62
     7
370
    50
100
AcDbLine
 10
211.1735383227
 20
152.118718759
 30
0.0
 11
211.2909510173
 21
151.7762247225
 31
0.0
  0
LINE
  5
C4
330
1F
100
AcDbEntity
  8
0
  6
Continuous
 62
     7
370
    50
100
AcDbLine
 10
213.2181050671
 20
153.1585020409
 30
0.0
 11
213.1006923726
 21
153.5009960774
 31
0.0
  0
LINE
  5
C5
330
1F
100
AcDbEntity
  8
0
  6
Continuous
 62
     7
370
    50
100
AcDbLine
 10
213.2181050671
 20
153.1585020409
 30
0.0
 11
212.3077225861
 21
152.9090657174
 31
0.0
  0
LINE
  5
C6
330
1F
100
AcDbEntity
  8
0
  6
Continuous
 62
     7
370
    50
100
AcDbLine
 10
212.3077225861
 20
152.9090657174
 30
0.0
 11
212.4825600425
 21
153.3316335742
 31
0.0
  0
LINE
  5
C7
330
1F
100
AcDbEntity
  8
0
  6
Continuous
 62
     7
370
    50
100
AcDbLine
 10
213.6755334015
 20
153.3481871709
 30
0.0
 11
213.870905684
 21
153.8203860257
 31
0.0
  0
LINE
  5
C8
330
1F
100
AcDbEntity
  8
0
  6
Continuous
 62
     7
370
    50
100
AcDbLine
 10
213.6755334015
 20
153.3481871709
 30
0.0
 11
213.2181050671
 21
153.1585020409
 31
0.0
  0
LINE
  5
C9
330
1F
100
AcDbEntity
  8
0
  6
Continuous
 62
     7
370
    50
100
AcDbLine
 10
213.7434509364
 20
153.1844030889
 30
0.0
 11
214.2156497912
 21
152.9890308065
 31
0.0
  0
LINE
  5
CA
330
1F
100
AcDbEntity
  8
0
  6
Continuous
 62
     7
370
    50
100
AcDbLine
 10
213.7434509364
 20
153.1844030889
 30
0.0
 11
213.6755334015
 21
153.3481871709
 31
0.0
  0
LINE
  5
CB
330
1F
100
AcDbEntity
  8
0
  6
Continuous
 62
     7
370
    50
100
AcDbLine
 10
213.286022602
 20
152.994717959
 30
0.0
 11
213.4454364798
 21
152.6696408582
 31
0.0
  0
LINE
  5
CC
330
1F
100
AcDbEntity
  8
0
  6
Continuous
 62
     7
370
    50
100
AcDbLine
 10
213.286022602
 20
152.994717959
 30
0.0
 11
213.7434509364
 21
153.1844030889
 31
0.0
  0
LINE
  5
CD
330
1F
100
AcDbEntity
  8
0
  6
Continuous
 62
     7
370
    50
100
AcDbLine
 10
212.4662770123
 20
152.5267095088
 30
0.0
 11
212.8888448692
 21
152.3518720524
 31
0.0
  0
LINE
  5
CE
330
1F
100
AcDbEntity
  8
0
  6
Continuous
 62
     7
370
    50
100
AcDbLine
 10
212.4662770123
 20
152.5267095088
 30
0.0
 11
213.286022602
 21
152.994717959
 31
0.0
  0
LINE
  5
CF
330
1F
100
AcDbEntity
  8
0
  6
Continuous
 62
     7
370
    50
100
AcDbLine
 10
212.7157133359
 20
151.6163270277
 30
0.0
 11
213.0582073724
 21
151.7337397223
 31
0.0
  0
LINE
  5
D0
330
1F
100
AcDbEntity
  8
0
  6
Continuous
 62
     7
370
    50
100
AcDbLine
 10
212.7157133359
 20
151.6163270277
 30
0.0
 11
212.4662770123
 21
152.5267095088
 31
0.0
  0
LINE
  5
D1
330
1F
100
AcDbEntity
  8
0
  6
Continuous
 62
     7
370
    50
100
AcDbLine
 10
212.7416143839
 20
151.0909811584
 30
0.0
 11
212.5462421014
 21
150.6187823036
 31
0.0
  0
LINE
  5
D2
330
1F
100
AcDbEntity
  8
0
  6
Continuous
 62
     7
370
    50
100
AcDbLine
 10
212.7416143839
 20
151.0909811584
 30
0.0
 11
212.9053984658
 21
151.1588986933
 31
0.0
  0
LINE
  5
D3
330
1F
100
AcDbEntity
  8
0
  6
Continuous
 62
     7
370
    50
100
AcDbLine
 10
212.9053984658
 20
151.1588986933
 30
0.0
 11
213.3775973206
 21
150.9635264109
 31
0.0
  0
LINE
  5
D4
330
1F
100
AcDbEntity
  8
0
  6
Continuous
 62
     7
370
    50
100
AcDbLine
 10
212.5519292539
 20
151.5484094928
 30
0.0
 11
212.2268521532
 21
151.388995615
 31
0.0
  0
LINE
  5
D5
330
1F
100
AcDbEntity
  8
0
  6
Continuous
 62
     7
370
    50
100
AcDbLine
 10
212.5519292539
 20
151.5484094928
 30
0.0
 11
212.7416143839
 21
151.0909811584
 31
0.0
  0
LINE
  5
D6
330
1F
100
AcDbEntity
  8
0
  6
Continuous
 62
     7
370
    50
100
AcDbLine
 10
212.3077225861
 20
152.9090657174
 30
0.0
 11
211.8397141359
 21
153.728811307
 31
0.0
  0
LINE
  5
D7
330
1F
100
AcDbEntity
  8
0
  6
Continuous
 62
     7
370
    50
100
AcDbLine
 10
211.8397141359
 20
153.728811307
 30
0.0
 11
212.1647912366
 21
153.8882251848
 31
0.0
  0
LINE
  5
D8
330
1F
100
AcDbEntity
  8
0
  6
Continuous
 62
     7
370
    50
100
AcDbLine
 10
211.1735383227
 20
152.118718759
 30
0.0
 11
212.0839208037
 21
152.3681550825
 31
0.0
  0
LINE
  5
D9
330
1F
100
AcDbEntity
  8
0
  6
Continuous
 62
     7
370
    50
100
AcDbLine
 10
212.0839208037
 20
152.3681550825
 30
0.0
 11
211.9090833474
 21
151.9455872257
 31
0.0
  0
ARC
  5
DA
330
1F
100
AcDbEntity
  8
0
  6
Continuous
 62
     7
370
    50
100
AcDbCircle
 10
212.1958216949
 20
152.6386103999
 30
0.0
 40
3.000000000000001
100
AcDbArc
 50
71.3314385756
 51
80.5465653002
  0
SPLINE
  5
DB
330
1F
100
AcDbEntity
  8
0
  6
Continuous
 62
     7
370
    50
100
AcDbSpline
210
0.0
220
0.0
230
1.0
 70
     8
 71
     3
 72
     9
 73
     5
 74
     0
 42
0.000000001
 43
0.00000001
 40
0.0
 40
0.0
 40
0.0
 40
0.0
 40
0.4091946951306314
 40
1.0
 40
1.0
 40
1.0
 40
1.0
 10
214.0794831414923
 20
154.9690942249007
 30
0.0
 10
213.9631939850624
 20
155.0563456660245
 30
0.0
 10
213.6790037015281
 20
155.2695728709763
 30
0.0
 10
213.3503007485475
 20
155.4023331158639
 30
0.0
 10
213.1561013002004
 20
155.4807685728193
 30
0.0
  0
SPLINE
  5
DC
330
1F
100
AcDbEntity
  8
0
  6
Continuous
 62
     7
370
    50
100
AcDbSpline
210
0.0
220
0.0
230
1.0
 70
     8
 71
     3
 72
     9
 73
     5
 74
     0
 42
0.000000001
 43
0.00000001
 40
0.0
 40
0.0
 40
0.0
 40
0.0
 40
0.0680184959786261
 40
0.9999999999999999
 40
0.9999999999999999
 40
0.9999999999999999
 40
0.9999999999999999
 10
214.1021743866359
 20
154.9550342417189
 30
0.0
 10
214.101705853547
 20
154.9554162935415
 30
0.0
 10
214.0948175346837
 20
154.9610331749072
 30
0.0
 10
214.0868804021804
 20
154.9652056009769
 30
0.0
 10
214.0794831414923
 20
154.9690942249007
 30
0.0
  0
ARC
  5
DD
330
1F
100
AcDbEntity
  8
0
  6
Continuous
 62
     7
370
    50
100
AcDbCircle
 10
212.1958216949
 20
152.6386103999
 30
0.0
 40
2.999999999999978
100
AcDbArc
 50
41.3314385756
 51
50.5465653002
  0
SPLINE
  5
DE
330
1F
100
AcDbEntity
  8
0
  6
Continuous
 62
     7
370
    50
100
AcDbSpline
210
0.0
220
0.0
230
1.0
 70
     8
 71
     3
 72
     9
 73
     5
 74
     0
 42
0.000000001
 43
0.00000001
 40
0.0
 40
0.0
 40
0.0
 40
0.0
 40
0.4091946951306035
 40
1.0
 40
1.0
 40
1.0
 40
1.0
 10
214.9923622722615
 20
153.7150378721759
 30
0.0
 10
214.9352786291705
 20
153.8487444149208
 30
0.0
 10
214.795776226597
 20
154.1754997329543
 30
0.0
 10
214.5774912414606
 20
154.4548249541298
 30
0.0
 10
214.4485273142687
 20
154.6198517765842
 30
0.0
  0
SPLINE
  5
DF
330
1F
100
AcDbEntity
  8
0
  6
Continuous
 62
     7
370
    50
100
AcDbSpline
210
0.0
220
0.0
230
1.0
 70
     8
 71
     3
 72
     9
 73
     5
 74
     0
 42
0.000000001
 43
0.00000001
 40
0.0
 40
0.0
 40
0.0
 40
0.0
 40
0.0680184959786128
 40
0.9999999999999999
 40
0.9999999999999999
 40
0.9999999999999999
 40
0.9999999999999999
 10
215.0049834754085
 20
153.6915159469919
 30
0.0
 10
215.0047687397623
 20
153.6920810801203
 30
0.0
 10
215.0016117213201
 20
153.7003896015045
 30
0.0
 10
214.9968241759738
 20
153.707971594728
 30
0.0
 10
214.9923622722615
 20
153.7150378721759
 30
0.0
  0
ARC
  5
E0
330
1F
100
AcDbEntity
  8
0
  6
Continuous
 62
     7
370
    50
100
AcDbCircle
 10
212.1958216949
 20
152.6386103999
 30
0.0
 40
3.000000000000003
100
AcDbArc
 50
11.3314385756
 51
20.5465653002
  0
SPLINE
  5
E1
330
1F
100
AcDbEntity
  8
0
  6
Continuous
 62
     7
370
    50
100
AcDbSpline
210
0.0
220
0.0
230
1.0
 70
     8
 71
     3
 72
     9
 73
     5
 74
     0
 42
0.000000001
 43
0.00000001
 40
0.0
 40
0.0
 40
0.0
 40
0.0
 40
0.4091946951305876
 40
1.0
 40
1.0
 40
1.0
 40
1.0
 10
215.1559106137298
 20
152.1725536475545
 30
0.0
 10
215.1733280000449
 20
152.3168887317693
 30
0.0
 10
215.2158930345439
 20
152.6696183392946
 30
0.0
 10
215.166515302739
 20
153.0206635693185
 30
0.0
 10
215.1373426768462
 20
153.2280629534658
 30
0.0
  0
SPLINE
  5
E2
330
1F
100
AcDbEntity
  8
0
  6
Continuous
 62
     7
370
    50
100
AcDbSpline
210
0.0
220
0.0
230
1.0
 70
     8
 71
     3
 72
     9
 73
     5
 74
     0
 42
0.000000001
 43
0.00000001
 40
0.0
 40
0.0
 40
0.0
 40
0.0
 40
0.0680184959785626
 40
1.0
 40
1.0
 40
1.0
 40
1.0
 10
215.1550799336894
 20
152.1458724612257
 30
0.0
 10
215.1551765337289
 20
152.1464692486945
 30
0.0
 10
215.1565967362499
 20
152.1552431485022
 30
0.0
 10
215.15624159697
 20
152.1642031199182
 30
0.0
 10
215.1559106137298
 20
152.1725536475545
 30
0.0
  0
ARC
  5
E3
330
1F
100
AcDbEntity
  8
0
  6
Continuous
 62
     7
370
    50
100
AcDbCircle
 10
212.1958216949
 20
152.6386103999
 30
0.0
 40
3.000000000000006
100
AcDbArc
 50
341.3314385756
 51
350.5465653002
  0
SPLINE
  5
E4
330
1F
100
AcDbEntity
  8
0
  6
Continuous
 62
     7
370
    50
100
AcDbSpline
210
0.0
220
0.0
230
1.0
 70
     8
 71
     3
 72
     9
 73
     5
 74
     0
 42
0.000000001
 43
0.00000001
 40
0.0
 40
0.0
 40
0.0
 40
0.0
 40
0.4091946951305934
 40
1.0
 40
1.0
 40
1.0
 40
1.0
 10
214.5263055198774
 20
150.7549489533613
 30
0.0
 10
214.6135569610012
 20
150.8712381097912
 30
0.0
 10
214.8267841659531
 20
151.1554283933255
 30
0.0
 10
214.9595444108406
 20
151.484131346306
 30
0.0
 10
215.037979867796
 20
151.6783307946532
 30
0.0
  0
SPLINE
  5
E5
330
1F
100
AcDbEntity
  8
0
  6
Continuous
 62
     7
370
    50
100
AcDbSpline
210
0.0
220
0.0
230
1.0
 70
     8
 71
     3
 72
     9
 73
     5
 74
     0
 42
0.000000001
 43
0.00000001
 40
0.0
 40
0.0
 40
0.0
 40
0.0
 40
0.0680184959787043
 40
1.0
 40
1.0
 40
1.0
 40
1.0
 10
214.5122455366957
 20
150.7322577082177
 30
0.0
 10
214.5126275885183
 20
150.7327262413066
 30
0.0
 10
214.518244469884
 20
150.73961456017
 30
0.0
 10
214.5224168959536
 20
150.7475516926733
 30
0.0
 10
214.5263055198774
 20
150.7549489533613
 30
0.0
  0
ARC
  5
E6
330
1F
100
AcDbEntity
  8
0
  6
Continuous
 62
     7
370
    50
100
AcDbCircle
 10
212.1958216949
 20
152.6386103999
 30
0.0
 40
3.0
100
AcDbArc
 50
311.3314385756
 51
320.5465653002
  0
SPLINE
  5
E7
330
1F
100
AcDbEntity
  8
0
  6
Continuous
 62
     7
370
    50
100
AcDbSpline
210
0.0
220
0.0
230
1.0
 70
     8
 71
     3
 72
     9
 73
     5
 74
     0
 42
0.000000001
 43
0.00000001
 40
0.0
 40
0.0
 40
0.0
 40
0.0
 40
0.4091946951306125
 40
1.0
 40
1.0
 40
1.0
 40
1.0
 10
213.2722491671526
 20
149.8420698225922
 30
0.0
 10
213.4059557098976
 20
149.8991534656832
 30
0.0
 10
213.732711027931
 20
150.0386558682567
 30
0.0
 10
214.0120362491066
 20
150.256940853393
 30
0.0
 10
214.1770630715609
 20
150.3859047805849
 30
0.0
  0
SPLINE
  5
E8
330
1F
100
AcDbEntity
  8
0
  6
Continuous
 62
     7
370
    50
100
AcDbSpline
210
0.0
220
0.0
230
1.0
 70
     8
 71
     3
 72
     9
 73
     5
 74
     0
 42
0.000000001
 43
0.00000001
 40
0.0
 40
0.0
 40
0.0
 40
0.0
 40
0.0680184959786978
 40
1.0
 40
1.0
 40
1.0
 40
1.0
 10
213.2487272419687
 20
149.8294486194452
 30
0.0
 10
213.249292375097
 20
149.8296633550914
 30
0.0
 10
213.2576008964813
 20
149.8328203735335
 30
0.0
 10
213.2651828897048
 20
149.8376079188798
 30
0.0
 10
213.2722491671526
 20
149.8420698225922
 30
0.0
  0
ARC
  5
E9
330
1F
100
AcDbEntity
  8
0
  6
Continuous
 62
     7
370
    50
100
AcDbCircle
 10
212.1958216949
 20
152.6386103999
 30
0.0
 40
3.000000000000009
100
AcDbArc
 50
281.3314385756
 51
290.5465653002
  0
SPLINE
  5
EA
330
1F
100
AcDbEntity
  8
0
  6
Continuous
 62
     7
370
    50
100
AcDbSpline
210
0.0
220
0.0
230
1.0
 70
     8
 71
     3
 72
     9
 73
     5
 74
     0
 42
0.000000001
 43
0.00000001
 40
0.0
 40
0.0
 40
0.0
 40
0.0
 40
0.4091946951306216
 40
1.0
 40
1.0
 40
1.0
 40
1.0
 10
211.7297649425311
 20
149.6785214811239
 30
0.0
 10
211.874100026746
 20
149.6611040948088
 30
0.0
 10
212.2268296342713
 20
149.6185390603097
 30
0.0
 10
212.5778748642953
 20
149.6679167921147
 30
0.0
 10
212.7852742484425
 20
149.6970894180075
 30
0.0
  0
SPLINE
  5
EB
330
1F
100
AcDbEntity
  8
0
  6
Continuous
 62
     7
370
    50
100
AcDbSpline
210
0.0
220
0.0
230
1.0
 70
     8
 71
     3
 72
     9
 73
     5
 74
     0
 42
0.000000001
 43
0.00000001
 40
0.0
 40
0.0
 40
0.0
 40
0.0
 40
0.0680184959787329
 40
1.0
 40
1.0
 40
1.0
 40
1.0
 10
211.7030837562025
 20
149.6793521611643
 30
0.0
 10
211.7036805436712
 20
149.6792555611248
 30
0.0
 10
211.7124544434791
 20
149.6778353586038
 30
0.0
 10
211.721414414895
 20
149.6781904978837
 30
0.0
 10
211.7297649425311
 20
149.6785214811239
 30
0.0
  0
ARC
  5
EC
330
1F
100
AcDbEntity
  8
0
  6
Continuous
 62
     7
370
    50
100
AcDbCircle
 10
212.1958216949
 20
152.6386103999
 30
0.0
 40
2.999999999999997
100
AcDbArc
 50
251.3314385756
 51
260.5465653002
  0
SPLINE
  5
ED
330
1F
100
AcDbEntity
  8
0
  6
Continuous
 62
     7
370
    50
100
AcDbSpline
210
0.0
220
0.0
230
1.0
 70
     8
 71
     3
 72
     9
 73
     5
 74
     0
 42
0.000000001
 43
0.00000001
 40
0.0
 40
0.0
 40
0.0
 40
0.0
 40
0.409194695130624
 40
1.0
 40
1.0
 40
1.0
 40
1.0
 10
210.312160248338
 20
150.3081265749763
 30
0.0
 10
210.4284494047679
 20
150.2208751338524
 30
0.0
 10
210.7126396883022
 20
150.0076479289006
 30
0.0
 10
211.0413426412828
 20
149.874887684013
 30
0.0
 10
211.2355420896299
 20
149.7964522270577
 30
0.0
  0
SPLINE
  5
EE
330
1F
100
AcDbEntity
  8
0
  6
Continuous
 62
     7
370
    50
100
AcDbSpline
210
0.0
220
0.0
230
1.0
 70
     8
 71
     3
 72
     9
 73
     5
 74
     0
 42
0.000000001
 43
0.00000001
 40
0.0
 40
0.0
 40
0.0
 40
0.0
 40
0.0680184959786275
 40
0.9999999999999999
 40
0.9999999999999999
 40
0.9999999999999999
 40
0.9999999999999999
 10
210.2894690031945
 20
150.322186558158
 30
0.0
 10
210.2899375362834
 20
150.3218045063354
 30
0.0
 10
210.2968258551469
 20
150.3161876249697
 30
0.0
 10
210.3047629876501
 20
150.3120151989
 30
0.0
 10
210.312160248338
 20
150.3081265749763
 30
0.0
  0
ARC
  5
EF
330
1F
100
AcDbEntity
  8
0
  6
Continuous
 62
     7
370
    50
100
AcDbCircle
 10
212.1958216949
 20
152.6386103999
 30
0.0
 40
3.00000000000004
100
AcDbArc
 50
221.3314385756
 51
230.5465653002
  0
SPLINE
  5
F0
330
1F
100
AcDbEntity
  8
0
  6
Continuous
 62
     7
370
    50
100
AcDbSpline
210
0.0
220
0.0
230
1.0
 70
     8
 71
     3
 72
     9
 73
     5
 74
     0
 42
0.000000001
 43
0.00000001
 40
0.0
 40
0.0
 40
0.0
 40
0.0
 40
0.4091946951306016
 40
1.0
 40
1.0
 40
1.0
 40
1.0
 10
209.399281117569
 20
151.562182927701
 30
0.0
 10
209.45636476066
 20
151.428476384956
 30
0.0
 10
209.5958671632335
 20
151.1017210669227
 30
0.0
 10
209.8141521483698
 20
150.8223958457471
 30
0.0
 10
209.9431160755616
 20
150.6573690232927
 30
0.0
  0
SPLINE
  5
F1
330
1F
100
AcDbEntity
  8
0
  6
Continuous
 62
     7
370
    50
100
AcDbSpline
210
0.0
220
0.0
230
1.0
 70
     8
 71
     3
 72
     9
 73
     5
 74
     0
 42
0.000000001
 43
0.00000001
 40
0.0
 40
0.0
 40
0.0
 40
0.0
 40
0.0680184959787129
 40
1.0
 40
1.0
 40
1.0
 40
1.0
 10
209.386659914422
 20
151.585704852885
 30
0.0
 10
209.3868746500682
 20
151.5851397197566
 30
0.0
 10
209.3900316685104
 20
151.5768311983722
 30
0.0
 10
209.3948192138566
 20
151.5692492051489
 30
0.0
 10
209.399281117569
 20
151.562182927701
 30
0.0
  0
ARC
  5
F2
330
1F
100
AcDbEntity
  8
0
  6
Continuous
 62
     7
370
    50
100
AcDbCircle
 10
212.1958216949
 20
152.6386103999
 30
0.0
 40
3.000000000000031
100
AcDbArc
 50
191.3314385756
 51
200.5465653002
  0
SPLINE
  5
F3
330
1F
100
AcDbEntity
  8
0
  6
Continuous
 62
     7
370
    50
100
AcDbSpline
210
0.0
220
0.0
230
1.0
 70
     8
 71
     3
 72
     9
 73
     5
 74
     0
 42
0.000000001
 43
0.00000001
 40
0.0
 40
0.0
 40
0.0
 40
0.0
 40
0.4091946951306102
 40
1.0
 40
1.0
 40
1.0
 40
1.0
 10
209.2357327761006
 20
153.1046671523225
 30
0.0
 10
209.2183153897855
 20
152.9603320681077
 30
0.0
 10
209.1757503552865
 20
152.6076024605823
 30
0.0
 10
209.2251280870914
 20
152.2565572305584
 30
0.0
 10
209.2543007129842
 20
152.0491578464112
 30
0.0
  0
SPLINE
  5
F4
330
1F
100
AcDbEntity
  8
0
  6
Continuous
 62
     7
370
    50
100
AcDbSpline
210
0.0
220
0.0
230
1.0
 70
     8
 71
     3
 72
     9
 73
     5
 74
     0
 42
0.000000001
 43
0.00000001
 40
0.0
 40
0.0
 40
0.0
 40
0.0
 40
0.0680184959785873
 40
1.0
 40
1.0
 40
1.0
 40
1.0
 10
209.236563456141
 20
153.1313483386512
 30
0.0
 10
209.2364668561015
 20
153.1307515511824
 30
0.0
 10
209.2350466535805
 20
153.1219776513747
 30
0.0
 10
209.2354017928604
 20
153.1130176799587
 30
0.0
 10
209.2357327761006
 20
153.1046671523225
 30
0.0
  0
ARC
  5
F5
330
1F
100
AcDbEntity
  8
0
  6
Continuous
 62
     7
370
    50
100
AcDbCircle
 10
212.1958216949
 20
152.6386103999
 30
0.0
 40
3.000000000000006
100
AcDbArc
 50
161.3314385756
 51
170.5465653002
  0
SPLINE
  5
F6
330
1F
100
AcDbEntity
  8
0
  6
Continuous
 62
     7
370
    50
100
AcDbSpline
210
0.0
220
0.0
230
1.0
 70
     8
 71
     3
 72
     9
 73
     5
 74
     0
 42
0.000000001
 43
0.00000001
 40
0.0
 40
0.0
 40
0.0
 40
0.0
 40
0.4091946951306149
 40
1.0
 40
1.0
 40
1.0
 40
1.0
 10
209.865337869953
 20
154.5222718465156
 30
0.0
 10
209.7780864288292
 20
154.4059826900857
 30
0.0
 10
209.5648592238774
 20
154.1217924065514
 30
0.0
 10
209.4320989789897
 20
153.7930894535708
 30
0.0
 10
209.3536635220344
 20
153.5988900052237
 30
0.0
  0
SPLINE
  5
F7
330
1F
100
AcDbEntity
  8
0
  6
Continuous
 62
     7
370
    50
100
AcDbSpline
210
0.0
220
0.0
230
1.0
 70
     8
 71
     3
 72
     9
 73
     5
 74
     0
 42
0.000000001
 43
0.00000001
 40
0.0
 40
0.0
 40
0.0
 40
0.0
 40
0.0680184959787127
 40
1.0
 40
1.0
 40
1.0
 40
1.0
 10
209.8793978531347
 20
154.5449630916592
 30
0.0
 10
209.8790158013122
 20
154.5444945585703
 30
0.0
 10
209.8733989199465
 20
154.537606239707
 30
0.0
 10
209.8692264938769
 20
154.5296691072037
 30
0.0
 10
209.865337869953
 20
154.5222718465156
 30
0.0
  0
ARC
  5
F8
330
1F
100
AcDbEntity
  8
0
  6
Continuous
 62
     7
370
    50
100
AcDbCircle
 10
212.1958216949
 20
152.6386103999
 30
0.0
 40
3.000000000000018
100
AcDbArc
 50
131.3314385756
 51
140.5465653002
  0
SPLINE
  5
F9
330
1F
100
AcDbEntity
  8
0
  6
Continuous
 62
     7
370
    50
100
AcDbSpline
210
0.0
220
0.0
230
1.0
 70
     8
 71
     3
 72
     9
 73
     5
 74
     0
 42
0.000000001
 43
0.00000001
 40
0.0
 40
0.0
 40
0.0
 40
0.0
 40
0.4091946951305946
 40
1.0
 40
1.0
 40
1.0
 40
1.0
 10
211.1193942226777
 20
155.4351509772847
 30
0.0
 10
210.9856876799328
 20
155.3780673341937
 30
0.0
 10
210.6589323618994
 20
155.2385649316202
 30
0.0
 10
210.3796071407238
 20
155.0202799464839
 30
0.0
 10
210.2145803182695
 20
154.891316019292
 30
0.0
  0
SPLINE
  5
FA
330
1F
100
AcDbEntity
  8
0
  6
Continuous
 62
     7
370
    50
100
AcDbSpline
210
0.0
220
0.0
230
1.0
 70
     8
 71
     3
 72
     9
 73
     5
 74
     0
 42
0.000000001
 43
0.00000001
 40
0.0
 40
0.0
 40
0.0
 40
0.0
 40
0.0680184959786269
 40
1.0
 40
1.0
 40
1.0
 40
1.0
 10
211.1429161478618
 20
155.4477721804317
 30
0.0
 10
211.1423510147334
 20
155.4475574447855
 30
0.0
 10
211.1340424933491
 20
155.4444004263433
 30
0.0
 10
211.1264605001256
 20
155.4396128809971
 30
0.0
 10
211.1193942226777
 20
155.4351509772847
 30
0.0
  0
ARC
  5
FB
330
1F
100
AcDbEntity
  8
0
  6
Continuous
 62
     7
370
    50
100
AcDbCircle
 10
212.1958216949
 20
152.6386103999
 30
0.0
 40
2.999999999999982
100
AcDbArc
 50
101.3314385756
 51
110.5465653002
  0
SPLINE
  5
FC
330
1F
100
AcDbEntity
  8
0
  6
Continuous
 62
     7
370
    50
100
AcDbSpline
210
0.0
220
0.0
230
1.0
 70
     8
 71
     3
 72
     9
 73
     5
 74
     0
 42
0.000000001
 43
0.00000001
 40
0.0
 40
0.0
 40
0.0
 40
0.0
 40
0.409194695130589
 40
1.0
 40
1.0
 40
1.0
 40
1.0
 10
212.6618784472992
 20
155.598699318753
 30
0.0
 10
212.5175433630844
 20
155.6161167050681
 30
0.0
 10
212.1648137555591
 20
155.6586817395672
 30
0.0
 10
211.8137685255351
 20
155.6093040077622
 30
0.0
 10
211.6063691413879
 20
155.5801313818694
 30
0.0
  0
SPLINE
  5
FD
330
1F
100
AcDbEntity
  8
0
  6
Continuous
 62
     7
370
    50
100
AcDbSpline
210
0.0
220
0.0
230
1.0
 70
     8
 71
     3
 72
     9
 73
     5
 74
     0
 42
0.000000001
 43
0.00000001
 40
0.0
 40
0.0
 40
0.0
 40
0.0
 40
0.0680184959785825
 40
1.0
 40
1.0
 40
1.0
 40
1.0
 10
212.688559633628
 20
155.5978686387127
 30
0.0
 10
212.6879628461591
 20
155.5979652387521
 30
0.0
 10
212.6791889463514
 20
155.5993854412731
 30
0.0
 10
212.6702289749354
 20
155.5990303019932
 30
0.0
 10
212.6618784472992
 20
155.598699318753
 30
0.0
  0
LINE
  5
FE
330
1F
100
AcDbEntity
  8
0
  6
Continuous
 62
     7
370
    50
100
AcDbLine
 10
212.9053984658
 20
151.1588986933
 30
0.0
 11
212.7157133359
 21
151.6163270277
 31
0.0
  0
LINE
  5
FF
330
1F
100
AcDbEntity
  8
0
  6
Continuous
 62
     7
370
    50
100
AcDbLine
 10
211.486244924
 20
154.1183221066
 30
0.0
 11
211.0140460692
 21
154.313694389
 31
0.0
  0
LINE
  5
100
330
1F
100
AcDbEntity
  8
0
  6
Continuous
 62
     7
370
    50
100
AcDbLine
 10
211.486244924
 20
154.1183221066
 30
0.0
 11
211.6759300539
 21
153.6608937721
 31
0.0
  0
LINE
  5
101
330
1F
100
AcDbEntity
  8
0
  6
Continuous
 62
     7
370
    50
100
AcDbLine
 10
211.6759300539
 20
153.6608937721
 30
0.0
 11
211.3334360174
 21
153.5434810776
 31
0.0
  0
LINE
  5
102
330
1F
100
AcDbEntity
  8
0
  6
Continuous
 62
     7
370
    50
100
AcDbLine
 10
211.6500290059
 20
154.1862396415
 30
0.0
 11
211.8454012884
 21
154.6584384963
 31
0.0
  0
LINE
  5
103
330
1F
100
AcDbEntity
  8
0
  6
Continuous
 62
     7
370
    50
100
AcDbLine
 10
211.6500290059
 20
154.1862396415
 30
0.0
 11
211.486244924
 21
154.1183221066
 31
0.0
  0
LINE
  5
104
330
1F
100
AcDbEntity
  8
0
  6
Continuous
 62
     7
370
    50
100
AcDbLine
 10
212.0839208037
 20
152.3681550825
 30
0.0
 11
212.5519292539
 21
151.5484094928
 31
0.0
  0
LINE
  5
105
330
1F
100
AcDbEntity
  8
0
  6
Continuous
 62
     7
370
    50
100
AcDbLine
 10
211.1056207878
 20
152.2825028409
 30
0.0
 11
210.6481924534
 21
152.092817711
 31
0.0
  0
LINE
  5
106
330
1F
100
AcDbEntity
  8
0
  6
Continuous
 62
     7
370
    50
100
AcDbLine
 10
211.6759300539
 20
153.6608937721
 30
0.0
 11
211.9253663775
 21
152.7505112911
 31
0.0
  0
LINE
  5
107
330
1F
100
AcDbEntity
  8
0
  6
Continuous
 62
     7
370
    50
100
AcDbLine
 10
211.8397141359
 20
153.728811307
 30
0.0
 11
211.6500290059
 21
154.1862396415
 31
0.0
  0
LINE
  5
108
330
1F
100
AcDbEntity
  8
0
  6
Continuous
 62
     7
370
    50
100
AcDbLine
 10
172.0306885787
 20
224.3319705695
 30
0.0
 11
171.7705508606
 21
224.7718233345
 31
0.0
  0
LINE
  5
109
330
1F
100
AcDbEntity
  8
0
  6
Continuous
 62
     7
370
    50
100
AcDbLine
 10
172.0306885787
 20
224.3319705695
 30
0.0
 11
171.9865967024
 21
224.1602326195
 31
0.0
  0
LINE
  5
10A
330
1F
100
AcDbEntity
  8
0
  6
Continuous
 62
     7
370
    50
100
AcDbLine
 10
171.9865967024
 20
224.1602326195
 30
0.0
 11
171.5467439375
 21
223.9000949013
 31
0.0
  0
LINE
  5
10B
330
1F
100
AcDbEntity
  8
0
  6
Continuous
 62
     7
370
    50
100
AcDbLine
 10
171.7705508606
 20
224.7718233345
 30
0.0
 11
171.5467439375
 21
223.9000949013
 31
0.0
  0
LINE
  5
10C
330
1F
100
AcDbEntity
  8
0
  6
Continuous
 62
     7
370
    50
100
AcDbLine
 10
173.2256045882
 20
222.7531197711
 30
0.0
 11
172.8699558334
 21
222.8209568483
 31
0.0
  0
LINE
  5
10D
330
1F
100
AcDbEntity
  8
0
  6
Continuous
 62
     7
370
    50
100
AcDbLine
 10
173.2256045882
 20
222.7531197711
 30
0.0
 11
173.1024615253
 21
222.2734772837
 31
0.0
  0
LINE
  5
10E
330
1F
100
AcDbEntity
  8
0
  6
Continuous
 62
     7
370
    50
100
AcDbLine
 10
173.1024615253
 20
222.2734772837
 30
0.0
 11
172.6626087604
 21
222.0133395656
 31
0.0
  0
LINE
  5
10F
330
1F
100
AcDbEntity
  8
0
  6
Continuous
 62
     7
370
    50
100
AcDbLine
 10
172.8699558334
 20
222.8209568483
 30
0.0
 11
172.6626087604
 21
222.0133395656
 31
0.0
  0
LINE
  5
110
330
1F
100
AcDbEntity
  8
0
  6
Continuous
 62
     7
370
    50
100
AcDbLine
 10
174.6813123238
 20
223.4683932933
 30
0.0
 11
174.6134752465
 21
223.1127445384
 31
0.0
  0
LINE
  5
111
330
1F
100
AcDbEntity
  8
0
  6
Continuous
 62
     7
370
    50
100
AcDbLine
 10
174.6813123238
 20
223.4683932933
 30
0.0
 11
175.1609548112
 21
223.3452502303
 31
0.0
  0
LINE
  5
112
330
1F
100
AcDbEntity
  8
0
  6
Continuous
 62
     7
370
    50
100
AcDbLine
 10
175.1609548112
 20
223.3452502303
 30
0.0
 11
175.4210925293
 21
222.9053974654
 31
0.0
  0
LINE
  5
113
330
1F
100
AcDbEntity
  8
0
  6
Continuous
 62
     7
370
    50
100
AcDbLine
 10
174.6134752465
 20
223.1127445384
 30
0.0
 11
175.4210925293
 21
222.9053974654
 31
0.0
  0
LINE
  5
114
330
1F
100
AcDbEntity
  8
0
  6
Continuous
 62
     7
370
    50
100
AcDbLine
 10
173.7448174589
 20
223.58668154
 30
0.0
 11
173.9776131061
 21
223.1930600004
 31
0.0
  0
LINE
  5
115
330
1F
100
AcDbEntity
  8
0
  6
Continuous
 62
     7
370
    50
100
AcDbLine
 10
173.7448174589
 20
223.58668154
 30
0.0
 11
174.6813123238
 21
223.4683932933
 31
0.0
  0
LINE
  5
116
330
1F
100
AcDbEntity
  8
0
  6
Continuous
 62
     7
370
    50
100
AcDbLine
 10
173.9776131061
 20
223.1930600004
 30
0.0
 11
174.6134752465
 21
223.1127445384
 31
0.0
  0
LINE
  5
117
330
1F
100
AcDbEntity
  8
0
  6
Continuous
 62
     7
370
    50
100
AcDbLine
 10
173.3438928349
 20
223.6896146359
 30
0.0
 11
172.9502712954
 21
223.4568189887
 31
0.0
  0
LINE
  5
118
330
1F
100
AcDbEntity
  8
0
  6
Continuous
 62
     7
370
    50
100
AcDbLine
 10
173.3438928349
 20
223.6896146359
 30
0.0
 11
173.2256045882
 21
222.7531197711
 31
0.0
  0
LINE
  5
119
330
1F
100
AcDbEntity
  8
0
  6
Continuous
 62
     7
370
    50
100
AcDbLine
 10
172.9502712954
 20
223.4568189887
 30
0.0
 11
172.8699558334
 21
222.8209568483
 31
0.0
  0
LINE
  5
11A
330
1F
100
AcDbEntity
  8
0
  6
Continuous
 62
     7
370
    50
100
AcDbLine
 10
174.0891818645
 20
225.4037435162
 30
0.0
 11
174.5290346295
 21
225.6638812343
 31
0.0
  0
LINE
  5
11B
330
1F
100
AcDbEntity
  8
0
  6
Continuous
 62
     7
370
    50
100
AcDbLine
 10
174.0891818645
 20
225.4037435162
 30
0.0
 11
173.9174439144
 21
225.4478353924
 31
0.0
  0
LINE
  5
11C
330
1F
100
AcDbEntity
  8
0
  6
Continuous
 62
     7
370
    50
100
AcDbLine
 10
173.9174439144
 20
225.4478353924
 30
0.0
 11
173.6573061963
 21
225.8876881574
 31
0.0
  0
LINE
  5
11D
330
1F
100
AcDbEntity
  8
0
  6
Continuous
 62
     7
370
    50
100
AcDbLine
 10
174.5290346295
 20
225.6638812343
 30
0.0
 11
173.6573061963
 21
225.8876881574
 31
0.0
  0
LINE
  5
11E
330
1F
100
AcDbEntity
  8
0
  6
Continuous
 62
     7
370
    50
100
AcDbLine
 10
172.5103310661
 20
224.2088275066
 30
0.0
 11
172.5781681433
 21
224.5644762615
 31
0.0
  0
LINE
  5
11F
330
1F
100
AcDbEntity
  8
0
  6
Continuous
 62
     7
370
    50
100
AcDbLine
 10
172.5103310661
 20
224.2088275066
 30
0.0
 11
172.0306885787
 21
224.3319705695
 31
0.0
  0
LINE
  5
120
330
1F
100
AcDbEntity
  8
0
  6
Continuous
 62
     7
370
    50
100
AcDbLine
 10
172.5781681433
 20
224.5644762615
 30
0.0
 11
171.7705508606
 21
224.7718233345
 31
0.0
  0
LINE
  5
121
330
1F
100
AcDbEntity
  8
0
  6
Continuous
 62
     7
370
    50
100
AcDbLine
 10
173.4468259309
 20
224.0905392599
 30
0.0
 11
173.2140302837
 21
224.4841607995
 31
0.0
  0
LINE
  5
122
330
1F
100
AcDbEntity
  8
0
  6
Continuous
 62
     7
370
    50
100
AcDbLine
 10
173.4468259309
 20
224.0905392599
 30
0.0
 11
172.5103310661
 21
224.2088275066
 31
0.0
  0
LINE
  5
123
330
1F
100
AcDbEntity
  8
0
  6
Continuous
 62
     7
370
    50
100
AcDbLine
 10
173.2140302837
 20
224.4841607995
 30
0.0
 11
172.5781681433
 21
224.5644762615
 31
0.0
  0
LINE
  5
124
330
1F
100
AcDbEntity
  8
0
  6
Continuous
 62
     7
370
    50
100
AcDbLine
 10
173.7943008515
 20
224.968192905
 30
0.0
 11
173.4499591233
 21
225.0800708746
 31
0.0
  0
LINE
  5
125
330
1F
100
AcDbEntity
  8
0
  6
Continuous
 62
     7
370
    50
100
AcDbLine
 10
173.7943008515
 20
224.968192905
 30
0.0
 11
173.4468259309
 21
224.0905392599
 31
0.0
  0
LINE
  5
126
330
1F
100
AcDbEntity
  8
0
  6
Continuous
 62
     7
370
    50
100
AcDbLine
 10
173.4499591233
 20
225.0800708746
 30
0.0
 11
173.2140302837
 21
224.4841607995
 31
0.0
  0
LINE
  5
127
330
1F
100
AcDbEntity
  8
0
  6
Continuous
 62
     7
370
    50
100
AcDbLine
 10
173.9174439144
 20
225.4478353924
 30
0.0
 11
173.7943008515
 21
224.968192905
 31
0.0
  0
LINE
  5
128
330
1F
100
AcDbEntity
  8
0
  6
Continuous
 62
     7
370
    50
100
AcDbLine
 10
173.6573061963
 20
225.8876881574
 30
0.0
 11
173.4499591233
 21
225.0800708746
 31
0.0
  0
LINE
  5
129
330
1F
100
AcDbEntity
  8
0
  6
Continuous
 62
     7
370
    50
100
AcDbLine
 10
173.9660388016
 20
224.9241010288
 30
0.0
 11
174.3216875564
 21
224.8562639515
 31
0.0
  0
LINE
  5
12A
330
1F
100
AcDbEntity
  8
0
  6
Continuous
 62
     7
370
    50
100
AcDbLine
 10
173.9660388016
 20
224.9241010288
 30
0.0
 11
174.0891818645
 21
225.4037435162
 31
0.0
  0
LINE
  5
12B
330
1F
100
AcDbEntity
  8
0
  6
Continuous
 62
     7
370
    50
100
AcDbLine
 10
174.3216875564
 20
224.8562639515
 30
0.0
 11
174.5290346295
 21
225.6638812343
 31
0.0
  0
LINE
  5
12C
330
1F
100
AcDbEntity
  8
0
  6
Continuous
 62
     7
370
    50
100
AcDbLine
 10
173.8477505549
 20
223.9876061639
 30
0.0
 11
174.2413720944
 21
224.2204018111
 31
0.0
  0
LINE
  5
12D
330
1F
100
AcDbEntity
  8
0
  6
Continuous
 62
     7
370
    50
100
AcDbLine
 10
173.8477505549
 20
223.9876061639
 30
0.0
 11
173.9660388016
 21
224.9241010288
 31
0.0
  0
LINE
  5
12E
330
1F
100
AcDbEntity
  8
0
  6
Continuous
 62
     7
370
    50
100
AcDbLine
 10
174.2413720944
 20
224.2204018111
 30
0.0
 11
174.3216875564
 21
224.8562639515
 31
0.0
  0
LINE
  5
12F
330
1F
100
AcDbEntity
  8
0
  6
Continuous
 62
     7
370
    50
100
AcDbLine
 10
174.7254042
 20
223.6401312433
 30
0.0
 11
174.8372821696
 21
223.9844729716
 31
0.0
  0
LINE
  5
130
330
1F
100
AcDbEntity
  8
0
  6
Continuous
 62
     7
370
    50
100
AcDbLine
 10
174.7254042
 20
223.6401312433
 30
0.0
 11
173.8477505549
 21
223.9876061639
 31
0.0
  0
LINE
  5
131
330
1F
100
AcDbEntity
  8
0
  6
Continuous
 62
     7
370
    50
100
AcDbLine
 10
174.8372821696
 20
223.9844729716
 30
0.0
 11
174.2413720944
 21
224.2204018111
 31
0.0
  0
LINE
  5
132
330
1F
100
AcDbEntity
  8
0
  6
Continuous
 62
     7
370
    50
100
AcDbLine
 10
175.2050466874
 20
223.5169881804
 30
0.0
 11
175.6448994524
 21
223.7771258985
 31
0.0
  0
LINE
  5
133
330
1F
100
AcDbEntity
  8
0
  6
Continuous
 62
     7
370
    50
100
AcDbLine
 10
175.2050466874
 20
223.5169881804
 30
0.0
 11
174.7254042
 21
223.6401312433
 31
0.0
  0
LINE
  5
134
330
1F
100
AcDbEntity
  8
0
  6
Continuous
 62
     7
370
    50
100
AcDbLine
 10
175.6448994524
 20
223.7771258985
 30
0.0
 11
174.8372821696
 21
223.9844729716
 31
0.0
  0
LINE
  5
135
330
1F
100
AcDbEntity
  8
0
  6
Continuous
 62
     7
370
    50
100
AcDbLine
 10
175.1609548112
 20
223.3452502303
 30
0.0
 11
175.2050466874
 21
223.5169881804
 31
0.0
  0
LINE
  5
136
330
1F
100
AcDbEntity
  8
0
  6
Continuous
 62
     7
370
    50
100
AcDbLine
 10
175.4210925293
 20
222.9053974654
 30
0.0
 11
175.6448994524
 21
223.7771258985
 31
0.0
  0
ARC
  5
137
330
1F
100
AcDbEntity
  8
0
  6
Continuous
 62
     7
370
    50
100
AcDbCircle
 10
173.5958216949
 20
223.8386103999
 30
0.0
 40
3.000000000000004
100
AcDbArc
 50
34.4096835447
 51
43.6248102693
  0
SPLINE
  5
138
330
1F
100
AcDbEntity
  8
0
  6
Continuous
 62
     7
370
    50
100
AcDbSpline
210
0.0
220
0.0
230
1.0
 70
     8
 71
     3
 72
     9
 73
     5
 74
     0
 42
0.000000001
 43
0.00000001
 40
0.0
 40
0.0
 40
0.0
 40
0.0
 40
0.4091946951306314
 40
1.0
 40
1.0
 40
1.0
 40
1.0
 10
176.501704459533
 20
224.5701708294513
 30
0.0
 10
176.4611503422242
 20
224.7097822381924
 30
0.0
 10
176.3620431988733
 20
225.0509680121099
 30
0.0
 10
176.1790116874994
 20
225.3545637626813
 30
0.0
 10
176.0708756996215
 20
225.5339297426546
 30
0.0
  0
SPLINE
  5
139
330
1F
100
AcDbEntity
  8
0
  6
Continuous
 62
     7
370
    50
100
AcDbSpline
210
0.0
220
0.0
230
1.0
 70
     8
 71
     3
 72
     9
 73
     5
 74
     0
 42
0.000000001
 43
0.00000001
 40
0.0
 40
0.0
 40
0.0
 40
0.0
 40
0.0680184959786407
 40
1.0
 40
1.0
 40
1.0
 40
1.0
 10
176.5113989589465
 20
224.5452993113159
 30
0.0
 10
176.5112538946956
 20
224.5458862041628
 30
0.0
 10
176.5091211769876
 20
224.5545146343918
 30
0.0
 10
176.5052822595657
 20
224.5626183326037
 30
0.0
 10
176.501704459533
 20
224.5701708294513
 30
0.0
  0
ARC
  5
13A
330
1F
100
AcDbEntity
  8
0
  6
Continuous
 62
     7
370
    50
100
AcDbCircle
 10
173.5958216949
 20
223.8386103999
 30
0.0
 40
2.999999999999987
100
AcDbArc
 50
4.4096835447
 51
13.6248102693
  0
SPLINE
  5
13B
330
1F
100
AcDbEntity
  8
0
  6
Continuous
 62
     7
370
    50
100
AcDbSpline
210
0.0
220
0.0
230
1.0
 70
     8
 71
     3
 72
     9
 73
     5
 74
     0
 42
0.000000001
 43
0.00000001
 40
0.0
 40
0.0
 40
0.0
 40
0.0
 40
0.4091946951306023
 40
0.9999999999999999
 40
0.9999999999999999
 40
0.9999999999999999
 40
0.9999999999999999
 10
176.47817020425
 20
223.0192189339911
 30
0.0
 10
176.5128550128031
 20
223.1604030192734
 30
0.0
 10
176.5976185959234
 20
223.5054321385713
 30
0.0
 10
176.5909065326663
 20
223.859869526734
 30
0.0
 10
176.5869410100873
 20
224.0692730159046
 30
0.0
  0
SPLINE
  5
13C
330
1F
100
AcDbEntity
  8
0
  6
Continuous
 62
     7
370
    50
100
AcDbSpline
210
0.0
220
0.0
230
1.0
 70
     8
 71
     3
 72
     9
 73
     5
 74
     0
 42
0.000000001
 43
0.00000001
 40
0.0
 40
0.0
 40
0.0
 40
0.0
 40
0.0680184959786121
 40
1.0
 40
1.0
 40
1.0
 40
1.0
 10
176.4741301279514
 20
222.9928323177485
 30
0.0
 10
176.4742979450483
 20
222.9934131139885
 30
0.0
 10
176.4767651724485
 20
223.0019519126155
 30
0.0
 10
176.4774924215441
 20
223.0108893798426
 30
0.0
 10
176.47817020425
 20
223.0192189339911
 30
0.0
  0
ARC
  5
13D
330
1F
100
AcDbEntity
  8
0
  6
Continuous
 62
     7
370
    50
100
AcDbCircle
 10
173.5958216949
 20
223.8386103999
 30
0.0
 40
2.999999999999975
100
AcDbArc
 50
334.4096835447
 51
343.6248102693
  0
SPLINE
  5
13E
330
1F
100
AcDbEntity
  8
0
  6
Continuous
 62
     7
370
    50
100
AcDbSpline
210
0.0
220
0.0
230
1.0
 70
     8
 71
     3
 72
     9
 73
     5
 74
     0
 42
0.000000001
 43
0.00000001
 40
0.0
 40
0.0
 40
0.0
 40
0.0
 40
0.4091946951305887
 40
1.0
 40
1.0
 40
1.0
 40
1.0
 10
175.6823129935857
 20
221.6878223201166
 30
0.0
 10
175.7829429615592
 20
221.7927489203045
 30
0.0
 10
176.0288649375061
 20
222.0491711111017
 30
0.0
 10
176.200270814295
 20
222.3594789249301
 30
0.0
 10
176.3015383155876
 20
222.5428104274824
 30
0.0
  0
SPLINE
  5
13F
330
1F
100
AcDbEntity
  8
0
  6
Continuous
 62
     7
370
    50
100
AcDbSpline
210
0.0
220
0.0
230
1.0
 70
     8
 71
     3
 72
     9
 73
     5
 74
     0
 42
0.000000001
 43
0.00000001
 40
0.0
 40
0.0
 40
0.0
 40
0.0
 40
0.0680184959785396
 40
1.0
 40
1.0
 40
1.0
 40
1.0
 10
175.6656208767565
 20
221.6669908782798
 30
0.0
 10
175.6660566087457
 20
221.6674099540296
 30
0.0
 10
175.6724626896647
 20
221.6735711568582
 30
0.0
 10
175.6775612394699
 20
221.6809476059747
 30
0.0
 10
175.6823129935857
 20
221.6878223201166
 30
0.0
  0
ARC
  5
140
330
1F
100
AcDbEntity
  8
0
  6
Continuous
 62
     7
370
    50
100
AcDbCircle
 10
173.5958216949
 20
223.8386103999
 30
0.0
 40
2.999999999999972
100
AcDbArc
 50
304.4096835447
 51
313.6248102693
  0
SPLINE
  5
141
330
1F
100
AcDbEntity
  8
0
  6
Continuous
 62
     7
370
    50
100
AcDbSpline
210
0.0
220
0.0
230
1.0
 70
     8
 71
     3
 72
     9
 73
     5
 74
     0
 42
0.000000001
 43
0.00000001
 40
0.0
 40
0.0
 40
0.0
 40
0.0
 40
0.4091946951305939
 40
1.0
 40
1.0
 40
1.0
 40
1.0
 10
174.3273821244281
 20
220.9327276353207
 30
0.0
 10
174.4669935331691
 20
220.9732817526294
 30
0.0
 10
174.8081793070866
 20
221.0723888959804
 30
0.0
 10
175.1117750576579
 20
221.2554204073542
 30
0.0
 10
175.2911410376312
 20
221.3635563952321
 30
0.0
  0
SPLINE
  5
142
330
1F
100
AcDbEntity
  8
0
  6
Continuous
 62
     7
370
    50
100
AcDbSpline
210
0.0
220
0.0
230
1.0
 70
     8
 71
     3
 72
     9
 73
     5
 74
     0
 42
0.000000001
 43
0.00000001
 40
0.0
 40
0.0
 40
0.0
 40
0.0
 40
0.0680184959787246
 40
1.0
 40
1.0
 40
1.0
 40
1.0
 10
174.3025106062926
 20
220.9230331359072
 30
0.0
 10
174.3030974991395
 20
220.923178200158
 30
0.0
 10
174.3117259293686
 20
220.925310917866
 30
0.0
 10
174.3198296275804
 20
220.929149835288
 30
0.0
 10
174.3273821244281
 20
220.9327276353207
 30
0.0
  0
ARC
  5
143
330
1F
100
AcDbEntity
  8
0
  6
Continuous
 62
     7
370
    50
100
AcDbCircle
 10
173.5958216949
 20
223.8386103999
 30
0.0
 40
2.999999999999973
100
AcDbArc
 50
274.4096835447
 51
283.6248102693
  0
SPLINE
  5
144
330
1F
100
AcDbEntity
  8
0
  6
Continuous
 62
     7
370
    50
100
AcDbSpline
210
0.0
220
0.0
230
1.0
 70
     8
 71
     3
 72
     9
 73
     5
 74
     0
 42
0.000000001
 43
0.00000001
 40
0.0
 40
0.0
 40
0.0
 40
0.0
 40
0.4091946951306145
 40
1.0
 40
1.0
 40
1.0
 40
1.0
 10
172.7764302289679
 20
220.9562618906037
 30
0.0
 10
172.9176143142502
 20
220.9215770820506
 30
0.0
 10
173.262643433548
 20
220.8368134989302
 30
0.0
 10
173.6170808217107
 20
220.8435255621874
 30
0.0
 10
173.8264843108813
 20
220.8474910847664
 30
0.0
  0
SPLINE
  5
145
330
1F
100
AcDbEntity
  8
0
  6
Continuous
 62
     7
370
    50
100
AcDbSpline
210
0.0
220
0.0
230
1.0
 70
     8
 71
     3
 72
     9
 73
     5
 74
     0
 42
0.000000001
 43
0.00000001
 40
0.0
 40
0.0
 40
0.0
 40
0.0
 40
0.068018495978714
 40
1.0
 40
1.0
 40
1.0
 40
1.0
 10
172.7500436127252
 20
220.9603019669023
 30
0.0
 10
172.7506244089653
 20
220.9601341498053
 30
0.0
 10
172.7591632075923
 20
220.9576669224051
 30
0.0
 10
172.7681006748194
 20
220.9569396733096
 30
0.0
 10
172.7764302289679
 20
220.9562618906037
 30
0.0
  0
ARC
  5
146
330
1F
100
AcDbEntity
  8
0
  6
Continuous
 62
     7
370
    50
100
AcDbCircle
 10
173.5958216949
 20
223.8386103999
 30
0.0
 40
3.0
100
AcDbArc
 50
244.4096835447
 51
253.6248102693
  0
SPLINE
  5
147
330
1F
100
AcDbEntity
  8
0
  6
Continuous
 62
     7
370
    50
100
AcDbSpline
210
0.0
220
0.0
230
1.0
 70
     8
 71
     3
 72
     9
 73
     5
 74
     0
 42
0.000000001
 43
0.00000001
 40
0.0
 40
0.0
 40
0.0
 40
0.0
 40
0.4091946951306225
 40
1.0
 40
1.0
 40
1.0
 40
1.0
 10
171.4450336150933
 20
221.7521191012681
 30
0.0
 10
171.5499602152812
 20
221.6514891332945
 30
0.0
 10
171.8063824060784
 20
221.4055671573476
 30
0.0
 10
172.1166902199069
 20
221.2341612805587
 30
0.0
 10
172.3000217224592
 20
221.1328937792661
 30
0.0
  0
SPLINE
  5
148
330
1F
100
AcDbEntity
  8
0
  6
Continuous
 62
     7
370
    50
100
AcDbSpline
210
0.0
220
0.0
230
1.0
 70
     8
 71
     3
 72
     9
 73
     5
 74
     0
 42
0.000000001
 43
0.00000001
 40
0.0
 40
0.0
 40
0.0
 40
0.0
 40
0.068018495978688
 40
0.9999999999999999
 40
0.9999999999999999
 40
0.9999999999999999
 40
0.9999999999999999
 10
171.4242021732565
 20
221.7688112180972
 30
0.0
 10
171.4246212490063
 20
221.768375486108
 30
0.0
 10
171.4307824518351
 20
221.7619694051889
 30
0.0
 10
171.4381589009515
 20
221.7568708553838
 30
0.0
 10
171.4450336150933
 20
221.7521191012681
 30
0.0
  0
ARC
  5
149
330
1F
100
AcDbEntity
  8
0
  6
Continuous
 62
     7
370
    50
100
AcDbCircle
 10
173.5958216949
 20
223.8386103999
 30
0.0
 40
2.999999999999986
100
AcDbArc
 50
214.4096835447
 51
223.6248102693
  0
SPLINE
  5
14A
330
1F
100
AcDbEntity
  8
0
  6
Continuous
 62
     7
370
    50
100
AcDbSpline
210
0.0
220
0.0
230
1.0
 70
     8
 71
     3
 72
     9
 73
     5
 74
     0
 42
0.000000001
 43
0.00000001
 40
0.0
 40
0.0
 40
0.0
 40
0.0
 40
0.4091946951306234
 40
1.0
 40
1.0
 40
1.0
 40
1.0
 10
170.6899389302974
 20
223.1070499704257
 30
0.0
 10
170.7304930476062
 20
222.9674385616846
 30
0.0
 10
170.8296001909571
 20
222.6262527877671
 30
0.0
 10
171.012631702331
 20
222.3226570371957
 30
0.0
 10
171.1207676902089
 20
222.1432910572225
 30
0.0
  0
SPLINE
  5
14B
330
1F
100
AcDbEntity
  8
0
  6
Continuous
 62
     7
370
    50
100
AcDbSpline
210
0.0
220
0.0
230
1.0
 70
     8
 71
     3
 72
     9
 73
     5
 74
     0
 42
0.000000001
 43
0.00000001
 40
0.0
 40
0.0
 40
0.0
 40
0.0
 40
0.0680184959786538
 40
1.0
 40
1.0
 40
1.0
 40
1.0
 10
170.6802444308839
 20
223.131921488561
 30
0.0
 10
170.6803894951348
 20
223.1313345957142
 30
0.0
 10
170.6825222128429
 20
223.122706165485
 30
0.0
 10
170.6863611302648
 20
223.1146024672732
 30
0.0
 10
170.6899389302974
 20
223.1070499704257
 30
0.0
  0
ARC
  5
14C
330
1F
100
AcDbEntity
  8
0
  6
Continuous
 62
     7
370
    50
100
AcDbCircle
 10
173.5958216949
 20
223.8386103999
 30
0.0
 40
3.000000000000028
100
AcDbArc
 50
184.4096835447
 51
193.6248102693
  0
SPLINE
  5
14D
330
1F
100
AcDbEntity
  8
0
  6
Continuous
 62
     7
370
    50
100
AcDbSpline
210
0.0
220
0.0
230
1.0
 70
     8
 71
     3
 72
     9
 73
     5
 74
     0
 42
0.000000001
 43
0.00000001
 40
0.0
 40
0.0
 40
0.0
 40
0.0
 40
0.409194695130597
 40
1.0
 40
1.0
 40
1.0
 40
1.0
 10
170.7134731855805
 20
224.6580018658858
 30
0.0
 10
170.6787883770274
 20
224.5168177806035
 30
0.0
 10
170.594024793907
 20
224.1717886613056
 30
0.0
 10
170.6007368571642
 20
223.817351273143
 30
0.0
 10
170.6047023797431
 20
223.6079477839724
 30
0.0
  0
SPLINE
  5
14E
330
1F
100
AcDbEntity
  8
0
  6
Continuous
 62
     7
370
    50
100
AcDbSpline
210
0.0
220
0.0
230
1.0
 70
     8
 71
     3
 72
     9
 73
     5
 74
     0
 42
0.000000001
 43
0.00000001
 40
0.0
 40
0.0
 40
0.0
 40
0.0
 40
0.0680184959787333
 40
1.0
 40
1.0
 40
1.0
 40
1.0
 10
170.717513261879
 20
224.6843884821285
 30
0.0
 10
170.7173454447821
 20
224.6838076858884
 30
0.0
 10
170.7148782173819
 20
224.6752688872612
 30
0.0
 10
170.7141509682863
 20
224.6663314200342
 30
0.0
 10
170.7134731855805
 20
224.6580018658858
 30
0.0
  0
ARC
  5
14F
330
1F
100
AcDbEntity
  8
0
  6
Continuous
 62
     7
370
    50
100
AcDbCircle
 10
173.5958216949
 20
223.8386103999
 30
0.0
 40
3.000000000000051
100
AcDbArc
 50
154.4096835447
 51
163.6248102693
  0
SPLINE
  5
150
330
1F
100
AcDbEntity
  8
0
  6
Continuous
 62
     7
370
    50
100
AcDbSpline
210
0.0
220
0.0
230
1.0
 70
     8
 71
     3
 72
     9
 73
     5
 74
     0
 42
0.000000001
 43
0.00000001
 40
0.0
 40
0.0
 40
0.0
 40
0.0
 40
0.4091946951306086
 40
1.0
 40
1.0
 40
1.0
 40
1.0
 10
171.5093303962448
 20
225.9893984797604
 30
0.0
 10
171.4087004282713
 20
225.8844718795725
 30
0.0
 10
171.1627784523243
 20
225.6280496887753
 30
0.0
 10
170.9913725755354
 20
225.3177418749468
 30
0.0
 10
170.8901050742428
 20
225.1344103723945
 30
0.0
  0
SPLINE
  5
151
330
1F
100
AcDbEntity
  8
0
  6
Continuous
 62
     7
370
    50
100
AcDbSpline
210
0.0
220
0.0
230
1.0
 70
     8
 71
     3
 72
     9
 73
     5
 74
     0
 42
0.000000001
 43
0.00000001
 40
0.0
 40
0.0
 40
0.0
 40
0.0
 40
0.068018495978579
 40
1.0
 40
1.0
 40
1.0
 40
1.0
 10
171.5260225130739
 20
226.0102299215972
 30
0.0
 10
171.5255867810847
 20
226.0098108458474
 30
0.0
 10
171.5191807001657
 20
226.0036496430186
 30
0.0
 10
171.5140821503605
 20
225.9962731939023
 30
0.0
 10
171.5093303962448
 20
225.9893984797604
 30
0.0
  0
ARC
  5
152
330
1F
100
AcDbEntity
  8
0
  6
Continuous
 62
     7
370
    50
100
AcDbCircle
 10
173.5958216949
 20
223.8386103999
 30
0.0
 40
3.000000000000025
100
AcDbArc
 50
124.4096835447
 51
133.6248102693
  0
SPLINE
  5
153
330
1F
100
AcDbEntity
  8
0
  6
Continuous
 62
     7
370
    50
100
AcDbSpline
210
0.0
220
0.0
230
1.0
 70
     8
 71
     3
 72
     9
 73
     5
 74
     0
 42
0.000000001
 43
0.00000001
 40
0.0
 40
0.0
 40
0.0
 40
0.0
 40
0.4091946951306163
 40
1.0
 40
1.0
 40
1.0
 40
1.0
 10
172.8642612654024
 20
226.7444931645562
 30
0.0
 10
172.7246498566613
 20
226.7039390472475
 30
0.0
 10
172.3834640827438
 20
226.6048319038966
 30
0.0
 10
172.0798683321725
 20
226.4218003925227
 30
0.0
 10
171.9005023521991
 20
226.3136644046448
 30
0.0
  0
SPLINE
  5
154
330
1F
100
AcDbEntity
  8
0
  6
Continuous
 62
     7
370
    50
100
AcDbSpline
210
0.0
220
0.0
230
1.0
 70
     8
 71
     3
 72
     9
 73
     5
 74
     0
 42
0.000000001
 43
0.00000001
 40
0.0
 40
0.0
 40
0.0
 40
0.0
 40
0.0680184959787267
 40
1.0
 40
1.0
 40
1.0
 40
1.0
 10
172.8891327835378
 20
226.7541876639698
 30
0.0
 10
172.888545890691
 20
226.7540425997189
 30
0.0
 10
172.879917460462
 20
226.7519098820109
 30
0.0
 10
172.8718137622501
 20
226.7480709645889
 30
0.0
 10
172.8642612654024
 20
226.7444931645563
 30
0.0
  0
ARC
  5
155
330
1F
100
AcDbEntity
  8
0
  6
Continuous
 62
     7
370
    50
100
AcDbCircle
 10
173.5958216949
 20
223.8386103999
 30
0.0
 40
3.000000000000032
100
AcDbArc
 50
94.4096835447
 51
103.6248102693
  0
SPLINE
  5
156
330
1F
100
AcDbEntity
  8
0
  6
Continuous
 62
     7
370
    50
100
AcDbSpline
210
0.0
220
0.0
230
1.0
 70
     8
 71
     3
 72
     9
 73
     5
 74
     0
 42
0.000000001
 43
0.00000001
 40
0.0
 40
0.0
 40
0.0
 40
0.0
 40
0.4091946951305936
 40
1.0
 40
1.0
 40
1.0
 40
1.0
 10
174.4152131608625
 20
226.7209589092733
 30
0.0
 10
174.2740290755802
 20
226.7556437178264
 30
0.0
 10
173.9289999562824
 20
226.8404073009467
 30
0.0
 10
173.5745625681197
 20
226.8336952376895
 30
0.0
 10
173.3651590789491
 20
226.8297297151106
 30
0.0
  0
SPLINE
  5
157
330
1F
100
AcDbEntity
  8
0
  6
Continuous
 62
     7
370
    50
100
AcDbSpline
210
0.0
220
0.0
230
1.0
 70
     8
 71
     3
 72
     9
 73
     5
 74
     0
 42
0.000000001
 43
0.00000001
 40
0.0
 40
0.0
 40
0.0
 40
0.0
 40
0.0680184959786084
 40
1.0
 40
1.0
 40
1.0
 40
1.0
 10
174.4415997771052
 20
226.7169188329746
 30
0.0
 10
174.4410189808652
 20
226.7170866500716
 30
0.0
 10
174.4324801822381
 20
226.7195538774718
 30
0.0
 10
174.423542715011
 20
226.7202811265674
 30
0.0
 10
174.4152131608625
 20
226.7209589092733
 30
0.0
  0
ARC
  5
158
330
1F
100
AcDbEntity
  8
0
  6
Continuous
 62
     7
370
    50
100
AcDbCircle
 10
173.5958216949
 20
223.8386103999
 30
0.0
 40
3.000000000000008
100
AcDbArc
 50
64.4096835447
 51
73.6248102693
  0
SPLINE
  5
159
330
1F
100
AcDbEntity
  8
0
  6
Continuous
 62
     7
370
    50
100
AcDbSpline
210
0.0
220
0.0
230
1.0
 70
     8
 71
     3
 72
     9
 73
     5
 74
     0
 42
0.000000001
 43
0.00000001
 40
0.0
 40
0.0
 40
0.0
 40
0.0
 40
0.4091946951305894
 40
1.0
 40
1.0
 40
1.0
 40
1.0
 10
175.7466097747371
 20
225.9251016986089
 30
0.0
 10
175.6416831745492
 20
226.0257316665825
 30
0.0
 10
175.385260983752
 20
226.2716536425294
 30
0.0
 10
175.0749531699235
 20
226.4430595193183
 30
0.0
 10
174.8916216673712
 20
226.5443270206109
 30
0.0
  0
SPLINE
  5
15A
330
1F
100
AcDbEntity
  8
0
  6
Continuous
 62
     7
370
    50
100
AcDbSpline
210
0.0
220
0.0
230
1.0
 70
     8
 71
     3
 72
     9
 73
     5
 74
     0
 42
0.000000001
 43
0.00000001
 40
0.0
 40
0.0
 40
0.0
 40
0.0
 40
0.0680184959785601
 40
1.0
 40
1.0
 40
1.0
 40
1.0
 10
175.7674412165739
 20
225.9084095817798
 30
0.0
 10
175.7670221408241
 20
225.908845313769
 30
0.0
 10
175.7608609379953
 20
225.9152513946879
 30
0.0
 10
175.7534844888789
 20
225.9203499444932
 30
0.0
 10
175.7466097747371
 20
225.9251016986089
 30
0.0
  0
LINE
  5
15B
330
1F
100
AcDbEntity
  8
0
  6
Continuous
 62
     7
370
    50
100
AcDbLine
 10
173.3973425383
 20
222.7090278948
 30
0.0
 11
173.7416842665
 21
222.5971499253
 31
0.0
  0
LINE
  5
15C
330
1F
100
AcDbEntity
  8
0
  6
Continuous
 62
     7
370
    50
100
AcDbLine
 10
173.3973425383
 20
222.7090278948
 30
0.0
 11
173.7448174589
 21
223.58668154
 31
0.0
  0
LINE
  5
15D
330
1F
100
AcDbEntity
  8
0
  6
Continuous
 62
     7
370
    50
100
AcDbLine
 10
173.7416842665
 20
222.5971499253
 30
0.0
 11
173.9776131061
 21
223.1930600004
 31
0.0
  0
LINE
  5
15E
330
1F
100
AcDbEntity
  8
0
  6
Continuous
 62
     7
370
    50
100
AcDbLine
 10
173.2741994754
 20
222.2293854075
 30
0.0
 11
173.5343371935
 21
221.7895326425
 31
0.0
  0
LINE
  5
15F
330
1F
100
AcDbEntity
  8
0
  6
Continuous
 62
     7
370
    50
100
AcDbLine
 10
173.2741994754
 20
222.2293854075
 30
0.0
 11
173.3973425383
 21
222.7090278948
 31
0.0
  0
LINE
  5
160
330
1F
100
AcDbEntity
  8
0
  6
Continuous
 62
     7
370
    50
100
AcDbLine
 10
173.5343371935
 20
221.7895326425
 30
0.0
 11
173.7416842665
 21
222.5971499253
 31
0.0
  0
LINE
  5
161
330
1F
100
AcDbEntity
  8
0
  6
Continuous
 62
     7
370
    50
100
AcDbLine
 10
171.9865967024
 20
224.1602326195
 30
0.0
 11
172.4662391898
 21
224.0370895565
 31
0.0
  0
LINE
  5
162
330
1F
100
AcDbEntity
  8
0
  6
Continuous
 62
     7
370
    50
100
AcDbLine
 10
172.4662391898
 20
224.0370895565
 30
0.0
 11
172.3543612202
 21
223.6927478283
 31
0.0
  0
LINE
  5
163
330
1F
100
AcDbEntity
  8
0
  6
Continuous
 62
     7
370
    50
100
AcDbLine
 10
171.5467439375
 20
223.9000949013
 30
0.0
 11
172.3543612202
 21
223.6927478283
 31
0.0
  0
LINE
  5
164
330
1F
100
AcDbEntity
  8
0
  6
Continuous
 62
     7
370
    50
100
AcDbLine
 10
173.1024615253
 20
222.2734772837
 30
0.0
 11
173.2741994754
 21
222.2293854075
 31
0.0
  0
LINE
  5
165
330
1F
100
AcDbEntity
  8
0
  6
Continuous
 62
     7
370
    50
100
AcDbLine
 10
172.6626087604
 20
222.0133395656
 30
0.0
 11
173.5343371935
 21
221.7895326425
 31
0.0
  0
LINE
  5
166
330
1F
100
AcDbEntity
  8
0
  6
Continuous
 62
     7
370
    50
100
AcDbLine
 10
172.4662391898
 20
224.0370895565
 30
0.0
 11
173.3438928349
 21
223.6896146359
 31
0.0
  0
LINE
  5
167
330
1F
100
AcDbEntity
  8
0
  6
Continuous
 62
     7
370
    50
100
AcDbLine
 10
172.3543612202
 20
223.6927478283
 30
0.0
 11
172.9502712954
 21
223.4568189887
 31
0.0
  0
LINE
  5
168
330
1F
100
AcDbEntity
  8
0
  6
Continuous
 62
     7
370
    50
100
AcDbLine
 10
177.9958216949
 20
154.8886103999
 30
0.0
 11
180.9958216949
 21
154.8886103999
 31
0.0
  0
LINE
  5
169
330
1F
100
AcDbEntity
  8
0
  6
Continuous
 62
     7
370
    50
100
AcDbLine
 10
177.9958216949
 20
150.4886103999
 30
0.0
 11
180.9958216949
 21
150.4886103999
 31
0.0
  0
LINE
  5
16A
330
1F
100
AcDbEntity
  8
0
  6
Continuous
 62
     7
370
    50
100
AcDbLine
 10
177.9958216949
 20
154.8886103999
 30
0.0
 11
177.9958216949
 21
150.4886103999
 31
0.0
  0
LINE
  5
16B
330
1F
100
AcDbEntity
  8
0
  6
Continuous
 62
     7
370
    50
100
AcDbLine
 10
180.9958216949
 20
154.8886103999
 30
0.0
 11
180.9958216949
 21
150.4886103999
 31
0.0
  0
LINE
  5
16C
330
1F
100
AcDbEntity
  8
0
  6
Continuous
 62
     7
370
    50
100
AcDbLine
 10
177.9958216949
 20
154.9386103999
 30
0.0
 11
177.9958216949
 21
154.8886103999
 31
0.0
  0
LINE
  5
16D
330
1F
100
AcDbEntity
  8
0
  6
Continuous
 62
     7
370
    50
100
AcDbLine
 10
180.9958216949
 20
154.9386103999
 30
0.0
 11
180.9958216949
 21
154.8886103999
 31
0.0
  0
LINE
  5
16E
330
1F
100
AcDbEntity
  8
0
  6
Continuous
 62
     7
370
    50
100
AcDbLine
 10
177.9958216949
 20
150.4886103999
 30
0.0
 11
177.9958216949
 21
150.4386103999
 31
0.0
  0
LINE
  5
16F
330
1F
100
AcDbEntity
  8
0
  6
Continuous
 62
     7
370
    50
100
AcDbLine
 10
180.9958216949
 20
150.4886103999
 30
0.0
 11
180.9958216949
 21
150.4386103999
 31
0.0
  0
LINE
  5
170
330
1F
100
AcDbEntity
  8
0
  6
Continuous
 62
     7
370
    50
100
AcDbLine
 10
137.9958216949
 20
197.5490015633
 30
0.0
 11
137.8958216949
 21
197.7750861816
 31
0.0
  0
ARC
  5
171
330
1F
100
AcDbEntity
  8
0
  6
Continuous
 62
     7
370
    50
100
AcDbCircle
 10
151.1958216949
 20
182.5386103999
 30
0.0
 40
33.30000000000002
100
AcDbArc
 50
126.7501335757
 51
172.9609953538
  0
SPLINE
  5
172
330
1F
100
AcDbEntity
  8
0
  6
Continuous
 62
     7
370
    50
100
AcDbSpline
210
0.0
220
0.0
230
1.0
 70
     8
 71
     3
 72
    13
 73
     9
 74
     0
 42
0.000000001
 43
0.00000001
 40
0.0
 40
0.0
 40
0.0
 40
0.0
 40
0.179225151907127
 40
0.358084893300149
 40
0.5463774574247926
 40
0.7588926857375168
 40
0.991020685292592
 40
0.9999999999999999
 40
0.9999999999999999
 40
0.9999999999999999
 40
0.9999999999999999
 10
118.1468051953487
 20
186.6193589111044
 30
0.0
 10
118.1487365551295
 20
186.6201810308542
 30
0.0
 10
118.152595336967
 20
186.6218235941873
 30
0.0
 10
118.1821112972006
 20
186.634382070986
 30
0.0
 10
118.2265387402669
 20
186.6532687630692
 30
0.0
 10
118.2865215667278
 20
186.6787380115752
 30
0.0
 10
118.3337588403352
 20
186.6987641963861
 30
0.0
 10
118.3587578830373
 20
186.7093529348874
 30
0.0
 10
118.3596888969823
 20
186.7097472805158
 30
0.0
  0
LINE
  5
173
330
1F
100
AcDbEntity
  8
0
  6
Continuous
 62
     7
370
    50
100
AcDbLine
 10
128.2673210322
 20
179.0345431203
 30
0.0
 11
118.1468051953
 21
186.6193589111
 31
0.0
  0
ARC
  5
174
330
1F
100
AcDbEntity
  8
0
  6
Continuous
 62
     7
370
    50
100
AcDbCircle
 10
136.6564885089
 20
202.0090441523
 30
0.0
 40
8.999999999999972
100
AcDbArc
 50
101.2815080989
 51
126.7501335757
  0
LINE
  5
175
330
1F
100
AcDbEntity
  8
0
  6
Continuous
 62
     7
370
    50
100
AcDbLine
 10
137.8958216949
 20
210.923305381
 30
0.0
 11
137.9958216949
 21
210.9088299147
 31
0.0
  0
LINE
  5
176
330
1F
100
AcDbEntity
  8
0
  6
Continuous
 62
     7
370
    50
100
AcDbLine
 10
134.8958216949
 20
197.9206431521
 30
0.0
 11
132.3461601404
 21
197.9045691832
 31
0.0
  0
LINE
  5
177
330
1F
100
AcDbEntity
  8
0
  6
Continuous
 62
     7
370
    50
100
AcDbLine
 10
129.8720499611
 20
195.6294379984
 30
0.0
 11
128.6203099903
 21
181.7664243633
 31
0.0
  0
LINE
  5
178
330
1F
100
AcDbEntity
  8
0
  6
Continuous
 62
     7
370
    50
100
AcDbLine
 10
128.6203099903
 20
181.7664243633
 30
0.0
 11
128.418555336
 21
181.7560025962
 31
0.0
  0
ARC
  5
179
330
1F
100
AcDbEntity
  8
0
  6
Continuous
 62
     7
370
    50
100
AcDbCircle
 10
132.361920712
 20
195.4046188628
 30
0.0
 40
2.500000000000001
100
AcDbArc
 50
90.3612080877
 51
174.8405548945
  0
LINE
  5
17A
330
1F
100
AcDbEntity
  8
0
  6
Continuous
 62
     7
370
    50
100
AcDbLine
 10
128.6203099903
 20
181.7664243633
 30
0.0
 11
129.0578708734
 21
179.5306827697
 31
0.0
  0
ARC
  5
17B
330
1F
100
AcDbEntity
  8
0
  6
Continuous
 62
     7
370
    50
100
AcDbCircle
 10
128.5671800548
 20
179.4346488145
 30
0.0
 40
0.5000000000000113
100
AcDbArc
 50
233.1502932056
 51
11.0734897373
  0
CIRCLE
  5
17C
330
1F
100
AcDbEntity
  8
0
  6
Continuous
 62
     7
370
    50
100
AcDbCircle
 10
212.1958216949
 20
223.8386103999
 30
0.0
 40
1.899999999999969
  0
LINE
  5
17D
330
1F
100
AcDbEntity
  8
0
  6
Continuous
 62
     7
370
    50
100
AcDbLine
 10
134.8958216949
 20
253.1386103999
 30
0.0
 11
134.8958216949
 21
263.1386103999
 31
0.0
  0
LINE
  5
17E
330
1F
100
AcDbEntity
  8
0
  6
Continuous
 62
     7
370
    50
100
AcDbLine
 10
137.8958216949
 20
253.1386103999
 30
0.0
 11
137.8958216949
 21
263.1386103999
 31
0.0
  0
LINE
  5
17F
330
1F
100
AcDbEntity
  8
0
  6
Continuous
 62
     7
370
    50
100
AcDbLine
 10
134.8958216949
 20
127.1386103999
 30
0.0
 11
134.8958216949
 21
253.1386103999
 31
0.0
  0
LINE
  5
180
330
1F
100
AcDbEntity
  8
0
  6
Continuous
 62
     7
370
    50
100
AcDbLine
 10
137.8958216949
 20
127.1386103999
 30
0.0
 11
137.8958216949
 21
253.1386103999
 31
0.0
  0
LINE
  5
181
330
1F
100
AcDbEntity
  8
0
  6
Continuous
 62
     7
370
    50
100
AcDbLine
 10
134.8958216949
 20
117.1386103999
 30
0.0
 11
134.8958216949
 21
127.1386103999
 31
0.0
  0
LINE
  5
182
330
1F
100
AcDbEntity
  8
0
  6
Continuous
 62
     7
370
    50
100
AcDbLine
 10
137.8958216949
 20
117.1386103999
 30
0.0
 11
137.8958216949
 21
127.1386103999
 31
0.0
  0
LINE
  5
183
330
1F
100
AcDbEntity
  8
0
  6
Continuous
 62
     8
370
    18
100
AcDbLine
 10
161.4958216949
 20
207.0386103999
 30
0.0
 11
171.9958216949
 21
208.0386103999
 31
0.0
  0
CIRCLE
  5
184
330
1F
100
AcDbEntity
  8
0
  6
Continuous
 62
     8
370
    18
100
AcDbCircle
 10
212.1958216949
 20
152.6386103999
 30
0.0
 40
2.599999999999999
  0
CIRCLE
  5
185
330
1F
100
AcDbEntity
  8
0
  6
Continuous
 62
     8
370
    18
100
AcDbCircle
 10
173.5958216949
 20
223.8386103999
 30
0.0
 40
2.600000000000004
  0
LINE
  5
186
330
1F
100
AcDbEntity
  8
0
  6
Continuous
 62
     8
370
    18
100
AcDbLine
 10
137.9531411978
 20
198.1399215508
 30
0.0
 11
137.8958216949
 21
197.9006036211
 31
0.0
  0
LINE
  5
187
330
1F
100
AcDbEntity
  8
0
  6
Continuous
 62
     8
370
    18
100
AcDbLine
 10
137.9531411978
 20
198.1399215508
 30
0.0
 11
137.9958216949
 21
198.0434275118
 31
0.0
  0
LINE
  5
188
330
1F
100
AcDbEntity
  8
0
  6
Continuous
 62
     8
370
    18
100
AcDbLine
 10
131.2715502918
 20
209.2203159124
 30
0.0
 11
131.3912155855
 21
209.0600654289
 31
0.0
  0
ARC
  5
189
330
1F
100
AcDbEntity
  8
0
  6
Continuous
 62
     8
370
    18
100
AcDbCircle
 10
151.1958216949
 20
182.5386103999
 30
0.0
 40
33.10000000000002
100
AcDbArc
 50
126.7501335757
 51
172.760555022
  0
LINE
  5
18A
330
1F
100
AcDbEntity
  8
0
  6
Continuous
 62
     8
370
    18
100
AcDbLine
 10
118.359688897
 20
186.7097472805
 30
0.0
 11
128.3872646412
 21
179.194585398
 31
0.0
  0
LINE
  5
18B
330
1F
100
AcDbEntity
  8
0
  6
Continuous
 62
     8
370
    18
100
AcDbLine
 10
128.2673210322
 20
179.0345431203
 30
0.0
 11
128.3872646412
 21
179.194585398
 31
0.0
  0
LINE
  5
18C
330
1F
100
AcDbEntity
  8
0
  6
Continuous
 62
     8
370
    18
100
AcDbLine
 10
132.3448992947
 20
198.1045652089
 30
0.0
 11
134.8958216949
 21
198.1206471265
 31
0.0
  0
LINE
  5
18D
330
1F
100
AcDbEntity
  8
0
  6
Continuous
 62
     8
370
    18
100
AcDbLine
 10
137.8958216949
 20
198.1395601883
 30
0.0
 11
137.9531411978
 21
198.1399215508
 31
0.0
  0
ARC
  5
18E
330
1F
100
AcDbEntity
  8
0
  6
Continuous
 62
     8
370
    18
100
AcDbCircle
 10
132.361920712
 20
195.4046188628
 30
0.0
 40
2.699999999999994
100
AcDbArc
 50
90.3612080877
 51
174.8405548945
  0
LINE
  5
18F
330
1F
100
AcDbEntity
  8
0
  6
Continuous
 62
     8
370
    18
100
AcDbLine
 10
128.418555336
 20
181.7560025962
 30
0.0
 11
129.672860301
 21
195.6474235292
 31
0.0
  0
LINE
  5
190
330
1F
100
AcDbEntity
  8
0
  6
Continuous
 62
     8
370
    18
100
AcDbLine
 10
128.861594546
 20
179.4922691876
 30
0.0
 11
128.418555336
 21
181.7560025962
 31
0.0
  0
ARC
  5
191
330
1F
100
AcDbEntity
  8
0
  6
Continuous
 62
     8
370
    18
100
AcDbCircle
 10
128.5671800548
 20
179.4346488145
 30
0.0
 40
0.3000000000000203
100
AcDbArc
 50
233.1502932056
 51
11.0734897373
  0
LINE
  5
192
330
1F
100
AcDbEntity
  8
0
  6
Continuous
 62
     8
370
    18
100
AcDbLine
 10
137.9958216949
 20
210.7065257773
 30
0.0
 11
137.8958216949
 21
210.7213373782
 31
0.0
  0
ARC
  5
193
330
1F
100
AcDbEntity
  8
0
  6
Continuous
 62
     8
370
    18
100
AcDbCircle
 10
136.6564885089
 20
202.0090441523
 30
0.0
 40
8.799999999999988
100
AcDbArc
 50
101.5413901421
 51
126.7501335757
  0
LINE
  5
194
330
1F
100
AcDbEntity
  8
0
  6
Continuous
 62
     8
370
    18
100
AcDbLine
 10
132.3461601404
 20
197.9045691832
 30
0.0
 11
132.3448992947
 21
198.1045652089
 31
0.0
  0
LINE
  5
195
330
1F
100
AcDbEntity
  8
0
  6
Continuous
 62
     8
370
    18
100
AcDbLine
 10
137.8958216949
 20
198.0956345569
 30
0.0
 11
137.9531411978
 21
198.1399215508
 31
0.0
  0
LINE
  5
196
330
1F
100
AcDbEntity
  8
0
  6
Continuous
 62
     8
370
    18
100
AcDbLine
 10
129.8720499611
 20
195.6294379984
 30
0.0
 11
129.672860301
 21
195.6474235292
 31
0.0
  0
LINE
  5
197
330
1F
100
AcDbEntity
  8
0
  6
Continuous
 62
     8
370
    18
100
AcDbLine
 10
129.0578708734
 20
179.5306827697
 30
0.0
 11
128.861594546
 21
179.4922691876
 31
0.0
  0
LINE
  5
198
330
1F
100
AcDbEntity
  8
0
  6
Continuous
 62
     8
370
    18
100
AcDbLine
 10
134.8958216949
 20
253.1386103999
 30
0.0
 11
137.8958216949
 21
253.1386103999
 31
0.0
  0
LINE
  5
199
330
1F
100
AcDbEntity
  8
0
  6
Continuous
 62
     8
370
    18
100
AcDbLine
 10
134.8958216949
 20
127.1386103999
 30
0.0
 11
137.8958216949
 21
127.1386103999
 31
0.0
  0
LINE
  5
19A
330
1F
100
AcDbEntity
  8
0
  6
CENTERX2
 62
     7
370
    18
100
AcDbLine
 10
128.5671800548
 20
178.9346488145
 30
0.0
 11
129.1745217174
 21
178.9346488145
 31
0.0
  0
DIMENSION
  5
19B
330
1F
100
AcDbEntity
  8
0
  6
Continuous
 62
     7
370
    18
100
AcDbDimension
  2
_D
 10
101.5977262764
 20
178.9346488145
 30
0.0
 11
101.5977262764
 21
162.0366296072
 31
0.0
 70
   160
  1
<>
 71
     2
 42
-1.0
  3
SLDDIMSTYLE0
100
AcDbAlignedDimension
 13
137.9958216949
 23
145.1386103999
 33
0.0
 14
128.5671800548
 24
178.9346488145
 34
0.0
 50
90.0
100
AcDbRotatedDimension
  0
DIMENSION
  5
1A7
330
1F
100
AcDbEntity
  8
0
  6
Continuous
 62
     7
370
    18
100
AcDbDimension
  2
_D_1
 10
101.5977262764
 20
178.9346488145
 30
0.0
 11
101.5977262764
 21
194.9718464834
 31
0.0
 70
   160
  1
<>
 71
     2
 42
-1.0
  3
SLDDIMSTYLE0
100
AcDbAlignedDimension
 13
136.6564885089
 23
211.0090441523
 33
0.0
 14
128.5671800548
 24
178.9346488145
 34
0.0
 50
90.0
100
AcDbRotatedDimension
  0
DIMENSION
  5
1B1
330
1F
100
AcDbEntity
  8
0
  6
Continuous
 62
     7
370
    18
100
AcDbDimension
  2
_D_2
 10
110.0629868377
 20
178.9346488145
 30
0.0
 11
110.0629868377
 21
188.4196089989
 31
0.0
 70
   160
  1
<>
 71
     2
 42
-1.0
  3
SLDDIMSTYLE0
100
AcDbAlignedDimension
 13
132.3461601404
 23
197.9045691832
 33
0.0
 14
128.5671800548
 24
178.9346488145
 34
0.0
 50
90.0
100
AcDbRotatedDimension
  0
DIMENSION
  5
1BB
330
1F
100
AcDbEntity
  8
0
  6
Continuous
 62
     7
370
    18
100
AcDbDimension
  2
_D_3
 10
229.5958216949
 20
145.1386103999
 30
0.0
 11
229.5958216949
 21
158.1386103999
 31
0.0
 70
   160
  1
<>
 71
     2
 42
-1.0
  3
SLDDIMSTYLE1
100
AcDbAlignedDimension
 13
194.5958216949
 23
171.1386103999
 33
0.0
 14
211.5958216949
 24
145.1386103999
 34
0.0
 50
90.0
100
AcDbRotatedDimension
  0
DIMENSION
  5
1C6
330
1F
100
AcDbEntity
  8
0
  6
Continuous
 62
     7
370
    18
100
AcDbDimension
  2
_D_4
 10
229.5958216949
 20
171.1386103999
 30
0.0
 11
229.5958216949
 21
201.1386103999
 31
0.0
 70
   160
  1
<>
 71
     2
 42
-1.0
  3
SLDDIMSTYLE1
100
AcDbAlignedDimension
 13
211.5958216949
 23
231.1386103999
 33
0.0
 14
194.5958216949
 24
171.1386103999
 34
0.0
 50
90.0
100
AcDbRotatedDimension
  0
DIMENSION
  5
1D0
330
1F
100
AcDbEntity
  8
0
  6
Continuous
 62
     7
370
    18
100
AcDbDimension
  2
_D_5
 10
101.5977262764
 20
263.1386103999
 30
0.0
 11
101.5977262764
 21
247.1386103999
 31
0.0
 70
   160
  1
<>
 71
     2
 42
-1.0
  3
SLDDIMSTYLE0
100
AcDbAlignedDimension
 13
137.9958216949
 23
231.1386103999
 33
0.0
 14
134.8958216949
 24
263.1386103999
 34
0.0
 50
90.0
100
AcDbRotatedDimension
  0
DIMENSION
  5
1DA
330
1F
100
AcDbEntity
  8
0
  6
Continuous
 62
     7
370
    18
100
AcDbDimension
  2
_D_6
 10
101.5977262764
 20
117.1386103999
 30
0.0
 11
101.5977262764
 21
131.1386103999
 31
0.0
 70
   160
  1
<>
 71
     2
 42
-1.0
  3
SLDDIMSTYLE0
100
AcDbAlignedDimension
 13
137.9958216949
 23
145.1386103999
 33
0.0
 14
134.8958216949
 24
117.1386103999
 34
0.0
 50
90.0
100
AcDbRotatedDimension
  0
DIMENSION
  5
1E4
330
1F
100
AcDbEntity
  8
0
  6
Continuous
 62
     7
370
    18
100
AcDbDimension
  2
_D_7
 10
134.8958216949
 20
273.1386103999
 30
0.0
 11
144.7826886487
 21
273.1386103999
 31
0.0
 70
   160
  1
<>
 71
     2
 42
-1.0
  3
SLDDIMSTYLE2
100
AcDbAlignedDimension
 13
137.8958216949
 23
263.1386103999
 33
0.0
 14
134.8958216949
 24
263.1386103999
 34
0.0
100
AcDbRotatedDimension
  0
DIMENSION
  5
1F1
330
1F
100
AcDbEntity
  8
0
  6
Continuous
 62
     7
370
    18
100
AcDbDimension
  2
_D_8
 10
101.5977262764
 20
211.0090441523
 30
0.0
 11
101.5977262764
 21
221.0738272761
 31
0.0
 70
   160
  1
<>
 71
     2
 42
-1.0
  3
SLDDIMSTYLE0
100
AcDbAlignedDimension
 13
137.9958216949
 23
231.1386103999
 33
0.0
 14
136.6564885089
 24
211.0090441523
 34
0.0
 50
90.0
100
AcDbRotatedDimension
  0
DIMENSION
  5
1FB
330
1F
100
AcDbEntity
  8
0
  6
Continuous
 62
     7
370
    18
100
AcDbDimension
  2
_D_9
 10
134.8958216949
 20
219.6975800514
 30
0.0
 11
132.284340998
 21
219.6975800514
 31
0.0
 70
   160
  1
<>
 71
     2
 42
-1.0
  3
SLDDIMSTYLE3
100
AcDbAlignedDimension
 13
129.672860301
 23
195.6474235292
 33
0.0
 14
134.8958216949
 24
263.1386103999
 34
0.0
100
AcDbRotatedDimension
  0
DIMENSION
  5
207
330
1F
100
AcDbEntity
  8
0
  6
Continuous
 62
     7
370
    18
100
AcDbDimension
  2
_D_10
 10
134.8958216949
 20
166.3291778941
 30
0.0
 11
126.5213134451
 21
166.3291778941
 31
0.0
 70
   160
  1
<>
 71
     2
 42
-1.0
  3
SLDDIMSTYLE0
100
AcDbAlignedDimension
 13
118.1468051953
 23
186.6193589111
 33
0.0
 14
134.8958216949
 24
117.1386103999
 34
0.0
100
AcDbRotatedDimension
  0
DIMENSION
  5
210
330
1F
100
AcDbEntity
  8
0
  6
Continuous
 62
     7
370
    18
100
AcDbDimension
  2
_D_11
 10
134.8958216949
 20
99.1386103999
 30
0.0
 11
177.2458216949
 21
99.1386103999
 31
0.0
 70
   160
  1
<>
 71
     2
 42
-1.0
  3
SLDDIMSTYLE4
100
AcDbAlignedDimension
 13
219.5958216949
 23
153.1386103999
 33
0.0
 14
134.8958216949
 24
117.1386103999
 34
0.0
100
AcDbRotatedDimension
  0
DIMENSION
  5
21C
330
1F
100
AcDbEntity
  8
0
  6
Continuous
 62
     7
370
    18
100
AcDbDimension
  2
_D_12
 10
237.5958216949
 20
231.1386103999
 30
0.0
 11
237.5958216949
 21
188.1386103999
 31
0.0
 70
   160
  1
<>
 71
     2
 42
-1.0
  3
SLDDIMSTYLE1
100
AcDbAlignedDimension
 13
211.5958216949
 23
145.1386103999
 33
0.0
 14
211.5958216949
 24
231.1386103999
 34
0.0
 50
90.0
100
AcDbRotatedDimension
  0
DIMENSION
  5
226
330
1F
100
AcDbEntity
  8
0
  6
Continuous
 62
     7
370
    18
100
AcDbDimension
  2
_D_13
 10
164.7458216949
 20
171.1386103999
 30
0.0
 11
164.7458216949
 21
167.3886103999
 31
0.0
 70
   160
  1
<>
 71
     2
 42
-1.0
  3
SLDDIMSTYLE5
100
AcDbAlignedDimension
 13
213.5958216949
 23
163.6386103999
 33
0.0
 14
213.5958216949
 24
171.1386103999
 34
0.0
 50
90.0
100
AcDbRotatedDimension
  0
DIMENSION
  5
233
330
1F
100
AcDbEntity
  8
0
  6
Continuous
 62
     7
370
    18
100
AcDbDimension
  2
_D_14
 10
172.3458216949
 20
182.0662017984
 30
0.0
 11
175.5958216949
 21
182.0662017984
 31
0.0
 70
   160
  1
<>
 71
     2
 42
-1.0
  3
SLDDIMSTYLE5
100
AcDbAlignedDimension
 13
178.8458216949
 23
171.1386103999
 33
0.0
 14
172.3458216949
 24
171.1386103999
 34
0.0
100
AcDbRotatedDimension
  0
DIMENSION
  5
23F
330
1F
100
AcDbEntity
  8
0
  6
Continuous
 62
     7
370
    18
100
AcDbDimension
  2
_D_15
 10
213.5958216949
 20
131.1386103999
 30
0.0
 11
194.5958216949
 21
131.1386103999
 31
0.0
 70
   160
  1
<>
 71
     2
 42
-1.0
  3
SLDDIMSTYLE1
100
AcDbAlignedDimension
 13
175.5958216949
 23
171.1386103999
 33
0.0
 14
213.5958216949
 24
171.1386103999
 34
0.0
100
AcDbRotatedDimension
  0
DIMENSION
  5
249
330
1F
100
AcDbEntity
  8
0
  6
Continuous
 62
     7
370
    18
100
AcDbDimension
  2
_D_16
 10
134.8958216949
 20
107.1386103999
 30
0.0
 11
164.7458216949
 21
107.1386103999
 31
0.0
 70
   160
  1
<>
 71
     2
 42
-1.0
  3
SLDDIMSTYLE4
100
AcDbAlignedDimension
 13
194.5958216949
 23
171.1386103999
 33
0.0
 14
134.8958216949
 24
117.1386103999
 34
0.0
100
AcDbRotatedDimension
  0
DIMENSION
  5
255
330
1F
100
AcDbEntity
  8
0
  6
Continuous
 62
     7
370
    18
100
AcDbDimension
  2
_D_17
 10
219.5958216949
 20
107.1386103999
 30
0.0
 11
207.0958216949
 21
107.1386103999
 31
0.0
 70
   160
  1
<>
 71
     2
 42
-1.0
  3
SLDDIMSTYLE1
100
AcDbAlignedDimension
 13
194.5958216949
 23
171.1386103999
 33
0.0
 14
219.5958216949
 24
153.1386103999
 34
0.0
100
AcDbRotatedDimension
  0
INSERT
  5
26D
330
1F
100
AcDbEntity
  8
0
  6
Continuous
 62
     7
370
     0
100
AcDbBlockReference
  2
SW_CENTERMARKSYMBOL_0
 10
194.5958216949
 20
171.1386103999
 30
0.0
  0
LINE
  5
26E
330
1F
100
AcDbEntity
  8
0
  6
Continuous
 62
     7
370
    50
100
AcDbLine
 10
171.6145456897
 20
63.8474359085
 30
0.0
 11
171.2958216949
 21
63.8929679078
 31
0.0
  0
LINE
  5
26F
330
1F
100
AcDbEntity
  8
0
  6
Continuous
 62
     7
370
    50
100
AcDbLine
 10
170.5958216949
 20
63.9929679078
 30
0.0
 11
161.4958216949
 21
65.2929679078
 31
0.0
  0
LINE
  5
270
330
1F
100
AcDbEntity
  8
0
  6
Continuous
 62
     7
370
    50
100
AcDbLine
 10
195.2382100249
 20
71.4529679078
 30
0.0
 11
195.2382100249
 21
71.9929679078
 31
0.0
  0
LINE
  5
271
330
1F
100
AcDbEntity
  8
0
  6
Continuous
 62
     7
370
    50
100
AcDbLine
 10
150.6382100249
 20
76.6929679078
 30
0.0
 11
150.6382100249
 21
75.9929679078
 31
0.0
  0
LINE
  5
272
330
1F
100
AcDbEntity
  8
0
  6
Continuous
 62
     7
370
    50
100
AcDbLine
 10
154.7382100249
 20
75.9929679078
 30
0.0
 11
154.7382100249
 21
76.6929679078
 31
0.0
  0
LINE
  5
273
330
1F
100
AcDbEntity
  8
0
  6
Continuous
 62
     7
370
    50
100
AcDbLine
 10
175.6657086629
 20
63.7929679078
 30
0.0
 11
175.5910836976
 21
63.9006506507
 31
0.0
  0
LINE
  5
274
330
1F
100
AcDbEntity
  8
0
  6
Continuous
 62
     7
370
    50
100
AcDbLine
 10
171.6005596922
 20
63.9006506507
 30
0.0
 11
171.525934727
 21
63.7929679078
 31
0.0
  0
LINE
  5
275
330
1F
100
AcDbEntity
  8
0
  6
Continuous
 62
     7
370
    50
100
AcDbLine
 10
182.7882100249
 20
63.9529679078
 30
0.0
 11
182.7882100249
 21
63.7929679078
 31
0.0
  0
LINE
  5
276
330
1F
100
AcDbEntity
  8
0
  6
Continuous
 62
     7
370
    50
100
AcDbLine
 10
186.9882100249
 20
63.7929679078
 30
0.0
 11
186.9882100249
 21
63.9529679078
 31
0.0
  0
LINE
  5
277
330
1F
100
AcDbEntity
  8
0
  6
Continuous
 62
     7
370
    50
100
AcDbLine
 10
191.0882100249
 20
63.9529679078
 30
0.0
 11
191.0882100249
 21
63.7929679078
 31
0.0
  0
LINE
  5
278
330
1F
100
AcDbEntity
  8
0
  6
Continuous
 62
     7
370
    50
100
AcDbLine
 10
195.2882100249
 20
63.7929679078
 30
0.0
 11
195.2882100249
 21
63.9529679078
 31
0.0
  0
LINE
  5
279
330
1F
100
AcDbEntity
  8
0
  6
Continuous
 62
     7
370
    50
100
AcDbLine
 10
145.1958216949
 20
66.1929679078
 30
0.0
 11
145.1958216949
 21
65.2929679078
 31
0.0
  0
LINE
  5
27A
330
1F
100
AcDbEntity
  8
0
  6
Continuous
 62
     7
370
    50
100
AcDbLine
 10
157.1958216949
 20
65.2929679078
 30
0.0
 11
157.1958216949
 21
68.4529679078
 31
0.0
  0
LINE
  5
27B
330
1F
100
AcDbEntity
  8
0
  6
Continuous
 62
     7
370
    50
100
AcDbLine
 10
184.8708216949
 20
75.9929679078
 30
0.0
 11
184.8708216949
 21
76.1929679078
 31
0.0
  0
LINE
  5
27C
330
1F
100
AcDbEntity
  8
0
  6
Continuous
 62
     7
370
    50
100
AcDbLine
 10
179.9208216949
 20
76.1929679078
 30
0.0
 11
179.9208216949
 21
75.9929679078
 31
0.0
  0
LINE
  5
27D
330
1F
100
AcDbEntity
  8
0
  6
Continuous
 62
     7
370
    50
100
AcDbLine
 10
207.7708216949
 20
75.9929679078
 30
0.0
 11
207.7708216949
 21
76.1929679078
 31
0.0
  0
LINE
  5
27E
330
1F
100
AcDbEntity
  8
0
  6
Continuous
 62
     7
370
    50
100
AcDbLine
 10
203.2208216949
 20
76.1929679078
 30
0.0
 11
203.2208216949
 21
75.9929679078
 31
0.0
  0
LINE
  5
27F
330
1F
100
AcDbEntity
  8
0
  6
Continuous
 62
     7
370
    50
100
AcDbLine
 10
215.1958216949
 20
63.7929679078
 30
0.0
 11
215.1958216949
 21
74.4929679078
 31
0.0
  0
LINE
  5
280
330
1F
100
AcDbEntity
  8
0
  6
Continuous
 62
     7
370
    50
100
AcDbLine
 10
209.1958216949
 20
74.4929679078
 30
0.0
 11
209.1958216949
 21
63.7929679078
 31
0.0
  0
LINE
  5
281
330
1F
100
AcDbEntity
  8
0
  6
Continuous
 62
     7
370
    50
100
AcDbLine
 10
214.0958216949
 20
61.9929679078
 30
0.0
 11
214.0958216949
 21
62.2929679078
 31
0.0
  0
LINE
  5
282
330
1F
100
AcDbEntity
  8
0
  6
Continuous
 62
     7
370
    50
100
AcDbLine
 10
210.2958216949
 20
62.2929679078
 30
0.0
 11
210.2958216949
 21
61.9929679078
 31
0.0
  0
LINE
  5
283
330
1F
100
AcDbEntity
  8
0
  6
Continuous
 62
     7
370
    50
100
AcDbLine
 10
214.0958216949
 20
75.9929679078
 30
0.0
 11
214.0958216949
 21
76.4929679078
 31
0.0
  0
LINE
  5
284
330
1F
100
AcDbEntity
  8
0
  6
Continuous
 62
     7
370
    50
100
AcDbLine
 10
210.2958216949
 20
76.4929679078
 30
0.0
 11
210.2958216949
 21
75.9929679078
 31
0.0
  0
LINE
  5
285
330
1F
100
AcDbEntity
  8
0
  6
Continuous
 62
     7
370
    50
100
AcDbLine
 10
176.5958216949
 20
63.8929679078
 30
0.0
 11
176.5958216949
 21
74.4929679078
 31
0.0
  0
LINE
  5
286
330
1F
100
AcDbEntity
  8
0
  6
Continuous
 62
     7
370
    50
100
AcDbLine
 10
170.5958216949
 20
74.4929679078
 30
0.0
 11
170.5958216949
 21
63.8929679078
 31
0.0
  0
LINE
  5
287
330
1F
100
AcDbEntity
  8
0
  6
Continuous
 62
     7
370
    50
100
AcDbLine
 10
175.4958216949
 20
75.9929679078
 30
0.0
 11
175.4958216949
 21
76.4929679078
 31
0.0
  0
LINE
  5
288
330
1F
100
AcDbEntity
  8
0
  6
Continuous
 62
     7
370
    50
100
AcDbLine
 10
171.6958216949
 20
76.4929679078
 30
0.0
 11
171.6958216949
 21
75.9929679078
 31
0.0
  0
LINE
  5
289
330
1F
100
AcDbEntity
  8
0
  6
Continuous
 62
     7
370
    50
100
AcDbLine
 10
197.0312265266
 20
66.4529679078
 30
0.0
 11
197.0312265266
 21
68.4529679078
 31
0.0
  0
LINE
  5
28A
330
1F
100
AcDbEntity
  8
0
  6
Continuous
 62
     7
370
    50
100
AcDbLine
 10
197.0312265266
 20
66.4529679078
 30
0.0
 11
183.536616741
 21
66.4529679078
 31
0.0
  0
LINE
  5
28B
330
1F
100
AcDbEntity
  8
0
  6
Continuous
 62
     7
370
    50
100
AcDbLine
 10
183.536616741
 20
66.4529679078
 30
0.0
 11
183.536616741
 21
68.4529679078
 31
0.0
  0
LINE
  5
28C
330
1F
100
AcDbEntity
  8
0
  6
Continuous
 62
     7
370
    50
100
AcDbLine
 10
197.0312265266
 20
68.4529679078
 30
0.0
 11
190.1882100249
 21
68.4529679078
 31
0.0
  0
LINE
  5
28D
330
1F
100
AcDbEntity
  8
0
  6
Continuous
 62
     7
370
    50
100
AcDbLine
 10
197.878900859
 20
66.4529679078
 30
0.0
 11
197.878900859
 21
68.4529679078
 31
0.0
  0
LINE
  5
28E
330
1F
100
AcDbEntity
  8
0
  6
Continuous
 62
     7
370
    50
100
AcDbLine
 10
197.878900859
 20
66.4529679078
 30
0.0
 11
197.0312265266
 21
66.4529679078
 31
0.0
  0
LINE
  5
28F
330
1F
100
AcDbEntity
  8
0
  6
Continuous
 62
     7
370
    50
100
AcDbLine
 10
197.2309753999
 20
68.4529679078
 30
0.0
 11
197.0312265266
 21
68.4529679078
 31
0.0
  0
LINE
  5
290
330
1F
100
AcDbEntity
  8
0
  6
Continuous
 62
     7
370
    50
100
AcDbLine
 10
179.6512370859
 20
66.4529679078
 30
0.0
 11
179.6512370859
 21
68.4529679078
 31
0.0
  0
LINE
  5
291
330
1F
100
AcDbEntity
  8
0
  6
Continuous
 62
     7
370
    50
100
AcDbLine
 10
183.536616741
 20
66.4529679078
 30
0.0
 11
179.6512370859
 21
66.4529679078
 31
0.0
  0
LINE
  5
292
330
1F
100
AcDbEntity
  8
0
  6
Continuous
 62
     7
370
    50
100
AcDbLine
 10
197.0312265266
 20
66.4529679078
 30
0.0
 11
197.0312265266
 21
63.9529679078
 31
0.0
  0
LINE
  5
293
330
1F
100
AcDbEntity
  8
0
  6
Continuous
 62
     7
370
    50
100
AcDbLine
 10
197.878900859
 20
66.4529679078
 30
0.0
 11
197.878900859
 21
63.9529679078
 31
0.0
  0
LINE
  5
294
330
1F
100
AcDbEntity
  8
0
  6
Continuous
 62
     7
370
    50
100
AcDbLine
 10
197.878900859
 20
63.9529679078
 30
0.0
 11
197.0312265266
 21
63.9529679078
 31
0.0
  0
LINE
  5
295
330
1F
100
AcDbEntity
  8
0
  6
Continuous
 62
     7
370
    50
100
AcDbLine
 10
197.0312265266
 20
63.9529679078
 30
0.0
 11
183.536616741
 21
63.9529679078
 31
0.0
  0
LINE
  5
296
330
1F
100
AcDbEntity
  8
0
  6
Continuous
 62
     7
370
    50
100
AcDbLine
 10
183.536616741
 20
66.4529679078
 30
0.0
 11
183.536616741
 21
63.9529679078
 31
0.0
  0
LINE
  5
297
330
1F
100
AcDbEntity
  8
0
  6
Continuous
 62
     7
370
    50
100
AcDbLine
 10
179.6512370859
 20
63.9529679078
 30
0.0
 11
179.6512370859
 21
66.4529679078
 31
0.0
  0
LINE
  5
298
330
1F
100
AcDbEntity
  8
0
  6
Continuous
 62
     7
370
    50
100
AcDbLine
 10
183.536616741
 20
63.9529679078
 30
0.0
 11
179.6512370859
 21
63.9529679078
 31
0.0
  0
LINE
  5
299
330
1F
100
AcDbEntity
  8
0
  6
Continuous
 62
     7
370
    50
100
AcDbLine
 10
211.5958216949
 20
62.2929679078
 30
0.0
 11
211.5958216949
 21
63.7929679078
 31
0.0
  0
LINE
  5
29A
330
1F
100
AcDbEntity
  8
0
  6
Continuous
 62
     7
370
    50
100
AcDbLine
 10
211.5958216949
 20
62.2929679078
 30
0.0
 11
137.9958216949
 21
62.2929679078
 31
0.0
  0
LINE
  5
29B
330
1F
100
AcDbEntity
  8
0
  6
Continuous
 62
     7
370
    50
100
AcDbLine
 10
211.5958216949
 20
63.7929679078
 30
0.0
 11
137.9958216949
 21
63.7929679078
 31
0.0
  0
LINE
  5
29C
330
1F
100
AcDbEntity
  8
0
  6
Continuous
 62
     7
370
    50
100
AcDbLine
 10
137.9958216949
 20
63.7929679078
 30
0.0
 11
137.9958216949
 21
62.2929679078
 31
0.0
  0
LINE
  5
29D
330
1F
100
AcDbEntity
  8
0
  6
Continuous
 62
     7
370
    50
100
AcDbLine
 10
219.5958216949
 20
63.7929679078
 30
0.0
 11
219.5958216949
 21
62.2929679078
 31
0.0
  0
LINE
  5
29E
330
1F
100
AcDbEntity
  8
0
  6
Continuous
 62
     7
370
    50
100
AcDbLine
 10
219.5958216949
 20
62.2929679078
 30
0.0
 11
211.5958216949
 21
62.2929679078
 31
0.0
  0
LINE
  5
29F
330
1F
100
AcDbEntity
  8
0
  6
Continuous
 62
     7
370
    50
100
AcDbLine
 10
211.5958216949
 20
63.7929679078
 30
0.0
 11
219.5958216949
 21
63.7929679078
 31
0.0
  0
LINE
  5
2A0
330
1F
100
AcDbEntity
  8
0
  6
Continuous
 62
     7
370
    50
100
AcDbLine
 10
139.3958216949
 20
65.2929679078
 30
0.0
 11
160.4958216949
 21
65.2929679078
 31
0.0
  0
LINE
  5
2A1
330
1F
100
AcDbEntity
  8
0
  6
Continuous
 62
     7
370
    50
100
AcDbLine
 10
160.4958216949
 20
65.2929679078
 30
0.0
 11
161.4958216949
 21
65.2929679078
 31
0.0
  0
LINE
  5
2A2
330
1F
100
AcDbEntity
  8
0
  6
Continuous
 62
     7
370
    50
100
AcDbLine
 10
137.9958216949
 20
63.7929679078
 30
0.0
 11
137.9958216949
 21
63.9929679078
 31
0.0
  0
LINE
  5
2A3
330
1F
100
AcDbEntity
  8
0
  6
Continuous
 62
     7
370
    50
100
AcDbLine
 10
156.1882100249
 20
71.4577631254
 30
0.0
 11
156.1940081477
 21
71.4617691416
 31
0.0
  0
LINE
  5
2A4
330
1F
100
AcDbEntity
  8
0
  6
Continuous
 62
     7
370
    50
100
AcDbLine
 10
156.1940081477
 20
71.4617691416
 30
0.0
 11
156.2563912855
 21
71.4529679078
 31
0.0
  0
LINE
  5
2A5
330
1F
100
AcDbEntity
  8
0
  6
Continuous
 62
     7
370
    50
100
AcDbLine
 10
156.2563912855
 20
68.4529679078
 30
0.0
 11
156.2563912855
 21
71.4529679078
 31
0.0
  0
LINE
  5
2A6
330
1F
100
AcDbEntity
  8
0
  6
Continuous
 62
     7
370
    50
100
AcDbLine
 10
156.1882100297
 20
68.4537472805
 30
0.0
 11
156.2563912855
 21
68.4529679078
 31
0.0
  0
SPLINE
  5
2A7
330
1F
100
AcDbEntity
  8
0
  6
Continuous
 62
     7
370
    50
100
AcDbSpline
210
0.0
220
0.0
230
1.0
 70
     8
 71
     3
 72
    16
 73
    12
 74
     0
 42
0.000000001
 43
0.00000001
 40
0.0
 40
0.0
 40
0.0
 40
0.0
 40
0.2465724491417185
 40
0.4931451325557784
 40
0.7341953906289435
 40
0.8553178235739815
 40
0.9176343581697293
 40
0.9489838774500209
 40
0.9698553174496876
 40
0.990708891898222
 40
1.0
 40
1.0
 40
1.0
 40
1.0
 10
156.1882100296402
 20
68.45376046137724
 30
0.0
 10
156.1882100276422
 20
68.70705285992987
 30
0.0
 10
156.188210023646
 20
69.21363789769218
 30
0.0
 10
156.1882100252547
 20
69.96782460975538
 30
0.0
 10
156.1882100248718
 20
70.59317621931508
 30
0.0
 10
156.1882100249192
 20
71.0290439580241
 30
0.0
 10
156.1882100249148
 20
71.2489177928811
 30
0.0
 10
156.1882100249152
 20
71.36205110774293
 30
0.0
 10
156.1882100249152
 20
71.4201729180201
 30
0.0
 10
156.1882100249152
 20
71.44576665243736
 30
0.0
 10
156.1882100249152
 20
71.45493674547976
 30
0.0
 10
156.1882100249152
 20
71.45776312540988
 30
0.0
  0
LINE
  5
2A8
330
1F
100
AcDbEntity
  8
0
  6
Continuous
 62
     7
370
    50
100
AcDbLine
 10
156.8126706773
 20
71.4729679078
 30
0.0
 11
156.1940081477
 21
71.4617691416
 31
0.0
  0
LINE
  5
2A9
330
1F
100
AcDbEntity
  8
0
  6
Continuous
 62
     7
370
    50
100
AcDbLine
 10
162.9519229781
 20
71.4529679078
 30
0.0
 11
162.8580825598
 21
71.4729679078
 31
0.0
  0
ELLIPSE
  5
2AA
330
1F
100
AcDbEntity
  8
0
  6
Continuous
 62
     7
370
    50
100
AcDbEllipse
 10
158.2756786214
 20
71.4729679078
 30
0.0
 11
-3.087468596492386
 21
1.421085471520200E-14
 31
0.0
210
0.0
220
0.0
230
1.0
 40
0.9781476007
 41
0.0
 42
0.8283260611203783
  0
LINE
  5
2AB
330
1F
100
AcDbEntity
  8
0
  6
Continuous
 62
     7
370
    50
100
AcDbLine
 10
190.1882100249
 20
71.4529679078
 30
0.0
 11
176.5958216949
 21
71.4529679078
 31
0.0
  0
LINE
  5
2AC
330
1F
100
AcDbEntity
  8
0
  6
Continuous
 62
     7
370
    50
100
AcDbLine
 10
170.5958216949
 20
71.4529679078
 30
0.0
 11
156.2563912855
 21
71.4529679078
 31
0.0
  0
LINE
  5
2AD
330
1F
100
AcDbEntity
  8
0
  6
Continuous
 62
     7
370
    50
100
AcDbLine
 10
190.1882100249
 20
71.4529679078
 30
0.0
 11
190.1882100249
 21
68.4529679078
 31
0.0
  0
LINE
  5
2AE
330
1F
100
AcDbEntity
  8
0
  6
Continuous
 62
     7
370
    50
100
AcDbLine
 10
190.1882100249
 20
68.4529679078
 30
0.0
 11
176.5958216949
 21
68.4529679078
 31
0.0
  0
LINE
  5
2AF
330
1F
100
AcDbEntity
  8
0
  6
Continuous
 62
     7
370
    50
100
AcDbLine
 10
170.5958216949
 20
68.4529679078
 30
0.0
 11
156.2563912855
 21
68.4529679078
 31
0.0
  0
ARC
  5
2B0
330
1F
100
AcDbEntity
  8
0
  6
Continuous
 62
     7
370
    50
100
AcDbCircle
 10
159.8443636607
 20
71.5971796253
 30
0.0
 40
2.895797241173856
100
AcDbArc
 50
71.3212848471
 51
88.8970768159
  0
SPLINE
  5
2B1
330
1F
100
AcDbEntity
  8
0
  6
Continuous
 62
     7
370
    50
100
AcDbSpline
210
0.0
220
0.0
230
1.0
 70
     8
 71
     3
 72
    11
 73
     7
 74
     0
 42
0.000000001
 43
0.00000001
 40
0.0
 40
0.0
 40
0.0
 40
0.0
 40
0.2499999999999999
 40
0.4999999999999991
 40
0.7499999999999994
 40
1.0
 40
1.0
 40
1.0
 40
1.0
 10
162.8580825597824
 20
71.47296790776643
 30
0.0
 10
162.8251805800047
 20
71.78822619756025
 30
0.0
 10
162.7593766204492
 20
72.41874277714787
 30
0.0
 10
162.3034901211096
 20
73.2676955631154
 30
0.0
 10
161.6386307927326
 20
73.96224390753413
 30
0.0
 10
161.0607268227993
 20
74.21438346804364
 30
0.0
 10
160.7717748378327
 20
74.34045324829839
 30
0.0
  0
SPLINE
  5
2B2
330
1F
100
AcDbEntity
  8
0
  6
Continuous
 62
     7
370
    50
100
AcDbSpline
210
0.0
220
0.0
230
1.0
 70
     8
 71
     3
 72
    11
 73
     7
 74
     0
 42
0.000000001
 43
0.00000001
 40
0.0
 40
0.0
 40
0.0
 40
0.0
 40
0.2388533329784843
 40
0.4777066659569684
 40
0.7388533329784839
 40
1.0
 40
1.0
 40
1.0
 40
1.0
 10
156.1882392806696
 20
74.2856511533087
 30
0.0
 10
156.3425316838733
 20
74.15844093225056
 30
0.0
 10
156.6511164902809
 20
73.90402049013427
 30
0.0
 10
156.9455940181297
 20
73.24376002767264
 30
0.0
 10
157.0563344886103
 20
72.41868522742902
 30
0.0
 10
156.8938919477216
 20
71.7882070143206
 30
0.0
 10
156.8126706772772
 20
71.4729679077664
 30
0.0
  0
ELLIPSE
  5
2B3
330
1F
100
AcDbEntity
  8
0
  6
Continuous
 62
     7
370
    50
100
AcDbEllipse
 10
155.167763213
 20
71.4729679078
 30
0.0
 11
-3.087468596492414
 21
1.421085471520200E-14
 31
0.0
210
-2.707328281231965E-30
220
-5.881976289404811E-16
230
1.0
 40
0.9781476007
 41
4.375542492533717
 42
4.712388980384707
  0
SPLINE
  5
2B4
330
1F
100
AcDbEntity
  8
0
  6
Continuous
 62
     7
370
    50
100
AcDbSpline
210
0.0
220
0.0
230
1.0
 70
    24
 71
     3
 72
    11
 73
     7
 74
     0
 42
0.000000001
 43
0.00000001
 40
0.0
 40
0.0
 40
0.0
 40
0.0
 40
0.4579982812737683
 40
0.647745161419052
 40
0.8387584170633899
 40
1.0
 40
1.0
 40
1.0
 40
1.0
 10
156.1882100249152
 20
71.65390605713723
 30
0.0
 10
156.1882100249152
 20
72.00619328191806
 30
0.0
 10
156.1882100249152
 20
72.50443171339622
 30
0.0
 10
156.1882100249152
 20
73.10114042250254
 30
0.0
 10
156.1882100249151
 20
73.56493689353522
 30
0.0
 10
156.1882100249154
 20
74.05926130755651
 30
0.0
 10
156.1882100249155
 20
74.285534000707
 30
0.0
  0
LINE
  5
2B5
330
1F
100
AcDbEntity
  8
0
  6
Continuous
 62
     7
370
    50
100
AcDbLine
 10
198.1882100249
 20
71.4529679078
 30
0.0
 11
198.1882100249
 21
68.4529679078
 31
0.0
  0
LINE
  5
2B6
330
1F
100
AcDbEntity
  8
0
  6
Continuous
 62
     7
370
    50
100
AcDbLine
 10
190.1882100249
 20
71.4529679078
 30
0.0
 11
190.4587596056
 21
71.4529679078
 31
0.0
  0
LINE
  5
2B7
330
1F
100
AcDbEntity
  8
0
  6
Continuous
 62
     7
370
    50
100
AcDbLine
 10
195.0801166155
 20
71.4529679078
 30
0.0
 11
198.1882100249
 21
71.4529679078
 31
0.0
  0
LINE
  5
2B8
330
1F
100
AcDbEntity
  8
0
  6
Continuous
 62
     7
370
    50
100
AcDbLine
 10
197.2309753999
 20
68.4529679078
 30
0.0
 11
198.1882100249
 21
68.4529679078
 31
0.0
  0
LINE
  5
2B9
330
1F
100
AcDbEntity
  8
0
  6
Continuous
 62
     7
370
    50
100
AcDbLine
 10
155.1882100249
 20
71.4729679078
 30
0.0
 11
155.1741900847
 21
71.4919542399
 31
0.0
  0
LINE
  5
2BA
330
1F
100
AcDbEntity
  8
0
  6
Continuous
 62
     7
370
    50
100
AcDbLine
 10
155.1882100249
 20
71.5334895199
 30
0.0
 11
155.1741900846
 21
71.4919542398
 31
0.0
  0
LINE
  5
2BB
330
1F
100
AcDbEntity
  8
0
  6
Continuous
 62
     7
370
    50
100
AcDbLine
 10
155.1882100249
 20
72.5428432943
 30
0.0
 11
155.1882100249
 21
71.5334895199
 31
0.0
  0
LINE
  5
2BC
330
1F
100
AcDbEntity
  8
0
  6
Continuous
 62
     7
370
    50
100
AcDbLine
 10
155.167763213
 20
71.4929679078
 30
0.0
 11
155.167763213
 21
72.5429756746
 31
0.0
  0
LINE
  5
2BD
330
1F
100
AcDbEntity
  8
0
  6
Continuous
 62
     7
370
    50
100
AcDbLine
 10
155.167763213
 20
71.4929679078
 30
0.0
 11
147.1882100249
 21
71.4929679078
 31
0.0
  0
ARC
  5
2BE
330
1F
100
AcDbEntity
  8
0
  6
Continuous
 62
     7
370
    50
100
AcDbCircle
 10
155.1686435777
 20
71.4737905019
 30
0.0
 40
0.0191774651729981
100
AcDbArc
 50
71.321284847
 51
88.8970768161
  0
LINE
  5
2BF
330
1F
100
AcDbEntity
  8
0
  6
Continuous
 62
     7
370
    50
100
AcDbLine
 10
155.1690127143
 20
71.4929644141
 30
0.0
 11
155.1882100249
 21
72.5428432943
 31
0.0
  0
LINE
  5
2C0
330
1F
100
AcDbEntity
  8
0
  6
Continuous
 62
     7
370
    50
100
AcDbLine
 10
155.167763213
 20
71.4929679078
 30
0.0
 11
155.1690127143
 21
71.4929644141
 31
0.0
  0
LINE
  5
2C1
330
1F
100
AcDbEntity
  8
0
  6
Continuous
 62
     7
370
    50
100
AcDbLine
 10
147.1882100249
 20
71.4929679078
 30
0.0
 11
144.7707704419
 21
71.4929679078
 31
0.0
  0
LINE
  5
2C2
330
1F
100
AcDbEntity
  8
0
  6
Continuous
 62
     7
370
    50
100
AcDbLine
 10
150.6382100249
 20
76.6929679078
 30
0.0
 11
154.7382100249
 21
76.6929679078
 31
0.0
  0
LINE
  5
2C3
330
1F
100
AcDbEntity
  8
0
  6
Continuous
 62
     7
370
    50
100
AcDbLine
 10
211.5958216949
 20
75.9929679078
 30
0.0
 11
139.8958216949
 21
75.9929679078
 31
0.0
  0
LINE
  5
2C4
330
1F
100
AcDbEntity
  8
0
  6
Continuous
 62
     7
370
    50
100
AcDbLine
 10
211.5958216949
 20
74.4929679078
 30
0.0
 11
211.5958216949
 21
75.9929679078
 31
0.0
  0
LINE
  5
2C5
330
1F
100
AcDbEntity
  8
0
  6
Continuous
 62
     7
370
    50
100
AcDbLine
 10
211.5958216949
 20
74.4929679078
 30
0.0
 11
139.8958216949
 21
74.4929679078
 31
0.0
  0
ARC
  5
2C6
330
1F
100
AcDbEntity
  8
0
  6
Continuous
 62
     7
370
    50
100
AcDbCircle
 10
139.8958216949
 20
73.9929679078
 30
0.0
 40
0.5
100
AcDbArc
 50
90.0
 51
180.0
  0
ARC
  5
2C7
330
1F
100
AcDbEntity
  8
0
  6
Continuous
 62
     7
370
    50
100
AcDbCircle
 10
139.8958216949
 20
73.9929679078
 30
0.0
 40
2.0
100
AcDbArc
 50
90.0
 51
180.0
  0
LINE
  5
2C8
330
1F
100
AcDbEntity
  8
0
  6
Continuous
 62
     7
370
    50
100
AcDbLine
 10
139.3958216949
 20
63.9929679078
 30
0.0
 11
139.3958216949
 21
73.9929679078
 31
0.0
  0
LINE
  5
2C9
330
1F
100
AcDbEntity
  8
0
  6
Continuous
 62
     7
370
    50
100
AcDbLine
 10
137.8958216949
 20
63.9929679078
 30
0.0
 11
139.3958216949
 21
63.9929679078
 31
0.0
  0
LINE
  5
2CA
330
1F
100
AcDbEntity
  8
0
  6
Continuous
 62
     7
370
    50
100
AcDbLine
 10
219.5958216949
 20
75.9929679078
 30
0.0
 11
219.5958216949
 21
74.4929679078
 31
0.0
  0
LINE
  5
2CB
330
1F
100
AcDbEntity
  8
0
  6
Continuous
 62
     7
370
    50
100
AcDbLine
 10
219.5958216949
 20
74.4929679078
 30
0.0
 11
211.5958216949
 21
74.4929679078
 31
0.0
  0
LINE
  5
2CC
330
1F
100
AcDbEntity
  8
0
  6
Continuous
 62
     7
370
    50
100
AcDbLine
 10
211.5958216949
 20
75.9929679078
 30
0.0
 11
219.5958216949
 21
75.9929679078
 31
0.0
  0
LINE
  5
2CD
330
1F
100
AcDbEntity
  8
0
  6
Continuous
 62
     7
370
    50
100
AcDbLine
 10
137.8958216949
 20
74.4929679078
 30
0.0
 11
137.9593300218
 21
74.4929679078
 31
0.0
  0
LINE
  5
2CE
330
1F
100
AcDbEntity
  8
0
  6
Continuous
 62
     7
370
    50
100
AcDbLine
 10
137.8958216949
 20
75.9929679078
 30
0.0
 11
139.8958216949
 21
75.9929679078
 31
0.0
  0
LWPOLYLINE
  5
2CF
330
1F
100
AcDbEntity
  8
0
  6
Continuous
 62
     7
370
    50
100
AcDbPolyline
 90
        3
 70
   128
 43
0.0
 10
174.1047154656
 20
63.7929679078
 10
174.102989553
 20
63.8070365087
 10
174.0931704129
 20
63.8929679078
  0
LINE
  5
2D0
330
1F
100
AcDbEntity
  8
0
  6
Continuous
 62
     7
370
    50
100
AcDbLine
 10
173.0310576451
 20
63.7929679078
 30
0.0
 11
173.0579511713
 21
63.8929679078
 31
0.0
  0
LINE
  5
2D1
330
1F
100
AcDbEntity
  8
0
  6
Continuous
 62
     7
370
    50
100
AcDbLine
 10
172.0954055125
 20
63.7929679078
 30
0.0
 11
172.1668539021
 21
63.8929679078
 31
0.0
  0
LINE
  5
2D2
330
1F
100
AcDbEntity
  8
0
  6
Continuous
 62
     7
370
    50
100
AcDbLine
 10
174.0931704129
 20
63.8929679078
 30
0.0
 11
174.1180378488
 21
63.7929679078
 31
0.0
  0
LWPOLYLINE
  5
2D3
330
1F
100
AcDbEntity
  8
0
  6
Continuous
 62
     7
370
    50
100
AcDbPolyline
 90
        3
 70
   128
 43
0.0
 10
175.0276077783
 20
63.7929679078
 10
175.0227518777
 20
63.8070365087
 10
174.9951254672
 20
63.8929679078
  0
LINE
  5
2D4
330
1F
100
AcDbEntity
  8
0
  6
Continuous
 62
     7
370
    50
100
AcDbLine
 10
175.0650906558
 20
63.7929679078
 30
0.0
 11
174.9951254672
 21
63.8929679078
 31
0.0
  0
LWPOLYLINE
  5
2D5
330
1F
100
AcDbEntity
  8
0
  6
Continuous
 62
     7
370
    50
100
AcDbPolyline
 90
        3
 70
   128
 43
0.0
 10
175.5668541662
 20
63.7929679078
 10
175.5601694122
 20
63.8070365087
 10
175.5221382057
 20
63.8929679078
  0
LINE
  5
2D6
330
1F
100
AcDbEntity
  8
0
  6
Continuous
 62
     7
370
    50
100
AcDbLine
 10
171.5617886842
 20
63.7929679078
 30
0.0
 11
171.658647399
 21
63.8929679078
 31
0.0
  0
LINE
  5
2D7
330
1F
100
AcDbEntity
  8
0
  6
Continuous
 62
     7
370
    50
100
AcDbLine
 10
175.6184540313
 20
63.7929679078
 30
0.0
 11
175.5221382057
 21
63.8929679078
 31
0.0
  0
LINE
  5
2D8
330
1F
100
AcDbEntity
  8
0
  6
Continuous
 62
     7
370
    50
100
AcDbLine
 10
194.9569628675
 20
68.4529679078
 30
0.0
 11
194.9569628675
 21
73.8529679078
 31
0.0
  0
LINE
  5
2D9
330
1F
100
AcDbEntity
  8
0
  6
Continuous
 62
     7
370
    50
100
AcDbLine
 10
190.4587596056
 20
68.4529679078
 30
0.0
 11
190.4587596056
 21
73.8529679078
 31
0.0
  0
LINE
  5
2DA
330
1F
100
AcDbEntity
  8
0
  6
Continuous
 62
     7
370
    50
100
AcDbLine
 10
194.9569628675
 20
73.8529679078
 30
0.0
 11
190.4587596056
 21
73.8529679078
 31
0.0
  0
LINE
  5
2DB
330
1F
100
AcDbEntity
  8
0
  6
Continuous
 62
     7
370
    50
100
AcDbLine
 10
195.0841140174
 20
71.4529679078
 30
0.0
 11
195.0841140174
 21
73.8529679078
 31
0.0
  0
LINE
  5
2DC
330
1F
100
AcDbEntity
  8
0
  6
Continuous
 62
     7
370
    50
100
AcDbLine
 10
195.0841140174
 20
73.8529679078
 30
0.0
 11
194.9569628675
 21
73.8529679078
 31
0.0
  0
LINE
  5
2DD
330
1F
100
AcDbEntity
  8
0
  6
Continuous
 62
     7
370
    50
100
AcDbLine
 10
143.4508005405
 20
66.1929679078
 30
0.0
 11
139.3958216949
 21
66.1929679078
 31
0.0
  0
LINE
  5
2DE
330
1F
100
AcDbEntity
  8
0
  6
Continuous
 62
     7
370
    50
100
AcDbLine
 10
134.8958216949
 20
66.1929679078
 30
0.0
 11
130.449748855
 21
66.1929679078
 31
0.0
  0
LINE
  5
2DF
330
1F
100
AcDbEntity
  8
0
  6
Continuous
 62
     7
370
    50
100
AcDbLine
 10
134.6520435706
 20
71.4929679078
 30
0.0
 11
134.8958216949
 21
71.4929679078
 31
0.0
  0
LINE
  5
2E0
330
1F
100
AcDbEntity
  8
0
  6
Continuous
 62
     7
370
    50
100
AcDbLine
 10
139.3958216949
 20
71.4929679078
 30
0.0
 11
143.4508005405
 21
71.4929679078
 31
0.0
  0
LINE
  5
2E1
330
1F
100
AcDbEntity
  8
0
  6
Continuous
 62
     7
370
    50
100
AcDbLine
 10
134.0265154175
 20
74.1929679078
 30
0.0
 11
134.8958216949
 21
74.1929679078
 31
0.0
  0
LINE
  5
2E2
330
1F
100
AcDbEntity
  8
0
  6
Continuous
 62
     7
370
    50
100
AcDbLine
 10
130.449748855
 20
74.1929679078
 30
0.0
 11
134.0265154175
 21
74.1929679078
 31
0.0
  0
SPLINE
  5
2E3
330
1F
100
AcDbEntity
  8
0
  6
Continuous
 62
     7
370
    50
100
AcDbSpline
210
0.0
220
0.0
230
1.0
 70
     8
 71
     3
 72
    13
 73
     9
 74
     0
 42
0.000000001
 43
0.00000001
 40
0.0
 40
0.0
 40
0.0
 40
0.0
 40
0.1792251519071526
 40
0.3580848933001378
 40
0.5463774574247313
 40
0.7588926857375401
 40
0.9910206852925868
 40
0.9999999999999999
 40
0.9999999999999999
 40
0.9999999999999999
 40
0.9999999999999999
 10
118.0213733824929
 20
73.99296790776648
 30
0.0
 10
118.0232739102088
 20
74.01324658076537
 30
0.0
 10
118.0270710907783
 20
74.05376258189472
 30
0.0
 10
118.0561160603679
 20
74.10822436865797
 30
0.0
 10
118.0998351557871
 20
74.153207377217
 30
0.0
 10
118.1588627089676
 20
74.1846769013001
 30
0.0
 10
118.2053488143328
 20
74.19286307867785
 30
0.0
 10
118.2299506662038
 20
74.1929641438972
 30
0.0
 10
118.2308668879742
 20
74.19296790776647
 30
0.0
  0
LINE
  5
2E4
330
1F
100
AcDbEntity
  8
0
  6
Continuous
 62
     7
370
    50
100
AcDbLine
 10
118.230866888
 20
74.1929679078
 30
0.0
 11
130.449748855
 21
74.1929679078
 31
0.0
  0
SPLINE
  5
2E5
330
1F
100
AcDbEntity
  8
0
  6
Continuous
 62
     7
370
    50
100
AcDbSpline
210
0.0
220
0.0
230
1.0
 70
     8
 71
     3
 72
    13
 73
     9
 74
     0
 42
0.000000001
 43
0.00000001
 40
0.0
 40
0.0
 40
0.0
 40
0.0
 40
0.1792251519071275
 40
0.3580848933001586
 40
0.5463774574247691
 40
0.7588926857375017
 40
0.991020685292625
 40
0.9999999999999999
 40
0.9999999999999999
 40
0.9999999999999999
 40
0.9999999999999999
 10
118.0213733824928
 20
66.39296790776648
 30
0.0
 10
118.0232739102088
 20
66.37268923476758
 30
0.0
 10
118.0270710907782
 20
66.3321732336382
 30
0.0
 10
118.0561160603679
 20
66.27771144687499
 30
0.0
 10
118.0998351557872
 20
66.23272843831596
 30
0.0
 10
118.1588627089674
 20
66.20125891423284
 30
0.0
 10
118.2053488143333
 20
66.19307273685516
 30
0.0
 10
118.2299506662038
 20
66.19297167163575
 30
0.0
 10
118.2308668879742
 20
66.19296790776647
 30
0.0
  0
LINE
  5
2E6
330
1F
100
AcDbEntity
  8
0
  6
Continuous
 62
     7
370
    50
100
AcDbLine
 10
130.449748855
 20
66.1929679078
 30
0.0
 11
118.230866888
 21
66.1929679078
 31
0.0
  0
LINE
  5
2E7
330
1F
100
AcDbEntity
  8
0
  6
Continuous
 62
     7
370
    50
100
AcDbLine
 10
118.0213733825
 20
66.3929679078
 30
0.0
 11
118.0213733825
 21
73.9929679078
 31
0.0
  0
LINE
  5
2E8
330
1F
100
AcDbEntity
  8
0
  6
Continuous
 62
     7
370
    50
100
AcDbLine
 10
143.4508005405
 20
71.4929679078
 30
0.0
 11
144.7707704419
 21
71.4929679078
 31
0.0
  0
SPLINE
  5
2E9
330
1F
100
AcDbEntity
  8
0
  6
Continuous
 62
     7
370
    50
100
AcDbSpline
210
0.0
220
0.0
230
1.0
 70
     8
 71
     3
 72
    10
 73
     6
 74
     0
 42
0.000000001
 43
0.00000001
 40
0.0
 40
0.0
 40
0.0
 40
0.0
 40
0.0098919247858341
 40
0.7440930726567614
 40
0.9999999999999999
 40
0.9999999999999999
 40
0.9999999999999999
 40
0.9999999999999999
 10
156.2995576836176
 20
66.39296790776642
 30
0.0
 10
156.2968830268088
 20
66.39204090154935
 30
0.0
 10
156.0956892605541
 20
66.32230938626199
 30
0.0
 10
155.7846678196439
 20
66.21831279110201
 30
0.0
 10
155.4168001525633
 20
66.198173247353
 30
0.0
 10
155.3217197399213
 20
66.19296790776642
 30
0.0
  0
LINE
  5
2EA
330
1F
100
AcDbEntity
  8
0
  6
Continuous
 62
     7
370
    50
100
AcDbLine
 10
155.3217197399
 20
66.1929679078
 30
0.0
 11
143.4508005405
 21
66.1929679078
 31
0.0
  0
LINE
  5
2EB
330
1F
100
AcDbEntity
  8
0
  6
Continuous
 62
     7
370
    50
100
AcDbLine
 10
209.1958216949
 20
71.9929679078
 30
0.0
 11
208.4083332297
 21
71.9929679078
 31
0.0
  0
LINE
  5
2EC
330
1F
100
AcDbEntity
  8
0
  6
Continuous
 62
     7
370
    50
100
AcDbLine
 10
201.0833101601
 20
71.9929679078
 30
0.0
 11
196.4833327662
 21
71.9929679078
 31
0.0
  0
LINE
  5
2ED
330
1F
100
AcDbEntity
  8
0
  6
Continuous
 62
     7
370
    50
100
AcDbLine
 10
201.5601686355
 20
71.9929679078
 30
0.0
 11
201.0833101601
 21
71.9929679078
 31
0.0
  0
LINE
  5
2EE
330
1F
100
AcDbEntity
  8
0
  6
Continuous
 62
     7
370
    50
100
AcDbLine
 10
196.4833327662
 20
71.9929679078
 30
0.0
 11
196.0003698531
 21
71.9929679078
 31
0.0
  0
LINE
  5
2EF
330
1F
100
AcDbEntity
  8
0
  6
Continuous
 62
     7
370
    50
100
AcDbLine
 10
208.4083332297
 20
71.9929679078
 30
0.0
 11
207.9314747543
 21
71.9929679078
 31
0.0
  0
LINE
  5
2F0
330
1F
100
AcDbEntity
  8
0
  6
Continuous
 62
     7
370
    50
100
AcDbLine
 10
177.7958216949
 20
74.4929679078
 30
0.0
 11
177.7958216949
 21
71.9929679078
 31
0.0
  0
LINE
  5
2F1
330
1F
100
AcDbEntity
  8
0
  6
Continuous
 62
     7
370
    50
100
AcDbLine
 10
189.153807223
 20
71.9929679078
 30
0.0
 11
177.7958216949
 21
71.9929679078
 31
0.0
  0
LINE
  5
2F2
330
1F
100
AcDbEntity
  8
0
  6
Continuous
 62
     7
370
    50
100
AcDbLine
 10
189.6236535334
 20
71.9929679078
 30
0.0
 11
189.153807223
 21
71.9929679078
 31
0.0
  0
LINE
  5
2F3
330
1F
100
AcDbEntity
  8
0
  6
Continuous
 62
     7
370
    50
100
AcDbLine
 10
190.5958216949
 20
74.4929679078
 30
0.0
 11
190.5958216949
 21
73.8529679078
 31
0.0
  0
LINE
  5
2F4
330
1F
100
AcDbEntity
  8
0
  6
Continuous
 62
     7
370
    50
100
AcDbLine
 10
189.6236535334
 20
71.9929679078
 30
0.0
 11
190.4587596056
 21
71.9929679078
 31
0.0
  0
LINE
  5
2F5
330
1F
100
AcDbEntity
  8
0
  6
Continuous
 62
     7
370
    50
100
AcDbLine
 10
202.3958216949
 20
74.4929679078
 30
0.0
 11
202.3958216949
 21
71.9929679078
 31
0.0
  0
LINE
  5
2F6
330
1F
100
AcDbEntity
  8
0
  6
Continuous
 62
     7
370
    50
100
AcDbLine
 10
201.5601686355
 20
71.9929679078
 30
0.0
 11
202.3958216949
 21
71.9929679078
 31
0.0
  0
LINE
  5
2F7
330
1F
100
AcDbEntity
  8
0
  6
Continuous
 62
     7
370
    50
100
AcDbLine
 10
207.0958216949
 20
74.4929679078
 30
0.0
 11
207.0958216949
 21
71.9929679078
 31
0.0
  0
LINE
  5
2F8
330
1F
100
AcDbEntity
  8
0
  6
Continuous
 62
     7
370
    50
100
AcDbLine
 10
207.0958216949
 20
71.9929679078
 30
0.0
 11
207.9314747543
 21
71.9929679078
 31
0.0
  0
LINE
  5
2F9
330
1F
100
AcDbEntity
  8
0
  6
Continuous
 62
     7
370
    50
100
AcDbLine
 10
195.2958216949
 20
74.4929679078
 30
0.0
 11
195.2958216949
 21
71.9929679078
 31
0.0
  0
LINE
  5
2FA
330
1F
100
AcDbEntity
  8
0
  6
Continuous
 62
     7
370
    50
100
AcDbLine
 10
195.2958216949
 20
71.9929679078
 30
0.0
 11
196.0003698531
 21
71.9929679078
 31
0.0
  0
LINE
  5
2FB
330
1F
100
AcDbEntity
  8
0
  6
Continuous
 62
     7
370
    50
100
AcDbLine
 10
182.3958216949
 20
76.1929679078
 30
0.0
 11
184.8708216949
 21
76.1929679078
 31
0.0
  0
LINE
  5
2FC
330
1F
100
AcDbEntity
  8
0
  6
Continuous
 62
     7
370
    50
100
AcDbLine
 10
179.9208216949
 20
76.1929679078
 30
0.0
 11
182.3958216949
 21
76.1929679078
 31
0.0
  0
LINE
  5
2FD
330
1F
100
AcDbEntity
  8
0
  6
Continuous
 62
     7
370
    50
100
AcDbLine
 10
202.3958216949
 20
71.9929679078
 30
0.0
 11
207.0958216949
 21
71.9929679078
 31
0.0
  0
LINE
  5
2FE
330
1F
100
AcDbEntity
  8
0
  6
Continuous
 62
     7
370
    50
100
AcDbLine
 10
195.0841140174
 20
71.9929679078
 30
0.0
 11
195.2958216949
 21
71.9929679078
 31
0.0
  0
LINE
  5
2FF
330
1F
100
AcDbEntity
  8
0
  6
Continuous
 62
     7
370
    50
100
AcDbLine
 10
205.4958216949
 20
76.1929679078
 30
0.0
 11
207.7708216949
 21
76.1929679078
 31
0.0
  0
LINE
  5
300
330
1F
100
AcDbEntity
  8
0
  6
Continuous
 62
     7
370
    50
100
AcDbLine
 10
203.2208216949
 20
76.1929679078
 30
0.0
 11
205.4958216949
 21
76.1929679078
 31
0.0
  0
LINE
  5
301
330
1F
100
AcDbEntity
  8
0
  6
Continuous
 62
     7
370
    50
100
AcDbLine
 10
213.9509049355
 20
61.9929679078
 30
0.0
 11
210.2958216949
 21
61.9929679078
 31
0.0
  0
LINE
  5
302
330
1F
100
AcDbEntity
  8
0
  6
Continuous
 62
     7
370
    50
100
AcDbLine
 10
214.0958216949
 20
61.9929679078
 30
0.0
 11
213.9509049355
 21
61.9929679078
 31
0.0
  0
LINE
  5
303
330
1F
100
AcDbEntity
  8
0
  6
Continuous
 62
     7
370
    50
100
AcDbLine
 10
210.2958216949
 20
76.4929679078
 30
0.0
 11
214.0958216949
 21
76.4929679078
 31
0.0
  0
LINE
  5
304
330
1F
100
AcDbEntity
  8
0
  6
Continuous
 62
     7
370
    50
100
AcDbLine
 10
175.0342213493
 20
63.8929679078
 30
0.0
 11
170.5958216949
 21
63.8929679078
 31
0.0
  0
LINE
  5
305
330
1F
100
AcDbEntity
  8
0
  6
Continuous
 62
     7
370
    50
100
AcDbLine
 10
176.5958216949
 20
63.8929679078
 30
0.0
 11
175.0342213493
 21
63.8929679078
 31
0.0
  0
LINE
  5
306
330
1F
100
AcDbEntity
  8
0
  6
Continuous
 62
     7
370
    50
100
AcDbLine
 10
171.6958216949
 20
76.4929679078
 30
0.0
 11
175.4958216949
 21
76.4929679078
 31
0.0
  0
LINE
  5
307
330
1F
100
AcDbEntity
  8
0
  6
Continuous
 62
     7
370
    50
100
AcDbLine
 10
134.8958216949
 20
59.8929679078
 30
0.0
 11
137.8958216949
 21
59.8929679078
 31
0.0
  0
LINE
  5
308
330
1F
100
AcDbEntity
  8
0
  6
Continuous
 62
     7
370
    50
100
AcDbLine
 10
134.8958216949
 20
79.8929679078
 30
0.0
 11
137.8958216949
 21
79.8929679078
 31
0.0
  0
LINE
  5
309
330
1F
100
AcDbEntity
  8
0
  6
Continuous
 62
     7
370
    50
100
AcDbLine
 10
137.8958216949
 20
59.8929679078
 30
0.0
 11
137.8958216949
 21
79.8929679078
 31
0.0
  0
LINE
  5
30A
330
1F
100
AcDbEntity
  8
0
  6
Continuous
 62
     7
370
    50
100
AcDbLine
 10
134.8958216949
 20
59.8929679078
 30
0.0
 11
134.8958216949
 21
79.8929679078
 31
0.0
  0
LINE
  5
30B
330
1F
100
AcDbEntity
  8
0
  6
Continuous
 62
     8
370
    18
100
AcDbLine
 10
156.8126706773
 20
71.4729679078
 30
0.0
 11
162.8580825598
 21
71.4729679078
 31
0.0
  0
SPLINE
  5
30C
330
1F
100
AcDbEntity
  8
0
  6
Continuous
 62
     8
370
    18
100
AcDbSpline
210
0.0
220
0.0
230
1.0
 70
     8
 71
     3
 72
     9
 73
     5
 74
     0
 42
0.000000001
 43
0.00000001
 40
0.0
 40
0.0
 40
0.0
 40
0.0
 40
0.709629909678966
 40
1.0
 40
1.0
 40
1.0
 40
1.0
 10
155.1677632130179
 20
72.54297567458975
 30
0.0
 10
155.1725999168718
 20
72.54296337875205
 30
0.0
 10
155.1794157285898
 20
72.54294605163895
 30
0.0
 10
155.1862310573017
 20
72.5428664176146
 30
0.0
 10
155.1882100249153
 20
72.54284329427576
 30
0.0
  0
LINE
  5
30D
330
1F
100
AcDbEntity
  8
0
  6
Continuous
 62
     8
370
    18
100
AcDbLine
 10
147.1882100249
 20
74.4929679078
 30
0.0
 11
147.1882100249
 21
71.4929679078
 31
0.0
  0
LINE
  5
30E
330
1F
100
AcDbEntity
  8
0
  6
Continuous
 62
     8
370
    18
100
AcDbLine
 10
139.8958216949
 20
74.4929679078
 30
0.0
 11
139.8958216949
 21
75.9929679078
 31
0.0
  0
LINE
  5
30F
330
1F
100
AcDbEntity
  8
0
  6
Continuous
 62
     8
370
    18
100
AcDbLine
 10
139.3958216949
 20
73.9929679078
 30
0.0
 11
137.8958216949
 21
73.9929679078
 31
0.0
  0
LINE
  5
310
330
1F
100
AcDbEntity
  8
0
  6
Continuous
 62
     8
370
    18
100
AcDbLine
 10
133.9824516522
 20
73.9929679078
 30
0.0
 11
130.3243949406
 21
73.9929679078
 31
0.0
  0
LINE
  5
311
330
1F
100
AcDbEntity
  8
0
  6
Continuous
 62
     8
370
    18
100
AcDbLine
 10
133.9824516522
 20
71.2929679078
 30
0.0
 11
133.9824516522
 21
73.9929679078
 31
0.0
  0
LINE
  5
312
330
1F
100
AcDbEntity
  8
0
  6
Continuous
 62
     8
370
    18
100
AcDbLine
 10
143.6209250735
 20
71.2929679078
 30
0.0
 11
139.3958216949
 21
71.2929679078
 31
0.0
  0
LINE
  5
313
330
1F
100
AcDbEntity
  8
0
  6
Continuous
 62
     8
370
    18
100
AcDbLine
 10
134.8958216949
 20
71.2929679078
 30
0.0
 11
133.9824516522
 21
71.2929679078
 31
0.0
  0
LINE
  5
314
330
1F
100
AcDbEntity
  8
0
  6
Continuous
 62
     8
370
    18
100
AcDbLine
 10
143.6209250735
 20
66.3929679078
 30
0.0
 11
143.6209250735
 21
71.2929679078
 31
0.0
  0
LINE
  5
315
330
1F
100
AcDbEntity
  8
0
  6
Continuous
 62
     8
370
    18
100
AcDbLine
 10
130.3243949406
 20
66.3929679078
 30
0.0
 11
134.8958216949
 21
66.3929679078
 31
0.0
  0
LINE
  5
316
330
1F
100
AcDbEntity
  8
0
  6
Continuous
 62
     8
370
    18
100
AcDbLine
 10
139.3958216949
 20
66.3929679078
 30
0.0
 11
143.6209250735
 21
66.3929679078
 31
0.0
  0
LINE
  5
317
330
1F
100
AcDbEntity
  8
0
  6
Continuous
 62
     8
370
    18
100
AcDbLine
 10
130.3243949406
 20
66.3929679078
 30
0.0
 11
130.3243949406
 21
73.9929679078
 31
0.0
  0
ARC
  5
318
330
1F
100
AcDbEntity
  8
0
  6
Continuous
 62
     8
370
    18
100
AcDbCircle
 10
143.4345512038
 20
66.3791458537
 30
0.0
 40
0.1868857096750116
100
AcDbArc
 50
274.9880512571
 51
4.2414647358
  0
LWPOLYLINE
  5
319
330
1F
100
AcDbEntity
  8
0
  6
Continuous
 62
     8
370
    18
100
AcDbPolyline
 90
        9
 70
   128
 43
0.0
 10
130.3243949406
 20
66.3929679078
 10
130.3268035809
 20
66.3539498434
 10
130.3339369392
 20
66.3164312213
 10
130.3455208844
 20
66.2818538612
 10
130.3611102521
 20
66.2515465515
 10
130.3801059516
 20
66.2266739853
 10
130.4017779888
 20
66.2081920013
 10
130.4252935195
 20
66.1968108517
 10
130.449748855
 20
66.1929679078
  0
ARC
  5
31A
330
1F
100
AcDbEntity
  8
0
  6
Continuous
 62
     8
370
    18
100
AcDbCircle
 10
143.4345512038
 20
71.3067899619
 30
0.0
 40
0.1868857096750702
100
AcDbArc
 50
355.7585352642
 51
85.0119487429
  0
SPLINE
  5
31B
330
1F
100
AcDbEntity
  8
0
  6
Continuous
 62
     8
370
    18
100
AcDbSpline
210
0.0
220
0.0
230
1.0
 70
     8
 71
     3
 72
    10
 73
     6
 74
     0
 42
0.000000001
 43
0.00000001
 40
0.0
 40
0.0
 40
0.0
 40
0.0
 40
0.5186655132012595
 40
0.9862504172722982
 40
1.0
 40
1.0
 40
1.0
 40
1.0
 10
134.2453823354548
 20
71.42199092715236
 30
0.0
 10
134.1995341980091
 20
71.4002253804036
 30
0.0
 10
134.1123532624424
 20
71.35883785989806
 30
0.0
 10
134.0248326271825
 20
71.31467794688508
 30
0.0
 10
133.9836286658863
 20
71.29357084370653
 30
0.0
 10
133.9824516522085
 20
71.29296790776644
 30
0.0
  0
SPLINE
  5
31C
330
1F
100
AcDbEntity
  8
0
  6
Continuous
 62
     8
370
    18
100
AcDbSpline
210
0.0
220
0.0
230
1.0
 70
     8
 71
     3
 72
     9
 73
     5
 74
     0
 42
0.000000001
 43
0.00000001
 40
0.0
 40
0.0
 40
0.0
 40
0.0
 40
0.6300595392878474
 40
1.0
 40
1.0
 40
1.0
 40
1.0
 10
134.6520435705667
 20
71.49296790776646
 30
0.0
 10
134.5642617963075
 20
71.49046781754787
 30
0.0
 10
134.4249388136598
 20
71.48649979538064
 30
0.0
 10
134.2938699947188
 20
71.4394109838021
 30
0.0
 10
134.2453823354548
 20
71.42199092715236
 30
0.0
  0
LINE
  5
31D
330
1F
100
AcDbEntity
  8
0
  6
Continuous
 62
     8
370
    18
100
AcDbLine
 10
134.8958216949
 20
73.9929679078
 30
0.0
 11
134.1212699202
 21
73.9929679078
 31
0.0
  0
LWPOLYLINE
  5
31E
330
1F
100
AcDbEntity
  8
0
  6
Continuous
 62
     8
370
    18
100
AcDbPolyline
 90
        9
 70
   128
 43
0.0
 10
134.1212699202
 20
73.9929679078
 10
134.119449239
 20
74.0319859722
 10
134.1140571631
 20
74.0695045942
 10
134.1053009071
 20
74.1040819544
 10
134.0935169689
 20
74.134389264
 10
134.0791581986
 20
74.1592618302
 10
134.0627763958
 20
74.1777438143
 10
134.0450011039
 20
74.1891249638
 10
134.0265154175
 20
74.1929679078
  0
LINE
  5
31F
330
1F
100
AcDbEntity
  8
0
  6
Continuous
 62
     8
370
    18
100
AcDbLine
 10
134.5572890679
 20
71.6929679078
 30
0.0
 11
134.8958216949
 21
71.6929679078
 31
0.0
  0
SPLINE
  5
320
330
1F
100
AcDbEntity
  8
0
  6
Continuous
 62
     8
370
    18
100
AcDbSpline
210
0.0
220
0.0
230
1.0
 70
     8
 71
     3
 72
     9
 73
     5
 74
     0
 42
0.000000001
 43
0.00000001
 40
0.0
 40
0.0
 40
0.0
 40
0.0
 40
0.3891967250447365
 40
1.0
 40
1.0
 40
1.0
 40
1.0
 10
134.1212699201852
 20
71.55101394653826
 30
0.0
 10
134.1731114861182
 20
71.58589903965115
 30
0.0
 10
134.3063129305213
 20
71.67553261277249
 30
0.0
 10
134.4621209930355
 20
71.68635658815487
 30
0.0
 10
134.5572890678836
 20
71.69296790776644
 30
0.0
  0
LINE
  5
321
330
1F
100
AcDbEntity
  8
0
  6
Continuous
 62
     8
370
    18
100
AcDbLine
 10
134.1212699202
 20
73.9929679078
 30
0.0
 11
134.1212699202
 21
71.5510139465
 31
0.0
  0
LWPOLYLINE
  5
322
330
1F
100
AcDbEntity
  8
0
  6
Continuous
 62
     8
370
    18
100
AcDbPolyline
 90
        9
 70
   128
 43
0.0
 10
134.5572890679
 20
71.6929679078
 10
134.5591097491
 20
71.6539498434
 10
134.5645018249
 20
71.6164312213
 10
134.573258081
 20
71.5818538612
 10
134.5850420192
 20
71.5515465515
 10
134.5994007894
 20
71.5266739853
 10
134.6157825922
 20
71.5081920013
 10
134.6335578841
 20
71.4968108517
 10
134.6520435706
 20
71.4929679078
  0
LWPOLYLINE
  5
323
330
1F
100
AcDbEntity
  8
0
  6
Continuous
 62
     8
370
    18
100
AcDbPolyline
 90
        9
 70
   128
 43
0.0
 10
130.3243949406
 20
73.9929679078
 10
130.3268035809
 20
74.0319859722
 10
130.3339369392
 20
74.0695045942
 10
130.3455208844
 20
74.1040819544
 10
130.3611102521
 20
74.134389264
 10
130.3801059516
 20
74.1592618302
 10
130.4017779888
 20
74.1777438143
 10
130.4252935195
 20
74.1891249638
 10
130.449748855
 20
74.1929679078
  0
ARC
  5
324
330
1F
100
AcDbEntity
  8
0
  6
Continuous
 62
     8
370
    18
100
AcDbCircle
 10
134.2424433139
 20
74.0405408885
 30
0.0
 40
0.2643082530739254
100
AcDbArc
 50
144.7811093024
 51
190.3692078046
  0
ARC
  5
325
330
1F
100
AcDbEntity
  8
0
  6
Continuous
 62
     8
370
    18
100
AcDbCircle
 10
134.5258650404
 20
71.8160043502
 30
0.0
 40
0.4836497961516796
100
AcDbArc
 50
213.2228762681
 51
234.5544273708
  0
SPLINE
  5
326
330
1F
100
AcDbEntity
  8
0
  6
Continuous
 62
     8
370
    18
100
AcDbSpline
210
0.0
220
0.0
230
1.0
 70
     8
 71
     3
 72
    10
 73
     6
 74
     0
 42
0.000000001
 43
0.00000001
 40
0.0
 40
0.0
 40
0.0
 40
0.0
 40
0.0137532634111505
 40
0.4822502676823689
 40
1.0
 40
1.0
 40
1.0
 40
1.0
 10
133.9824516522085
 20
71.29296790776644
 30
0.0
 10
133.9830521916545
 20
71.29417126193815
 30
0.0
 10
134.0041097617692
 20
71.33636618354107
 30
0.0
 10
134.049344759028
 20
71.42442666848089
 30
0.0
 10
134.0965097337713
 20
71.50743636461969
 30
0.0
 10
134.1212699201852
 20
71.55101394653826
 30
0.0
  0
LINE
  5
327
330
1F
100
AcDbEntity
  8
0
  6
Continuous
 62
     8
370
    18
100
AcDbLine
 10
133.9824516522
 20
73.9929679078
 30
0.0
 11
134.1212699202
 21
73.9929679078
 31
0.0
  0
LINE
  5
328
330
1F
100
AcDbEntity
  8
0
  6
Continuous
 62
     8
370
    18
100
AcDbLine
 10
130.3243949406
 20
73.9929679078
 30
0.0
 11
118.0213733825
 21
73.9929679078
 31
0.0
  0
LINE
  5
329
330
1F
100
AcDbEntity
  8
0
  6
Continuous
 62
     8
370
    18
100
AcDbLine
 10
118.0213733825
 20
66.3929679078
 30
0.0
 11
130.3243949406
 21
66.3929679078
 31
0.0
  0
LINE
  5
32A
330
1F
100
AcDbEntity
  8
0
  6
Continuous
 62
     8
370
    18
100
AcDbLine
 10
155.1936989828
 20
71.2929679078
 30
0.0
 11
143.6209250735
 21
71.2929679078
 31
0.0
  0
LWPOLYLINE
  5
32B
330
1F
100
AcDbEntity
  8
0
  6
Continuous
 62
     8
370
    18
100
AcDbPolyline
 90
        3
 70
   128
 43
0.0
 10
156.2004494186
 20
71.4747090846
 10
156.1945369909
 20
71.4777438143
 10
156.1899017991
 20
71.4799079134
  0
LINE
  5
32C
330
1F
100
AcDbEntity
  8
0
  6
Continuous
 62
     8
370
    18
100
AcDbLine
 10
143.6209250735
 20
66.3929679078
 30
0.0
 11
156.2995576836
 21
66.3929679078
 31
0.0
  0
LINE
  5
32D
330
1F
100
AcDbEntity
  8
0
  6
Continuous
 62
     8
370
    18
100
AcDbLine
 10
156.2995576836
 20
66.3929679078
 30
0.0
 11
156.2995576836
 21
68.4529679078
 31
0.0
  0
LINE
  5
32E
330
1F
100
AcDbEntity
  8
0
  6
Continuous
 62
     8
370
    18
100
AcDbLine
 10
208.4083332297
 20
74.4929679078
 30
0.0
 11
208.4083332297
 21
71.9929679078
 31
0.0
  0
LINE
  5
32F
330
1F
100
AcDbEntity
  8
0
  6
Continuous
 62
     8
370
    18
100
AcDbLine
 10
196.4833327662
 20
74.4929679078
 30
0.0
 11
196.4833327662
 21
71.9929679078
 31
0.0
  0
LINE
  5
330
330
1F
100
AcDbEntity
  8
0
  6
Continuous
 62
     8
370
    18
100
AcDbLine
 10
201.0833101601
 20
71.9929679078
 30
0.0
 11
201.0833101601
 21
74.4929679078
 31
0.0
  0
LINE
  5
331
330
1F
100
AcDbEntity
  8
0
  6
Continuous
 62
     8
370
    18
100
AcDbLine
 10
201.5601686355
 20
74.4929679078
 30
0.0
 11
201.5601686355
 21
71.9929679078
 31
0.0
  0
LINE
  5
332
330
1F
100
AcDbEntity
  8
0
  6
Continuous
 62
     8
370
    18
100
AcDbLine
 10
196.0003698531
 20
71.9929679078
 30
0.0
 11
196.0003698531
 21
74.4929679078
 31
0.0
  0
LINE
  5
333
330
1F
100
AcDbEntity
  8
0
  6
Continuous
 62
     8
370
    18
100
AcDbLine
 10
207.9314747543
 20
71.9929679078
 30
0.0
 11
207.9314747543
 21
74.4929679078
 31
0.0
  0
LINE
  5
334
330
1F
100
AcDbEntity
  8
0
  6
Continuous
 62
     8
370
    18
100
AcDbLine
 10
189.153807223
 20
71.9929679078
 30
0.0
 11
189.153807223
 21
74.4929679078
 31
0.0
  0
LINE
  5
335
330
1F
100
AcDbEntity
  8
0
  6
Continuous
 62
     8
370
    18
100
AcDbLine
 10
189.6236535334
 20
74.4929679078
 30
0.0
 11
189.6236535334
 21
71.9929679078
 31
0.0
  0
DIMENSION
  5
336
330
1F
100
AcDbEntity
  8
0
  6
Continuous
 62
     7
370
    18
100
AcDbDimension
  2
_D_18
 10
229.5958216949
 20
62.2929679078
 30
0.0
 11
229.5958216949
 21
69.2429679078
 31
0.0
 70
   160
  1
<>
 71
     2
 42
-1.0
  3
SLDDIMSTYLE0
100
AcDbAlignedDimension
 13
184.8708216949
 23
76.1929679078
 33
0.0
 14
219.5958216949
 24
62.2929679078
 34
0.0
 50
90.0
100
AcDbRotatedDimension
  0
DIMENSION
  5
340
330
1F
100
AcDbEntity
  8
0
  6
Continuous
 62
     7
370
    18
100
AcDbDimension
  2
_D_19
 10
229.5958216949
 20
79.8929679078
 30
0.0
 11
229.5958216949
 21
89.6898430009
 31
0.0
 70
   160
  1
(<>)
 71
     2
 42
-1.0
  3
SLDDIMSTYLE5
100
AcDbAlignedDimension
 13
184.8708216949
 23
76.1929679078
 33
0.0
 14
137.8958216949
 24
79.8929679078
 34
0.0
 50
90.0
100
AcDbRotatedDimension
  0
DIMENSION
  5
34E
330
1F
100
AcDbEntity
  8
0
  6
Continuous
 62
     7
370
    18
100
AcDbDimension
  2
_D_20
 10
229.5958216949
 20
59.8929679078
 30
0.0
 11
229.5958216949
 21
50.0960928146
 31
0.0
 70
   160
  1
(<>)
 71
     2
 42
-1.0
  3
SLDDIMSTYLE5
100
AcDbAlignedDimension
 13
219.5958216949
 23
62.2929679078
 33
0.0
 14
137.8958216949
 24
59.8929679078
 34
0.0
 50
90.0
100
AcDbRotatedDimension
  0
DIMENSION
  5
35C
330
1F
100
AcDbEntity
  8
0
  6
Continuous
 62
     7
370
    18
100
AcDbDimension
  2
_D_21
 10
101.4689042674
 20
74.1929679078
 30
0.0
 11
101.4689042674
 21
70.1929679078
 31
0.0
 70
   160
  1
<>
 71
     2
 42
-1.0
  3
SLDDIMSTYLE2
100
AcDbAlignedDimension
 13
118.230866888
 23
66.1929679078
 33
0.0
 14
118.230866888
 24
74.1929679078
 34
0.0
 50
90.0
100
AcDbRotatedDimension
  0
LINE
  5
368
330
1F
100
AcDbEntity
  8
0
  6
Continuous
 62
     7
370
    50
100
AcDbLine
 10
287.3379738388
 20
213.8386103999
 30
0.0
 11
287.2939715606
 21
213.8390366363
 31
0.0
  0
ARC
  5
369
330
1F
100
AcDbEntity
  8
0
  6
Continuous
 62
     7
370
    50
100
AcDbCircle
 10
283.6332729168
 20
178.3224381417
 30
0.0
 40
0.2000000000000171
100
AcDbArc
 50
180.0
 51
270.0
  0
ARC
  5
36A
330
1F
100
AcDbEntity
  8
0
  6
Continuous
 62
     7
370
    50
100
AcDbCircle
 10
291.2332729168
 20
178.3224381417
 30
0.0
 40
0.2000000000000455
100
AcDbArc
 50
270.0
 51
0.0
  0
LINE
  5
36B
330
1F
100
AcDbEntity
  8
0
  6
Continuous
 62
     7
370
    50
100
AcDbLine
 10
283.6332729168
 20
178.1224381417
 30
0.0
 11
291.2332729168
 21
178.1224381417
 31
0.0
  0
LINE
  5
36C
330
1F
100
AcDbEntity
  8
0
  6
Continuous
 62
     7
370
    50
100
AcDbLine
 10
291.2332729168
 20
210.4732836566
 30
0.0
 11
286.3332729168
 21
210.4732836566
 31
0.0
  0
ARC
  5
36D
330
1F
100
AcDbEntity
  8
0
  6
Continuous
 62
     7
370
    50
100
AcDbCircle
 10
291.2332729168
 20
210.2732836566
 30
0.0
 40
0.2000000000000455
100
AcDbArc
 50
0.0
 51
90.0
  0
ARC
  5
36E
330
1F
100
AcDbEntity
  8
0
  6
Continuous
 62
     7
370
    50
100
AcDbCircle
 10
283.6332729168
 20
210.0570492966
 30
0.0
 40
0.2000000000000171
100
AcDbArc
 50
90.0
 51
180.0
  0
LINE
  5
36F
330
1F
100
AcDbEntity
  8
0
  6
Continuous
 62
     7
370
    50
100
AcDbLine
 10
286.2477267971
 20
210.2570492966
 30
0.0
 11
283.6332729168
 21
210.2570492966
 31
0.0
  0
ARC
  5
370
330
1F
100
AcDbEntity
  8
0
  6
Continuous
 62
     7
370
    50
100
AcDbCircle
 10
286.3332729168
 20
210.2732836566
 30
0.0
 40
0.2000000000000455
100
AcDbArc
 50
90.0
 51
180.0
  0
LINE
  5
371
330
1F
100
AcDbEntity
  8
0
  6
Continuous
 62
     7
370
    50
100
AcDbLine
 10
291.1732729168
 20
213.2236367626
 30
0.0
 11
289.1732729168
 21
213.2236367626
 31
0.0
  0
LINE
  5
372
330
1F
100
AcDbEntity
  8
0
  6
Continuous
 62
     7
370
    50
100
AcDbLine
 10
291.1732729168
 20
213.2236367626
 30
0.0
 11
291.1732729168
 21
210.4732836566
 31
0.0
  0
LINE
  5
373
330
1F
100
AcDbEntity
  8
0
  6
Continuous
 62
     7
370
    50
100
AcDbLine
 10
291.1732729168
 20
213.6050902122
 30
0.0
 11
289.1732729168
 21
213.6050902122
 31
0.0
  0
LINE
  5
374
330
1F
100
AcDbEntity
  8
0
  6
Continuous
 62
     7
370
    50
100
AcDbLine
 10
291.1732729168
 20
213.6050902122
 30
0.0
 11
291.1732729168
 21
213.2236367626
 31
0.0
  0
LINE
  5
375
330
1F
100
AcDbEntity
  8
0
  6
Continuous
 62
     7
370
    50
100
AcDbLine
 10
291.1732729168
 20
213.2236367626
 30
0.0
 11
292.0832729168
 21
213.2236367626
 31
0.0
  0
LINE
  5
376
330
1F
100
AcDbEntity
  8
0
  6
Continuous
 62
     7
370
    50
100
AcDbLine
 10
292.0832729168
 20
209.1122106189
 30
0.0
 11
291.4332729168
 21
209.1122106189
 31
0.0
  0
LINE
  5
377
330
1F
100
AcDbEntity
  8
0
  6
Continuous
 62
     7
370
    50
100
AcDbLine
 10
291.1732729168
 20
213.6050902122
 30
0.0
 11
292.0832729168
 21
213.6050902122
 31
0.0
  0
LINE
  5
378
330
1F
100
AcDbEntity
  8
0
  6
Continuous
 62
     7
370
    50
100
AcDbLine
 10
283.3832729168
 20
204.3386103999
 30
0.0
 11
283.4332729168
 21
204.3386103999
 31
0.0
  0
LINE
  5
379
330
1F
100
AcDbEntity
  8
0
  6
Continuous
 62
     7
370
    50
100
AcDbLine
 10
283.3832729168
 20
204.9838757597
 30
0.0
 11
283.4332729168
 21
205.1680709308
 31
0.0
  0
LINE
  5
37A
330
1F
100
AcDbEntity
  8
0
  6
Continuous
 62
     7
370
    50
100
AcDbLine
 10
285.6395470481
 20
210.2570492966
 30
0.0
 11
286.1532729168
 21
211.1253269374
 31
0.0
  0
LINE
  5
37B
330
1F
100
AcDbEntity
  8
0
  6
Continuous
 62
     7
370
    50
100
AcDbLine
 10
286.1532729168
 20
210.9925937282
 30
0.0
 11
286.1532729168
 21
211.1253269374
 31
0.0
  0
LINE
  5
37C
330
1F
100
AcDbEntity
  8
0
  6
Continuous
 62
     7
370
    50
100
AcDbLine
 10
286.1532729168
 20
210.9925937282
 30
0.0
 11
285.8703645476
 21
210.2570492966
 31
0.0
  0
LINE
  5
37D
330
1F
100
AcDbEntity
  8
0
  6
Continuous
 62
     7
370
    50
100
AcDbLine
 10
289.1724935441
 20
213.8294006224
 30
0.0
 11
289.1732729168
 21
213.8386103999
 31
0.0
  0
LINE
  5
37E
330
1F
100
AcDbEntity
  8
0
  6
Continuous
 62
     7
370
    50
100
AcDbLine
 10
289.1732729168
 20
213.8386103999
 30
0.0
 11
289.1732729168
 21
210.4732836566
 31
0.0
  0
ELLIPSE
  5
37F
330
1F
100
AcDbEntity
  8
0
  6
Continuous
 62
     7
370
    50
100
AcDbEllipse
 10
286.1532729168
 20
214.1593780116
 30
0.0
 11
0.0
 21
14.52539772112721
 31
0.0
210
0.0
220
0.0
230
1.0
 40
0.2079116908
 41
4.455814243272768
 42
4.689669755418459
  0
SPLINE
  5
380
330
1F
100
AcDbEntity
  8
0
  6
Continuous
 62
     7
370
    50
100
AcDbSpline
210
0.0
220
0.0
230
1.0
 70
     8
 71
     3
 72
    10
 73
     6
 74
     0
 42
0.000000001
 43
0.00000001
 40
0.0
 40
0.0
 40
0.0
 40
0.0
 40
0.2521062059279821
 40
0.504147130260282
 40
1.0
 40
1.0
 40
1.0
 40
1.0
 10
286.1684776992003
 20
214.0511669616084
 30
0.0
 10
286.196125941098
 20
213.7949528723764
 30
0.0
 10
286.2514152655245
 20
213.2825910392232
 30
0.0
 10
286.2724746692321
 20
212.2592092405157
 30
0.0
 10
286.2007958833123
 20
211.4975638760152
 30
0.0
 10
286.1532729168438
 20
210.9925937282416
 30
0.0
  0
SPLINE
  5
381
330
1F
100
AcDbEntity
  8
0
  6
Continuous
 62
     7
370
    50
100
AcDbSpline
210
0.0
220
0.0
230
1.0
 70
     8
 71
     3
 72
    16
 73
    12
 74
     0
 42
0.000000001
 43
0.00000001
 40
0.0
 40
0.0
 40
0.0
 40
0.0
 40
0.2465724491417185
 40
0.4931451325557784
 40
0.7341953906289435
 40
0.8553178235739815
 40
0.9176343581697293
 40
0.9489838774500209
 40
0.9698553174496876
 40
0.990708891898222
 40
1.0
 40
1.0
 40
1.0
 40
1.0
 10
289.1724803632329
 20
213.8294008331648
 30
0.0
 10
288.9191879646803
 20
213.8298801819339
 30
0.0
 10
288.412602926918
 20
213.8308388799277
 30
0.0
 10
287.6584162148548
 20
213.8340527389555
 30
0.0
 10
287.0330646052951
 20
213.8391797286114
 30
0.0
 10
286.5971968665861
 20
213.853369398973
 30
0.0
 10
286.3773230317291
 20
213.8766620578091
 30
0.0
 10
286.2641897168672
 20
213.9155614424709
 30
0.0
 10
286.2060679065901
 20
213.9655717039095
 30
0.0
 10
286.1804741721728
 20
214.0124816794112
 30
0.0
 10
286.1713040791304
 20
214.0420526739804
 30
0.0
 10
286.1684776992003
 20
214.0511669616085
 30
0.0
  0
LINE
  5
382
330
1F
100
AcDbEntity
  8
0
  6
Continuous
 62
     7
370
    50
100
AcDbLine
 10
286.1532729168
 20
211.1253269374
 30
0.0
 11
286.164471683
 21
214.0523993907
 31
0.0
  0
LINE
  5
383
330
1F
100
AcDbEntity
  8
0
  6
Continuous
 62
     7
370
    50
100
AcDbLine
 10
286.1684776992
 20
214.0511669616
 30
0.0
 11
286.164471683
 21
214.0523993907
 31
0.0
  0
LINE
  5
384
330
1F
100
AcDbEntity
  8
0
  6
Continuous
 62
     7
370
    50
100
AcDbLine
 10
289.1732729168
 20
213.8386103999
 30
0.0
 11
287.3379738388
 21
213.8386103999
 31
0.0
  0
LINE
  5
385
330
1F
100
AcDbEntity
  8
0
  6
Continuous
 62
     7
370
    50
100
AcDbLine
 10
285.9420027924
 20
210.7682471476
 30
0.0
 11
283.7732729168
 21
210.7682471476
 31
0.0
  0
LINE
  5
386
330
1F
100
AcDbEntity
  8
0
  6
Continuous
 62
     7
370
    50
100
AcDbLine
 10
283.7732729168
 20
210.7682471476
 30
0.0
 11
283.7732729168
 21
210.2570492966
 31
0.0
  0
LINE
  5
387
330
1F
100
AcDbEntity
  8
0
  6
Continuous
 62
     7
370
    50
100
AcDbLine
 10
286.0172331471
 20
210.8953982975
 30
0.0
 11
283.7732729168
 21
210.8953982975
 31
0.0
  0
LINE
  5
388
330
1F
100
AcDbEntity
  8
0
  6
Continuous
 62
     7
370
    50
100
AcDbLine
 10
283.7732729168
 20
210.8953982975
 30
0.0
 11
283.7732729168
 21
210.7682471476
 31
0.0
  0
SPLINE
  5
389
330
1F
100
AcDbEntity
  8
0
  6
Continuous
 62
     7
370
    50
100
AcDbSpline
210
0.0
220
0.0
230
1.0
 70
     8
 71
     3
 72
    13
 73
     9
 74
     0
 42
0.000000001
 43
0.00000001
 40
0.0
 40
0.0
 40
0.0
 40
0.0
 40
0.1792251519071511
 40
0.3580848933001342
 40
0.546377457424731
 40
0.7588926857375358
 40
0.9910206852925911
 40
0.9999999999999999
 40
0.9999999999999999
 40
0.9999999999999999
 40
0.9999999999999999
 10
283.6332729168437
 20
185.4275512381034
 30
0.0
 10
283.6129942438448
 20
185.4284423194053
 30
0.0
 10
283.5724782427154
 20
185.4302226652415
 30
0.0
 10
283.5180164559522
 20
185.4438350489249
 30
0.0
 10
283.4730334473932
 20
185.4643080929336
 30
0.0
 10
283.4415639233101
 20
185.4919191424465
 30
0.0
 10
283.4333777459324
 20
185.5136320442322
 30
0.0
 10
283.4332766807129
 20
185.5251134380316
 30
0.0
 10
283.4332729168437
 20
185.5255410279142
 30
0.0
  0
LINE
  5
38A
330
1F
100
AcDbEntity
  8
0
  6
Continuous
 62
     7
370
    50
100
AcDbLine
 10
283.4332729168
 20
185.5255410279
 30
0.0
 11
283.4332729168
 21
208.3302846714
 31
0.0
  0
LINE
  5
38B
330
1F
100
AcDbEntity
  8
0
  6
Continuous
 62
     7
370
    50
100
AcDbLine
 10
291.4332729168
 20
208.3302846714
 30
0.0
 11
291.4332729168
 21
185.5255410279
 31
0.0
  0
SPLINE
  5
38C
330
1F
100
AcDbEntity
  8
0
  6
Continuous
 62
     7
370
    50
100
AcDbSpline
210
0.0
220
0.0
230
1.0
 70
     8
 71
     3
 72
    13
 73
     9
 74
     0
 42
0.000000001
 43
0.00000001
 40
0.0
 40
0.0
 40
0.0
 40
0.0
 40
0.1792251519071211
 40
0.3580848933001531
 40
0.5463774574247708
 40
0.7588926857375006
 40
0.9910206852926381
 40
1.0
 40
1.0
 40
1.0
 40
1.0
 10
291.2332729168437
 20
185.4275512381034
 30
0.0
 10
291.2535515898426
 20
185.4284423194053
 30
0.0
 10
291.294067590972
 20
185.4302226652414
 30
0.0
 10
291.3485293777352
 20
185.4438350489249
 30
0.0
 10
291.3935123862942
 20
185.4643080929336
 30
0.0
 10
291.4249819103773
 20
185.4919191424466
 30
0.0
 10
291.4331680877551
 20
185.513632044232
 30
0.0
 10
291.4332691529744
 20
185.5251134380315
 30
0.0
 10
291.4332729168437
 20
185.5255410279142
 30
0.0
  0
LINE
  5
38D
330
1F
100
AcDbEntity
  8
0
  6
Continuous
 62
     7
370
    50
100
AcDbLine
 10
291.2332729168
 20
185.4275512381
 30
0.0
 11
283.6332729168
 21
185.4275512381
 31
0.0
  0
LINE
  5
38E
330
1F
100
AcDbEntity
  8
0
  6
Continuous
 62
     7
370
    50
100
AcDbLine
 10
283.4332729168
 20
178.3760564883
 30
0.0
 11
283.4332729168
 21
185.5255410279
 31
0.0
  0
LINE
  5
38F
330
1F
100
AcDbEntity
  8
0
  6
Continuous
 62
     7
370
    50
100
AcDbLine
 10
291.4332729168
 20
185.5255410279
 30
0.0
 11
291.4332729168
 21
178.3760564883
 31
0.0
  0
LINE
  5
390
330
1F
100
AcDbEntity
  8
0
  6
Continuous
 62
     7
370
    50
100
AcDbLine
 10
283.4332729168
 20
178.3224381417
 30
0.0
 11
283.4332729168
 21
178.3760564883
 31
0.0
  0
LINE
  5
391
330
1F
100
AcDbEntity
  8
0
  6
Continuous
 62
     7
370
    50
100
AcDbLine
 10
291.4332729168
 20
178.3760564883
 30
0.0
 11
291.4332729168
 21
178.3224381417
 31
0.0
  0
LINE
  5
392
330
1F
100
AcDbEntity
  8
0
  6
Continuous
 62
     7
370
    50
100
AcDbLine
 10
283.4332729168
 20
208.3302846714
 30
0.0
 11
283.4332729168
 21
210.0570492966
 31
0.0
  0
LINE
  5
393
330
1F
100
AcDbEntity
  8
0
  6
Continuous
 62
     7
370
    50
100
AcDbLine
 10
291.4332729168
 20
210.2732836566
 30
0.0
 11
291.4332729168
 21
208.3302846714
 31
0.0
  0
LINE
  5
394
330
1F
100
AcDbEntity
  8
0
  6
Continuous
 62
     7
370
    50
100
AcDbLine
 10
286.1332729168
 20
210.2570492966
 30
0.0
 11
286.1332729168
 21
210.2732836566
 31
0.0
  0
LINE
  5
395
330
1F
100
AcDbEntity
  8
0
  6
Continuous
 62
     7
370
    50
100
AcDbLine
 10
283.3832729168
 20
209.2386103999
 30
0.0
 11
283.4332729168
 21
209.2386103999
 31
0.0
  0
CIRCLE
  5
396
330
1F
100
AcDbEntity
  8
0
  6
Continuous
 62
     7
370
    50
100
AcDbCircle
 10
287.7332729168
 20
250.8386103999
 30
0.0
 40
4.25
  0
CIRCLE
  5
397
330
1F
100
AcDbEntity
  8
0
  6
Continuous
 62
     7
370
    50
100
AcDbCircle
 10
287.7332729168
 20
250.8386103999
 30
0.0
 40
2.5
  0
LINE
  5
398
330
1F
100
AcDbEntity
  8
0
  6
Continuous
 62
     7
370
    50
100
AcDbLine
 10
297.7332729168
 20
127.1386103999
 30
0.0
 11
297.7332729168
 21
253.1386103999
 31
0.0
  0
LINE
  5
399
330
1F
100
AcDbEntity
  8
0
  6
Continuous
 62
     7
370
    50
100
AcDbLine
 10
277.7332729168
 20
253.1386103999
 30
0.0
 11
277.7332729168
 21
127.1386103999
 31
0.0
  0
LINE
  5
39A
330
1F
100
AcDbEntity
  8
0
  6
Continuous
 62
     7
370
    50
100
AcDbLine
 10
292.0832729168
 20
196.3386103999
 30
0.0
 11
292.0832729168
 21
214.3386103999
 31
0.0
  0
LINE
  5
39B
330
1F
100
AcDbEntity
  8
0
  6
Continuous
 62
     7
370
    50
100
AcDbLine
 10
283.3832729168
 20
196.3386103999
 30
0.0
 11
283.4332729168
 21
196.3386103999
 31
0.0
  0
LINE
  5
39C
330
1F
100
AcDbEntity
  8
0
  6
Continuous
 62
     7
370
    50
100
AcDbLine
 10
291.4332729168
 20
196.3386103999
 30
0.0
 11
292.0832729168
 21
196.3386103999
 31
0.0
  0
CIRCLE
  5
39D
330
1F
100
AcDbEntity
  8
0
  6
Continuous
 62
     7
370
    50
100
AcDbCircle
 10
287.7332729168
 20
129.4386103999
 30
0.0
 40
4.25
  0
ARC
  5
39E
330
1F
100
AcDbEntity
  8
0
  6
Continuous
 62
     7
370
    50
100
AcDbCircle
 10
287.7332729168
 20
253.1386103999
 30
0.0
 40
10.0
100
AcDbArc
 50
0.0
 51
180.0
  0
LINE
  5
39F
330
1F
100
AcDbEntity
  8
0
  6
Continuous
 62
     7
370
    50
100
AcDbLine
 10
283.3832729168
 20
214.3386103999
 30
0.0
 11
283.3832729168
 21
196.3386103999
 31
0.0
  0
ARC
  5
3A0
330
1F
100
AcDbEntity
  8
0
  6
Continuous
 62
     7
370
    50
100
AcDbCircle
 10
287.7332729168
 20
127.1386103999
 30
0.0
 40
10.0
100
AcDbArc
 50
180.0
 51
0.0
  0
LINE
  5
3A1
330
1F
100
AcDbEntity
  8
0
  6
Continuous
 62
     7
370
    50
100
AcDbLine
 10
292.0832729168
 20
214.3386103999
 30
0.0
 11
283.3832729168
 21
214.3386103999
 31
0.0
  0
CIRCLE
  5
3A2
330
1F
100
AcDbEntity
  8
0
  6
Continuous
 62
     7
370
    50
100
AcDbCircle
 10
287.7332729168
 20
129.4386103999
 30
0.0
 40
2.5
  0
LINE
  5
3A3
330
1F
100
AcDbEntity
  8
0
  6
Continuous
 62
     8
370
    18
100
AcDbLine
 10
283.6332729168
 20
208.4861256035
 30
0.0
 11
283.6332729168
 21
185.4275512381
 31
0.0
  0
ARC
  5
3A4
330
1F
100
AcDbEntity
  8
0
  6
Continuous
 62
     8
370
    18
100
AcDbCircle
 10
283.613630912
 20
208.3050769104
 30
0.0
 40
0.1821110585163238
100
AcDbArc
 50
83.8081877243
 51
172.0435876785
  0
LINE
  5
3A5
330
1F
100
AcDbEntity
  8
0
  6
Continuous
 62
     8
370
    18
100
AcDbLine
 10
291.2332729168
 20
185.4275512381
 30
0.0
 11
291.2332729168
 21
208.4861256035
 31
0.0
  0
ARC
  5
3A6
330
1F
100
AcDbEntity
  8
0
  6
Continuous
 62
     8
370
    18
100
AcDbCircle
 10
291.2529149217
 20
208.3050769104
 30
0.0
 40
0.1821110585164957
100
AcDbArc
 50
7.9564123215
 51
96.1918122757
  0
LINE
  5
3A7
330
1F
100
AcDbEntity
  8
0
  6
Continuous
 62
     8
370
    18
100
AcDbLine
 10
291.2332729168
 20
208.4861256035
 30
0.0
 11
283.6332729168
 21
208.4861256035
 31
0.0
  0
LINE
  5
3A8
330
1F
100
AcDbEntity
  8
0
  6
Continuous
 62
     8
370
    18
100
AcDbLine
 10
283.6332729168
 20
185.4275512381
 30
0.0
 11
283.6332729168
 21
178.2118020527
 31
0.0
  0
ARC
  5
3A9
330
1F
100
AcDbEntity
  8
0
  6
Continuous
 62
     8
370
    18
100
AcDbCircle
 10
283.6169973164
 20
178.3958740359
 30
0.0
 40
0.1847901246638795
100
AcDbArc
 50
186.1564421067
 51
275.0529383346
  0
LINE
  5
3AA
330
1F
100
AcDbEntity
  8
0
  6
Continuous
 62
     8
370
    18
100
AcDbLine
 10
291.2332729168
 20
178.2118020527
 30
0.0
 11
291.2332729168
 21
185.4275512381
 31
0.0
  0
ARC
  5
3AB
330
1F
100
AcDbEntity
  8
0
  6
Continuous
 62
     8
370
    18
100
AcDbCircle
 10
291.2495485173
 20
178.3958740359
 30
0.0
 40
0.1847901246640957
100
AcDbArc
 50
264.9470616654
 51
353.8435578933
  0
LINE
  5
3AC
330
1F
100
AcDbEntity
  8
0
  6
Continuous
 62
     8
370
    18
100
AcDbLine
 10
291.2332729168
 20
178.2118020527
 30
0.0
 11
283.6332729168
 21
178.2118020527
 31
0.0
  0
LINE
  5
3AD
330
1F
100
AcDbEntity
  8
0
  6
Continuous
 62
     8
370
    18
100
AcDbLine
 10
283.6332729168
 20
178.2118020527
 30
0.0
 11
283.6332729168
 21
178.1224381417
 31
0.0
  0
LINE
  5
3AE
330
1F
100
AcDbEntity
  8
0
  6
Continuous
 62
     8
370
    18
100
AcDbLine
 10
291.2332729168
 20
178.1224381417
 30
0.0
 11
291.2332729168
 21
178.2118020527
 31
0.0
  0
LINE
  5
3AF
330
1F
100
AcDbEntity
  8
0
  6
Continuous
 62
     8
370
    18
100
AcDbLine
 10
283.6332729168
 20
210.2521348793
 30
0.0
 11
283.6332729168
 21
208.4861256035
 31
0.0
  0
LINE
  5
3B0
330
1F
100
AcDbEntity
  8
0
  6
Continuous
 62
     8
370
    18
100
AcDbLine
 10
286.3332729168
 20
210.2521348793
 30
0.0
 11
283.6332729168
 21
210.2521348793
 31
0.0
  0
LINE
  5
3B1
330
1F
100
AcDbEntity
  8
0
  6
Continuous
 62
     8
370
    18
100
AcDbLine
 10
286.3332729168
 20
210.4732836566
 30
0.0
 11
286.3332729168
 21
210.2521348793
 31
0.0
  0
LINE
  5
3B2
330
1F
100
AcDbEntity
  8
0
  6
Continuous
 62
     8
370
    18
100
AcDbLine
 10
291.2332729168
 20
208.4861256035
 30
0.0
 11
291.2332729168
 21
210.4732836566
 31
0.0
  0
ARC
  5
3B3
330
1F
100
AcDbEntity
  8
0
  6
Continuous
 62
     8
370
    18
100
AcDbCircle
 10
283.6308458976
 20
210.0545611381
 30
0.0
 40
0.1975886475720293
100
AcDbArc
 50
89.2962072498
 51
179.2784770219
  0
LINE
  5
3B4
330
1F
100
AcDbEntity
  8
0
  6
Continuous
 62
     8
370
    18
100
AcDbLine
 10
283.6332729168
 20
210.2521348793
 30
0.0
 11
283.6332729168
 21
210.2570492966
 31
0.0
  0
SPLINE
  5
3B5
330
1F
100
AcDbEntity
  8
0
  6
Continuous
 62
     8
370
    18
100
AcDbSpline
210
0.0
220
0.0
230
1.0
 70
     8
 71
     3
 72
     9
 73
     5
 74
     0
 42
0.000000001
 43
0.00000001
 40
0.0
 40
0.0
 40
0.0
 40
0.0
 40
0.0420918616972334
 40
0.9999999999999999
 40
0.9999999999999999
 40
0.9999999999999999
 40
0.9999999999999999
 10
286.3332729168437
 20
210.2521348793385
 30
0.0
 10
286.3320694193669
 20
210.2522697543875
 30
0.0
 10
286.3034772538423
 20
210.2554740566832
 30
0.0
 10
286.2750027531113
 20
210.2551293440497
 30
0.0
 10
286.247726797127
 20
210.2547991410127
 30
0.0
  0
SPLINE
  5
3B6
330
1F
100
AcDbEntity
  8
0
  6
Continuous
 62
     8
370
    18
100
AcDbSpline
210
0.0
220
0.0
230
1.0
 70
     8
 71
     3
 72
    10
 73
     6
 74
     0
 42
0.000000001
 43
0.00000001
 40
0.0
 40
0.0
 40
0.0
 40
0.0
 40
0.5186655132012592
 40
0.9862504172723182
 40
1.0
 40
1.0
 40
1.0
 40
1.0
 10
286.2042498974578
 20
210.2593376274142
 30
0.0
 10
286.2260154442066
 20
210.2647794379446
 30
0.0
 10
286.2674029647122
 20
210.2751271240154
 30
0.0
 10
286.3115628777251
 20
210.2616265862752
 30
0.0
 10
286.3326699809036
 20
210.2523984850931
 30
0.0
 10
286.3332729168437
 20
210.2521348793385
 30
0.0
  0
DIMENSION
  5
3B7
330
1F
100
AcDbEntity
  8
0
  6
Continuous
 62
     7
370
    18
100
AcDbDimension
  2
_D_22
 10
259.7332729168
 20
117.1386103999
 30
0.0
 11
259.7332729168
 21
190.1386103999
 31
0.0
 70
   160
  1
<>
 71
     2
 42
-1.0
  3
SLDDIMSTYLE1
100
AcDbAlignedDimension
 13
287.7332729168
 23
263.1386103999
 33
0.0
 14
287.7332729168
 24
117.1386103999
 34
0.0
 50
90.0
100
AcDbRotatedDimension
  0
DIMENSION
  5
3C1
330
1F
100
AcDbEntity
  8
0
  6
Continuous
 62
     7
370
    18
100
AcDbDimension
  2
_D_23
 10
307.7332729168
 20
263.1386103999
 30
0.0
 11
307.7332729168
 21
256.9886103999
 31
0.0
 70
   160
  1
<>
 71
     2
 42
-1.0
  3
SLDDIMSTYLE6
100
AcDbAlignedDimension
 13
287.7332729168
 23
250.8386103999
 33
0.0
 14
287.7332729168
 24
263.1386103999
 34
0.0
 50
90.0
100
AcDbRotatedDimension
  0
DIMENSION
  5
3CC
330
1F
100
AcDbEntity
  8
0
  6
Continuous
 62
     7
370
    18
100
AcDbDimension
  2
_D_24
 10
307.7332729168
 20
129.4386103999
 30
0.0
 11
307.7332729168
 21
190.1386103999
 31
0.0
 70
   160
  1
<>
 71
     2
 42
-1.0
  3
SLDDIMSTYLE0
100
AcDbAlignedDimension
 13
287.7332729168
 23
250.8386103999
 33
0.0
 14
287.7332729168
 24
129.4386103999
 34
0.0
 50
90.0
100
AcDbRotatedDimension
  0
DIMENSION
  5
3D6
330
1F
100
AcDbEntity
  8
0
  6
Continuous
 62
     7
370
    18
100
AcDbDimension
  2
_D_25
 10
307.7332729168
 20
129.4386103999
 30
0.0
 11
307.7332729168
 21
123.2886103999
 31
0.0
 70
   160
  1
<>
 71
     2
 42
-1.0
  3
SLDDIMSTYLE6
100
AcDbAlignedDimension
 13
287.7332729168
 23
117.1386103999
 33
0.0
 14
287.7332729168
 24
129.4386103999
 34
0.0
 50
90.0
100
AcDbRotatedDimension
  0
DIMENSION
  5
3E0
330
1F
100
AcDbEntity
  8
0
  6
Continuous
 62
     7
370
    18
100
AcDbDimension
  2
_D_26
 10
297.7332729168
 20
107.1386103999
 30
0.0
 11
287.7332729168
 21
107.1386103999
 31
0.0
 70
   160
  1
<>
 71
     2
 42
-1.0
  3
SLDDIMSTYLE1
100
AcDbAlignedDimension
 13
277.7332729168
 23
127.1386103999
 33
0.0
 14
297.7332729168
 24
127.1386103999
 34
0.0
100
AcDbRotatedDimension
  0
ENDSEC
  0
SECTION
  2
OBJECTS
  0
DICTIONARY
  5
C
330
0
100
AcDbDictionary
281
     1
  3
ACAD_GROUP
350
D
  3
ACAD_LAYOUT
350
1A
  3
ACAD_MLINESTYLE
350
17
  3
ACAD_PLOTSETTINGS
350
19
  3
ACAD_PLOTSTYLENAME
350
E
  3
ACAD_SCALELIST
350
47
  0
DICTIONARY
  5
D
102
{ACAD_REACTORS
330
C
102
}
330
C
100
AcDbDictionary
281
     1
  0
DICTIONARY
  5
1A
102
{ACAD_REACTORS
330
C
102
}
330
C
100
AcDbDictionary
281
     1
  3
Layout1
350
1E
  3
Layout2
350
26
  3
Model
350
22
  0
DICTIONARY
  5
17
102
{ACAD_REACTORS
330
C
102
}
330
C
100
AcDbDictionary
281
     1
  3
Standard
350
18
  0
DICTIONARY
  5
19
102
{ACAD_REACTORS
330
C
102
}
330
C
100
AcDbDictionary
281
     1
  0
ACDBDICTIONARYWDFLT
  5
E
102
{ACAD_REACTORS
330
C
102
}
330
C
100
AcDbDictionary
281
     1
  3
Normal
350
F
100
AcDbDictionaryWithDefault
340
F
  0
DICTIONARY
  5
47
102
{ACAD_REACTORS
330
C
102
}
330
C
100
AcDbDictionary
281
     1
  3
A0
350
48
  3
A1
350
49
  3
A2
350
4A
  3
A3
350
4B
  3
A4
350
4C
  3
A5
350
4D
  3
A6
350
4E
  3
A7
350
4F
  3
A8
350
50
  3
A9
350
51
  3
B0
350
52
  3
B1
350
53
  3
B2
350
54
  3
B3
350
55
  3
B4
350
56
  3
B5
350
57
  3
B6
350
58
  3
B7
350
59
  3
B8
350
5A
  3
B9
350
5B
  3
C0
350
5C
  3
C1
350
5D
  3
C2
350
5E
  3
C3
350
5F
  3
C4
350
60
  3
C5
350
61
  3
C6
350
62
  3
C7
350
63
  3
C8
350
64
  3
C9
350
65
  3
D0
350
66
  3
D1
350
67
  3
D2
350
68
  0
LAYOUT
  5
1E
102
{ACAD_REACTORS
330
1A
102
}
330
1A
100
AcDbPlotSettings
  1

  2
none_device
  4

  6

 40
0.0
 41
0.0
 42
0.0
 43
0.0
 44
0.0
 45
0.0
 46
0.0
 47
0.0
 48
0.0
 49
0.0
140
0.0
141
0.0
142
1.0
143
1.0
 70
   688
 72
     1
 73
     0
 74
     5
  7

 75
    16
147
1.0
148
0.0
149
0.0
100
AcDbLayout
  1
Layout1
 70
     1
 71
     1
 10
0.0
 20
0.0
 11
420.0
 21
297.0
 12
0.0
 22
0.0
 32
0.0
 14
1.0000000000E+20
 24
1.0000000000E+20
 34
1.0000000000E+20
 15
-1.0000000000E+20
 25
-1.0000000000E+20
 35
-1.0000000000E+20
146
0.0
 13
0.0
 23
0.0
 33
0.0
 16
1.0
 26
0.0
 36
0.0
 17
0.0
 27
1.0
 37
0.0
 76
     0
330
1B
  0
LAYOUT
  5
26
102
{ACAD_REACTORS
330
1A
102
}
330
1A
100
AcDbPlotSettings
  1

  2
none_device
  4

  6

 40
0.0
 41
0.0
 42
0.0
 43
0.0
 44
0.0
 45
0.0
 46
0.0
 47
0.0
 48
0.0
 49
0.0
140
0.0
141
0.0
142
1.0
143
1.0
 70
   688
 72
     1
 73
     0
 74
     5
  7

 75
    16
147
1.0
148
0.0
149
0.0
100
AcDbLayout
  1
Layout2
 70
     1
 71
     2
 10
0.0
 20
0.0
 11
0.0
 21
0.0
 12
0.0
 22
0.0
 32
0.0
 14
0.0
 24
0.0
 34
0.0
 15
0.0
 25
0.0
 35
0.0
146
0.0
 13
0.0
 23
0.0
 33
0.0
 16
1.0
 26
0.0
 36
0.0
 17
0.0
 27
1.0
 37
0.0
 76
     0
330
23
  0
LAYOUT
  5
22
102
{ACAD_REACTORS
330
1A
102
}
330
1A
100
AcDbPlotSettings
  1

  2
none_device
  4
Letter_(8.50_x_11.00_Inches)
  6

 40
6.35
 41
6.35
 42
6.35000508
 43
6.35000508
 44
215.9
 45
279.4
 46
0.0
 47
0.0
 48
0.0
 49
0.0
140
0.0
141
0.0
142
1.0
143
1.0
 70
  1712
 72
     1
 73
     0
 74
     0
  7

 75
     0
147
1.0
148
0.0
149
0.0
100
AcDbLayout
  1
Model
 70
     1
 71
     0
 10
0.0
 20
0.0
 11
420.0
 21
297.0
 12
0.0
 22
0.0
 32
0.0
 14
0.0
 24
0.0
 34
0.0
 15
420.0
 25
297.0
 35
0.0
146
0.0
 13
0.0
 23
0.0
 33
0.0
 16
1.0
 26
0.0
 36
0.0
 17
0.0
 27
1.0
 37
0.0
 76
     0
330
1F
331
29
  0
MLINESTYLE
  5
18
102
{ACAD_REACTORS
330
17
102
}
330
17
100
AcDbMlineStyle
  2
Standard
 70
     0
  3

 62
   256
 51
90.0
 52
90.0
 71
     2
 49
0.5
 62
   256
  6
BYLAYER
 49
-0.5
 62
   256
  6
BYLAYER
  0
ACDBPLACEHOLDER
  5
F
102
{ACAD_REACTORS
330
E
102
}
330
E
  0
SCALE
  5
48
102
{ACAD_REACTORS
330
47
102
}
330
47
100
AcDbScale
 70
     0
300
1:1
140
1.0
141
1.0
290
     1
  0
SCALE
  5
49
102
{ACAD_REACTORS
330
47
102
}
330
47
100
AcDbScale
 70
     0
300
1:2
140
1.0
141
2.0
290
     0
  0
SCALE
  5
4A
102
{ACAD_REACTORS
330
47
102
}
330
47
100
AcDbScale
 70
     0
300
1:4
140
1.0
141
4.0
290
     0
  0
SCALE
  5
4B
102
{ACAD_REACTORS
330
47
102
}
330
47
100
AcDbScale
 70
     0
300
1:5
140
1.0
141
5.0
290
     0
  0
SCALE
  5
4C
102
{ACAD_REACTORS
330
47
102
}
330
47
100
AcDbScale
 70
     0
300
1:8
140
1.0
141
8.0
290
     0
  0
SCALE
  5
4D
102
{ACAD_REACTORS
330
47
102
}
330
47
100
AcDbScale
 70
     0
300
1:10
140
1.0
141
10.0
290
     0
  0
SCALE
  5
4E
102
{ACAD_REACTORS
330
47
102
}
330
47
100
AcDbScale
 70
     0
300
1:16
140
1.0
141
16.0
290
     0
  0
SCALE
  5
4F
102
{ACAD_REACTORS
330
47
102
}
330
47
100
AcDbScale
 70
     0
300
1:20
140
1.0
141
20.0
290
     0
  0
SCALE
  5
50
102
{ACAD_REACTORS
330
47
102
}
330
47
100
AcDbScale
 70
     0
300
1:30
140
1.0
141
30.0
290
     0
  0
SCALE
  5
51
102
{ACAD_REACTORS
330
47
102
}
330
47
100
AcDbScale
 70
     0
300
1:40
140
1.0
141
40.0
290
     0
  0
SCALE
  5
52
102
{ACAD_REACTORS
330
47
102
}
330
47
100
AcDbScale
 70
     0
300
1:50
140
1.0
141
50.0
290
     0
  0
SCALE
  5
53
102
{ACAD_REACTORS
330
47
102
}
330
47
100
AcDbScale
 70
     0
300
1:100
140
1.0
141
100.0
290
     0
  0
SCALE
  5
54
102
{ACAD_REACTORS
330
47
102
}
330
47
100
AcDbScale
 70
     0
300
2:1
140
2.0
141
1.0
290
     0
  0
SCALE
  5
55
102
{ACAD_REACTORS
330
47
102
}
330
47
100
AcDbScale
 70
     0
300
4:1
140
4.0
141
1.0
290
     0
  0
SCALE
  5
56
102
{ACAD_REACTORS
330
47
102
}
330
47
100
AcDbScale
 70
     0
300
8:1
140
8.0
141
1.0
290
     0
  0
SCALE
  5
57
102
{ACAD_REACTORS
330
47
102
}
330
47
100
AcDbScale
 70
     0
300
10:1
140
10.0
141
1.0
290
     0
  0
SCALE
  5
58
102
{ACAD_REACTORS
330
47
102
}
330
47
100
AcDbScale
 70
     0
300
100:1
140
100.0
141
1.0
290
     0
  0
SCALE
  5
59
102
{ACAD_REACTORS
330
47
102
}
330
47
100
AcDbScale
 70
     0
300
1/128" = 1'-0"
140
0.0078125
141
12.0
290
     0
  0
SCALE
  5
5A
102
{ACAD_REACTORS
330
47
102
}
330
47
100
AcDbScale
 70
     0
300
1/64" = 1'-0"
140
0.015625
141
12.0
290
     0
  0
SCALE
  5
5B
102
{ACAD_REACTORS
330
47
102
}
330
47
100
AcDbScale
 70
     0
300
1/32" = 1'-0"
140
0.03125
141
12.0
290
     0
  0
SCALE
  5
5C
102
{ACAD_REACTORS
330
47
102
}
330
47
100
AcDbScale
 70
     0
300
1/16" = 1'-0"
140
0.0625
141
12.0
290
     0
  0
SCALE
  5
5D
102
{ACAD_REACTORS
330
47
102
}
330
47
100
AcDbScale
 70
     0
300
3/32" = 1'-0"
140
0.09375
141
12.0
290
     0
  0
SCALE
  5
5E
102
{ACAD_REACTORS
330
47
102
}
330
47
100
AcDbScale
 70
     0
300
1/8" = 1'-0"
140
0.125
141
12.0
290
     0
  0
SCALE
  5
5F
102
{ACAD_REACTORS
330
47
102
}
330
47
100
AcDbScale
 70
     0
300
3/16" = 1'-0"
140
0.1875
141
12.0
290
     0
  0
SCALE
  5
60
102
{ACAD_REACTORS
330
47
102
}
330
47
100
AcDbScale
 70
     0
300
1/4" = 1'-0"
140
0.25
141
12.0
290
     0
  0
SCALE
  5
61
102
{ACAD_REACTORS
330
47
102
}
330
47
100
AcDbScale
 70
     0
300
3/8" = 1'-0"
140
0.375
141
12.0
290
     0
  0
SCALE
  5
62
102
{ACAD_REACTORS
330
47
102
}
330
47
100
AcDbScale
 70
     0
300
1/2" = 1'-0"
140
0.5
141
12.0
290
     0
  0
SCALE
  5
63
102
{ACAD_REACTORS
330
47
102
}
330
47
100
AcDbScale
 70
     0
300
3/4" = 1'-0"
140
0.75
141
12.0
290
     0
  0
SCALE
  5
64
102
{ACAD_REACTORS
330
47
102
}
330
47
100
AcDbScale
 70
     0
300
1" = 1'-0"
140
1.0
141
12.0
290
     0
  0
SCALE
  5
65
102
{ACAD_REACTORS
330
47
102
}
330
47
100
AcDbScale
 70
     0
300
1-1/2" = 1'-0"
140
1.5
141
12.0
290
     0
  0
SCALE
  5
66
102
{ACAD_REACTORS
330
47
102
}
330
47
100
AcDbScale
 70
     0
300
3" = 1'-0"
140
3.0
141
12.0
290
     0
  0
SCALE
  5
67
102
{ACAD_REACTORS
330
47
102
}
330
47
100
AcDbScale
 70
     0
300
6" = 1'-0"
140
6.0
141
12.0
290
     0
  0
SCALE
  5
68
102
{ACAD_REACTORS
330
47
102
}
330
47
100
AcDbScale
 70
     0
300
1'-0" = 1'-0"
140
12.0
141
12.0
290
     0
  0
ENDSEC
  0
EOF
