  0
SECTION
  2
HEADER
  9
$ACADVER
  1
AC1009
  9
$INSBASE
 10
0
 20
0
  9
$EXTMIN
 10
-17.04999999999883
 20
-165.0848743889968
  9
$EXTMAX
 10
252.55
 20
237
  9
$LIMMIN
 10
-17.04999999999883
 20
-165.0848743889968
  9
$LIMMAX
 10
252.55
 20
237
  9
$VIEWCTR
 10
10
 20
10
  9
$VIEWSIZE
 40
10
  9
$SNAPMODE
 70
0
  9
$SNAPUNIT
 10
1
 20
1
  9
$SNAPBASE
 10
0
 20
0
  9
$SNAPANG
 50
0
  9
$SNAPSTYLE
 70
0
  9
$SNAPISOPAIR
 70
0
  9
$GRIDMODE
 70
0
  9
$GRIDUNIT
 10
0
 20
0
  9
$ORTHOMODE
 70
0
  9
$REGENMODE
 70
1
  9
$FILLMODE
 70
1
  9
$QTEXTMODE
 70
0
  9
$DRAGMODE
 70
2
  9
$LTSCALE
 40
1
  9
$OSMODE
 70
0
  9
$ATTMODE
 70
1
  9
$TEXTSIZE
 40
3.5
  9
$TRACEWID
 40
0.5
  9
$TEXTSTYLE
  7
STANDARD
  9
$CLAYER
  8
0
  9
$CELTYPE
  6
BYLAYER
  9
$CECOLOR
 62
256
  9
$DIMSCALE
 40
1
  9
$DIMASZ
 40
0.18
  9
$DIMEXO
 40
0.0625
  9
$DIMDLI
 40
0.38
  9
$DIMRND
 40
0
  9
$DIMDLE
 40
0
  9
$DIMEXE
 40
0.18
  9
$DIMTP
 40
0
  9
$DIMTM
 40
0
  9
$DIMTXT
 40
0.18
  9
$DIMCEN
 40
0.09
  9
$DIMTSZ
 40
0
  9
$DIMTOL
 70
0
  9
$DIMLIM
 70
0
  9
$DIMTIH
 70
1
  9
$DIMTOH
 70
1
  9
$DIMSE1
 70
0
  9
$DIMSE2
 70
0
  9
$DIMTAD
 70
0
  9
$DIMZIN
 70
0
  9
$DIMBLK
  1

  9
$DIMASO
 70
1
  9
$DIMSHO
 70
1
  9
$DIMPOST
  1

  9
$DIMAPOST
  1

  9
$DIMALT
 70
0
  9
$DIMALTD
 70
2
  9
$DIMALTF
 40
25.4
  9
$DIMLFAC
 40
1
  9
$DIMTOFL
 70
0
  9
$DIMTVP
 40
0
  9
$DIMTIX
 70
0
  9
$DIMSOXD
 70
0
  9
$DIMSAH
 70
0
  9
$DIMBLK1
  1

  9
$DIMBLK2
  1

  9
$DIMSTYLE
  2
*UNNAMED
  9
$DIMCLRD
 70
0
  9
$DIMCLRE
 70
0
  9
$DIMCLRT
 70
0
  9
$DIMTFAC
 40
1
  9
$DIMGAP
 40
0.09
  9
$LUNITS
 70
2
  9
$LUPREC
 70
4
  9
$AXISMODE
 70
0
  9
$AXISUNIT
 10
0
 20
0
  9
$SKETCHINC
 40
0.1
  9
$FILLETRAD
 40
2
  9
$AUNITS
 70
0
  9
$AUPREC
 70
0
  9
$MENU
  1
ACAD
  9
$ELEVATION
 40
0
  9
$THICKNESS
 40
0
  9
$VIEWDIR
 10
0
 20
0
 30
1
  9
$LIMCHECK
 70
0
  9
$BLIPMODE
 70
1
  9
$CHAMFERA
 40
0
  9
$CHAMFERB
 40
0
  9
$FASTZOOM
 70
1
  9
$SKPOLY
 70
0
  9
$ANGBASE
 50
0
  9
$ANGDIR
 70
0
  9
$PDMODE
 70
0
  9
$PDSIZE
 40
0
  9
$PLINEWID
 40
0
  9
$COORDS
 70
2
  0
ENDSEC
  0
SECTION
  2
TABLES
  0
TABLE
  2
DIMSTYLE
 70
3
  0
DIMSTYLE
  2
DMST_1
 70
0
  3

  4

  5

  6

  7

 40
1
 41
5
 42
0
 43
7
 44
1
 45
0
 46
0
 47
0
 48
0
140
5
141
0
142
0
143
25.4
144
1
145
0
146
1
147
0.09
 71
0
 72
0
 73
0
 74
0
 75
0
 76
0
 77
1
 78
9
170
0
171
2
172
0
173
0
174
0
175
0
176
1
177
1
178
7
  0
DIMSTYLE
  2
DMST_2
 70
0
  3

  4

  5

  6

  7

 40
1
 41
5
 42
0
 43
7
 44
2
 45
0
 46
0
 47
0
 48
0
140
5
141
0
142
0
143
25.4
144
1
145
0
146
1
147
0.09
 71
0
 72
0
 73
0
 74
0
 75
0
 76
0
 77
1
 78
9
170
0
171
2
172
0
173
0
174
0
175
0
176
1
177
1
178
7
  0
DIMSTYLE
  2
DMST_3
 70
0
  3

  4

  5

  6

  7

 40
1
 41
5
 42
0
 43
7
 44
1
 45
0
 46
0
 47
0
 48
0
140
5
141
0
142
0
143
25.4
144
1
145
0
146
1
147
0.09
 71
0
 72
0
 73
0
 74
0
 75
0
 76
0
 77
1
 78
9
170
0
171
2
172
0
173
0
174
1
175
0
176
1
177
1
178
7
  0
ENDTAB
  0
TABLE
  2
LTYPE
 70
9
  0
LTYPE
  2
CONTINUOUS
 70
64
  3
Solid line
 72
65
 73
0
 40
0
  0
LTYPE
  2
BORDER
 70
64
  3
__ __ . __ __ .
 72
65
 73
6
 40
18.5170665837038
 49
5.2905904524868
 49
-2.6452952262434
 49
5.2905904524868
 49
-2.6452952262434
 49
0
 49
-2.6452952262434
  0
LTYPE
  2
CENTER
 70
64
  3
____ _ ____ _
 72
65
 73
4
 40
21.1623618099472
 49
13.226476131217
 49
-2.6452952262434
 49
2.6452952262434
 49
-2.6452952262434
  0
LTYPE
  2
DASHDOT
 70
64
  3
__ . __ . __ .
 72
65
 73
4
 40
10.5811809049736
 49
5.2905904524868
 49
-2.6452952262434
 49
0
 49
-2.6452952262434
  0
LTYPE
  2
DASHED
 70
64
  3
__ __ __ __ __
 72
65
 73
2
 40
7.9358856787302
 49
5.2905904524868
 49
-2.6452952262434
  0
LTYPE
  2
DIVIDE
 70
64
  3
__ . . __ . . 
 72
65
 73
6
 40
13.226476131217
 49
5.2905904524868
 49
-2.6452952262434
 49
0
 49
-2.6452952262434
 49
0
 49
-2.6452952262434
  0
LTYPE
  2
DOT
 70
64
  3
..............
 72
65
 73
4
 40
5.2905904524868
 49
0
 49
-2.6452952262434
 49
0
 49
-2.6452952262434
  0
LTYPE
  2
HIDDEN
 70
64
  3
_ _ _ _ _ _ _
 72
65
 73
2
 40
3.9679428393651
 49
2.6452952262434
 49
-1.3226476131217
  0
LTYPE
  2
PHANTOM
 70
64
  3
_____ _ _ _____ _ _ 
 72
65
 73
6
 40
26.452952262434
 49
13.226476131217
 49
-2.6452952262434
 49
2.6452952262434
 49
-2.6452952262434
 49
2.6452952262434
 49
-2.6452952262434
  0
ENDTAB
  0
TABLE
  2
LAYER
 70
3
  0
LAYER
  2
1
 70
0
 62
7
  6
CONTINUOUS
  0
LAYER
  2
0
 70
0
 62
7
  6
CONTINUOUS
  0
ENDTAB
  0
TABLE
  2
STYLE
 70
4
  0
STYLE
  2
STANDARD
 70
0
 40
0
 41
1
 50
0
 71
0
 42
3.5
  3
txt
  4

  0
STYLE
  2
SIMPLEX
 70
0
 40
0
 41
1
 50
0
 71
0
 42
3.5
  3
simplex
  4

  0
STYLE
  2
COMPLEX
 70
0
 40
0
 41
1
 50
0
 71
0
 42
3.5
  3
complex
  4

  0
STYLE
  2
ITALIC
 70
0
 40
0
 41
1
 50
0
 71
0
 42
3.5
  3
italic
  4

  0
ENDTAB
  0
TABLE
  2
VIEW
 70
0
  0
ENDTAB
  0
ENDSEC
  0
SECTION
  2
BLOCKS
  0
BLOCK
  8
0
  2
HAHNAUSSCHNITT
 70
0
 10
306.230737887474
 20
-18.0624010655167
 30
0
  0
LINE
  8
1
 62
2
  6
DASHDOT
 10
99.21908674880473
 20
14
 30
0
 11
111.3114059039486
 21
14
 31
0
  0
LINE
  8
1
 62
2
  6
DASHDOT
 10
95.19999999999999
 20
22.36
 30
0
 11
95.19999999999999
 21
16.64
 31
0
  0
LINE
  8
1
 62
2
  6
DASHDOT
 10
98.06
 20
19.5
 30
0
 11
92.33999999999997
 21
19.5
 31
0
  0
LINE
  8
1
 62
2
  6
DASHDOT
 10
115.2
 20
22.36
 30
0
 11
115.2
 21
16.64
 31
0
  0
LINE
  8
1
 62
2
  6
DASHDOT
 10
118.06
 20
19.5
 30
0
 11
112.34
 21
19.5
 31
0
  0
LINE
  8
1
 62
2
  6
DASHED
 10
110.3
 20
14
 30
0
 11
110.3
 21
27.07540614909437
 31
0
  0
LINE
  8
1
 62
2
  6
DASHED
 10
100.1
 20
14
 30
0
 11
100.1
 21
27.07540614909437
 31
0
  0
ARC
  8
1
 62
2
  6
DASHED
 10
105.2
 20
34
 30
0
 40
8.6
 50
306.3718424099343
 51
233.6281575900656
  0
ARC
  8
1
 62
2
  6
DASHED
 10
105.2
 20
14
 30
0
 40
5.100000000000009
 50
180
 51
0
  0
CIRCLE
  8
1
 62
2
  6
DASHED
 10
95.19999999999999
 20
19.5
 30
0
 40
2.600000000000023
  0
CIRCLE
  8
1
 62
2
  6
DASHED
 10
115.2
 20
19.5
 30
0
 40
2.599999999999994
  0
ENDBLK
  8
0
  0
BLOCK
  8
1
  2
*D0
 70
1
 10
0
 20
0
 30
0
  0
LINE
  8
1
 62
1
 10
251.05
 20
-53
 30
0
 11
251.05
 21
227
 31
0
  0
LINE
  8
1
 62
1
 10
233.3
 20
227
 30
0
 11
252.55
 21
227
 31
0
  0
LINE
  8
1
 62
1
 10
233.3
 20
-53
 30
0
 11
252.55
 21
-53
 31
0
  0
SOLID
  8
1
 62
1
 10
251.05
 20
-53
 30
0
 11
250.4
 21
-48
 31
0
 12
251.7
 22
-48
 32
0
 13
251.7
 23
-48
 33
0
  0
SOLID
  8
1
 62
1
 10
251.05
 20
227
 30
0
 11
251.7
 21
222
 31
0
 12
250.4
 22
222
 32
0
 13
250.4
 23
222
 33
0
  0
TEXT
  8
1
 62
7
 10
250.05
 20
81
 30
0
 40
5
  1
280
 50
90
 41
0.9
  0
ENDBLK
  8
0
  0
BLOCK
  8
1
  2
*D1
 70
1
 10
0
 20
0
 30
0
  0
LINE
  8
1
 62
1
 10
168.05
 20
0
 30
0
 11
168.05
 21
170
 31
0
  0
LINE
  8
1
 62
1
 10
113.3
 20
170
 30
0
 11
169.55
 21
170
 31
0
  0
LINE
  8
1
 62
1
 10
113.3
 20
0
 30
0
 11
169.55
 21
0
 31
0
  0
SOLID
  8
1
 62
1
 10
168.05
 20
0
 30
0
 11
167.4
 21
5
 31
0
 12
168.7
 22
5
 32
0
 13
168.7
 23
5
 33
0
  0
SOLID
  8
1
 62
1
 10
168.05
 20
170
 30
0
 11
168.7
 21
165
 31
0
 12
167.4
 22
165
 32
0
 13
167.4
 23
165
 33
0
  0
TEXT
  8
1
 62
7
 10
167.05
 20
79.75
 30
0
 40
5
  1
170
 50
90
 41
0.9
  0
ENDBLK
  8
0
  0
BLOCK
  8
1
  2
*D2
 70
1
 10
0
 20
0
 30
0
  0
LINE
  8
1
 62
1
 10
153.225
 20
-125.25
 30
0
 11
153.225
 21
-110.75
 31
0
  0
LINE
  8
1
 62
1
 10
135.3
 20
-110.75
 30
0
 11
154.725
 21
-110.75
 31
0
  0
LINE
  8
1
 62
1
 10
135.3
 20
-125.25
 30
0
 11
154.725
 21
-125.25
 31
0
  0
SOLID
  8
1
 62
1
 10
153.225
 20
-125.25
 30
0
 11
152.575
 21
-120.25
 31
0
 12
153.875
 22
-120.25
 32
0
 13
153.875
 23
-120.25
 33
0
  0
SOLID
  8
1
 62
1
 10
153.225
 20
-110.75
 30
0
 11
153.875
 21
-115.75
 31
0
 12
152.575
 22
-115.75
 32
0
 13
152.575
 23
-115.75
 33
0
  0
TEXT
  8
1
 62
7
 10
151.725
 20
-124.125
 30
0
 40
5
  1
14,5
 50
90
 41
0.9
  0
ENDBLK
  8
0
  0
BLOCK
  8
1
  2
*D3
 70
1
 10
0
 20
0
 30
0
  0
LINE
  8
1
 62
1
 10
224.3
 20
91.075
 30
0
 11
234.3
 21
91.075
 31
0
  0
LINE
  8
1
 62
1
 10
214.3
 20
91.075
 30
0
 11
204.3
 21
91.075
 31
0
  0
LINE
  8
1
 62
1
 10
214.3
 20
91.075
 30
0
 11
224.3
 21
91.075
 31
0
  0
LINE
  8
1
 62
1
 10
224.3
 20
109
 30
0
 11
224.3
 21
89.575
 31
0
  0
LINE
  8
1
 62
1
 10
214.3
 20
109
 30
0
 11
214.3
 21
89.575
 31
0
  0
SOLID
  8
1
 62
1
 10
214.3
 20
91.075
 30
0
 11
209.3
 21
90.425
 31
0
 12
209.3
 22
91.72500000000001
 32
0
 13
209.3
 23
91.72500000000001
 33
0
  0
SOLID
  8
1
 62
1
 10
224.3
 20
91.075
 30
0
 11
229.3
 21
91.72500000000001
 31
0
 12
229.3
 22
90.425
 32
0
 13
229.3
 23
90.425
 33
0
  0
TEXT
  8
1
 62
7
 10
216.3
 20
92.075
 30
0
 40
5
  1
10
 41
0.9
  0
ENDBLK
  8
0
  0
BLOCK
  8
1
  2
*D4
 70
1
 10
0
 20
0
 30
0
  0
LINE
  8
1
 62
1
 10
205.3
 20
-85.75
 30
0
 11
233.3
 21
-85.75
 31
0
  0
LINE
  8
1
 62
1
 10
233.3
 20
-53.00000000000001
 30
0
 11
233.3
 21
-87.25
 31
0
  0
LINE
  8
1
 62
1
 10
205.3
 20
-53.00000000000001
 30
0
 11
205.3
 21
-87.25
 31
0
  0
SOLID
  8
1
 62
1
 10
233.3
 20
-85.75
 30
0
 11
228.3
 21
-86.40000000000001
 31
0
 12
228.3
 22
-85.09999999999999
 32
0
 13
228.3
 23
-85.09999999999999
 33
0
  0
SOLID
  8
1
 62
1
 10
205.3
 20
-85.75
 30
0
 11
210.3
 21
-85.09999999999999
 31
0
 12
210.3
 22
-86.40000000000001
 32
0
 13
210.3
 23
-86.40000000000001
 33
0
  0
TEXT
  8
1
 62
7
 10
215.55
 20
-84.75
 30
0
 40
5
  1
28
 41
0.9
  0
ENDBLK
  8
0
  0
BLOCK
  8
1
  2
*D5
 70
1
 10
0
 20
0
 30
0
  0
LINE
  8
1
 62
1
 10
4.199999999999989
 20
76.25
 30
0
 11
35.19999999999999
 21
76.25
 31
0
  0
LINE
  8
1
 62
1
 10
35.19999999999999
 20
98.69999999999997
 30
0
 11
35.19999999999999
 21
74.75
 31
0
  0
LINE
  8
1
 62
1
 10
4.199999999999989
 20
124.6975095190445
 30
0
 11
4.199999999999989
 21
74.75
 31
0
  0
SOLID
  8
1
 62
1
 10
4.199999999999989
 20
76.25
 30
0
 11
9.199999999999989
 21
76.90000000000001
 31
0
 12
9.199999999999989
 22
75.59999999999999
 32
0
 13
9.199999999999989
 23
75.59999999999999
 33
0
  0
SOLID
  8
1
 62
1
 10
35.19999999999999
 20
76.25
 30
0
 11
30.19999999999999
 21
75.59999999999999
 31
0
 12
30.19999999999999
 22
76.90000000000001
 32
0
 13
30.19999999999999
 23
76.90000000000001
 33
0
  0
TEXT
  8
1
 62
7
 10
16.69999999999999
 20
77.25
 30
0
 40
5
  1
31
 41
0.9
  0
ENDBLK
  8
0
  0
BLOCK
  8
1
  2
*D6
 70
1
 10
0
 20
0
 30
0
  0
LINE
  8
1
 62
1
 10
35.19999999999999
 20
91.25
 30
0
 11
45.19999999999999
 21
91.25
 31
0
  0
LINE
  8
1
 62
1
 10
27.19999999999999
 20
91.25
 30
0
 11
17.19999999999999
 21
91.25
 31
0
  0
LINE
  8
1
 62
1
 10
27.19999999999999
 20
91.25
 30
0
 11
35.19999999999999
 21
91.25
 31
0
  0
LINE
  8
1
 62
1
 10
35.19999999999999
 20
98.69999999999997
 30
0
 11
35.19999999999999
 21
89.75
 31
0
  0
LINE
  8
1
 62
1
 10
27.19999999999999
 20
109
 30
0
 11
27.19999999999999
 21
89.75
 31
0
  0
SOLID
  8
1
 62
1
 10
27.19999999999999
 20
91.25
 30
0
 11
22.19999999999999
 21
90.59999999999999
 31
0
 12
22.19999999999999
 22
91.90000000000001
 32
0
 13
22.19999999999999
 23
91.90000000000001
 33
0
  0
SOLID
  8
1
 62
1
 10
35.19999999999999
 20
91.25
 30
0
 11
40.19999999999999
 21
91.90000000000001
 31
0
 12
40.19999999999999
 22
90.59999999999999
 32
0
 13
40.19999999999999
 23
90.59999999999999
 33
0
  0
TEXT
  8
1
 62
7
 10
29.69999999999999
 20
92.25
 30
0
 40
5
  1
8
 41
0.9
  0
ENDBLK
  8
0
  0
BLOCK
  8
1
  2
*D7
 70
1
 10
0
 20
0
 30
0
  0
LINE
  8
1
 62
1
 10
35.19999999999999
 20
154.075
 30
0
 11
45.19999999999999
 21
154.075
 31
0
  0
LINE
  8
1
 62
1
 10
28.14401196123738
 20
154.075
 30
0
 11
18.14401196123738
 21
154.075
 31
0
  0
LINE
  8
1
 62
1
 10
28.14401196123738
 20
154.075
 30
0
 11
35.19999999999999
 21
154.075
 31
0
  0
LINE
  8
1
 62
1
 10
35.19999999999999
 20
125.2
 30
0
 11
35.19999999999999
 21
155.575
 31
0
  0
LINE
  8
1
 62
1
 10
28.14401196123738
 20
122.5
 30
0
 11
28.14401196123738
 21
155.575
 31
0
  0
SOLID
  8
1
 62
1
 10
28.14401196123738
 20
154.075
 30
0
 11
23.14401196123738
 21
153.425
 31
0
 12
23.14401196123738
 22
154.725
 32
0
 13
23.14401196123738
 23
154.725
 33
0
  0
SOLID
  8
1
 62
1
 10
35.19999999999999
 20
154.075
 30
0
 11
40.19999999999999
 21
154.725
 31
0
 12
40.19999999999999
 22
153.425
 32
0
 13
40.19999999999999
 23
153.425
 33
0
  0
TEXT
  8
1
 62
7
 10
30.17200598061869
 20
155.075
 30
0
 40
5
  1
7
 41
0.9
  0
ENDBLK
  8
0
  0
BLOCK
  8
1
  2
*D8
 70
1
 10
0
 20
0
 30
0
  0
LINE
  8
1
 62
1
 10
57.12499999999999
 20
122.5
 30
0
 11
57.12499999999999
 21
132.5
 31
0
  0
LINE
  8
1
 62
1
 10
57.12499999999999
 20
109
 30
0
 11
57.12499999999999
 21
99
 31
0
  0
LINE
  8
1
 62
1
 10
57.12499999999999
 20
109
 30
0
 11
57.12499999999999
 21
122.5
 31
0
  0
LINE
  8
1
 62
1
 10
35.19999999999999
 20
122.5
 30
0
 11
58.62499999999999
 21
122.5
 31
0
  0
LINE
  8
1
 62
1
 10
27.19999999999999
 20
109
 30
0
 11
58.62499999999999
 21
109
 31
0
  0
SOLID
  8
1
 62
1
 10
57.12499999999999
 20
109
 30
0
 11
57.77499999999999
 21
104
 31
0
 12
56.47499999999999
 22
104
 32
0
 13
56.47499999999999
 23
104
 33
0
  0
SOLID
  8
1
 62
1
 10
57.12499999999999
 20
122.5
 30
0
 11
56.47499999999999
 21
127.5
 31
0
 12
57.77499999999999
 22
127.5
 32
0
 13
57.77499999999999
 23
127.5
 33
0
  0
TEXT
  8
1
 62
7
 10
55.62499999999999
 20
109.625
 30
0
 40
5
  1
13,5
 50
90
 41
0.9
  0
ENDBLK
  8
0
  0
BLOCK
  8
1
  2
*D9
 70
1
 10
0
 20
0
 30
0
  0
LINE
  8
1
 62
1
 10
109.7
 20
131.932331419206
 30
0
 11
119.7
 21
131.932331419206
 31
0
  0
LINE
  8
1
 62
1
 10
100.7
 20
131.932331419206
 30
0
 11
90.7
 21
131.932331419206
 31
0
  0
LINE
  8
1
 62
1
 10
100.7
 20
131.932331419206
 30
0
 11
109.7
 21
131.932331419206
 31
0
  0
LINE
  8
1
 62
1
 10
109.7
 20
116.5
 30
0
 11
109.7
 21
133.432331419206
 31
0
  0
LINE
  8
1
 62
1
 10
100.7
 20
116.5
 30
0
 11
100.7
 21
133.432331419206
 31
0
  0
SOLID
  8
1
 62
1
 10
100.7
 20
131.932331419206
 30
0
 11
95.7
 21
131.282331419206
 31
0
 12
95.7
 22
132.582331419206
 32
0
 13
95.7
 23
132.582331419206
 33
0
  0
SOLID
  8
1
 62
1
 10
109.7
 20
131.932331419206
 30
0
 11
114.7
 21
132.582331419206
 31
0
 12
114.7
 22
131.282331419206
 32
0
 13
114.7
 23
131.282331419206
 33
0
  0
TEXT
  8
1
 62
7
 10
103.7
 20
132.932331419206
 30
0
 40
5
  1
9
 41
0.9
  0
ENDBLK
  8
0
  0
BLOCK
  8
1
  2
*D10
 70
1
 10
0
 20
0
 30
0
  0
LINE
  8
1
 62
1
 10
35.19999999999999
 20
-17.75
 30
0
 11
105.2
 21
-17.75
 31
0
  0
LINE
  8
1
 62
1
 10
35.19999999999999
 20
-53.00000000000001
 30
0
 11
35.19999999999999
 21
-16.25
 31
0
  0
LINE
  8
1
 62
1
 10
105.2
 20
8.5411790098334
 30
0
 11
105.2
 21
-19.25
 31
0
  0
SOLID
  8
1
 62
1
 10
35.19999999999999
 20
-17.75
 30
0
 11
40.19999999999999
 21
-17.1
 31
0
 12
40.19999999999999
 22
-18.4
 32
0
 13
40.19999999999999
 23
-18.4
 33
0
  0
SOLID
  8
1
 62
1
 10
105.2
 20
-17.75
 30
0
 11
100.2
 21
-18.4
 31
0
 12
100.2
 22
-17.1
 32
0
 13
100.2
 23
-17.1
 33
0
  0
TEXT
  8
1
 62
7
 10
60.19999999999999
 20
-16.75
 30
0
 40
5
  1
70/80
 41
0.9
  0
ENDBLK
  8
0
  0
BLOCK
  8
1
  2
*D11
 70
1
 10
0
 20
0
 30
0
  0
LINE
  8
1
 62
1
 10
39.19999999999999
 20
-70.75
 30
0
 11
49.19999999999999
 21
-70.75
 31
0
  0
LINE
  8
1
 62
1
 10
35.19999999999999
 20
-70.75
 30
0
 11
25.19999999999999
 21
-70.75
 31
0
  0
LINE
  8
1
 62
1
 10
35.19999999999999
 20
-70.75
 30
0
 11
39.19999999999999
 21
-70.75
 31
0
  0
LINE
  8
1
 62
1
 10
39.19999999999999
 20
-53.00000000000001
 30
0
 11
39.19999999999999
 21
-72.25
 31
0
  0
LINE
  8
1
 62
1
 10
35.19999999999999
 20
-53.00000000000001
 30
0
 11
35.19999999999999
 21
-72.25
 31
0
  0
SOLID
  8
1
 62
1
 10
35.19999999999999
 20
-70.75
 30
0
 11
30.19999999999999
 21
-71.40000000000001
 31
0
 12
30.19999999999999
 22
-70.09999999999999
 32
0
 13
30.19999999999999
 23
-70.09999999999999
 33
0
  0
SOLID
  8
1
 62
1
 10
39.19999999999999
 20
-70.75
 30
0
 11
44.19999999999999
 21
-70.09999999999999
 31
0
 12
44.19999999999999
 22
-71.40000000000001
 32
0
 13
44.19999999999999
 23
-71.40000000000001
 33
0
  0
TEXT
  8
1
 62
7
 10
35.69999999999999
 20
-69.75
 30
0
 40
5
  1
4
 41
0.9
  0
ENDBLK
  8
0
  0
BLOCK
  8
1
  2
*D12
 70
1
 10
0
 20
0
 30
0
  0
LINE
  8
1
 62
1
 10
105.2
 20
-17.7167831596195
 30
0
 11
135.3
 21
-17.7167831596195
 31
0
  0
LINE
  8
1
 62
1
 10
105.2
 20
8.5411790098334
 30
0
 11
105.2
 21
-19.7167831596195
 31
0
  0
LINE
  8
1
 62
1
 10
135.3
 20
22
 30
0
 11
135.3
 21
-19.7167831596195
 31
0
  0
SOLID
  8
1
 62
1
 10
105.2
 20
-17.7167831596195
 30
0
 11
110.2
 21
-17.0667831596195
 31
0
 12
110.2
 22
-18.3667831596195
 32
0
 13
110.2
 23
-18.3667831596195
 33
0
  0
SOLID
  8
1
 62
1
 10
135.3
 20
-17.7167831596195
 30
0
 11
130.3
 21
-18.3667831596195
 31
0
 12
130.3
 22
-17.0667831596195
 32
0
 13
130.3
 23
-17.0667831596195
 33
0
  0
TEXT
  8
1
 62
7
 10
116.5
 20
-16.7167831596195
 30
0
 40
5
  1
30
 41
0.9
  0
ENDBLK
  8
0
  0
BLOCK
  8
1
  2
*D13
 70
1
 10
0
 20
0
 30
0
  0
LINE
  8
1
 62
1
 10
190.05
 20
-42.00000000000001
 30
0
 11
190.05
 21
-32.00000000000001
 31
0
  0
LINE
  8
1
 62
1
 10
190.05
 20
-53.00000000000001
 30
0
 11
190.05
 21
-63.00000000000001
 31
0
  0
LINE
  8
1
 62
1
 10
190.05
 20
-53.00000000000001
 30
0
 11
190.05
 21
-42.00000000000001
 31
0
  0
LINE
  8
1
 62
1
 10
218.7
 20
-42.00000000000001
 30
0
 11
188.55
 21
-42.00000000000001
 31
0
  0
LINE
  8
1
 62
1
 10
205.3
 20
-53.00000000000001
 30
0
 11
188.55
 21
-53.00000000000001
 31
0
  0
SOLID
  8
1
 62
1
 10
190.05
 20
-53.00000000000001
 30
0
 11
190.7
 21
-58.00000000000001
 31
0
 12
189.4
 22
-58.00000000000001
 32
0
 13
189.4
 23
-58.00000000000001
 33
0
  0
SOLID
  8
1
 62
1
 10
190.05
 20
-42.00000000000001
 30
0
 11
189.4
 21
-37.00000000000001
 31
0
 12
190.7
 22
-37.00000000000001
 32
0
 13
190.7
 23
-37.00000000000001
 33
0
  0
TEXT
  8
1
 62
7
 10
189.05
 20
-49.75000000000001
 30
0
 40
5
  1
11
 50
90
 41
0.9
  0
ENDBLK
  8
0
  0
BLOCK
  8
1
  2
*D14
 70
1
 10
0
 20
0
 30
0
  0
LINE
  8
1
 62
1
 10
190.05
 20
227
 30
0
 11
190.05
 21
237
 31
0
  0
LINE
  8
1
 62
1
 10
190.05
 20
216
 30
0
 11
190.05
 21
206
 31
0
  0
LINE
  8
1
 62
1
 10
190.05
 20
216
 30
0
 11
190.05
 21
227
 31
0
  0
LINE
  8
1
 62
1
 10
205.3
 20
227
 30
0
 11
188.55
 21
227
 31
0
  0
LINE
  8
1
 62
1
 10
204.7
 20
216
 30
0
 11
188.55
 21
216
 31
0
  0
SOLID
  8
1
 62
1
 10
190.05
 20
216
 30
0
 11
190.7
 21
211
 31
0
 12
189.4
 22
211
 32
0
 13
189.4
 23
211
 33
0
  0
SOLID
  8
1
 62
1
 10
190.05
 20
227
 30
0
 11
189.4
 21
232
 31
0
 12
190.7
 22
232
 32
0
 13
190.7
 23
232
 33
0
  0
TEXT
  8
1
 62
7
 10
189.05
 20
219.25
 30
0
 40
5
  1
11
 50
90
 41
0.9
  0
ENDBLK
  8
0
  0
BLOCK
  8
1
  2
*D15
 70
1
 10
0
 20
0
 30
0
  0
LINE
  8
1
 62
1
 10
190.05
 20
191
 30
0
 11
190.05
 21
216
 31
0
  0
LINE
  8
1
 62
1
 10
204.7
 20
216
 30
0
 11
188.55
 21
216
 31
0
  0
LINE
  8
1
 62
1
 10
218.7
 20
191
 30
0
 11
188.55
 21
191
 31
0
  0
SOLID
  8
1
 62
1
 10
190.05
 20
191
 30
0
 11
189.4
 21
196
 31
0
 12
190.7
 22
196
 32
0
 13
190.7
 23
196
 33
0
  0
SOLID
  8
1
 62
1
 10
190.05
 20
216
 30
0
 11
190.7
 21
211
 31
0
 12
189.4
 22
211
 32
0
 13
189.4
 23
211
 33
0
  0
TEXT
  8
1
 62
7
 10
189.05
 20
199.75
 30
0
 40
5
  1
25
 50
90
 41
0.9
  0
ENDBLK
  8
0
  0
BLOCK
  8
1
  2
*D16
 70
1
 10
0
 20
0
 30
0
  0
LINE
  8
1
 62
1
 10
190.05
 20
-17
 30
0
 11
190.05
 21
191
 31
0
  0
LINE
  8
1
 62
1
 10
218.7
 20
191
 30
0
 11
188.55
 21
191
 31
0
  0
LINE
  8
1
 62
1
 10
204.7
 20
-17
 30
0
 11
188.55
 21
-17
 31
0
  0
SOLID
  8
1
 62
1
 10
190.05
 20
-17
 30
0
 11
189.4
 21
-12
 31
0
 12
190.7
 22
-12
 32
0
 13
190.7
 23
-12
 33
0
  0
SOLID
  8
1
 62
1
 10
190.05
 20
191
 30
0
 11
190.7
 21
186
 31
0
 12
189.4
 22
186
 32
0
 13
189.4
 23
186
 33
0
  0
TEXT
  8
1
 62
7
 10
189.05
 20
81
 30
0
 40
5
  1
208
 50
90
 41
0.9
  0
ENDBLK
  8
0
  0
BLOCK
  8
1
  2
*D17
 70
1
 10
0
 20
0
 30
0
  0
LINE
  8
1
 62
1
 10
190.05
 20
-42.00000000000001
 30
0
 11
190.05
 21
-17
 31
0
  0
LINE
  8
1
 62
1
 10
204.7
 20
-17
 30
0
 11
188.55
 21
-17
 31
0
  0
LINE
  8
1
 62
1
 10
218.7
 20
-42.00000000000001
 30
0
 11
188.55
 21
-42.00000000000001
 31
0
  0
SOLID
  8
1
 62
1
 10
190.05
 20
-42.00000000000001
 30
0
 11
189.4
 21
-37.00000000000001
 31
0
 12
190.7
 22
-37.00000000000001
 32
0
 13
190.7
 23
-37.00000000000001
 33
0
  0
SOLID
  8
1
 62
1
 10
190.05
 20
-17
 30
0
 11
190.7
 21
-22
 31
0
 12
189.4
 22
-22
 32
0
 13
189.4
 23
-22
 33
0
  0
TEXT
  8
1
 62
7
 10
189.05
 20
-33.25
 30
0
 40
5
  1
25
 50
90
 41
0.9
  0
ENDBLK
  8
0
  0
BLOCK
  8
1
  2
*D18
 70
1
 10
0
 20
0
 30
0
  0
LINE
  8
1
 62
1
 10
212.3
 20
-70.75
 30
0
 11
222.3
 21
-70.75
 31
0
  0
LINE
  8
1
 62
1
 10
205.3
 20
-70.75
 30
0
 11
195.3
 21
-70.75
 31
0
  0
LINE
  8
1
 62
1
 10
205.3
 20
-70.75
 30
0
 11
212.3
 21
-70.75
 31
0
  0
LINE
  8
1
 62
1
 10
212.3
 20
-24.6
 30
0
 11
212.3
 21
-72.25
 31
0
  0
LINE
  8
1
 62
1
 10
205.3
 20
-53.00000000000001
 30
0
 11
205.3
 21
-72.25
 31
0
  0
SOLID
  8
1
 62
1
 10
205.3
 20
-70.75
 30
0
 11
200.3
 21
-71.40000000000001
 31
0
 12
200.3
 22
-70.09999999999999
 32
0
 13
200.3
 23
-70.09999999999999
 33
0
  0
SOLID
  8
1
 62
1
 10
212.3
 20
-70.75
 30
0
 11
217.3
 21
-70.09999999999999
 31
0
 12
217.3
 22
-71.40000000000001
 32
0
 13
217.3
 23
-71.40000000000001
 33
0
  0
TEXT
  8
1
 62
7
 10
207.3
 20
-69.75
 30
0
 40
5
  1
7
 41
0.9
  0
ENDBLK
  8
0
  0
BLOCK
  8
1
  2
*D19
 70
1
 10
0
 20
0
 30
0
  0
LINE
  8
1
 62
1
 10
233.3
 20
-70.75
 30
0
 11
243.3
 21
-70.75
 31
0
  0
LINE
  8
1
 62
1
 10
226.3
 20
-70.75
 30
0
 11
226.3
 21
-70.75
 31
0
  0
LINE
  8
1
 62
1
 10
226.3
 20
-70.75
 30
0
 11
233.3
 21
-70.75
 31
0
  0
LINE
  8
1
 62
1
 10
233.3
 20
-53.00000000000001
 30
0
 11
233.3
 21
-72.25
 31
0
  0
LINE
  8
1
 62
1
 10
226.3
 20
-49.60000000000001
 30
0
 11
226.3
 21
-72.25
 31
0
  0
SOLID
  8
1
 62
1
 10
233.3
 20
-70.75
 30
0
 11
238.3
 21
-70.09999999999999
 31
0
 12
238.3
 22
-71.40000000000001
 32
0
 13
238.3
 23
-71.40000000000001
 33
0
  0
TEXT
  8
1
 62
7
 10
228.3
 20
-69.75
 30
0
 40
5
  1
7
 41
0.9
  0
ENDBLK
  8
0
  0
BLOCK
  8
1
  2
*D20
 70
1
 10
0
 20
0
 30
0
  0
LINE
  8
1
 62
1
 10
212.3
 20
-70.75
 30
0
 11
226.3
 21
-70.75
 31
0
  0
LINE
  8
1
 62
1
 10
226.3
 20
-49.60000000000001
 30
0
 11
226.3
 21
-72.25
 31
0
  0
LINE
  8
1
 62
1
 10
212.3
 20
-24.6
 30
0
 11
212.3
 21
-72.25
 31
0
  0
SOLID
  8
1
 62
1
 10
226.3
 20
-70.75
 30
0
 11
221.3
 21
-71.40000000000001
 31
0
 12
221.3
 22
-70.09999999999999
 32
0
 13
221.3
 23
-70.09999999999999
 33
0
  0
TEXT
  8
1
 62
7
 10
216.3
 20
-69.75
 30
0
 40
5
  1
14
 41
0.9
  0
ENDBLK
  8
0
  0
BLOCK
  8
1
  2
*D21
 70
1
 10
0
 20
0
 30
0
  0
LINE
  8
1
 62
1
 10
153.05
 20
0
 30
0
 11
153.05
 21
34
 31
0
  0
LINE
  8
1
 62
1
 10
118.917402538859
 20
34
 30
0
 11
154.55
 21
34
 31
0
  0
LINE
  8
1
 62
1
 10
113.3
 20
0
 30
0
 11
154.55
 21
0
 31
0
  0
SOLID
  8
1
 62
1
 10
153.05
 20
0
 30
0
 11
152.4
 21
5
 31
0
 12
153.7
 22
5
 32
0
 13
153.7
 23
5
 33
0
  0
SOLID
  8
1
 62
1
 10
153.05
 20
34
 30
0
 11
153.7
 21
29
 31
0
 12
152.4
 22
29
 32
0
 13
152.4
 23
29
 33
0
  0
TEXT
  8
1
 62
7
 10
152.05
 20
13.25
 30
0
 40
5
  1
34
 50
90
 41
0.9
  0
ENDBLK
  8
0
  0
BLOCK
  8
1
  2
*D22
 70
1
 10
0
 20
0
 30
0
  0
LINE
  8
1
 62
1
 10
153.05
 20
112
 30
0
 11
153.05
 21
170
 31
0
  0
LINE
  8
1
 62
1
 10
113.3
 20
170
 30
0
 11
154.55
 21
170
 31
0
  0
LINE
  8
1
 62
1
 10
116.6
 20
112
 30
0
 11
154.55
 21
112
 31
0
  0
SOLID
  8
1
 62
1
 10
153.05
 20
112
 30
0
 11
152.4
 21
117
 31
0
 12
153.7
 22
117
 32
0
 13
153.7
 23
117
 33
0
  0
SOLID
  8
1
 62
1
 10
153.05
 20
170
 30
0
 11
153.7
 21
165
 31
0
 12
152.4
 22
165
 32
0
 13
152.4
 23
165
 33
0
  0
TEXT
  8
1
 62
7
 10
152.05
 20
137.25
 30
0
 40
5
  1
58
 50
90
 41
0.9
  0
ENDBLK
  8
0
  0
BLOCK
  8
1
  2
*D23
 70
1
 10
0
 20
0
 30
0
  0
LINE
  8
1
 62
1
 10
153.05
 20
34
 30
0
 11
153.05
 21
112
 31
0
  0
LINE
  8
1
 62
1
 10
116.6
 20
112
 30
0
 11
154.55
 21
112
 31
0
  0
LINE
  8
1
 62
1
 10
118.917402538859
 20
34
 30
0
 11
154.55
 21
34
 31
0
  0
SOLID
  8
1
 62
1
 10
153.05
 20
34
 30
0
 11
152.4
 21
39
 31
0
 12
153.7
 22
39
 32
0
 13
153.7
 23
39
 33
0
  0
SOLID
  8
1
 62
1
 10
153.05
 20
112
 30
0
 11
153.7
 21
107
 31
0
 12
152.4
 22
107
 32
0
 13
152.4
 23
107
 33
0
  0
TEXT
  8
1
 62
7
 10
152.05
 20
69.25
 30
0
 40
5
  1
78
 50
90
 41
0.9
  0
ENDBLK
  8
0
  0
BLOCK
  8
1
  2
*D24
 70
1
 10
0
 20
0
 30
0
  0
LINE
  8
1
 62
1
 10
-11.04999999999883
 20
-53.00000000000001
 30
0
 11
-11.04999999999883
 21
0
 31
0
  0
LINE
  8
1
 62
1
 10
39.19999999999999
 20
0
 30
0
 11
-12.54999999999883
 21
0
 31
0
  0
LINE
  8
1
 62
1
 10
35.19999999999999
 20
-53.00000000000001
 30
0
 11
-12.54999999999883
 21
-53.00000000000001
 31
0
  0
SOLID
  8
1
 62
1
 10
-11.04999999999883
 20
-53.00000000000001
 30
0
 11
-11.69999999999883
 21
-48.00000000000001
 31
0
 12
-10.39999999999883
 22
-48.00000000000001
 32
0
 13
-10.39999999999883
 23
-48.00000000000001
 33
0
  0
SOLID
  8
1
 62
1
 10
-11.04999999999883
 20
0
 30
0
 11
-10.39999999999883
 21
-5
 31
0
 12
-11.69999999999883
 22
-5
 32
0
 13
-11.69999999999883
 23
-5
 33
0
  0
TEXT
  8
1
 62
7
 10
-12.04999999999883
 20
-30.25
 30
0
 40
5
  1
53
 50
90
 41
0.9
  0
ENDBLK
  8
0
  0
BLOCK
  8
1
  2
*D25
 70
1
 10
0
 20
0
 30
0
  0
LINE
  8
1
 62
1
 10
-11.04999999999883
 20
170
 30
0
 11
-11.04999999999883
 21
227
 31
0
  0
LINE
  8
1
 62
1
 10
39.19999999999999
 20
227
 30
0
 11
-12.54999999999883
 21
227
 31
0
  0
LINE
  8
1
 62
1
 10
39.19999999999999
 20
170
 30
0
 11
-12.54999999999883
 21
170
 31
0
  0
SOLID
  8
1
 62
1
 10
-11.04999999999883
 20
170
 30
0
 11
-11.69999999999883
 21
175
 31
0
 12
-10.39999999999883
 22
175
 32
0
 13
-10.39999999999883
 23
175
 33
0
  0
SOLID
  8
1
 62
1
 10
-11.04999999999883
 20
227
 30
0
 11
-10.39999999999883
 21
222
 31
0
 12
-11.69999999999883
 22
222
 32
0
 13
-11.69999999999883
 23
222
 33
0
  0
TEXT
  8
1
 62
7
 10
-12.04999999999883
 20
194.75
 30
0
 40
5
  1
57
 50
90
 41
0.9
  0
ENDBLK
  8
0
  0
BLOCK
  8
1
  2
*D26
 70
1
 10
0
 20
0
 30
0
  0
LINE
  8
1
 62
1
 10
-11.04999999999883
 20
139
 30
0
 11
-11.04999999999883
 21
170
 31
0
  0
LINE
  8
1
 62
1
 10
39.19999999999999
 20
170
 30
0
 11
-12.54999999999883
 21
170
 31
0
  0
LINE
  8
1
 62
1
 10
35.19999999999999
 20
139
 30
0
 11
-12.54999999999883
 21
139
 31
0
  0
SOLID
  8
1
 62
1
 10
-11.04999999999883
 20
139
 30
0
 11
-11.69999999999883
 21
144
 31
0
 12
-10.39999999999883
 22
144
 32
0
 13
-10.39999999999883
 23
144
 33
0
  0
SOLID
  8
1
 62
1
 10
-11.04999999999883
 20
170
 30
0
 11
-10.39999999999883
 21
165
 31
0
 12
-11.69999999999883
 22
165
 32
0
 13
-11.69999999999883
 23
165
 33
0
  0
TEXT
  8
1
 62
7
 10
-12.04999999999883
 20
151.5
 30
0
 40
5
  1
31
 50
90
 41
0.9
  0
ENDBLK
  8
0
  0
BLOCK
  8
1
  2
*D27
 70
1
 10
0
 20
0
 30
0
  0
LINE
  8
1
 62
1
 10
-11.04999999999883
 20
109
 30
0
 11
-11.04999999999883
 21
139
 31
0
  0
LINE
  8
1
 62
1
 10
35.19999999999999
 20
139
 30
0
 11
-12.54999999999883
 21
139
 31
0
  0
LINE
  8
1
 62
1
 10
27.19999999999999
 20
109
 30
0
 11
-12.54999999999883
 21
109
 31
0
  0
SOLID
  8
1
 62
1
 10
-11.04999999999883
 20
109
 30
0
 11
-11.69999999999883
 21
114
 31
0
 12
-10.39999999999883
 22
114
 32
0
 13
-10.39999999999883
 23
114
 33
0
  0
SOLID
  8
1
 62
1
 10
-11.04999999999883
 20
139
 30
0
 11
-10.39999999999883
 21
134
 31
0
 12
-11.69999999999883
 22
134
 32
0
 13
-11.69999999999883
 23
134
 33
0
  0
TEXT
  8
1
 62
7
 10
-12.04999999999883
 20
120.25
 30
0
 40
5
  1
30
 50
90
 41
0.9
  0
ENDBLK
  8
0
  0
BLOCK
  8
1
  2
*D28
 70
1
 10
0
 20
0
 30
0
  0
LINE
  8
1
 62
1
 10
-11.04999999999883
 20
0
 30
0
 11
-11.04999999999883
 21
109
 31
0
  0
LINE
  8
1
 62
1
 10
27.19999999999999
 20
109
 30
0
 11
-12.54999999999883
 21
109
 31
0
  0
LINE
  8
1
 62
1
 10
39.19999999999999
 20
0
 30
0
 11
-12.54999999999883
 21
0
 31
0
  0
SOLID
  8
1
 62
1
 10
-11.04999999999883
 20
0
 30
0
 11
-11.69999999999883
 21
5
 31
0
 12
-10.39999999999883
 22
5
 32
0
 13
-10.39999999999883
 23
5
 33
0
  0
SOLID
  8
1
 62
1
 10
-11.04999999999883
 20
109
 30
0
 11
-10.39999999999883
 21
104
 31
0
 12
-11.69999999999883
 22
104
 32
0
 13
-11.69999999999883
 23
104
 33
0
  0
TEXT
  8
1
 62
7
 10
-12.04999999999883
 20
49.25
 30
0
 40
5
  1
109
 50
90
 41
0.9
  0
ENDBLK
  8
0
  0
BLOCK
  8
1
  2
*D29
 70
1
 10
0
 20
0
 30
0
  0
LINE
  8
1
 62
1
 10
113.6417995858356
 20
148.3832272052498
 30
0
 11
127.9435826769568
 21
164.4184495730605
 31
0
  0
SOLID
  8
1
 62
1
 10
127.9435826769568
 20
164.4184495730605
 30
0
 11
125.1005862604888
 21
160.2543324546367
 31
0
 12
124.1304051493534
 22
161.1196350673659
 32
0
 13
124.1304051493534
 23
161.1196350673659
 33
0
  0
TEXT
  8
1
 62
7
 10
117.1182525605023
 20
153.3223216722433
 30
0
 40
5
  1
22
 50
48.27029234610265
 41
0.9
  0
TEXT
  8
1
 62
7
 10
113.1245481940595
 20
148.8445626977723
 30
0
 40
5
  1
R
 50
48.27029234610265
 41
0.9
  0
ENDBLK
  8
0
  0
ENDSEC
  0
SECTION
  2
ENTITIES
  0
LINE
  8
1
 62
7
 10
110.3125
 20
14.95
 30
0
 11
110.3125
 21
24.1333896398003
 31
0
  0
LINE
  8
1
 62
7
 10
100.0875
 20
14.95
 30
0
 11
100.0875
 21
24.1333896398003
 31
0
  0
LINE
  8
1
 62
2
  6
PHANTOM
 10
95.19999999999999
 20
23.36
 30
0
 11
95.19999999999999
 21
17.64
 31
0
  0
LINE
  8
1
 62
2
  6
PHANTOM
 10
98.05999999999999
 20
20.5
 30
0
 11
92.33999999999999
 21
20.5
 31
0
  0
LINE
  8
1
 62
2
  6
PHANTOM
 10
115.2
 20
23.36
 30
0
 11
115.2
 21
17.64
 31
0
  0
LINE
  8
1
 62
2
  6
PHANTOM
 10
118.06
 20
20.5
 30
0
 11
112.34
 21
20.5
 31
0
  0
LINE
  8
1
 62
2
  6
PHANTOM
 10
105.2
 20
46.50267799262639
 30
0
 11
105.2
 21
8.5411790098334
 31
0
  0
LINE
  8
1
 62
2
  6
PHANTOM
 10
105.2
 20
38.62
 30
0
 11
105.2
 21
29.38
 31
0
  0
LINE
  8
1
 62
7
 10
41.19999999999999
 20
0
 30
0
 11
39.19999999999999
 21
0
 31
0
  0
LINE
  8
1
 62
7
 10
39.19999999999999
 20
170
 30
0
 11
39.2
 21
155
 31
0
  0
LINE
  8
1
 62
2
  6
PHANTOM
 10
93.80000000000001
 20
112
 30
0
 11
116.6
 21
112
 31
0
  0
LINE
  8
1
 62
2
  6
PHANTOM
 10
105.2
 20
123.4
 30
0
 11
105.2
 21
100.6
 31
0
  0
LINE
  8
1
 62
7
 10
39.2
 20
71.19999999999999
 30
0
 11
39.2
 21
13.4
 31
0
  0
LINE
  8
1
 62
7
 10
39.19999999999999
 20
0
 30
0
 11
113.3
 21
0
 31
0
  0
LINE
  8
1
 62
7
 10
135.3
 20
22
 30
0
 11
135.3
 21
148
 31
0
  0
LINE
  8
1
 62
7
 10
113.3
 20
170
 30
0
 11
39.19999999999999
 21
170
 31
0
  0
LINE
  8
1
 62
2
  6
CENTER
 10
39.2
 20
155.36
 30
0
 11
39.2
 21
151.04
 31
0
  0
LINE
  8
1
 62
2
  6
CENTER
 10
39.2
 20
118.76
 30
0
 11
39.2
 21
114.44
 31
0
  0
LINE
  8
1
 62
2
  6
CENTER
 10
39.2
 20
71.19999999999999
 30
0
 11
39.2
 21
70.83999999999999
 31
0
  0
LINE
  8
1
 62
2
  6
CENTER
 10
39.2
 20
13.76
 30
0
 11
39.2
 21
9.439999999999998
 31
0
  0
LINE
  8
1
 62
7
 10
39.2
 20
151.4
 30
0
 11
39.2
 21
118.4
 31
0
  0
LINE
  8
1
 62
7
 10
39.19999999999999
 20
-53.00000000000001
 30
0
 11
35.19999999999999
 21
-53.00000000000001
 31
0
  0
LINE
  8
1
 62
2
  6
CENTER
 10
100.7
 20
90
 30
0
 11
109.7
 21
90
 31
0
  0
LINE
  8
1
 62
2
  6
PHANTOM
 10
105.2
 20
94.5
 30
0
 11
105.2
 21
85.5
 31
0
  0
LINE
  8
1
 62
7
 10
102.6
 20
92.70231382337433
 30
0
 11
102.6
 21
87.29768617662567
 31
0
  0
LINE
  8
1
 62
7
 10
107.8
 20
87.29768617662566
 30
0
 11
107.8
 21
92.70231382337434
 31
0
  0
LINE
  8
1
 62
2
  6
PHANTOM
 10
118.917402538859
 20
34
 30
0
 11
91.7122462896135
 21
34
 31
0
  0
LINE
  8
1
 62
7
 10
100.7
 20
107.5
 30
0
 11
109.7
 21
107.5
 31
0
  0
LINE
  8
1
 62
7
 10
109.7
 20
107.5
 30
0
 11
109.7
 21
116.5
 31
0
  0
LINE
  8
1
 62
7
 10
109.7
 20
116.5
 30
0
 11
100.7
 21
116.5
 31
0
  0
LINE
  8
1
 62
7
 10
100.7
 20
116.5
 30
0
 11
100.7
 21
107.5
 31
0
  0
LINE
  8
1
 62
7
 10
205.3
 20
-53.00000000000001
 30
0
 11
233.3
 21
-53.00000000000001
 31
0
  0
LINE
  8
1
 62
7
 10
233.3
 20
-53.00000000000001
 30
0
 11
233.3
 21
227
 31
0
  0
LINE
  8
1
 62
7
 10
233.3
 20
227
 30
0
 11
205.3
 21
227
 31
0
  0
LINE
  8
1
 62
7
 10
205.3
 20
227
 30
0
 11
205.3
 21
-53.00000000000001
 31
0
  0
LINE
  8
1
 62
2
  6
PHANTOM
 10
204.7
 20
-17
 30
0
 11
219.9
 21
-17
 31
0
  0
LINE
  8
1
 62
2
  6
PHANTOM
 10
212.3
 20
-24.6
 30
0
 11
212.3
 21
-9.400000000000002
 31
0
  0
LINE
  8
1
 62
2
  6
PHANTOM
 10
218.7
 20
-42.00000000000001
 30
0
 11
233.9
 21
-42.00000000000001
 31
0
  0
LINE
  8
1
 62
2
  6
PHANTOM
 10
226.3
 20
-49.60000000000001
 30
0
 11
226.3
 21
-34.40000000000001
 31
0
  0
LINE
  8
1
 62
2
  6
PHANTOM
 10
218.7
 20
191
 30
0
 11
233.9
 21
191
 31
0
  0
LINE
  8
1
 62
2
  6
PHANTOM
 10
226.3
 20
183.4
 30
0
 11
226.3
 21
198.6
 31
0
  0
LINE
  8
1
 62
2
  6
PHANTOM
 10
204.7
 20
216
 30
0
 11
219.9
 21
216
 31
0
  0
LINE
  8
1
 62
2
  6
PHANTOM
 10
212.3
 20
208.4
 30
0
 11
212.3
 21
223.6
 31
0
  0
LINE
  8
1
 62
2
  6
PHANTOM
 10
212.1
 20
15.99999999999999
 30
0
 11
227.3
 21
15.99999999999999
 31
0
  0
LINE
  8
1
 62
2
  6
PHANTOM
 10
219.7
 20
8.399999999999988
 30
0
 11
219.7
 21
23.59999999999999
 31
0
  0
LINE
  8
1
 62
7
 10
35.19999999999999
 20
-132
 30
0
 11
39.19999999999999
 21
-132
 31
0
  0
LINE
  8
1
 62
7
 10
39.19999999999999
 20
-132
 30
0
 11
39.19999999999999
 21
-104
 31
0
  0
LINE
  8
1
 62
7
 10
39.19999999999999
 20
-104
 30
0
 11
35.19999999999999
 21
-104
 31
0
  0
LINE
  8
1
 62
7
 10
35.19999999999999
 20
-104
 30
0
 11
35.19999999999999
 21
-132
 31
0
  0
LINE
  8
1
 62
7
 10
39.19999999999999
 20
-125.25
 30
0
 11
135.3
 21
-125.25
 31
0
  0
LINE
  8
1
 62
7
 10
135.3
 20
-125.25
 30
0
 11
135.3
 21
-110.75
 31
0
  0
LINE
  8
1
 62
7
 10
135.3
 20
-110.75
 30
0
 11
39.19999999999999
 21
-110.75
 31
0
  0
LINE
  8
1
 62
7
 10
39.19999999999999
 20
-110.75
 30
0
 11
39.19999999999999
 21
-125.25
 31
0
  0
LINE
  8
1
 62
7
 10
214.3
 20
109
 30
0
 11
224.3
 21
109
 31
0
  0
LINE
  8
1
 62
7
 10
224.3
 20
109
 30
0
 11
224.3
 21
155
 31
0
  0
LINE
  8
1
 62
7
 10
224.3
 20
155
 30
0
 11
214.3
 21
155
 31
0
  0
LINE
  8
1
 62
7
 10
214.3
 20
155
 30
0
 11
214.3
 21
109
 31
0
  0
LINE
  8
1
 62
7
 10
35.19999999999999
 20
122.5
 30
0
 11
28.14401196123738
 21
122.5
 31
0
  0
LINE
  8
1
 62
7
 10
28.14401196123738
 20
122.5
 30
0
 11
27.19999999999999
 21
109
 31
0
  0
LINE
  8
1
 62
7
 10
27.19999999999999
 20
109
 30
0
 11
23.19999999999999
 21
109
 31
0
  0
LINE
  8
1
 62
7
 10
14.19999999999999
 20
139
 30
0
 11
35.19999999999999
 21
139
 31
0
  0
LINE
  8
1
 62
7
 10
23.19999999999999
 20
109
 30
0
 11
5.404539722573258
 21
122.2941114263052
 31
0
  0
LINE
  8
1
 62
7
 10
4.802131462207939
 20
126.5003479686752
 30
0
 11
14.19999999999999
 21
139
 31
0
  0
LINE
  8
1
 62
7
 10
14.19999999999999
 20
-113
 30
0
 11
35.19999999999999
 21
-113
 31
0
  0
LINE
  8
1
 62
7
 10
14.19999999999999
 20
-123
 30
0
 11
35.19999999999999
 21
-123
 31
0
  0
LINE
  8
1
 62
7
 10
14.19999999999999
 20
-113
 30
0
 11
4.200000000000045
 21
-115.5
 31
0
  0
LINE
  8
1
 62
7
 10
4.200000000000045
 20
-115.5
 30
0
 11
4.199999999999989
 21
-120.5
 31
0
  0
LINE
  8
1
 62
7
 10
4.199999999999989
 20
-120.5
 30
0
 11
14.19999999999999
 21
-123
 31
0
  0
LINE
  8
1
 62
7
 10
14.19999999999999
 20
-113
 30
0
 11
14.19999999999999
 21
-123
 31
0
  0
LINE
  8
1
 62
7
 10
35.19999999999999
 20
227
 30
0
 11
39.19999999999999
 21
227
 31
0
  0
LINE
  8
1
 62
7
 10
35.19999999999999
 20
217.75
 30
0
 11
35.19999999999999
 21
227
 31
0
  0
LINE
  8
1
 62
7
 10
39.19999999999999
 20
-41.75000000000001
 30
0
 11
39.19999999999999
 21
-53.00000000000001
 31
0
  0
LINE
  8
1
 62
7
 10
39.19999999999999
 20
154.2
 30
0
 11
39.19999999999999
 21
125.2
 31
0
  0
LINE
  8
1
 62
7
 10
39.19999999999999
 20
160
 30
0
 11
39.19999999999999
 21
154.2
 31
0
  0
LINE
  8
1
 62
7
 10
35.19999999999999
 20
98.69999999999997
 30
0
 11
35.19999999999999
 21
125.2
 31
0
  0
LINE
  8
1
 62
7
 10
35.19999999999999
 20
125.2
 30
0
 11
35.19999999999999
 21
154.2
 31
0
  0
LINE
  8
1
 62
7
 10
39.19999999999999
 20
7.999999999999986
 30
0
 11
39.19999999999999
 21
5.999999999999986
 31
0
  0
LINE
  8
1
 62
7
 10
35.19999999999999
 20
3.499999999999986
 30
0
 11
35.19999999999999
 21
5.999999999999986
 31
0
  0
LINE
  8
1
 62
7
 10
39.19999999999999
 20
94.19999999999997
 30
0
 11
39.19999999999999
 21
7.999999999999986
 31
0
  0
LINE
  8
1
 62
7
 10
39.19999999999999
 20
5.999999999999986
 30
0
 11
39.19999999999999
 21
3.999999999999986
 31
0
  0
LINE
  8
1
 62
7
 10
35.19999999999999
 20
-53.00000000000001
 30
0
 11
35.19999999999999
 21
3.499999999999986
 31
0
  0
LINE
  8
1
 62
7
 10
35.19999999999999
 20
5.999999999999986
 30
0
 11
35.19999999999999
 21
8.499999999999986
 31
0
  0
LINE
  8
1
 62
7
 10
39.19999999999999
 20
164
 30
0
 11
39.19999999999999
 21
162
 31
0
  0
LINE
  8
1
 62
7
 10
39.19999999999999
 20
210.25
 30
0
 11
39.19999999999999
 21
164
 31
0
  0
LINE
  8
1
 62
7
 10
39.19999999999999
 20
162
 30
0
 11
39.19999999999999
 21
160
 31
0
  0
LINE
  8
1
 62
7
 10
35.19999999999999
 20
154.2
 30
0
 11
35.19999999999999
 21
159.5
 31
0
  0
LINE
  8
1
 62
7
 10
39.19999999999999
 20
98.19999999999997
 30
0
 11
39.19999999999999
 21
96.19999999999997
 31
0
  0
LINE
  8
1
 62
7
 10
35.19999999999999
 20
93.69999999999997
 30
0
 11
35.19999999999999
 21
96.19999999999997
 31
0
  0
LINE
  8
1
 62
7
 10
39.19999999999999
 20
125.2
 30
0
 11
39.19999999999999
 21
98.19999999999997
 31
0
  0
LINE
  8
1
 62
7
 10
39.19999999999999
 20
96.19999999999997
 30
0
 11
39.19999999999999
 21
94.19999999999997
 31
0
  0
LINE
  8
1
 62
7
 10
35.19999999999999
 20
8.499999999999986
 30
0
 11
35.19999999999999
 21
93.69999999999997
 31
0
  0
LINE
  8
1
 62
7
 10
35.19999999999999
 20
96.19999999999997
 30
0
 11
35.19999999999999
 21
98.69999999999997
 31
0
  0
LINE
  8
1
 62
7
 10
39.19999999999999
 20
-36.25000000000001
 30
0
 11
39.19999999999999
 21
-39.00000000000001
 31
0
  0
LINE
  8
1
 62
7
 10
39.19999999999999
 20
3.999999999999986
 30
0
 11
39.19999999999999
 21
-36.25000000000001
 31
0
  0
LINE
  8
1
 62
7
 10
39.19999999999999
 20
-39.00000000000001
 30
0
 11
39.19999999999999
 21
-41.75000000000001
 31
0
  0
LINE
  8
1
 62
7
 10
39.19999999999999
 20
215.75
 30
0
 11
39.19999999999999
 21
213
 31
0
  0
LINE
  8
1
 62
7
 10
35.19999999999999
 20
208.25
 30
0
 11
35.19999999999999
 21
213
 31
0
  0
LINE
  8
1
 62
7
 10
39.19999999999999
 20
227
 30
0
 11
39.19999999999999
 21
215.75
 31
0
  0
LINE
  8
1
 62
7
 10
39.19999999999999
 20
213
 30
0
 11
39.19999999999999
 21
210.25
 31
0
  0
LINE
  8
1
 62
7
 10
35.19999999999999
 20
159.5
 30
0
 11
35.19999999999999
 21
208.25
 31
0
  0
LINE
  8
1
 62
7
 10
35.19999999999999
 20
213
 30
0
 11
35.19999999999999
 21
217.75
 31
0
  0
LINE
  8
1
 62
7
 10
214.3
 20
139
 30
0
 11
224.3
 21
139
 31
0
  0
LINE
  8
1
 62
3
 10
214.3
 20
115
 30
0
 11
216.96587126003
 21
124.2329685431027
 31
0
  0
LINE
  8
1
 62
3
 10
217.0071052010634
 20
125.1720191538734
 30
0
 11
214.3
 21
139
 31
0
  0
LINE
  8
1
 62
3
 10
221.63412873997
 20
124.2329685431027
 30
0
 11
224.3
 21
115
 31
0
  0
LINE
  8
1
 62
3
 10
224.3
 20
139
 30
0
 11
221.5928947989366
 21
125.1720191538734
 31
0
  0
ARC
  8
1
 62
7
 10
105.2
 20
14.95
 30
0
 40
5.112499999999997
 50
180
 51
0
  0
ARC
  8
1
 62
7
 10
105.2
 20
34
 30
0
 40
11.1125
 50
297.3914626952543
 51
242.6085373047457
  0
ARC
  8
1
 62
7
 10
105.2
 20
90
 30
0
 40
3.750000000000001
 50
46.10544623633306
 51
133.8945537636672
  0
ARC
  8
1
 62
7
 10
105.2
 20
90
 30
0
 40
3.750000000000001
 50
226.1054462363328
 51
313.8945537636669
  0
ARC
  8
1
 62
7
 10
7.199999999999989
 20
124.6975095190445
 30
0
 40
3.000000000000003
 50
180
 51
233.2384035447478
  0
ARC
  8
1
 62
7
 10
7.199999999999989
 20
124.6975095190445
 30
0
 40
2.999999999999968
 50
143.0623092648097
 51
180
  0
CIRCLE
  8
1
 62
7
 10
95.19999999999999
 20
20.5
 30
0
 40
2.599999999999994
  0
CIRCLE
  8
1
 62
7
 10
115.2
 20
20.5
 30
0
 40
2.599999999999994
  0
CIRCLE
  8
1
 62
7
 10
105.2
 20
112
 30
0
 40
9.5
  0
CIRCLE
  8
1
 62
7
 10
212.3
 20
-17
 30
0
 40
4.75
  0
CIRCLE
  8
1
 62
7
 10
212.3
 20
-17
 30
0
 40
2.75
  0
CIRCLE
  8
1
 62
7
 10
226.3
 20
-42.00000000000001
 30
0
 40
4.75
  0
CIRCLE
  8
1
 62
7
 10
226.3
 20
-42.00000000000001
 30
0
 40
2.75
  0
CIRCLE
  8
1
 62
7
 10
226.3
 20
191
 30
0
 40
4.75
  0
CIRCLE
  8
1
 62
7
 10
226.3
 20
191
 30
0
 40
2.75
  0
CIRCLE
  8
1
 62
7
 10
212.3
 20
216
 30
0
 40
4.75
  0
CIRCLE
  8
1
 62
7
 10
212.3
 20
216
 30
0
 40
2.75
  0
CIRCLE
  8
1
 62
7
 10
219.7
 20
15.99999999999999
 30
0
 40
4.75
  0
CIRCLE
  8
1
 62
7
 10
219.7
 20
15.99999999999999
 30
0
 40
2.75
  0
ARC
  8
1
 62
7
 10
113.3
 20
148
 30
0
 40
22.00000000000001
 50
0
 51
90
  0
ARC
  8
1
 62
7
 10
113.3
 20
22
 30
0
 40
22
 50
270
 51
0
  0
ARC
  8
1
 62
3
 10
215.0443635199647
 20
124.7877730175523
 30
0
 40
2.00000000000006
 50
343.8947768900761
 51
11.07671002449306
  0
ARC
  8
1
 62
3
 10
223.5556364800353
 20
124.7877730175523
 30
0
 40
1.999999999999955
 50
168.9232899755068
 51
196.1052231099242
  0
TEXT
  8
1
 62
7
 10
43.120799136069
 20
-164.3848743889968
 30
0
 40
7
  1
1609.RZ_PZ.DM_70_80.890
 41
0.9
  0
DIMENSION
  8
1
  6
CONTINUOUS
 62
1
  2
*D0
  3
DMST_1
 10
251.05
 20
227
 30
0
 11
247.55
 21
87
 31
0
 12
0
 22
0
 32
0
 70
0
 13
233.3
 23
-53.00000000000001
 33
0
 14
233.3
 24
227
 34
0
 50
90
 53
0
  0
DIMENSION
  8
1
  6
CONTINUOUS
 62
1
  2
*D1
  3
DMST_1
 10
168.05
 20
170
 30
0
 11
164.55
 21
85
 31
0
 12
0
 22
0
 32
0
 70
0
 13
113.3
 23
0
 33
0
 14
113.3
 24
170
 34
0
 50
90
 53
0
  0
DIMENSION
  8
1
  6
CONTINUOUS
 62
1
  2
*D2
  3
DMST_1
 10
153.225
 20
-110.75
 30
0
 11
149.475
 21
-118
 31
0
 12
0
 22
0
 32
0
 70
0
 13
135.3
 23
-125.25
 33
0
 14
135.3
 24
-110.75
 34
0
 50
90
 53
0
  0
DIMENSION
  8
1
  6
CONTINUOUS
 62
1
  2
*D3
  3
DMST_1
 10
224.3
 20
91.075
 30
0
 11
219.3
 21
94.575
 31
0
 12
0
 22
0
 32
0
 70
0
 13
214.3
 23
109
 33
0
 14
224.3
 24
109
 34
0
 53
0
  0
DIMENSION
  8
1
  6
CONTINUOUS
 62
1
  2
*D4
  3
DMST_1
 10
233.3
 20
-85.75
 30
0
 11
219.3
 21
-82.25
 31
0
 12
0
 22
0
 32
0
 70
0
 13
205.3
 23
-53.00000000000001
 33
0
 14
233.3
 24
-53.00000000000001
 34
0
 50
180
 53
0
  0
DIMENSION
  8
1
  6
CONTINUOUS
 62
1
  2
*D5
  3
DMST_1
 10
35.19999999999999
 20
76.25
 30
0
 11
19.69999999999999
 21
79.75
 31
0
 12
0
 22
0
 32
0
 70
0
 13
4.199999999999986
 23
124.6975095190445
 33
0
 14
35.19999999999999
 24
98.69999999999997
 34
0
 53
0
  0
DIMENSION
  8
1
  6
CONTINUOUS
 62
1
  2
*D6
  3
DMST_1
 10
35.19999999999999
 20
91.25
 30
0
 11
31.19999999999999
 21
94.75
 31
0
 12
0
 22
0
 32
0
 70
0
 13
27.19999999999999
 23
109
 33
0
 14
35.19999999999999
 24
98.69999999999997
 34
0
 53
0
  0
DIMENSION
  8
1
  6
CONTINUOUS
 62
1
  2
*D7
  3
DMST_1
 10
35.19999999999999
 20
154.075
 30
0
 11
31.67200598061869
 21
157.575
 31
0
 12
0
 22
0
 32
0
 70
0
  1
7
 13
28.14401196123738
 23
122.5
 33
0
 14
35.19999999999999
 24
125.2
 34
0
 53
0
  0
DIMENSION
  8
1
  6
CONTINUOUS
 62
1
  2
*D8
  3
DMST_1
 10
57.12499999999999
 20
122.5
 30
0
 11
53.37499999999999
 21
115.75
 31
0
 12
0
 22
0
 32
0
 70
0
 13
27.19999999999999
 23
109
 33
0
 14
35.19999999999999
 24
122.5
 34
0
 50
90
 53
0
  0
DIMENSION
  8
1
  6
CONTINUOUS
 62
1
  2
*D9
  3
DMST_1
 10
109.7
 20
131.932331419206
 30
0
 11
105.2
 21
135.432331419206
 31
0
 12
0
 22
0
 32
0
 70
0
 13
100.7
 23
116.5
 33
0
 14
109.7
 24
116.5
 34
0
 53
0
  0
DIMENSION
  8
1
  6
CONTINUOUS
 62
1
  2
*D10
  3
DMST_1
 10
35.19999999999999
 20
-17.75
 30
0
 11
70.19999999999999
 21
-14.25
 31
0
 12
0
 22
0
 32
0
 70
0
  1
70/80
 13
105.2
 23
8.5411790098334
 33
0
 14
35.19999999999999
 24
-53.00000000000001
 34
0
 53
0
  0
DIMENSION
  8
1
  6
CONTINUOUS
 62
1
  2
*D11
  3
DMST_1
 10
39.19999999999999
 20
-70.75
 30
0
 11
37.19999999999999
 21
-67.25
 31
0
 12
0
 22
0
 32
0
 70
0
 13
35.19999999999999
 23
-53.00000000000001
 33
0
 14
39.19999999999999
 24
-53.00000000000001
 34
0
 53
0
  0
DIMENSION
  8
1
  6
CONTINUOUS
 62
1
  2
*D12
  3
DMST_2
 10
105.2
 20
-17.7167831596195
 30
0
 11
120.25
 21
-14.2167831596195
 31
0
 12
0
 22
0
 32
0
 70
0
  1
30
 13
135.3
 23
22
 33
0
 14
105.2
 24
8.5411790098334
 34
0
 53
0
  0
DIMENSION
  8
1
  6
CONTINUOUS
 62
1
  2
*D13
  3
DMST_1
 10
190.05
 20
-42.00000000000001
 30
0
 11
186.55
 21
-47.50000000000001
 31
0
 12
0
 22
0
 32
0
 70
0
 13
205.3
 23
-53.00000000000001
 33
0
 14
218.7
 24
-42.00000000000001
 34
0
 50
90
 53
0
  0
DIMENSION
  8
1
  6
CONTINUOUS
 62
1
  2
*D14
  3
DMST_1
 10
190.05
 20
227
 30
0
 11
186.55
 21
221.5
 31
0
 12
0
 22
0
 32
0
 70
0
 13
204.7
 23
216
 33
0
 14
205.3
 24
227
 34
0
 50
90
 53
0
  0
DIMENSION
  8
1
  6
CONTINUOUS
 62
1
  2
*D15
  3
DMST_1
 10
190.05
 20
216
 30
0
 11
186.55
 21
203.5
 31
0
 12
0
 22
0
 32
0
 70
0
 13
218.7
 23
191
 33
0
 14
204.7
 24
216
 34
0
 50
90
 53
0
  0
DIMENSION
  8
1
  6
CONTINUOUS
 62
1
  2
*D16
  3
DMST_1
 10
190.05
 20
191
 30
0
 11
186.55
 21
87
 31
0
 12
0
 22
0
 32
0
 70
0
 13
204.7
 23
-17
 33
0
 14
218.7
 24
191
 34
0
 50
90
 53
0
  0
DIMENSION
  8
1
  6
CONTINUOUS
 62
1
  2
*D17
  3
DMST_1
 10
190.05
 20
-17
 30
0
 11
186.55
 21
-29.5
 31
0
 12
0
 22
0
 32
0
 70
0
 13
218.7
 23
-42.00000000000001
 33
0
 14
204.7
 24
-17
 34
0
 50
90
 53
0
  0
DIMENSION
  8
1
  6
CONTINUOUS
 62
1
  2
*D18
  3
DMST_1
 10
212.3
 20
-70.75
 30
0
 11
208.8
 21
-67.25
 31
0
 12
0
 22
0
 32
0
 70
0
 13
205.3
 23
-53.00000000000001
 33
0
 14
212.3
 24
-24.6
 34
0
 53
0
  0
DIMENSION
  8
1
  6
CONTINUOUS
 62
1
  2
*D21
  3
DMST_1
 10
153.05
 20
34
 30
0
 11
149.55
 21
17
 31
0
 12
0
 22
0
 32
0
 70
0
 13
113.3
 23
0
 33
0
 14
118.917402538859
 24
34
 34
0
 50
90
 53
0
  0
DIMENSION
  8
1
  6
CONTINUOUS
 62
1
  2
*D22
  3
DMST_1
 10
153.05
 20
170
 30
0
 11
149.55
 21
141
 31
0
 12
0
 22
0
 32
0
 70
0
 13
116.6
 23
112
 33
0
 14
113.3
 24
170
 34
0
 50
90
 53
0
  0
DIMENSION
  8
1
  6
CONTINUOUS
 62
1
  2
*D23
  3
DMST_1
 10
153.05
 20
112
 30
0
 11
149.55
 21
73
 31
0
 12
0
 22
0
 32
0
 70
0
 13
118.917402538859
 23
34
 33
0
 14
116.6
 24
112
 34
0
 50
90
 53
0
  0
DIMENSION
  8
1
  6
CONTINUOUS
 62
1
  2
*D24
  3
DMST_1
 10
-11.04999999999883
 20
3.552713678800501e-15
 30
0
 11
-14.54999999999883
 21
-26.5
 31
0
 12
0
 22
0
 32
0
 70
0
 13
35.19999999999999
 23
-53.00000000000001
 33
0
 14
39.19999999999999
 24
0
 34
0
 50
90
 53
0
  0
DIMENSION
  8
1
  6
CONTINUOUS
 62
1
  2
*D25
  3
DMST_1
 10
-11.04999999999883
 20
227
 30
0
 11
-14.54999999999883
 21
198.5
 31
0
 12
0
 22
0
 32
0
 70
0
 13
39.19999999999999
 23
170
 33
0
 14
39.19999999999999
 24
227
 34
0
 50
90
 53
0
  0
DIMENSION
  8
1
  6
CONTINUOUS
 62
1
  2
*D26
  3
DMST_1
 10
-11.04999999999883
 20
170
 30
0
 11
-14.54999999999883
 21
154.5
 31
0
 12
0
 22
0
 32
0
 70
0
 13
35.19999999999999
 23
139
 33
0
 14
39.19999999999999
 24
170
 34
0
 50
90
 53
0
  0
DIMENSION
  8
1
  6
CONTINUOUS
 62
1
  2
*D27
  3
DMST_1
 10
-11.04999999999883
 20
139
 30
0
 11
-14.54999999999883
 21
124
 31
0
 12
0
 22
0
 32
0
 70
0
 13
27.19999999999999
 23
109
 33
0
 14
35.19999999999999
 24
139
 34
0
 50
90
 53
0
  0
DIMENSION
  8
1
  6
CONTINUOUS
 62
1
  2
*D28
  3
DMST_1
 10
-11.04999999999883
 20
109
 30
0
 11
-14.54999999999883
 21
54.5
 31
0
 12
0
 22
0
 32
0
 70
0
 13
39.19999999999999
 23
0
 33
0
 14
27.19999999999999
 24
109
 34
0
 50
90
 53
0
  0
DIMENSION
  8
1
  6
CONTINUOUS
 62
1
  2
*D29
  3
DMST_3
 10
113.3
 20
148
 30
0
 11
115.751732700278
 21
155.54608503007
 31
0
 12
0
 22
0
 32
0
 70
4
 15
127.9435826769568
 25
164.4184495730606
 35
0
 40
0
 53
0
  0
INSERT
  8
0
  2
HAHNAUSSCHNITT
 10
306.230737887474
 20
-18.0624010655167
 30
0
  0
INSERT
  8
1
  2
*D19
 10
0
 20
0
 30
0
  0
INSERT
  8
1
  2
*D20
 10
0
 20
0
 30
0
  0
ENDSEC
  0
EOF
