  0
SECTION
  2
HEADER
  9
$ACADVER
  1
AC1015
  9
$ACADMAINTVER
 70
     6
  9
$DWGCODEPAGE
  3
ANSI_1252
  9
$INSBASE
 10
0.0
 20
0.0
 30
0.0
  9
$EXTMIN
 10
0.0
 20
0.0
 30
0.0
  9
$EXTMAX
 10
841.0
 20
594.0
 30
0.0
  9
$LIMMIN
 10
0.0
 20
0.0
  9
$LIMMAX
 10
841.0
 20
594.0
  9
$ORTHOMODE
 70
     0
  9
$REGENMODE
 70
     1
  9
$FILLMODE
 70
     1
  9
$QTEXTMODE
 70
     0
  9
$MIRRTEXT
 70
     1
  9
$LTSCALE
 40
1.0
  9
$ATTMODE
 70
     1
  9
$TEXTSIZE
 40
3.5
  9
$TRACEWID
 40
1.0
  9
$TEXTSTYLE
  7
Standard
  9
$CLAYER
  8
0
  9
$CELTYPE
  6
ByLayer
  9
$CECOLOR
 62
   256
  9
$CELTSCALE
 40
1.0
  9
$DISPSILH
 70
     0
  9
$DIMSCALE
 40
1.0
  9
$DIMASZ
 40
3.302
  9
$DIMEXO
 40
1.0
  9
$DIMDLI
 40
3.75
  9
$DIMRND
 40
0.0
  9
$DIMDLE
 40
0.0
  9
$DIMEXE
 40
1.0
  9
$DIMTP
 40
0.0
  9
$DIMTM
 40
0.0
  9
$DIMTXT
 40
3.5
  9
$DIMCEN
 40
2.5
  9
$DIMTSZ
 40
0.0
  9
$DIMTOL
 70
     0
  9
$DIMLIM
 70
     0
  9
$DIMTIH
 70
     1
  9
$DIMTOH
 70
     1
  9
$DIMSE1
 70
     0
  9
$DIMSE2
 70
     0
  9
$DIMTAD
 70
     1
  9
$DIMZIN
 70
     1
  9
$DIMBLK
  1

  9
$DIMASO
 70
     1
  9
$DIMSHO
 70
     1
  9
$DIMPOST
  1

  9
$DIMAPOST
  1

  9
$DIMALT
 70
     0
  9
$DIMALTD
 70
     3
  9
$DIMALTF
 40
0.0393700787
  9
$DIMLFAC
 40
1.0
  9
$DIMTOFL
 70
     1
  9
$DIMTVP
 40
0.0
  9
$DIMTIX
 70
     0
  9
$DIMSOXD
 70
     0
  9
$DIMSAH
 70
     0
  9
$DIMBLK1
  1

  9
$DIMBLK2
  1

  9
$DIMSTYLE
  2
ISO-25
  9
$DIMCLRD
 70
     0
  9
$DIMCLRE
 70
     0
  9
$DIMCLRT
 70
     0
  9
$DIMTFAC
 40
1.0
  9
$DIMGAP
 40
1.524
  9
$DIMJUST
 70
     0
  9
$DIMSD1
 70
     0
  9
$DIMSD2
 70
     0
  9
$DIMTOLJ
 70
     0
  9
$DIMTZIN
 70
     1
  9
$DIMALTZ
 70
     0
  9
$DIMALTTZ
 70
     0
  9
$DIMUPT
 70
     0
  9
$DIMDEC
 70
     0
  9
$DIMTDEC
 70
     2
  9
$DIMALTU
 70
     2
  9
$DIMALTTD
 70
     3
  9
$DIMTXSTY
  7
Standard
  9
$DIMAUNIT
 70
     0
  9
$DIMADEC
 70
     0
  9
$DIMALTRND
 40
0.0
  9
$DIMAZIN
 70
     0
  9
$DIMDSEP
 70
    44
  9
$DIMATFIT
 70
     3
  9
$DIMFRAC
 70
     0
  9
$DIMLDRBLK
  1

  9
$DIMLUNIT
 70
     2
  9
$DIMLWD
 70
    -2
  9
$DIMLWE
 70
    -2
  9
$DIMTMOVE
 70
     0
  9
$LUNITS
 70
     2
  9
$LUPREC
 70
     2
  9
$SKETCHINC
 40
1.0
  9
$FILLETRAD
 40
10.0
  9
$AUNITS
 70
     0
  9
$AUPREC
 70
     2
  9
$MENU
  1
.
  9
$ELEVATION
 40
0.0
  9
$PELEVATION
 40
0.0
  9
$THICKNESS
 40
0.0
  9
$LIMCHECK
 70
     0
  9
$CHAMFERA
 40
0.0
  9
$CHAMFERB
 40
0.0
  9
$CHAMFERC
 40
0.0
  9
$CHAMFERD
 40
0.0
  9
$SKPOLY
 70
     0
  9
$TDCREATE
 40
2459251.638252708
  9
$TDUCREATE
 40
2459251.596586042
  9
$TDUPDATE
 40
2459251.638255278
  9
$TDUUPDATE
 40
2459251.596588611
  9
$TDINDWG
 40
0.0000000116
  9
$TDUSRTIMER
 40
0.0000000116
  9
$USRTIMER
 70
     1
  9
$ANGBASE
 50
0.0
  9
$ANGDIR
 70
     0
  9
$PDMODE
 70
     0
  9
$PDSIZE
 40
-1.0
  9
$PLINEWID
 40
0.0
  9
$SPLFRAME
 70
     0
  9
$SPLINETYPE
 70
     6
  9
$SPLINESEGS
 70
     8
  9
$HANDSEED
  5
603
  9
$SURFTAB1
 70
     6
  9
$SURFTAB2
 70
     6
  9
$SURFTYPE
 70
     6
  9
$SURFU
 70
     6
  9
$SURFV
 70
     6
  9
$UCSBASE
  2

  9
$UCSNAME
  2

  9
$UCSORG
 10
0.0
 20
0.0
 30
0.0
  9
$UCSXDIR
 10
1.0
 20
0.0
 30
0.0
  9
$UCSYDIR
 10
0.0
 20
1.0
 30
0.0
  9
$UCSORTHOREF
  2

  9
$UCSORTHOVIEW
 70
     0
  9
$UCSORGTOP
 10
0.0
 20
0.0
 30
0.0
  9
$UCSORGBOTTOM
 10
0.0
 20
0.0
 30
0.0
  9
$UCSORGLEFT
 10
0.0
 20
0.0
 30
0.0
  9
$UCSORGRIGHT
 10
0.0
 20
0.0
 30
0.0
  9
$UCSORGFRONT
 10
0.0
 20
0.0
 30
0.0
  9
$UCSORGBACK
 10
0.0
 20
0.0
 30
0.0
  9
$PUCSBASE
  2

  9
$PUCSNAME
  2

  9
$PUCSORG
 10
0.0
 20
0.0
 30
0.0
  9
$PUCSXDIR
 10
1.0
 20
0.0
 30
0.0
  9
$PUCSYDIR
 10
0.0
 20
1.0
 30
0.0
  9
$PUCSORTHOREF
  2

  9
$PUCSORTHOVIEW
 70
     0
  9
$PUCSORGTOP
 10
0.0
 20
0.0
 30
0.0
  9
$PUCSORGBOTTOM
 10
0.0
 20
0.0
 30
0.0
  9
$PUCSORGLEFT
 10
0.0
 20
0.0
 30
0.0
  9
$PUCSORGRIGHT
 10
0.0
 20
0.0
 30
0.0
  9
$PUCSORGFRONT
 10
0.0
 20
0.0
 30
0.0
  9
$PUCSORGBACK
 10
0.0
 20
0.0
 30
0.0
  9
$USERI1
 70
     0
  9
$USERI2
 70
     0
  9
$USERI3
 70
     0
  9
$USERI4
 70
     0
  9
$USERI5
 70
     0
  9
$USERR1
 40
0.0
  9
$USERR2
 40
0.0
  9
$USERR3
 40
0.0
  9
$USERR4
 40
0.0
  9
$USERR5
 40
0.0
  9
$WORLDVIEW
 70
     1
  9
$SHADEDGE
 70
     3
  9
$SHADEDIF
 70
    70
  9
$TILEMODE
 70
     1
  9
$MAXACTVP
 70
    64
  9
$PINSBASE
 10
0.0
 20
0.0
 30
0.0
  9
$PLIMCHECK
 70
     0
  9
$PEXTMIN
 10
1.0000000000E+20
 20
1.0000000000E+20
 30
1.0000000000E+20
  9
$PEXTMAX
 10
-1.0000000000E+20
 20
-1.0000000000E+20
 30
-1.0000000000E+20
  9
$PLIMMIN
 10
0.0
 20
0.0
  9
$PLIMMAX
 10
420.0
 20
297.0
  9
$UNITMODE
 70
     0
  9
$VISRETAIN
 70
     1
  9
$PLINEGEN
 70
     0
  9
$PSLTSCALE
 70
     1
  9
$TREEDEPTH
 70
  3020
  9
$CMLSTYLE
  2
Standard
  9
$CMLJUST
 70
     0
  9
$CMLSCALE
 40
20.0
  9
$PROXYGRAPHICS
 70
     1
  9
$MEASUREMENT
 70
     1
  9
$CELWEIGHT
370
    -1
  9
$ENDCAPS
280
     0
  9
$JOINSTYLE
280
     0
  9
$LWDISPLAY
290
     1
  9
$INSUNITS
 70
     4
  9
$HYPERLINKBASE
  1

  9
$STYLESHEET
  1

  9
$XEDIT
290
     1
  9
$CEPSNTYPE
380
     0
  9
$PSTYLEMODE
290
     1
  9
$FINGERPRINTGUID
  2
{8a540705-4b55-48b7-be68-673b76dbb1d0}
  9
$VERSIONGUID
  2
{FAEB1C32-E019-11D5-929B-00C0DF256EC4}
  9
$EXTNAMES
290
     1
  9
$PSVPSCALE
 40
0.0
  9
$OLESTARTUP
290
     0
  0
ENDSEC
  0
SECTION
  2
CLASSES
  0
CLASS
  1
ACDBDICTIONARYWDFLT
  2
AcDbDictionaryWithDefault
  3
ObjectDBX Classes
 90
        0
280
     0
281
     0
  0
CLASS
  1
VISUALSTYLE
  2
AcDbVisualStyle
  3
ObjectDBX Classes
 90
     4095
280
     0
281
     0
  0
CLASS
  1
MATERIAL
  2
AcDbMaterial
  3
ObjectDBX Classes
 90
     1153
280
     0
281
     0
  0
CLASS
  1
SCALE
  2
AcDbScale
  3
ObjectDBX Classes
 90
     1153
280
     0
281
     0
  0
CLASS
  1
TABLESTYLE
  2
AcDbTableStyle
  3
ObjectDBX Classes
 90
     4095
280
     0
281
     0
  0
CLASS
  1
MLEADERSTYLE
  2
AcDbMLeaderStyle
  3
ACDB_MLEADERSTYLE_CLASS
 90
     4095
280
     0
281
     0
  0
CLASS
  1
SUN
  2
AcDbSun
  3
SCENEOE
 90
     1153
280
     0
281
     0
  0
CLASS
  1
ACDBPLACEHOLDER
  2
AcDbPlaceHolder
  3
ObjectDBX Classes
 90
        0
280
     0
281
     0
  0
CLASS
  1
LAYOUT
  2
AcDbLayout
  3
ObjectDBX Classes
 90
        0
280
     0
281
     0
  0
ENDSEC
  0
SECTION
  2
TABLES
  0
TABLE
  2
VPORT
  5
8
330
0
100
AcDbSymbolTable
 70
     1
  0
VPORT
  5
29
330
8
100
AcDbSymbolTableRecord
100
AcDbViewportTableRecord
  2
*Active
 70
     0
 10
0.0
 20
0.0
 11
1.0
 21
1.0
 12
420.5
 22
297.0
 13
0.0
 23
0.0
 14
10.0
 24
10.0
 15
10.0
 25
10.0
 16
0.0
 26
0.0
 36
1.0
 17
0.0
 27
0.0
 37
0.0
 40
594.0
 41
1.4158249158
 42
50.0
 43
0.0
 44
0.0
 50
0.0
 51
0.0
 71
     0
 72
  2000
 73
     1
 74
     3
 75
     0
 76
     0
 77
     0
 78
     0
281
     0
 65
     1
110
0.0
120
0.0
130
0.0
111
1.0
121
0.0
131
0.0
112
0.0
122
1.0
132
0.0
 79
     0
146
0.0
  0
ENDTAB
  0
TABLE
  2
LTYPE
  5
5
330
0
100
AcDbSymbolTable
 70
     6
  0
LTYPE
  5
14
330
5
100
AcDbSymbolTableRecord
100
AcDbLinetypeTableRecord
  2
ByBlock
 70
     0
  3

 72
    65
 73
     0
 40
0.0
  0
LTYPE
  5
15
330
5
100
AcDbSymbolTableRecord
100
AcDbLinetypeTableRecord
  2
ByLayer
 70
     0
  3

 72
    65
 73
     0
 40
0.0
  0
LTYPE
  5
16
330
5
100
AcDbSymbolTableRecord
100
AcDbLinetypeTableRecord
  2
Continuous
 70
     0
  3
Solid line
 72
    65
 73
     0
 40
0.0
  0
LTYPE
  5
6E
330
5
100
AcDbSymbolTableRecord
100
AcDbLinetypeTableRecord
  2
HIDDEN
 70
     0
  3
Hidden __ __ __ __ __ __ __ __ __ __ __ __ __ __
 72
    65
 73
     2
 40
1.905
 49
1.27
 74
     0
 49
-0.635
 74
     0
  0
LTYPE
  5
6F
330
5
100
AcDbSymbolTableRecord
100
AcDbLinetypeTableRecord
  2
PHANTOM
 70
     0
  3
Phantom ______  __  __  ______  __  __  ______
 72
    65
 73
     6
 40
12.7
 49
6.35
 74
     0
 49
-1.27
 74
     0
 49
1.27
 74
     0
 49
-1.27
 74
     0
 49
1.27
 74
     0
 49
-1.27
 74
     0
  0
LTYPE
  5
70
330
5
100
AcDbSymbolTableRecord
100
AcDbLinetypeTableRecord
  2
CENTER
 70
     0
  3
Center ____ _ ____ _ ____ _ ____ _ ____ _ ____
 72
    65
 73
     4
 40
10.16
 49
6.35
 74
     0
 49
-1.27
 74
     0
 49
1.27
 74
     0
 49
-1.27
 74
     0
  0
LTYPE
  5
71
330
5
100
AcDbSymbolTableRecord
100
AcDbLinetypeTableRecord
  2
CENTERX2
 70
     0
  3
Center (2x) ________  __  ________  __  _____
 72
    65
 73
     4
 40
20.32
 49
12.7
 74
     0
 49
-2.54
 74
     0
 49
2.54
 74
     0
 49
-2.54
 74
     0
  0
LTYPE
  5
72
330
5
100
AcDbSymbolTableRecord
100
AcDbLinetypeTableRecord
  2
DOT2
 70
     0
  3
Dot (.5x) ........................................
 72
    65
 73
     2
 40
0.635
 49
0.0
 74
     0
 49
-0.635
 74
     0
  0
ENDTAB
  0
TABLE
  2
LAYER
  5
2
330
0
100
AcDbSymbolTable
 70
     4
  0
LAYER
  5
10
330
2
100
AcDbSymbolTableRecord
100
AcDbLayerTableRecord
  2
0
 70
     0
 62
     7
  6
Continuous
370
    -3
390
F
  0
LAYER
  5
73
330
2
100
AcDbSymbolTableRecord
100
AcDbLayerTableRecord
  2
SLD-0
 70
     0
 62
   179
  6
Continuous
370
    -3
390
F
  0
LAYER
  5
74
330
2
100
AcDbSymbolTableRecord
100
AcDbLayerTableRecord
  2
BEM
 70
     0
 62
     2
  6
Continuous
370
    -3
390
F
  0
LAYER
  5
75
330
2
100
AcDbSymbolTableRecord
100
AcDbLayerTableRecord
  2
FORMAT
 70
     0
 62
   179
  6
Continuous
370
    -3
390
F
  0
ENDTAB
  0
TABLE
  2
STYLE
  5
3
330
0
100
AcDbSymbolTable
 70
     6
  0
STYLE
  5
11
330
3
100
AcDbSymbolTableRecord
100
AcDbTextStyleTableRecord
  2
Standard
 70
     0
 40
0.0
 41
1.0
 50
0.0
 71
     0
 42
3.5
  3
txt
  4

  0
STYLE
  5
101
330
3
100
AcDbSymbolTableRecord
100
AcDbTextStyleTableRecord
  2
SLDTEXTSTYLE0
 70
     0
 40
0.0
 41
0.6461538462
 50
0.0
 71
     0
 42
3.5
  3
TXT
  4

  0
STYLE
  5
4C5
330
3
100
AcDbSymbolTableRecord
100
AcDbTextStyleTableRecord
  2
SLDTEXTSTYLE1
 70
     0
 40
0.0
 41
0.75
 50
0.0
 71
     0
 42
3.5
  3
TXT
  4

  0
STYLE
  5
4D1
330
3
100
AcDbSymbolTableRecord
100
AcDbTextStyleTableRecord
  2
SLDTEXTSTYLE2
 70
     0
 40
0.0
 41
1.0
 50
0.0
 71
     0
 42
3.5
  3
TXT
  4

  0
STYLE
  5
4DC
330
3
100
AcDbSymbolTableRecord
100
AcDbTextStyleTableRecord
  2
SLDTEXTSTYLE3
 70
     0
 40
0.0
 41
0.96
 50
0.0
 71
     0
 42
3.5
  3
TXT
  4

  0
STYLE
  5
601
330
3
100
AcDbSymbolTableRecord
100
AcDbTextStyleTableRecord
  2
SLDTEXTSTYLE4
 70
     0
 40
0.0
 41
0.6125
 50
0.0
 71
     0
 42
3.5
  3
TXT
  4

  0
ENDTAB
  0
TABLE
  2
VIEW
  5
6
330
0
100
AcDbSymbolTable
 70
     0
  0
ENDTAB
  0
TABLE
  2
UCS
  5
7
330
0
100
AcDbSymbolTable
 70
     0
  0
ENDTAB
  0
TABLE
  2
APPID
  5
9
330
0
100
AcDbSymbolTable
 70
     1
  0
APPID
  5
12
330
9
100
AcDbSymbolTableRecord
100
AcDbRegAppTableRecord
  2
ACAD
 70
     0
  0
ENDTAB
  0
TABLE
  2
DIMSTYLE
  5
A
330
0
100
AcDbSymbolTable
 70
     7
100
AcDbDimStyleTable
  0
DIMSTYLE
105
27
330
A
100
AcDbSymbolTableRecord
100
AcDbDimStyleTableRecord
  2
ISO-25
 70
     0
 41
2.5
 42
0.625
 43
3.75
 44
1.25
 73
     0
 74
     0
 77
     1
 78
     8
140
2.5
141
2.5
143
0.0393700787
147
0.625
171
     3
172
     1
178
     0
271
     2
272
     2
274
     3
278
    44
283
     0
284
     8
340
11
  0
DIMSTYLE
105
4C6
102
{ACAD_REACTORS
330
4C4
102
}
330
A
100
AcDbSymbolTableRecord
100
AcDbDimStyleTableRecord
  2
SLDDIMSTYLE0
 70
     0
 41
3.302
 44
0.0
 45
0.000000001
 73
     0
 74
     0
 77
     1
 78
    12
 79
     3
140
7.0
147
1.75
173
     1
178
     0
271
     0
272
     2
276
     2
284
    12
340
4C5
  0
DIMSTYLE
105
4D2
102
{ACAD_REACTORS
330
4D0
330
4EB
330
50E
330
517
330
521
330
52D
330
537
330
54C
330
568
330
572
330
57D
330
5A8
330
5B4
330
5BF
330
5C9
330
5D3
330
5DF
330
5F5
102
}
330
A
100
AcDbSymbolTableRecord
100
AcDbDimStyleTableRecord
  2
SLDDIMSTYLE1
 70
     0
 41
3.302
 44
0.0
 45
0.000000001
 73
     0
 74
     0
 77
     1
 78
    12
 79
     3
140
7.0
147
1.75
173
     1
178
     0
271
     0
276
     2
284
    12
340
4D1
341
4D3
343
4D3
344
4D3
  0
DIMSTYLE
105
4E1
102
{ACAD_REACTORS
330
4E0
330
542
102
}
330
A
100
AcDbSymbolTableRecord
100
AcDbDimStyleTableRecord
  2
SLDDIMSTYLE2
 70
     0
 41
3.302
 44
0.0
 45
0.000000001
 73
     0
 74
     0
 77
     1
 78
    12
 79
     3
140
7.0
147
1.75
173
     1
178
     0
271
     0
276
     2
284
    12
340
4D1
  0
DIMSTYLE
105
4F6
102
{ACAD_REACTORS
330
4F5
330
502
330
591
330
59C
330
5E9
102
}
330
A
100
AcDbSymbolTableRecord
100
AcDbDimStyleTableRecord
  2
SLDDIMSTYLE3
 70
     0
 41
3.302
 44
0.0
 45
0.000000001
 73
     0
 74
     0
 77
     1
 78
    12
 79
     3
140
7.0
147
1.75
173
     1
178
     0
271
     1
276
     2
284
    12
340
4D1
341
4D3
343
4D3
344
4D3
  0
DIMSTYLE
105
55E
102
{ACAD_REACTORS
330
55D
102
}
330
A
100
AcDbSymbolTableRecord
100
AcDbDimStyleTableRecord
  2
SLDDIMSTYLE4
 70
     0
 41
3.302
 44
0.0
 45
0.000000001
 73
     0
 74
     0
 77
     1
 78
     4
 79
     1
140
7.0
147
1.75
173
     1
178
     0
276
     2
284
    12
340
4D1
341
4D3
343
4D3
344
4D3
  0
DIMSTYLE
105
588
102
{ACAD_REACTORS
330
587
102
}
330
A
100
AcDbSymbolTableRecord
100
AcDbDimStyleTableRecord
  2
SLDDIMSTYLE5
 70
     0
 41
3.302
 44
0.0
 73
     0
 74
     0
 77
     1
 78
    12
 79
     3
140
7.0
147
1.75
173
     1
178
     0
276
     2
284
    12
340
4D1
341
4D3
343
4D3
344
4D3
  0
ENDTAB
  0
TABLE
  2
BLOCK_RECORD
  5
1
330
0
100
AcDbSymbolTable
 70
    49
  0
BLOCK_RECORD
  5
1F
330
1
100
AcDbSymbolTableRecord
100
AcDbBlockTableRecord
  2
*Model_Space
340
22
  0
BLOCK_RECORD
  5
1B
330
1
100
AcDbSymbolTableRecord
100
AcDbBlockTableRecord
  2
*Paper_Space
340
1E
  0
BLOCK_RECORD
  5
23
330
1
100
AcDbSymbolTableRecord
100
AcDbBlockTableRecord
  2
*Paper_Space0
340
26
  0
BLOCK_RECORD
  5
76
330
1
100
AcDbSymbolTableRecord
100
AcDbBlockTableRecord
  2
SW_CENTERMARKSYMBOL_0
340
0
102
{BLKREFS
331
4B0
102
}
  0
BLOCK_RECORD
  5
81
330
1
100
AcDbSymbolTableRecord
100
AcDbBlockTableRecord
  2
SW_CENTERMARKSYMBOL_1
340
0
102
{BLKREFS
331
4BA
102
}
  0
BLOCK_RECORD
  5
8C
330
1
100
AcDbSymbolTableRecord
100
AcDbBlockTableRecord
  2
SW_CENTERMARKSYMBOL_2
340
0
102
{BLKREFS
331
4BB
102
}
  0
BLOCK_RECORD
  5
97
330
1
100
AcDbSymbolTableRecord
100
AcDbBlockTableRecord
  2
SW_CENTERMARKSYMBOL_3
340
0
102
{BLKREFS
331
4B8
102
}
  0
BLOCK_RECORD
  5
A2
330
1
100
AcDbSymbolTableRecord
100
AcDbBlockTableRecord
  2
SW_CENTERMARKSYMBOL_4
340
0
102
{BLKREFS
331
4B1
102
}
  0
BLOCK_RECORD
  5
AD
330
1
100
AcDbSymbolTableRecord
100
AcDbBlockTableRecord
  2
SW_CENTERMARKSYMBOL_5
340
0
102
{BLKREFS
331
4B3
102
}
  0
BLOCK_RECORD
  5
B8
330
1
100
AcDbSymbolTableRecord
100
AcDbBlockTableRecord
  2
SW_CENTERMARKSYMBOL_6
340
0
102
{BLKREFS
331
4B6
102
}
  0
BLOCK_RECORD
  5
C3
330
1
100
AcDbSymbolTableRecord
100
AcDbBlockTableRecord
  2
SW_CENTERMARKSYMBOL_7
340
0
102
{BLKREFS
331
4B9
102
}
  0
BLOCK_RECORD
  5
CE
330
1
100
AcDbSymbolTableRecord
100
AcDbBlockTableRecord
  2
SW_CENTERMARKSYMBOL_8
340
0
102
{BLKREFS
331
4B7
102
}
  0
BLOCK_RECORD
  5
D9
330
1
100
AcDbSymbolTableRecord
100
AcDbBlockTableRecord
  2
SW_CENTERMARKSYMBOL_9
340
0
102
{BLKREFS
331
4B4
102
}
  0
BLOCK_RECORD
  5
E4
330
1
100
AcDbSymbolTableRecord
100
AcDbBlockTableRecord
  2
SW_CENTERMARKSYMBOL_10
340
0
102
{BLKREFS
331
4B2
102
}
  0
BLOCK_RECORD
  5
EF
330
1
100
AcDbSymbolTableRecord
100
AcDbBlockTableRecord
  2
SW_CENTERMARKSYMBOL_11
340
0
102
{BLKREFS
331
4BC
102
}
  0
BLOCK_RECORD
  5
FA
330
1
100
AcDbSymbolTableRecord
100
AcDbBlockTableRecord
  2
SW_NOTE_4
340
0
102
{BLKREFS
331
4AE
102
}
  0
BLOCK_RECORD
  5
FE
330
1
100
AcDbSymbolTableRecord
100
AcDbBlockTableRecord
  2
SW_NOTE_0
340
0
102
{BLKREFS
331
103
102
}
  0
BLOCK_RECORD
  5
104
330
1
100
AcDbSymbolTableRecord
100
AcDbBlockTableRecord
  2
_DOT
340
0
102
{BLKREFS
331
12A
102
}
  0
BLOCK_RECORD
  5
109
330
1
100
AcDbSymbolTableRecord
100
AcDbBlockTableRecord
  2
SW_CENTERMARKSYMBOL_12
340
0
102
{BLKREFS
331
4AF
102
}
  0
BLOCK_RECORD
  5
114
330
1
100
AcDbSymbolTableRecord
100
AcDbBlockTableRecord
  2
SW_CENTERMARKSYMBOL_13
340
0
102
{BLKREFS
331
4BD
102
}
  0
BLOCK_RECORD
  5
11F
330
1
100
AcDbSymbolTableRecord
100
AcDbBlockTableRecord
  2
SW_CENTERMARKSYMBOL_14
340
0
102
{BLKREFS
331
4B5
102
}
  0
BLOCK_RECORD
  5
4BE
330
1
100
AcDbSymbolTableRecord
100
AcDbBlockTableRecord
  2
SW_HATCH_0
340
0
102
{BLKREFS
331
4C2
102
}
  0
BLOCK_RECORD
  5
4C7
330
1
100
AcDbSymbolTableRecord
100
AcDbBlockTableRecord
  2
_D
340
0
  0
BLOCK_RECORD
  5
4D3
330
1
100
AcDbSymbolTableRecord
100
AcDbBlockTableRecord
  2
_None
340
0
  0
BLOCK_RECORD
  5
4D6
330
1
100
AcDbSymbolTableRecord
100
AcDbBlockTableRecord
  2
_D_1
340
0
  0
BLOCK_RECORD
  5
4E2
330
1
100
AcDbSymbolTableRecord
100
AcDbBlockTableRecord
  2
_D_2
340
0
  0
BLOCK_RECORD
  5
4EC
330
1
100
AcDbSymbolTableRecord
100
AcDbBlockTableRecord
  2
_D_3
340
0
  0
BLOCK_RECORD
  5
4F7
330
1
100
AcDbSymbolTableRecord
100
AcDbBlockTableRecord
  2
_D_4
340
0
  0
BLOCK_RECORD
  5
503
330
1
100
AcDbSymbolTableRecord
100
AcDbBlockTableRecord
  2
_D_5
340
0
  0
BLOCK_RECORD
  5
50F
330
1
100
AcDbSymbolTableRecord
100
AcDbBlockTableRecord
  2
_D_6
340
0
  0
BLOCK_RECORD
  5
518
330
1
100
AcDbSymbolTableRecord
100
AcDbBlockTableRecord
  2
_D_7
340
0
  0
BLOCK_RECORD
  5
522
330
1
100
AcDbSymbolTableRecord
100
AcDbBlockTableRecord
  2
_D_8
340
0
  0
BLOCK_RECORD
  5
52E
330
1
100
AcDbSymbolTableRecord
100
AcDbBlockTableRecord
  2
_D_9
340
0
  0
BLOCK_RECORD
  5
538
330
1
100
AcDbSymbolTableRecord
100
AcDbBlockTableRecord
  2
_D_10
340
0
  0
BLOCK_RECORD
  5
543
330
1
100
AcDbSymbolTableRecord
100
AcDbBlockTableRecord
  2
_D_11
340
0
  0
BLOCK_RECORD
  5
54D
330
1
100
AcDbSymbolTableRecord
100
AcDbBlockTableRecord
  2
_D_12
340
0
  0
BLOCK_RECORD
  5
55F
330
1
100
AcDbSymbolTableRecord
100
AcDbBlockTableRecord
  2
_D_13
340
0
  0
BLOCK_RECORD
  5
569
330
1
100
AcDbSymbolTableRecord
100
AcDbBlockTableRecord
  2
_D_14
340
0
  0
BLOCK_RECORD
  5
573
330
1
100
AcDbSymbolTableRecord
100
AcDbBlockTableRecord
  2
_D_15
340
0
  0
BLOCK_RECORD
  5
57E
330
1
100
AcDbSymbolTableRecord
100
AcDbBlockTableRecord
  2
_D_16
340
0
  0
BLOCK_RECORD
  5
589
330
1
100
AcDbSymbolTableRecord
100
AcDbBlockTableRecord
  2
_D_17
340
0
  0
BLOCK_RECORD
  5
592
330
1
100
AcDbSymbolTableRecord
100
AcDbBlockTableRecord
  2
_D_18
340
0
  0
BLOCK_RECORD
  5
59D
330
1
100
AcDbSymbolTableRecord
100
AcDbBlockTableRecord
  2
_D_19
340
0
  0
BLOCK_RECORD
  5
5A9
330
1
100
AcDbSymbolTableRecord
100
AcDbBlockTableRecord
  2
_D_20
340
0
  0
BLOCK_RECORD
  5
5B5
330
1
100
AcDbSymbolTableRecord
100
AcDbBlockTableRecord
  2
_D_21
340
0
  0
BLOCK_RECORD
  5
5C0
330
1
100
AcDbSymbolTableRecord
100
AcDbBlockTableRecord
  2
_D_22
340
0
  0
BLOCK_RECORD
  5
5CA
330
1
100
AcDbSymbolTableRecord
100
AcDbBlockTableRecord
  2
_D_23
340
0
  0
BLOCK_RECORD
  5
5D4
330
1
100
AcDbSymbolTableRecord
100
AcDbBlockTableRecord
  2
_D_24
340
0
  0
BLOCK_RECORD
  5
5E0
330
1
100
AcDbSymbolTableRecord
100
AcDbBlockTableRecord
  2
_D_25
340
0
  0
BLOCK_RECORD
  5
5EA
330
1
100
AcDbSymbolTableRecord
100
AcDbBlockTableRecord
  2
_D_26
340
0
  0
BLOCK_RECORD
  5
5F6
330
1
100
AcDbSymbolTableRecord
100
AcDbBlockTableRecord
  2
_D_27
340
0
  0
ENDTAB
  0
ENDSEC
  0
SECTION
  2
BLOCKS
  0
BLOCK
  5
20
330
1F
100
AcDbEntity
  8
0
100
AcDbBlockBegin
  2
*Model_Space
 70
     0
 10
0.0
 20
0.0
 30
0.0
  3
*Model_Space
  1

  0
ENDBLK
  5
21
330
1F
100
AcDbEntity
  8
0
100
AcDbBlockEnd
  0
BLOCK
  5
1C
330
1B
100
AcDbEntity
 67
     1
  8
0
100
AcDbBlockBegin
  2
*Paper_Space
 70
     0
 10
0.0
 20
0.0
 30
0.0
  3
*Paper_Space
  1

  0
ENDBLK
  5
1D
330
1B
100
AcDbEntity
 67
     1
  8
0
100
AcDbBlockEnd
  0
BLOCK
  5
24
330
23
100
AcDbEntity
  8
0
100
AcDbBlockBegin
  2
*Paper_Space0
 70
     0
 10
0.0
 20
0.0
 30
0.0
  3
*Paper_Space0
  1

  0
ENDBLK
  5
25
330
23
100
AcDbEntity
  8
0
100
AcDbBlockEnd
  0
BLOCK
  5
77
330
76
100
AcDbEntity
  8
0
100
AcDbBlockBegin
  2
SW_CENTERMARKSYMBOL_0
 70
     0
 10
0.0
 20
0.0
 30
0.0
  3
SW_CENTERMARKSYMBOL_0
  1

  0
LINE
  5
79
330
76
100
AcDbEntity
  8
SLD-0
  6
Continuous
 62
   179
100
AcDbLine
 10
0.0
 20
0.0
 30
0.0
 11
0.0
 21
0.1
 31
0.0
  0
LINE
  5
7A
330
76
100
AcDbEntity
  8
SLD-0
  6
Continuous
 62
   179
100
AcDbLine
 10
0.0
 20
0.0
 30
0.0
 11
-0.1
 21
0.0
 31
0.0
  0
LINE
  5
7B
330
76
100
AcDbEntity
  8
SLD-0
  6
Continuous
 62
   179
100
AcDbLine
 10
0.0
 20
0.0
 30
0.0
 11
0.0
 21
-0.1
 31
0.0
  0
LINE
  5
7C
330
76
100
AcDbEntity
  8
SLD-0
  6
Continuous
 62
   179
100
AcDbLine
 10
0.0
 20
0.0
 30
0.0
 11
0.1
 21
0.0
 31
0.0
  0
LINE
  5
7D
330
76
100
AcDbEntity
  8
SLD-0
  6
Continuous
 62
   179
100
AcDbLine
 10
0.0
 20
0.2
 30
0.0
 11
0.0
 21
62.0978460286
 31
0.0
  0
LINE
  5
7E
330
76
100
AcDbEntity
  8
SLD-0
  6
Continuous
 62
   179
100
AcDbLine
 10
-0.2
 20
0.0
 30
0.0
 11
-25.6982305026
 21
0.0
 31
0.0
  0
LINE
  5
7F
330
76
100
AcDbEntity
  8
SLD-0
  6
Continuous
 62
   179
100
AcDbLine
 10
0.0
 20
-0.2
 30
0.0
 11
0.0
 21
-129.8907765731
 31
0.0
  0
LINE
  5
80
330
76
100
AcDbEntity
  8
SLD-0
  6
Continuous
 62
   179
100
AcDbLine
 10
0.2
 20
0.0
 30
0.0
 11
8.55
 21
0.0
 31
0.0
  0
ENDBLK
  5
78
330
76
100
AcDbEntity
  8
0
100
AcDbBlockEnd
  0
BLOCK
  5
82
330
81
100
AcDbEntity
  8
0
100
AcDbBlockBegin
  2
SW_CENTERMARKSYMBOL_1
 70
     0
 10
0.0
 20
0.0
 30
0.0
  3
SW_CENTERMARKSYMBOL_1
  1

  0
LINE
  5
84
330
81
100
AcDbEntity
  8
SLD-0
  6
Continuous
 62
     8
100
AcDbLine
 10
0.0
 20
0.0
 30
0.0
 11
0.0
 21
0.1
 31
0.0
  0
LINE
  5
85
330
81
100
AcDbEntity
  8
SLD-0
  6
Continuous
 62
     8
100
AcDbLine
 10
0.0
 20
0.0
 30
0.0
 11
-0.1
 21
0.0
 31
0.0
  0
LINE
  5
86
330
81
100
AcDbEntity
  8
SLD-0
  6
Continuous
 62
     8
100
AcDbLine
 10
0.0
 20
0.0
 30
0.0
 11
0.0
 21
-0.1
 31
0.0
  0
LINE
  5
87
330
81
100
AcDbEntity
  8
SLD-0
  6
Continuous
 62
     8
100
AcDbLine
 10
0.0
 20
0.0
 30
0.0
 11
0.1
 21
0.0
 31
0.0
  0
LINE
  5
88
330
81
100
AcDbEntity
  8
SLD-0
  6
Continuous
 62
     8
100
AcDbLine
 10
0.0
 20
0.2
 30
0.0
 11
0.0
 21
8.7
 31
0.0
  0
LINE
  5
89
330
81
100
AcDbEntity
  8
SLD-0
  6
Continuous
 62
     8
100
AcDbLine
 10
-0.2
 20
0.0
 30
0.0
 11
-8.7
 21
0.0
 31
0.0
  0
LINE
  5
8A
330
81
100
AcDbEntity
  8
SLD-0
  6
Continuous
 62
     8
100
AcDbLine
 10
0.0
 20
-0.2
 30
0.0
 11
0.0
 21
-8.7
 31
0.0
  0
LINE
  5
8B
330
81
100
AcDbEntity
  8
SLD-0
  6
Continuous
 62
     8
100
AcDbLine
 10
0.2
 20
0.0
 30
0.0
 11
8.7
 21
0.0
 31
0.0
  0
ENDBLK
  5
83
330
81
100
AcDbEntity
  8
0
100
AcDbBlockEnd
  0
BLOCK
  5
8D
330
8C
100
AcDbEntity
  8
0
100
AcDbBlockBegin
  2
SW_CENTERMARKSYMBOL_2
 70
     0
 10
0.0
 20
0.0
 30
0.0
  3
SW_CENTERMARKSYMBOL_2
  1

  0
LINE
  5
8F
330
8C
100
AcDbEntity
  8
SLD-0
  6
Continuous
 62
     8
100
AcDbLine
 10
0.0
 20
0.0
 30
0.0
 11
0.0
 21
0.1
 31
0.0
  0
LINE
  5
90
330
8C
100
AcDbEntity
  8
SLD-0
  6
Continuous
 62
     8
100
AcDbLine
 10
0.0
 20
0.0
 30
0.0
 11
-0.1
 21
0.0
 31
0.0
  0
LINE
  5
91
330
8C
100
AcDbEntity
  8
SLD-0
  6
Continuous
 62
     8
100
AcDbLine
 10
0.0
 20
0.0
 30
0.0
 11
0.0
 21
-0.1
 31
0.0
  0
LINE
  5
92
330
8C
100
AcDbEntity
  8
SLD-0
  6
Continuous
 62
     8
100
AcDbLine
 10
0.0
 20
0.0
 30
0.0
 11
0.1
 21
0.0
 31
0.0
  0
LINE
  5
93
330
8C
100
AcDbEntity
  8
SLD-0
  6
Continuous
 62
     8
100
AcDbLine
 10
0.0
 20
0.2
 30
0.0
 11
0.0
 21
5.2
 31
0.0
  0
LINE
  5
94
330
8C
100
AcDbEntity
  8
SLD-0
  6
Continuous
 62
     8
100
AcDbLine
 10
-0.2
 20
0.0
 30
0.0
 11
-5.2
 21
0.0
 31
0.0
  0
LINE
  5
95
330
8C
100
AcDbEntity
  8
SLD-0
  6
Continuous
 62
     8
100
AcDbLine
 10
0.0
 20
-0.2
 30
0.0
 11
0.0
 21
-5.2
 31
0.0
  0
LINE
  5
96
330
8C
100
AcDbEntity
  8
SLD-0
  6
Continuous
 62
     8
100
AcDbLine
 10
0.2
 20
0.0
 30
0.0
 11
5.2
 21
0.0
 31
0.0
  0
ENDBLK
  5
8E
330
8C
100
AcDbEntity
  8
0
100
AcDbBlockEnd
  0
BLOCK
  5
98
330
97
100
AcDbEntity
  8
0
100
AcDbBlockBegin
  2
SW_CENTERMARKSYMBOL_3
 70
     0
 10
0.0
 20
0.0
 30
0.0
  3
SW_CENTERMARKSYMBOL_3
  1

  0
LINE
  5
9A
330
97
100
AcDbEntity
  8
SLD-0
  6
Continuous
 62
     8
100
AcDbLine
 10
0.0
 20
0.0
 30
0.0
 11
0.0
 21
0.1
 31
0.0
  0
LINE
  5
9B
330
97
100
AcDbEntity
  8
SLD-0
  6
Continuous
 62
     8
100
AcDbLine
 10
0.0
 20
0.0
 30
0.0
 11
-0.1
 21
0.0
 31
0.0
  0
LINE
  5
9C
330
97
100
AcDbEntity
  8
SLD-0
  6
Continuous
 62
     8
100
AcDbLine
 10
0.0
 20
0.0
 30
0.0
 11
0.0
 21
-0.1
 31
0.0
  0
LINE
  5
9D
330
97
100
AcDbEntity
  8
SLD-0
  6
Continuous
 62
     8
100
AcDbLine
 10
0.0
 20
0.0
 30
0.0
 11
0.1
 21
0.0
 31
0.0
  0
LINE
  5
9E
330
97
100
AcDbEntity
  8
SLD-0
  6
Continuous
 62
     8
100
AcDbLine
 10
0.0
 20
0.2
 30
0.0
 11
0.0
 21
3.85
 31
0.0
  0
LINE
  5
9F
330
97
100
AcDbEntity
  8
SLD-0
  6
Continuous
 62
     8
100
AcDbLine
 10
-0.2
 20
0.0
 30
0.0
 11
-3.85
 21
0.0
 31
0.0
  0
LINE
  5
A0
330
97
100
AcDbEntity
  8
SLD-0
  6
Continuous
 62
     8
100
AcDbLine
 10
0.0
 20
-0.2
 30
0.0
 11
0.0
 21
-3.85
 31
0.0
  0
LINE
  5
A1
330
97
100
AcDbEntity
  8
SLD-0
  6
Continuous
 62
     8
100
AcDbLine
 10
0.2
 20
0.0
 30
0.0
 11
3.85
 21
0.0
 31
0.0
  0
ENDBLK
  5
99
330
97
100
AcDbEntity
  8
0
100
AcDbBlockEnd
  0
BLOCK
  5
A3
330
A2
100
AcDbEntity
  8
0
100
AcDbBlockBegin
  2
SW_CENTERMARKSYMBOL_4
 70
     0
 10
0.0
 20
0.0
 30
0.0
  3
SW_CENTERMARKSYMBOL_4
  1

  0
LINE
  5
A5
330
A2
100
AcDbEntity
  8
SLD-0
  6
Continuous
 62
     8
100
AcDbLine
 10
0.0
 20
0.0
 30
0.0
 11
0.0
 21
0.1
 31
0.0
  0
LINE
  5
A6
330
A2
100
AcDbEntity
  8
SLD-0
  6
Continuous
 62
     8
100
AcDbLine
 10
0.0
 20
0.0
 30
0.0
 11
-0.1
 21
0.0
 31
0.0
  0
LINE
  5
A7
330
A2
100
AcDbEntity
  8
SLD-0
  6
Continuous
 62
     8
100
AcDbLine
 10
0.0
 20
0.0
 30
0.0
 11
0.0
 21
-0.1
 31
0.0
  0
LINE
  5
A8
330
A2
100
AcDbEntity
  8
SLD-0
  6
Continuous
 62
     8
100
AcDbLine
 10
0.0
 20
0.0
 30
0.0
 11
0.1
 21
0.0
 31
0.0
  0
LINE
  5
A9
330
A2
100
AcDbEntity
  8
SLD-0
  6
Continuous
 62
     8
100
AcDbLine
 10
0.0
 20
0.2
 30
0.0
 11
0.0
 21
3.85
 31
0.0
  0
LINE
  5
AA
330
A2
100
AcDbEntity
  8
SLD-0
  6
Continuous
 62
     8
100
AcDbLine
 10
-0.2
 20
0.0
 30
0.0
 11
-3.85
 21
0.0
 31
0.0
  0
LINE
  5
AB
330
A2
100
AcDbEntity
  8
SLD-0
  6
Continuous
 62
     8
100
AcDbLine
 10
0.0
 20
-0.2
 30
0.0
 11
0.0
 21
-3.85
 31
0.0
  0
LINE
  5
AC
330
A2
100
AcDbEntity
  8
SLD-0
  6
Continuous
 62
     8
100
AcDbLine
 10
0.2
 20
0.0
 30
0.0
 11
3.85
 21
0.0
 31
0.0
  0
ENDBLK
  5
A4
330
A2
100
AcDbEntity
  8
0
100
AcDbBlockEnd
  0
BLOCK
  5
AE
330
AD
100
AcDbEntity
  8
0
100
AcDbBlockBegin
  2
SW_CENTERMARKSYMBOL_5
 70
     0
 10
0.0
 20
0.0
 30
0.0
  3
SW_CENTERMARKSYMBOL_5
  1

  0
LINE
  5
B0
330
AD
100
AcDbEntity
  8
SLD-0
  6
Continuous
 62
     8
100
AcDbLine
 10
0.0
 20
0.0
 30
0.0
 11
0.0
 21
0.1
 31
0.0
  0
LINE
  5
B1
330
AD
100
AcDbEntity
  8
SLD-0
  6
Continuous
 62
     8
100
AcDbLine
 10
0.0
 20
0.0
 30
0.0
 11
-0.1
 21
0.0
 31
0.0
  0
LINE
  5
B2
330
AD
100
AcDbEntity
  8
SLD-0
  6
Continuous
 62
     8
100
AcDbLine
 10
0.0
 20
0.0
 30
0.0
 11
0.0
 21
-0.1
 31
0.0
  0
LINE
  5
B3
330
AD
100
AcDbEntity
  8
SLD-0
  6
Continuous
 62
     8
100
AcDbLine
 10
0.0
 20
0.0
 30
0.0
 11
0.1
 21
0.0
 31
0.0
  0
LINE
  5
B4
330
AD
100
AcDbEntity
  8
SLD-0
  6
Continuous
 62
     8
100
AcDbLine
 10
0.0
 20
0.2
 30
0.0
 11
0.0
 21
3.85
 31
0.0
  0
LINE
  5
B5
330
AD
100
AcDbEntity
  8
SLD-0
  6
Continuous
 62
     8
100
AcDbLine
 10
-0.2
 20
0.0
 30
0.0
 11
-3.85
 21
0.0
 31
0.0
  0
LINE
  5
B6
330
AD
100
AcDbEntity
  8
SLD-0
  6
Continuous
 62
     8
100
AcDbLine
 10
0.0
 20
-0.2
 30
0.0
 11
0.0
 21
-3.85
 31
0.0
  0
LINE
  5
B7
330
AD
100
AcDbEntity
  8
SLD-0
  6
Continuous
 62
     8
100
AcDbLine
 10
0.2
 20
0.0
 30
0.0
 11
3.85
 21
0.0
 31
0.0
  0
ENDBLK
  5
AF
330
AD
100
AcDbEntity
  8
0
100
AcDbBlockEnd
  0
BLOCK
  5
B9
330
B8
100
AcDbEntity
  8
0
100
AcDbBlockBegin
  2
SW_CENTERMARKSYMBOL_6
 70
     0
 10
0.0
 20
0.0
 30
0.0
  3
SW_CENTERMARKSYMBOL_6
  1

  0
LINE
  5
BB
330
B8
100
AcDbEntity
  8
SLD-0
  6
Continuous
 62
     8
100
AcDbLine
 10
0.0
 20
0.0
 30
0.0
 11
0.0
 21
0.1
 31
0.0
  0
LINE
  5
BC
330
B8
100
AcDbEntity
  8
SLD-0
  6
Continuous
 62
     8
100
AcDbLine
 10
0.0
 20
0.0
 30
0.0
 11
-0.1
 21
0.0
 31
0.0
  0
LINE
  5
BD
330
B8
100
AcDbEntity
  8
SLD-0
  6
Continuous
 62
     8
100
AcDbLine
 10
0.0
 20
0.0
 30
0.0
 11
0.0
 21
-0.1
 31
0.0
  0
LINE
  5
BE
330
B8
100
AcDbEntity
  8
SLD-0
  6
Continuous
 62
     8
100
AcDbLine
 10
0.0
 20
0.0
 30
0.0
 11
0.1
 21
0.0
 31
0.0
  0
LINE
  5
BF
330
B8
100
AcDbEntity
  8
SLD-0
  6
Continuous
 62
     8
100
AcDbLine
 10
0.0
 20
0.2
 30
0.0
 11
0.0
 21
3.85
 31
0.0
  0
LINE
  5
C0
330
B8
100
AcDbEntity
  8
SLD-0
  6
Continuous
 62
     8
100
AcDbLine
 10
-0.2
 20
0.0
 30
0.0
 11
-3.85
 21
0.0
 31
0.0
  0
LINE
  5
C1
330
B8
100
AcDbEntity
  8
SLD-0
  6
Continuous
 62
     8
100
AcDbLine
 10
0.0
 20
-0.2
 30
0.0
 11
0.0
 21
-3.85
 31
0.0
  0
LINE
  5
C2
330
B8
100
AcDbEntity
  8
SLD-0
  6
Continuous
 62
     8
100
AcDbLine
 10
0.2
 20
0.0
 30
0.0
 11
3.85
 21
0.0
 31
0.0
  0
ENDBLK
  5
BA
330
B8
100
AcDbEntity
  8
0
100
AcDbBlockEnd
  0
BLOCK
  5
C4
330
C3
100
AcDbEntity
  8
0
100
AcDbBlockBegin
  2
SW_CENTERMARKSYMBOL_7
 70
     0
 10
0.0
 20
0.0
 30
0.0
  3
SW_CENTERMARKSYMBOL_7
  1

  0
LINE
  5
C6
330
C3
100
AcDbEntity
  8
SLD-0
  6
Continuous
 62
     8
100
AcDbLine
 10
0.0
 20
0.0
 30
0.0
 11
0.0
 21
0.1
 31
0.0
  0
LINE
  5
C7
330
C3
100
AcDbEntity
  8
SLD-0
  6
Continuous
 62
     8
100
AcDbLine
 10
0.0
 20
0.0
 30
0.0
 11
-0.1
 21
0.0
 31
0.0
  0
LINE
  5
C8
330
C3
100
AcDbEntity
  8
SLD-0
  6
Continuous
 62
     8
100
AcDbLine
 10
0.0
 20
0.0
 30
0.0
 11
0.0
 21
-0.1
 31
0.0
  0
LINE
  5
C9
330
C3
100
AcDbEntity
  8
SLD-0
  6
Continuous
 62
     8
100
AcDbLine
 10
0.0
 20
0.0
 30
0.0
 11
0.1
 21
0.0
 31
0.0
  0
LINE
  5
CA
330
C3
100
AcDbEntity
  8
SLD-0
  6
Continuous
 62
     8
100
AcDbLine
 10
0.0
 20
0.2
 30
0.0
 11
0.0
 21
3.85
 31
0.0
  0
LINE
  5
CB
330
C3
100
AcDbEntity
  8
SLD-0
  6
Continuous
 62
     8
100
AcDbLine
 10
-0.2
 20
0.0
 30
0.0
 11
-3.85
 21
0.0
 31
0.0
  0
LINE
  5
CC
330
C3
100
AcDbEntity
  8
SLD-0
  6
Continuous
 62
     8
100
AcDbLine
 10
0.0
 20
-0.2
 30
0.0
 11
0.0
 21
-3.85
 31
0.0
  0
LINE
  5
CD
330
C3
100
AcDbEntity
  8
SLD-0
  6
Continuous
 62
     8
100
AcDbLine
 10
0.2
 20
0.0
 30
0.0
 11
3.85
 21
0.0
 31
0.0
  0
ENDBLK
  5
C5
330
C3
100
AcDbEntity
  8
0
100
AcDbBlockEnd
  0
BLOCK
  5
CF
330
CE
100
AcDbEntity
  8
0
100
AcDbBlockBegin
  2
SW_CENTERMARKSYMBOL_8
 70
     0
 10
0.0
 20
0.0
 30
0.0
  3
SW_CENTERMARKSYMBOL_8
  1

  0
LINE
  5
D1
330
CE
100
AcDbEntity
  8
SLD-0
  6
Continuous
 62
     8
100
AcDbLine
 10
0.0
 20
0.0
 30
0.0
 11
0.0
 21
0.1
 31
0.0
  0
LINE
  5
D2
330
CE
100
AcDbEntity
  8
SLD-0
  6
Continuous
 62
     8
100
AcDbLine
 10
0.0
 20
0.0
 30
0.0
 11
-0.1
 21
0.0
 31
0.0
  0
LINE
  5
D3
330
CE
100
AcDbEntity
  8
SLD-0
  6
Continuous
 62
     8
100
AcDbLine
 10
0.0
 20
0.0
 30
0.0
 11
0.0
 21
-0.1
 31
0.0
  0
LINE
  5
D4
330
CE
100
AcDbEntity
  8
SLD-0
  6
Continuous
 62
     8
100
AcDbLine
 10
0.0
 20
0.0
 30
0.0
 11
0.1
 21
0.0
 31
0.0
  0
LINE
  5
D5
330
CE
100
AcDbEntity
  8
SLD-0
  6
Continuous
 62
     8
100
AcDbLine
 10
0.0
 20
0.2
 30
0.0
 11
0.0
 21
3.85
 31
0.0
  0
LINE
  5
D6
330
CE
100
AcDbEntity
  8
SLD-0
  6
Continuous
 62
     8
100
AcDbLine
 10
-0.2
 20
0.0
 30
0.0
 11
-3.85
 21
0.0
 31
0.0
  0
LINE
  5
D7
330
CE
100
AcDbEntity
  8
SLD-0
  6
Continuous
 62
     8
100
AcDbLine
 10
0.0
 20
-0.2
 30
0.0
 11
0.0
 21
-3.85
 31
0.0
  0
LINE
  5
D8
330
CE
100
AcDbEntity
  8
SLD-0
  6
Continuous
 62
     8
100
AcDbLine
 10
0.2
 20
0.0
 30
0.0
 11
3.85
 21
0.0
 31
0.0
  0
ENDBLK
  5
D0
330
CE
100
AcDbEntity
  8
0
100
AcDbBlockEnd
  0
BLOCK
  5
DA
330
D9
100
AcDbEntity
  8
0
100
AcDbBlockBegin
  2
SW_CENTERMARKSYMBOL_9
 70
     0
 10
0.0
 20
0.0
 30
0.0
  3
SW_CENTERMARKSYMBOL_9
  1

  0
LINE
  5
DC
330
D9
100
AcDbEntity
  8
SLD-0
  6
Continuous
 62
     8
100
AcDbLine
 10
0.0
 20
0.0
 30
0.0
 11
0.0
 21
0.1
 31
0.0
  0
LINE
  5
DD
330
D9
100
AcDbEntity
  8
SLD-0
  6
Continuous
 62
     8
100
AcDbLine
 10
0.0
 20
0.0
 30
0.0
 11
-0.1
 21
0.0
 31
0.0
  0
LINE
  5
DE
330
D9
100
AcDbEntity
  8
SLD-0
  6
Continuous
 62
     8
100
AcDbLine
 10
0.0
 20
0.0
 30
0.0
 11
0.0
 21
-0.1
 31
0.0
  0
LINE
  5
DF
330
D9
100
AcDbEntity
  8
SLD-0
  6
Continuous
 62
     8
100
AcDbLine
 10
0.0
 20
0.0
 30
0.0
 11
0.1
 21
0.0
 31
0.0
  0
LINE
  5
E0
330
D9
100
AcDbEntity
  8
SLD-0
  6
Continuous
 62
     8
100
AcDbLine
 10
0.0
 20
0.2
 30
0.0
 11
0.0
 21
8.6
 31
0.0
  0
LINE
  5
E1
330
D9
100
AcDbEntity
  8
SLD-0
  6
Continuous
 62
     8
100
AcDbLine
 10
-0.2
 20
0.0
 30
0.0
 11
-8.6
 21
0.0
 31
0.0
  0
LINE
  5
E2
330
D9
100
AcDbEntity
  8
SLD-0
  6
Continuous
 62
     8
100
AcDbLine
 10
0.0
 20
-0.2
 30
0.0
 11
0.0
 21
-8.6
 31
0.0
  0
LINE
  5
E3
330
D9
100
AcDbEntity
  8
SLD-0
  6
Continuous
 62
     8
100
AcDbLine
 10
0.2
 20
0.0
 30
0.0
 11
8.6
 21
0.0
 31
0.0
  0
ENDBLK
  5
DB
330
D9
100
AcDbEntity
  8
0
100
AcDbBlockEnd
  0
BLOCK
  5
E5
330
E4
100
AcDbEntity
  8
0
100
AcDbBlockBegin
  2
SW_CENTERMARKSYMBOL_10
 70
     0
 10
0.0
 20
0.0
 30
0.0
  3
SW_CENTERMARKSYMBOL_10
  1

  0
LINE
  5
E7
330
E4
100
AcDbEntity
  8
SLD-0
  6
Continuous
 62
     8
100
AcDbLine
 10
0.0
 20
0.0
 30
0.0
 11
0.0
 21
0.1
 31
0.0
  0
LINE
  5
E8
330
E4
100
AcDbEntity
  8
SLD-0
  6
Continuous
 62
     8
100
AcDbLine
 10
0.0
 20
0.0
 30
0.0
 11
-0.1
 21
0.0
 31
0.0
  0
LINE
  5
E9
330
E4
100
AcDbEntity
  8
SLD-0
  6
Continuous
 62
     8
100
AcDbLine
 10
0.0
 20
0.0
 30
0.0
 11
0.0
 21
-0.1
 31
0.0
  0
LINE
  5
EA
330
E4
100
AcDbEntity
  8
SLD-0
  6
Continuous
 62
     8
100
AcDbLine
 10
0.0
 20
0.0
 30
0.0
 11
0.1
 21
0.0
 31
0.0
  0
LINE
  5
EB
330
E4
100
AcDbEntity
  8
SLD-0
  6
Continuous
 62
     8
100
AcDbLine
 10
0.0
 20
0.2
 30
0.0
 11
0.0
 21
3.4
 31
0.0
  0
LINE
  5
EC
330
E4
100
AcDbEntity
  8
SLD-0
  6
Continuous
 62
     8
100
AcDbLine
 10
-0.2
 20
0.0
 30
0.0
 11
-3.4
 21
0.0
 31
0.0
  0
LINE
  5
ED
330
E4
100
AcDbEntity
  8
SLD-0
  6
Continuous
 62
     8
100
AcDbLine
 10
0.0
 20
-0.2
 30
0.0
 11
0.0
 21
-3.4
 31
0.0
  0
LINE
  5
EE
330
E4
100
AcDbEntity
  8
SLD-0
  6
Continuous
 62
     8
100
AcDbLine
 10
0.2
 20
0.0
 30
0.0
 11
3.4
 21
0.0
 31
0.0
  0
ENDBLK
  5
E6
330
E4
100
AcDbEntity
  8
0
100
AcDbBlockEnd
  0
BLOCK
  5
F0
330
EF
100
AcDbEntity
  8
0
100
AcDbBlockBegin
  2
SW_CENTERMARKSYMBOL_11
 70
     0
 10
0.0
 20
0.0
 30
0.0
  3
SW_CENTERMARKSYMBOL_11
  1

  0
LINE
  5
F2
330
EF
100
AcDbEntity
  8
SLD-0
  6
Continuous
 62
     8
100
AcDbLine
 10
0.0
 20
0.0
 30
0.0
 11
0.0
 21
0.1
 31
0.0
  0
LINE
  5
F3
330
EF
100
AcDbEntity
  8
SLD-0
  6
Continuous
 62
     8
100
AcDbLine
 10
0.0
 20
0.0
 30
0.0
 11
-0.1
 21
0.0
 31
0.0
  0
LINE
  5
F4
330
EF
100
AcDbEntity
  8
SLD-0
  6
Continuous
 62
     8
100
AcDbLine
 10
0.0
 20
0.0
 30
0.0
 11
0.0
 21
-0.1
 31
0.0
  0
LINE
  5
F5
330
EF
100
AcDbEntity
  8
SLD-0
  6
Continuous
 62
     8
100
AcDbLine
 10
0.0
 20
0.0
 30
0.0
 11
0.1
 21
0.0
 31
0.0
  0
LINE
  5
F6
330
EF
100
AcDbEntity
  8
SLD-0
  6
Continuous
 62
     8
100
AcDbLine
 10
0.0
 20
0.2
 30
0.0
 11
0.0
 21
3.85
 31
0.0
  0
LINE
  5
F7
330
EF
100
AcDbEntity
  8
SLD-0
  6
Continuous
 62
     8
100
AcDbLine
 10
-0.2
 20
0.0
 30
0.0
 11
-3.85
 21
0.0
 31
0.0
  0
LINE
  5
F8
330
EF
100
AcDbEntity
  8
SLD-0
  6
Continuous
 62
     8
100
AcDbLine
 10
0.0
 20
-0.2
 30
0.0
 11
0.0
 21
-3.85
 31
0.0
  0
LINE
  5
F9
330
EF
100
AcDbEntity
  8
SLD-0
  6
Continuous
 62
     8
100
AcDbLine
 10
0.2
 20
0.0
 30
0.0
 11
3.85
 21
0.0
 31
0.0
  0
ENDBLK
  5
F1
330
EF
100
AcDbEntity
  8
0
100
AcDbBlockEnd
  0
BLOCK
  5
FB
330
FA
100
AcDbEntity
  8
0
100
AcDbBlockBegin
  2
SW_NOTE_4
 70
     0
 10
0.0
 20
0.0
 30
0.0
  3
SW_NOTE_4
  1

  0
LINE
  5
FD
330
FA
100
AcDbEntity
  8
SLD-0
  6
Continuous
 62
     7
100
AcDbLine
 10
-17.5911528732
 20
-12.8751166541
 30
0.0
 11
0.0
 21
0.0
 31
0.0
  0
INSERT
  5
103
330
FA
100
AcDbEntity
  8
SLD-0
 62
     7
100
AcDbBlockReference
  2
SW_NOTE_0
 10
-65.108461294
 20
-17.8568006229
 30
0.0
  0
INSERT
  5
12A
330
FA
100
AcDbEntity
  8
0
  6
Continuous
 62
     7
100
AcDbBlockReference
  2
_DOT
 10
0.0
 20
0.0
 30
0.0
 41
1.24
 42
1.24
 43
1.24
 50
36.2007190193
  0
ENDBLK
  5
FC
330
FA
100
AcDbEntity
  8
0
100
AcDbBlockEnd
  0
BLOCK
  5
FF
330
FE
100
AcDbEntity
  8
0
100
AcDbBlockBegin
  2
SW_NOTE_0
 70
     0
 10
0.0
 20
0.0
 30
0.0
  3
SW_NOTE_0
  1

  0
MTEXT
  5
102
330
FE
100
AcDbEntity
  8
SLD-0
 62
     0
100
AcDbMText
 10
0.0
 20
8.1855801476
 30
0.0
 40
6.35
 41
0.0
 71
     1
 72
     1
  1
rund / käntig
  7
SLDTEXTSTYLE0
 73
     1
 44
1.0
  0
ENDBLK
  5
100
330
FE
100
AcDbEntity
  8
0
100
AcDbBlockEnd
  0
BLOCK
  5
105
330
104
100
AcDbEntity
  8
0
100
AcDbBlockBegin
  2
_DOT
 70
     0
 10
0.0
 20
0.0
 30
0.0
  3
_DOT
  1

  0
CIRCLE
  5
107
330
104
100
AcDbEntity
  8
SLD-0
  6
Continuous
 62
     8
370
    70
100
AcDbCircle
 10
0.0
 20
0.0
 30
0.0
 40
0.25
  0
LINE
  5
108
330
104
100
AcDbEntity
  8
SLD-0
  6
Continuous
 62
     8
100
AcDbLine
 10
-0.5
 20
0.0
 30
0.0
 11
-1.0
 21
0.0
 31
0.0
  0
ENDBLK
  5
106
330
104
100
AcDbEntity
  8
0
100
AcDbBlockEnd
  0
BLOCK
  5
10A
330
109
100
AcDbEntity
  8
0
100
AcDbBlockBegin
  2
SW_CENTERMARKSYMBOL_12
 70
     0
 10
0.0
 20
0.0
 30
0.0
  3
SW_CENTERMARKSYMBOL_12
  1

  0
LINE
  5
10C
330
109
100
AcDbEntity
  8
SLD-0
  6
Continuous
 62
     8
100
AcDbLine
 10
0.0
 20
0.0
 30
0.0
 11
0.0
 21
0.1
 31
0.0
  0
LINE
  5
10D
330
109
100
AcDbEntity
  8
SLD-0
  6
Continuous
 62
     8
100
AcDbLine
 10
0.0
 20
0.0
 30
0.0
 11
-0.1
 21
0.0
 31
0.0
  0
LINE
  5
10E
330
109
100
AcDbEntity
  8
SLD-0
  6
Continuous
 62
     8
100
AcDbLine
 10
0.0
 20
0.0
 30
0.0
 11
0.0
 21
-0.1
 31
0.0
  0
LINE
  5
10F
330
109
100
AcDbEntity
  8
SLD-0
  6
Continuous
 62
     8
100
AcDbLine
 10
0.0
 20
0.0
 30
0.0
 11
0.1
 21
0.0
 31
0.0
  0
LINE
  5
110
330
109
100
AcDbEntity
  8
SLD-0
  6
Continuous
 62
     8
100
AcDbLine
 10
0.0
 20
0.2
 30
0.0
 11
0.0
 21
5.1
 31
0.0
  0
LINE
  5
111
330
109
100
AcDbEntity
  8
SLD-0
  6
Continuous
 62
     8
100
AcDbLine
 10
-0.2
 20
0.0
 30
0.0
 11
-5.1
 21
0.0
 31
0.0
  0
LINE
  5
112
330
109
100
AcDbEntity
  8
SLD-0
  6
Continuous
 62
     8
100
AcDbLine
 10
0.0
 20
-0.2
 30
0.0
 11
0.0
 21
-5.1
 31
0.0
  0
LINE
  5
113
330
109
100
AcDbEntity
  8
SLD-0
  6
Continuous
 62
     8
100
AcDbLine
 10
0.2
 20
0.0
 30
0.0
 11
5.1
 21
0.0
 31
0.0
  0
ENDBLK
  5
10B
330
109
100
AcDbEntity
  8
0
100
AcDbBlockEnd
  0
BLOCK
  5
115
330
114
100
AcDbEntity
  8
0
100
AcDbBlockBegin
  2
SW_CENTERMARKSYMBOL_13
 70
     0
 10
0.0
 20
0.0
 30
0.0
  3
SW_CENTERMARKSYMBOL_13
  1

  0
LINE
  5
117
330
114
100
AcDbEntity
  8
SLD-0
  6
Continuous
 62
     8
100
AcDbLine
 10
0.0
 20
0.0
 30
0.0
 11
0.0
 21
0.1
 31
0.0
  0
LINE
  5
118
330
114
100
AcDbEntity
  8
SLD-0
  6
Continuous
 62
     8
100
AcDbLine
 10
0.0
 20
0.0
 30
0.0
 11
-0.1
 21
0.0
 31
0.0
  0
LINE
  5
119
330
114
100
AcDbEntity
  8
SLD-0
  6
Continuous
 62
     8
100
AcDbLine
 10
0.0
 20
0.0
 30
0.0
 11
0.0
 21
-0.1
 31
0.0
  0
LINE
  5
11A
330
114
100
AcDbEntity
  8
SLD-0
  6
Continuous
 62
     8
100
AcDbLine
 10
0.0
 20
0.0
 30
0.0
 11
0.1
 21
0.0
 31
0.0
  0
LINE
  5
11B
330
114
100
AcDbEntity
  8
SLD-0
  6
Continuous
 62
     8
100
AcDbLine
 10
0.0
 20
0.2
 30
0.0
 11
0.0
 21
5.1
 31
0.0
  0
LINE
  5
11C
330
114
100
AcDbEntity
  8
SLD-0
  6
Continuous
 62
     8
100
AcDbLine
 10
-0.2
 20
0.0
 30
0.0
 11
-5.1
 21
0.0
 31
0.0
  0
LINE
  5
11D
330
114
100
AcDbEntity
  8
SLD-0
  6
Continuous
 62
     8
100
AcDbLine
 10
0.0
 20
-0.2
 30
0.0
 11
0.0
 21
-5.1
 31
0.0
  0
LINE
  5
11E
330
114
100
AcDbEntity
  8
SLD-0
  6
Continuous
 62
     8
100
AcDbLine
 10
0.2
 20
0.0
 30
0.0
 11
5.1
 21
0.0
 31
0.0
  0
ENDBLK
  5
116
330
114
100
AcDbEntity
  8
0
100
AcDbBlockEnd
  0
BLOCK
  5
120
330
11F
100
AcDbEntity
  8
0
100
AcDbBlockBegin
  2
SW_CENTERMARKSYMBOL_14
 70
     0
 10
0.0
 20
0.0
 30
0.0
  3
SW_CENTERMARKSYMBOL_14
  1

  0
LINE
  5
122
330
11F
100
AcDbEntity
  8
SLD-0
  6
Continuous
 62
     8
100
AcDbLine
 10
0.0
 20
0.0
 30
0.0
 11
0.0
 21
0.1
 31
0.0
  0
LINE
  5
123
330
11F
100
AcDbEntity
  8
SLD-0
  6
Continuous
 62
     8
100
AcDbLine
 10
0.0
 20
0.0
 30
0.0
 11
-0.1
 21
0.0
 31
0.0
  0
LINE
  5
124
330
11F
100
AcDbEntity
  8
SLD-0
  6
Continuous
 62
     8
100
AcDbLine
 10
0.0
 20
0.0
 30
0.0
 11
0.0
 21
-0.1
 31
0.0
  0
LINE
  5
125
330
11F
100
AcDbEntity
  8
SLD-0
  6
Continuous
 62
     8
100
AcDbLine
 10
0.0
 20
0.0
 30
0.0
 11
0.1
 21
0.0
 31
0.0
  0
LINE
  5
126
330
11F
100
AcDbEntity
  8
SLD-0
  6
Continuous
 62
     8
100
AcDbLine
 10
0.0
 20
0.2
 30
0.0
 11
0.0
 21
5.1
 31
0.0
  0
LINE
  5
127
330
11F
100
AcDbEntity
  8
SLD-0
  6
Continuous
 62
     8
100
AcDbLine
 10
-0.2
 20
0.0
 30
0.0
 11
-5.1
 21
0.0
 31
0.0
  0
LINE
  5
128
330
11F
100
AcDbEntity
  8
SLD-0
  6
Continuous
 62
     8
100
AcDbLine
 10
0.0
 20
-0.2
 30
0.0
 11
0.0
 21
-5.1
 31
0.0
  0
LINE
  5
129
330
11F
100
AcDbEntity
  8
SLD-0
  6
Continuous
 62
     8
100
AcDbLine
 10
0.2
 20
0.0
 30
0.0
 11
5.1
 21
0.0
 31
0.0
  0
ENDBLK
  5
121
330
11F
100
AcDbEntity
  8
0
100
AcDbBlockEnd
  0
BLOCK
  5
4BF
330
4BE
100
AcDbEntity
  8
0
100
AcDbBlockBegin
  2
SW_HATCH_0
 70
     0
 10
0.0
 20
0.0
 30
0.0
  3
SW_HATCH_0
  1

  0
LINE
  5
4C1
330
4BE
100
AcDbEntity
  8
0
  6
Continuous
 62
     0
370
    18
100
AcDbLine
 10
0.0
 20
0.0
 30
0.0
 11
-0.4823701492
 21
-0.4823701492
 31
0.0
  0
ENDBLK
  5
4C0
330
4BE
100
AcDbEntity
  8
0
100
AcDbBlockEnd
  0
BLOCK
  5
4C8
330
4C7
100
AcDbEntity
  8
0
100
AcDbBlockBegin
  2
_D
 70
     0
 10
0.0
 20
0.0
 30
0.0
  3
_D
  1

  0
SOLID
  5
4CA
330
4C7
100
AcDbEntity
  8
SLD-0
 62
     7
100
AcDbTrace
 10
231.3997061231
 20
322.1781540509
 30
0.0
 11
231.9077061512
 21
325.4801540465
 31
0.0
 12
230.8917061512
 22
325.4801540552
 32
0.0
 13
230.8917061512
 23
325.4801540552
 33
0.0
  0
SOLID
  5
4CB
330
4C7
100
AcDbEntity
  8
SLD-0
 62
     7
100
AcDbTrace
 10
231.3997069079
 20
414.1781540509
 30
0.0
 11
230.8917068798
 21
410.8761540552
 31
0.0
 12
231.9077068798
 22
410.8761540465
 32
0.0
 13
231.9077068798
 23
410.8761540465
 33
0.0
  0
LINE
  5
4CC
330
4C7
100
AcDbEntity
  8
SLD-0
 62
     7
100
AcDbLine
 10
162.8381603519
 20
322.1781546358
 30
0.0
 11
232.3997061231
 21
322.1781540423
 31
0.0
  0
LINE
  5
4CD
330
4C7
100
AcDbEntity
  8
SLD-0
 62
     7
100
AcDbLine
 10
162.8381611368
 20
414.1781546358
 30
0.0
 11
232.3997069079
 21
414.1781540423
 31
0.0
  0
LINE
  5
4CE
330
4C7
100
AcDbEntity
  8
SLD-0
 62
     7
100
AcDbLine
 10
231.3997061231
 20
322.1781540509
 30
0.0
 11
231.3997069079
 21
414.1781540509
 31
0.0
  0
MTEXT
  5
4CF
330
4C7
100
AcDbEntity
  8
SLD-0
 62
     7
100
AcDbMText
 10
222.3762326551
 20
364.5185555643
 30
0.0
 40
7.0
 41
0.0
 71
     1
 72
     1
  1
92
  7
SLDTEXTSTYLE1
 11
8.530978429403189E-9
 21
1.0
 31
0.0
 73
     1
 44
1.0
  0
ENDBLK
  5
4C9
330
4C7
100
AcDbEntity
  8
0
100
AcDbBlockEnd
  0
BLOCK
  5
4D4
330
4D3
100
AcDbEntity
  8
0
100
AcDbBlockBegin
  2
_None
 70
     0
 10
0.0
 20
0.0
 30
0.0
  3
_None
  1

  0
ENDBLK
  5
4D5
330
4D3
100
AcDbEntity
  8
0
100
AcDbBlockEnd
  0
BLOCK
  5
4D7
330
4D6
100
AcDbEntity
  8
0
100
AcDbBlockBegin
  2
_D_1
 70
     0
 10
0.0
 20
0.0
 30
0.0
  3
_D_1
  1

  0
LINE
  5
4D9
330
4D6
100
AcDbEntity
  8
SLD-0
 62
     7
100
AcDbLine
 10
176.8381611368
 20
291.1781546443
 30
0.0
 11
249.9813219982
 21
291.1781546443
 31
0.0
  0
LINE
  5
4DA
330
4D6
100
AcDbEntity
  8
SLD-0
 62
     7
100
AcDbLine
 10
170.3381611368
 20
478.1781546443
 30
0.0
 11
249.9813219982
 21
478.1781546443
 31
0.0
  0
LINE
  5
4DB
330
4D6
100
AcDbEntity
  8
SLD-0
 62
     7
100
AcDbLine
 10
247.9813219982
 20
291.1781546443
 30
0.0
 11
247.9813219982
 21
478.1781546443
 31
0.0
  0
MTEXT
  5
4DD
330
4D6
100
AcDbEntity
  8
SLD-0
 62
     7
100
AcDbMText
 10
239.0332291744
 20
375.8075128032
 30
0.0
 40
7.0
 41
0.0
 71
     1
 72
     1
  1
187
  7
SLDTEXTSTYLE3
 11
6.123233995736766E-17
 21
1.0
 31
0.0
 73
     1
 44
1.0
  0
SOLID
  5
4DE
330
4D6
100
AcDbEntity
  8
SLD-0
 62
     7
100
AcDbTrace
 10
247.9813219982
 20
291.1781546443
 30
0.0
 11
248.6013219982
 21
296.1781546443
 31
0.0
 12
247.3613219982
 22
296.1781546443
 32
0.0
 13
247.3613219982
 23
296.1781546443
 33
0.0
  0
SOLID
  5
4DF
330
4D6
100
AcDbEntity
  8
SLD-0
 62
     7
100
AcDbTrace
 10
247.9813219982
 20
478.1781546443
 30
0.0
 11
247.3613219982
 21
473.1781546443
 31
0.0
 12
248.6013219982
 22
473.1781546443
 32
0.0
 13
248.6013219982
 23
473.1781546443
 33
0.0
  0
ENDBLK
  5
4D8
330
4D6
100
AcDbEntity
  8
0
100
AcDbBlockEnd
  0
BLOCK
  5
4E3
330
4E2
100
AcDbEntity
  8
0
100
AcDbBlockBegin
  2
_D_2
 70
     0
 10
0.0
 20
0.0
 30
0.0
  3
_D_2
  1

  0
SOLID
  5
4E5
330
4E2
100
AcDbEntity
  8
SLD-0
 62
     7
100
AcDbTrace
 10
231.3997065284
 20
291.1781546443
 30
0.0
 11
231.9077065284
 21
294.4801546443
 31
0.0
 12
230.8917065284
 22
294.4801546443
 32
0.0
 13
230.8917065284
 23
294.4801546443
 33
0.0
  0
SOLID
  5
4E6
330
4E2
100
AcDbEntity
  8
SLD-0
 62
     7
100
AcDbTrace
 10
231.3997065284
 20
322.1781546443
 30
0.0
 11
230.8917065284
 21
318.8761546443
 31
0.0
 12
231.9077065284
 22
318.8761546443
 32
0.0
 13
231.9077065284
 23
318.8761546443
 33
0.0
  0
LINE
  5
4E7
330
4E2
100
AcDbEntity
  8
SLD-0
 62
     7
100
AcDbLine
 10
177.8381611368
 20
291.1781546443
 30
0.0
 11
232.3997065284
 21
291.1781546443
 31
0.0
  0
LINE
  5
4E8
330
4E2
100
AcDbEntity
  8
SLD-0
 62
     7
100
AcDbLine
 10
171.5381611368
 20
322.1781546443
 30
0.0
 11
232.3997065284
 21
322.1781546443
 31
0.0
  0
LINE
  5
4E9
330
4E2
100
AcDbEntity
  8
SLD-0
 62
     7
100
AcDbLine
 10
231.3997065284
 20
291.1781546443
 30
0.0
 11
231.3997065284
 21
322.1781546443
 31
0.0
  0
MTEXT
  5
4EA
330
4E2
100
AcDbEntity
  8
SLD-0
 62
     7
100
AcDbMText
 10
222.37623235
 20
299.5137270675
 30
0.0
 40
7.0
 41
0.0
 71
     1
 72
     1
  1
31
  7
SLDTEXTSTYLE3
 11
6.123233995736766E-17
 21
1.0
 31
0.0
 73
     1
 44
1.0
  0
ENDBLK
  5
4E4
330
4E2
100
AcDbEntity
  8
0
100
AcDbBlockEnd
  0
BLOCK
  5
4ED
330
4EC
100
AcDbEntity
  8
0
100
AcDbBlockBegin
  2
_D_3
 70
     0
 10
0.0
 20
0.0
 30
0.0
  3
_D_3
  1

  0
LINE
  5
4EF
330
4EC
100
AcDbEntity
  8
SLD-0
 62
     7
100
AcDbLine
 10
165.6881611368
 20
439.1781546443
 30
0.0
 11
214.858034589
 21
439.1781546443
 31
0.0
  0
LINE
  5
4F0
330
4EC
100
AcDbEntity
  8
SLD-0
 62
     7
100
AcDbLine
 10
165.6881611368
 20
389.1781546443
 30
0.0
 11
214.858034589
 21
389.1781546443
 31
0.0
  0
LINE
  5
4F1
330
4EC
100
AcDbEntity
  8
SLD-0
 62
     7
100
AcDbLine
 10
212.858034589
 20
439.1781546443
 30
0.0
 11
212.858034589
 21
389.1781546443
 31
0.0
  0
MTEXT
  5
4F2
330
4EC
100
AcDbEntity
  8
SLD-0
 62
     7
100
AcDbMText
 10
203.9099417652
 20
420.9669560089
 30
0.0
 40
7.0
 41
0.0
 71
     1
 72
     1
  1
50
  7
SLDTEXTSTYLE3
 11
6.123233995736766E-17
 21
1.0
 31
0.0
 73
     1
 44
1.0
  0
SOLID
  5
4F3
330
4EC
100
AcDbEntity
  8
SLD-0
 62
     7
100
AcDbTrace
 10
212.858034589
 20
439.1781546443
 30
0.0
 11
212.238034589
 21
434.1781546443
 31
0.0
 12
213.478034589
 22
434.1781546443
 32
0.0
 13
213.478034589
 23
434.1781546443
 33
0.0
  0
SOLID
  5
4F4
330
4EC
100
AcDbEntity
  8
SLD-0
 62
     7
100
AcDbTrace
 10
212.858034589
 20
389.1781546443
 30
0.0
 11
213.478034589
 21
394.1781546443
 31
0.0
 12
212.238034589
 22
394.1781546443
 32
0.0
 13
212.238034589
 23
394.1781546443
 33
0.0
  0
ENDBLK
  5
4EE
330
4EC
100
AcDbEntity
  8
0
100
AcDbBlockEnd
  0
BLOCK
  5
4F8
330
4F7
100
AcDbEntity
  8
0
100
AcDbBlockBegin
  2
_D_4
 70
     0
 10
0.0
 20
0.0
 30
0.0
  3
_D_4
  1

  0
LINE
  5
4FA
330
4F7
100
AcDbEntity
  8
SLD-0
 62
     7
100
AcDbLine
 10
165.6881611368
 20
389.1781546443
 30
0.0
 11
205.6216176859
 21
389.1781546443
 31
0.0
  0
LINE
  5
4FB
330
4F7
100
AcDbEntity
  8
SLD-0
 62
     7
100
AcDbLine
 10
165.6881611368
 20
392.6781546443
 30
0.0
 11
205.6216176859
 21
392.6781546443
 31
0.0
  0
LINE
  5
4FC
330
4F7
100
AcDbEntity
  8
SLD-0
 62
     7
100
AcDbLine
 10
203.6216176859
 20
389.1781546443
 30
0.0
 11
203.6216176859
 21
367.3408470578
 31
0.0
  0
LINE
  5
4FD
330
4F7
100
AcDbEntity
  8
SLD-0
 62
     7
100
AcDbLine
 10
203.6216176859
 20
389.1781546443
 30
0.0
 11
203.6216176859
 21
392.6781546443
 31
0.0
  0
LINE
  5
4FE
330
4F7
100
AcDbEntity
  8
SLD-0
 62
     7
100
AcDbLine
 10
203.6216176859
 20
392.6781546443
 30
0.0
 11
203.6216176859
 21
401.6781546443
 31
0.0
  0
MTEXT
  5
4FF
330
4F7
100
AcDbEntity
  8
SLD-0
 62
     7
100
AcDbMText
 10
194.6735248622
 20
370.5158470578
 30
0.0
 40
7.0
 41
0.0
 71
     1
 72
     1
  1
3,5
  7
SLDTEXTSTYLE3
 11
6.123233995736766E-17
 21
1.0
 31
0.0
 73
     1
 44
1.0
  0
SOLID
  5
500
330
4F7
100
AcDbEntity
  8
SLD-0
 62
     7
100
AcDbTrace
 10
203.6216176859
 20
389.1781546443
 30
0.0
 11
203.0016176859
 21
384.1781546443
 31
0.0
 12
204.2416176859
 22
384.1781546443
 32
0.0
 13
204.2416176859
 23
384.1781546443
 33
0.0
  0
SOLID
  5
501
330
4F7
100
AcDbEntity
  8
SLD-0
 62
     7
100
AcDbTrace
 10
203.6216176859
 20
392.6781546443
 30
0.0
 11
204.2416176859
 21
397.6781546443
 31
0.0
 12
203.0016176859
 22
397.6781546443
 32
0.0
 13
203.0016176859
 23
397.6781546443
 33
0.0
  0
ENDBLK
  5
4F9
330
4F7
100
AcDbEntity
  8
0
100
AcDbBlockEnd
  0
BLOCK
  5
504
330
503
100
AcDbEntity
  8
0
100
AcDbBlockBegin
  2
_D_5
 70
     0
 10
0.0
 20
0.0
 30
0.0
  3
_D_5
  1

  0
LINE
  5
506
330
503
100
AcDbEntity
  8
SLD-0
 62
     7
100
AcDbLine
 10
165.5881611368
 20
389.1781546443
 30
0.0
 11
165.5881611368
 21
381.5658206979
 31
0.0
  0
LINE
  5
507
330
503
100
AcDbEntity
  8
SLD-0
 62
     7
100
AcDbLine
 10
158.0881611368
 20
389.1781546443
 30
0.0
 11
158.0881611368
 21
381.5658206979
 31
0.0
  0
LINE
  5
508
330
503
100
AcDbEntity
  8
SLD-0
 62
     7
100
AcDbLine
 10
165.5881611368
 20
383.5658206979
 30
0.0
 11
174.5881611368
 21
383.5658206979
 31
0.0
  0
LINE
  5
509
330
503
100
AcDbEntity
  8
SLD-0
 62
     7
100
AcDbLine
 10
165.5881611368
 20
383.5658206979
 30
0.0
 11
158.0881611368
 21
383.5658206979
 31
0.0
  0
LINE
  5
50A
330
503
100
AcDbEntity
  8
SLD-0
 62
     7
100
AcDbLine
 10
158.0881611368
 20
383.5658206979
 30
0.0
 11
135.3991914383
 21
383.5658206979
 31
0.0
  0
MTEXT
  5
50B
330
503
100
AcDbEntity
  8
SLD-0
 62
     7
100
AcDbMText
 10
138.5741914383
 20
392.5139135217
 30
0.0
 40
7.0
 41
0.0
 71
     1
 72
     1
  1
7,5
  7
SLDTEXTSTYLE3
 73
     1
 44
1.0
  0
SOLID
  5
50C
330
503
100
AcDbEntity
  8
SLD-0
 62
     7
100
AcDbTrace
 10
165.5881611368
 20
383.5658206979
 30
0.0
 11
170.5881611368
 21
382.9458206979
 31
0.0
 12
170.5881611368
 22
384.1858206979
 32
0.0
 13
170.5881611368
 23
384.1858206979
 33
0.0
  0
SOLID
  5
50D
330
503
100
AcDbEntity
  8
SLD-0
 62
     7
100
AcDbTrace
 10
158.0881611368
 20
383.5658206979
 30
0.0
 11
153.0881611368
 21
384.1858206979
 31
0.0
 12
153.0881611368
 22
382.9458206979
 32
0.0
 13
153.0881611368
 23
382.9458206979
 33
0.0
  0
ENDBLK
  5
505
330
503
100
AcDbEntity
  8
0
100
AcDbBlockEnd
  0
BLOCK
  5
510
330
50F
100
AcDbEntity
  8
0
100
AcDbBlockBegin
  2
_D_6
 70
     0
 10
0.0
 20
0.0
 30
0.0
  3
_D_6
  1

  0
LINE
  5
512
330
50F
100
AcDbEntity
  8
SLD-0
 62
     7
100
AcDbLine
 10
129.8381611368
 20
507.1781546443
 30
0.0
 11
178.3207003835
 21
507.1781546443
 31
0.0
  0
LINE
  5
513
330
50F
100
AcDbEntity
  8
SLD-0
 62
     7
100
AcDbLine
 10
176.3207003835
 20
478.1781546443
 30
0.0
 11
176.3207003835
 21
507.1781546443
 31
0.0
  0
MTEXT
  5
514
330
50F
100
AcDbEntity
  8
SLD-0
 62
     7
100
AcDbMText
 10
167.3726075597
 20
486.6592328257
 30
0.0
 40
7.0
 41
0.0
 71
     1
 72
     1
  1
29
  7
SLDTEXTSTYLE3
 11
6.123233995736766E-17
 21
1.0
 31
0.0
 73
     1
 44
1.0
  0
SOLID
  5
515
330
50F
100
AcDbEntity
  8
SLD-0
 62
     7
100
AcDbTrace
 10
176.3207003835
 20
478.1781546443
 30
0.0
 11
176.9407003835
 21
483.1781546443
 31
0.0
 12
175.7007003835
 22
483.1781546443
 32
0.0
 13
175.7007003835
 23
483.1781546443
 33
0.0
  0
SOLID
  5
516
330
50F
100
AcDbEntity
  8
SLD-0
 62
     7
100
AcDbTrace
 10
176.3207003835
 20
507.1781546443
 30
0.0
 11
175.7007003835
 21
502.1781546443
 31
0.0
 12
176.9407003835
 22
502.1781546443
 32
0.0
 13
176.9407003835
 23
502.1781546443
 33
0.0
  0
ENDBLK
  5
511
330
50F
100
AcDbEntity
  8
0
100
AcDbBlockEnd
  0
BLOCK
  5
519
330
518
100
AcDbEntity
  8
0
100
AcDbBlockBegin
  2
_D_7
 70
     0
 10
0.0
 20
0.0
 30
0.0
  3
_D_7
  1

  0
LINE
  5
51B
330
518
100
AcDbEntity
  8
SLD-0
 62
     7
100
AcDbLine
 10
116.0381611368
 20
463.1781546443
 30
0.0
 11
97.5963516407
 21
463.1781546443
 31
0.0
  0
LINE
  5
51C
330
518
100
AcDbEntity
  8
SLD-0
 62
     7
100
AcDbLine
 10
116.0381611368
 20
433.1781546443
 30
0.0
 11
97.5963516407
 21
433.1781546443
 31
0.0
  0
LINE
  5
51D
330
518
100
AcDbEntity
  8
SLD-0
 62
     7
100
AcDbLine
 10
99.5963516407
 20
463.1781546443
 30
0.0
 11
99.5963516407
 21
433.1781546443
 31
0.0
  0
MTEXT
  5
51E
330
518
100
AcDbEntity
  8
SLD-0
 62
     7
100
AcDbMText
 10
90.6482588169
 20
450.2305362334
 30
0.0
 40
7.0
 41
0.0
 71
     1
 72
     1
  1
30
  7
SLDTEXTSTYLE3
 11
6.123233995736766E-17
 21
1.0
 31
0.0
 73
     1
 44
1.0
  0
SOLID
  5
51F
330
518
100
AcDbEntity
  8
SLD-0
 62
     7
100
AcDbTrace
 10
99.5963516407
 20
463.1781546443
 30
0.0
 11
98.9763516407
 21
458.1781546443
 31
0.0
 12
100.2163516407
 22
458.1781546443
 32
0.0
 13
100.2163516407
 23
458.1781546443
 33
0.0
  0
SOLID
  5
520
330
518
100
AcDbEntity
  8
SLD-0
 62
     7
100
AcDbTrace
 10
99.5963516407
 20
433.1781546443
 30
0.0
 11
100.2163516407
 21
438.1781546443
 31
0.0
 12
98.9763516407
 22
438.1781546443
 32
0.0
 13
98.9763516407
 23
438.1781546443
 33
0.0
  0
ENDBLK
  5
51A
330
518
100
AcDbEntity
  8
0
100
AcDbBlockEnd
  0
BLOCK
  5
523
330
522
100
AcDbEntity
  8
0
100
AcDbBlockBegin
  2
_D_8
 70
     0
 10
0.0
 20
0.0
 30
0.0
  3
_D_8
  1

  0
LINE
  5
525
330
522
100
AcDbEntity
  8
SLD-0
 62
     7
100
AcDbLine
 10
135.8951142342
 20
448.1781546443
 30
0.0
 11
101.1203516407
 21
448.1781546443
 31
0.0
  0
LINE
  5
526
330
522
100
AcDbEntity
  8
SLD-0
 62
     7
100
AcDbLine
 10
98.0723516407
 20
448.1781546443
 30
0.0
 11
79.8381611368
 21
448.1781546443
 31
0.0
  0
LINE
  5
527
330
522
100
AcDbEntity
  8
SLD-0
 62
     7
100
AcDbLine
 10
136.1399306342
 20
414.1781546443
 30
0.0
 11
101.1758306063
 21
414.1781546443
 31
0.0
  0
LINE
  5
528
330
522
100
AcDbEntity
  8
SLD-0
 62
     7
100
AcDbLine
 10
98.1278306063
 20
414.1781546443
 30
0.0
 11
79.8381611368
 21
414.1781546443
 31
0.0
  0
LINE
  5
529
330
522
100
AcDbEntity
  8
SLD-0
 62
     7
100
AcDbLine
 10
81.8381611368
 20
448.1781546443
 30
0.0
 11
81.8381611368
 21
414.1781546443
 31
0.0
  0
MTEXT
  5
52A
330
522
100
AcDbEntity
  8
SLD-0
 62
     7
100
AcDbMText
 10
72.890068313
 20
428.6837850437
 30
0.0
 40
7.0
 41
0.0
 71
     1
 72
     1
  1
34
  7
SLDTEXTSTYLE3
 11
6.123233995736766E-17
 21
1.0
 31
0.0
 73
     1
 44
1.0
  0
SOLID
  5
52B
330
522
100
AcDbEntity
  8
SLD-0
 62
     7
100
AcDbTrace
 10
81.8381611368
 20
448.1781546443
 30
0.0
 11
81.2181611368
 21
443.1781546443
 31
0.0
 12
82.4581611368
 22
443.1781546443
 32
0.0
 13
82.4581611368
 23
443.1781546443
 33
0.0
  0
SOLID
  5
52C
330
522
100
AcDbEntity
  8
SLD-0
 62
     7
100
AcDbTrace
 10
81.8381611368
 20
414.1781546443
 30
0.0
 11
82.4581611368
 21
419.1781546443
 31
0.0
 12
81.2181611368
 22
419.1781546443
 32
0.0
 13
81.2181611368
 23
419.1781546443
 33
0.0
  0
ENDBLK
  5
524
330
522
100
AcDbEntity
  8
0
100
AcDbBlockEnd
  0
BLOCK
  5
52F
330
52E
100
AcDbEntity
  8
0
100
AcDbBlockBegin
  2
_D_9
 70
     0
 10
0.0
 20
0.0
 30
0.0
  3
_D_9
  1

  0
LINE
  5
531
330
52E
100
AcDbEntity
  8
SLD-0
 62
     7
100
AcDbLine
 10
116.0381611368
 20
433.1990556499
 30
0.0
 11
97.6518306063
 21
433.1990556499
 31
0.0
  0
LINE
  5
532
330
52E
100
AcDbEntity
  8
SLD-0
 62
     7
100
AcDbLine
 10
112.8381611368
 20
366.1781546443
 30
0.0
 11
97.6518306063
 21
366.1781546443
 31
0.0
  0
LINE
  5
533
330
52E
100
AcDbEntity
  8
SLD-0
 62
     7
100
AcDbLine
 10
99.6518306063
 20
433.1990556499
 30
0.0
 11
99.6518306063
 21
366.1781546443
 31
0.0
  0
MTEXT
  5
534
330
52E
100
AcDbEntity
  8
SLD-0
 62
     7
100
AcDbMText
 10
90.7037377825
 20
391.7694166855
 30
0.0
 40
7.0
 41
0.0
 71
     1
 72
     1
  1
67
  7
SLDTEXTSTYLE3
 11
6.123233995736766E-17
 21
1.0
 31
0.0
 73
     1
 44
1.0
  0
SOLID
  5
535
330
52E
100
AcDbEntity
  8
SLD-0
 62
     7
100
AcDbTrace
 10
99.6518306063
 20
433.1990556499
 30
0.0
 11
99.0318306063
 21
428.1990556499
 31
0.0
 12
100.2718306063
 22
428.1990556499
 32
0.0
 13
100.2718306063
 23
428.1990556499
 33
0.0
  0
SOLID
  5
536
330
52E
100
AcDbEntity
  8
SLD-0
 62
     7
100
AcDbTrace
 10
99.6518306063
 20
366.1781546443
 30
0.0
 11
100.2718306063
 21
371.1781546443
 31
0.0
 12
99.0318306063
 22
371.1781546443
 32
0.0
 13
99.0318306063
 23
371.1781546443
 33
0.0
  0
ENDBLK
  5
530
330
52E
100
AcDbEntity
  8
0
100
AcDbBlockEnd
  0
BLOCK
  5
539
330
538
100
AcDbEntity
  8
0
100
AcDbBlockBegin
  2
_D_10
 70
     0
 10
0.0
 20
0.0
 30
0.0
  3
_D_10
  1

  0
LINE
  5
53B
330
538
100
AcDbEntity
  8
SLD-0
 62
     7
100
AcDbLine
 10
161.8381611368
 20
284.2873780712
 30
0.0
 11
161.8381611368
 21
254.3819478479
 31
0.0
  0
LINE
  5
53C
330
538
100
AcDbEntity
  8
SLD-0
 62
     7
100
AcDbLine
 10
176.8381611368
 20
291.1781546443
 30
0.0
 11
176.8381611368
 21
254.3819478479
 31
0.0
  0
LINE
  5
53D
330
538
100
AcDbEntity
  8
SLD-0
 62
     7
100
AcDbLine
 10
161.8381611368
 20
256.3819478479
 30
0.0
 11
176.8381611368
 21
256.3819478479
 31
0.0
  0
LINE
  5
53E
330
538
100
AcDbEntity
  8
SLD-0
 62
     7
100
AcDbLine
 10
176.8381611368
 20
256.3819478479
 30
0.0
 11
194.3685840539
 21
256.3819478479
 31
0.0
  0
MTEXT
  5
53F
330
538
100
AcDbEntity
  8
SLD-0
 62
     7
100
AcDbMText
 10
180.8515893171
 20
265.3300406717
 30
0.0
 40
7.0
 41
0.0
 71
     1
 72
     1
  1
15
  7
SLDTEXTSTYLE3
 73
     1
 44
1.0
  0
SOLID
  5
540
330
538
100
AcDbEntity
  8
SLD-0
 62
     7
100
AcDbTrace
 10
161.8381611368
 20
256.3819478479
 30
0.0
 11
166.8381611368
 21
255.7619478479
 31
0.0
 12
166.8381611368
 22
257.0019478479
 32
0.0
 13
166.8381611368
 23
257.0019478479
 33
0.0
  0
SOLID
  5
541
330
538
100
AcDbEntity
  8
SLD-0
 62
     7
100
AcDbTrace
 10
176.8381611368
 20
256.3819478479
 30
0.0
 11
171.8381611368
 21
257.0019478479
 31
0.0
 12
171.8381611368
 22
255.7619478479
 32
0.0
 13
171.8381611368
 23
255.7619478479
 33
0.0
  0
ENDBLK
  5
53A
330
538
100
AcDbEntity
  8
0
100
AcDbBlockEnd
  0
BLOCK
  5
544
330
543
100
AcDbEntity
  8
0
100
AcDbBlockBegin
  2
_D_11
 70
     0
 10
0.0
 20
0.0
 30
0.0
  3
_D_11
  1

  0
SOLID
  5
546
330
543
100
AcDbEntity
  8
SLD-0
 62
     7
100
AcDbTrace
 10
231.3997065284
 20
414.1781546443
 30
0.0
 11
231.9077065284
 21
417.4801546443
 31
0.0
 12
230.8917065284
 22
417.4801546443
 32
0.0
 13
230.8917065284
 23
417.4801546443
 33
0.0
  0
SOLID
  5
547
330
543
100
AcDbEntity
  8
SLD-0
 62
     7
100
AcDbTrace
 10
231.3997065284
 20
460.3781546443
 30
0.0
 11
230.8917065284
 21
457.0761546443
 31
0.0
 12
231.9077065284
 22
457.0761546443
 32
0.0
 13
231.9077065284
 23
457.0761546443
 33
0.0
  0
LINE
  5
548
330
543
100
AcDbEntity
  8
SLD-0
 62
     7
100
AcDbLine
 10
171.3881611368
 20
414.1781546443
 30
0.0
 11
232.3997065284
 21
414.1781546443
 31
0.0
  0
LINE
  5
549
330
543
100
AcDbEntity
  8
SLD-0
 62
     7
100
AcDbLine
 10
158.9381611368
 20
460.3781546443
 30
0.0
 11
232.3997065284
 21
460.3781546443
 31
0.0
  0
LINE
  5
54A
330
543
100
AcDbEntity
  8
SLD-0
 62
     7
100
AcDbLine
 10
231.3997065284
 20
414.1781546443
 30
0.0
 11
231.3997065284
 21
460.3781546443
 31
0.0
  0
MTEXT
  5
54B
330
543
100
AcDbEntity
  8
SLD-0
 62
     7
100
AcDbMText
 10
222.37623235
 20
430.9688991528
 30
0.0
 40
7.0
 41
0.0
 71
     1
 72
     1
  1
46
  7
SLDTEXTSTYLE3
 11
6.123233995736766E-17
 21
1.0
 31
0.0
 73
     1
 44
1.0
  0
ENDBLK
  5
545
330
543
100
AcDbEntity
  8
0
100
AcDbBlockEnd
  0
BLOCK
  5
54E
330
54D
100
AcDbEntity
  8
0
100
AcDbBlockBegin
  2
_D_12
 70
     0
 10
0.0
 20
0.0
 30
0.0
  3
_D_12
  1

  0
LINE
  5
550
330
54D
100
AcDbEntity
  8
SLD-0
 62
     7
100
AcDbLine
 10
163.4881611368
 20
410.1281546443
 30
0.0
 11
148.5461698465
 21
410.1281546443
 31
0.0
  0
LINE
  5
551
330
54D
100
AcDbEntity
  8
SLD-0
 62
     7
100
AcDbLine
 10
157.7881611368
 20
418.2281546443
 30
0.0
 11
148.5461698465
 21
418.2281546443
 31
0.0
  0
LINE
  5
552
330
54D
100
AcDbEntity
  8
SLD-0
 62
     7
100
AcDbLine
 10
150.5461698465
 20
410.1281546443
 30
0.0
 11
150.5461698465
 21
401.1281546443
 31
0.0
  0
LINE
  5
553
330
54D
100
AcDbEntity
  8
SLD-0
 62
     7
100
AcDbLine
 10
150.5461698465
 20
410.1281546443
 30
0.0
 11
150.5461698465
 21
418.2281546443
 31
0.0
  0
LINE
  5
554
330
54D
100
AcDbEntity
  8
SLD-0
 62
     7
100
AcDbLine
 10
150.5461698465
 20
418.2281546443
 30
0.0
 11
150.5461698465
 21
442.9340939602
 31
0.0
  0
LINE
  5
555
330
54D
100
AcDbEntity
  8
SLD-0
 62
     7
100
AcDbLine
 10
147.7871854815
 20
422.421569937
 30
0.0
 11
147.7871854815
 21
427.786413657
 31
0.0
  0
LINE
  5
556
330
54D
100
AcDbEntity
  8
SLD-0
 62
     7
100
AcDbLine
 10
147.7871854815
 20
422.421569937
 30
0.0
 11
142.4223417615
 21
422.421569937
 31
0.0
  0
LINE
  5
557
330
54D
100
AcDbEntity
  8
SLD-0
 62
     7
100
AcDbLine
 10
142.4223417615
 20
422.421569937
 30
0.0
 11
142.4223417615
 21
427.786413657
 31
0.0
  0
LINE
  5
558
330
54D
100
AcDbEntity
  8
SLD-0
 62
     7
100
AcDbLine
 10
142.4223417615
 20
427.786413657
 30
0.0
 11
147.7871854815
 21
427.786413657
 31
0.0
  0
MTEXT
  5
559
330
54D
100
AcDbEntity
  8
SLD-0
 62
     7
100
AcDbMText
 10
141.5980770227
 20
430.6274097497
 30
0.0
 40
7.0
 41
0.0
 71
     1
 72
     1
  1
8
  7
SLDTEXTSTYLE3
 11
6.123233995736766E-17
 21
1.0
 31
0.0
 73
     1
 44
1.0
  0
MTEXT
  5
55A
330
54D
100
AcDbEntity
  8
SLD-0
 62
     7
100
AcDbMText
 10
141.5980770227
 20
435.7947834339
 30
0.0
 40
7.0
 41
0.0
 71
     1
 72
     1
  1
*
  7
SLDTEXTSTYLE3
 11
6.123233995736766E-17
 21
1.0
 31
0.0
 73
     1
 44
1.0
  0
SOLID
  5
55B
330
54D
100
AcDbEntity
  8
SLD-0
 62
     7
100
AcDbTrace
 10
150.5461698465
 20
410.1281546443
 30
0.0
 11
149.9261698465
 21
405.1281546443
 31
0.0
 12
151.1661698465
 22
405.1281546443
 32
0.0
 13
151.1661698465
 23
405.1281546443
 33
0.0
  0
SOLID
  5
55C
330
54D
100
AcDbEntity
  8
SLD-0
 62
     7
100
AcDbTrace
 10
150.5461698465
 20
418.2281546443
 30
0.0
 11
151.1661698465
 21
423.2281546443
 31
0.0
 12
149.9261698465
 22
423.2281546443
 32
0.0
 13
149.9261698465
 23
423.2281546443
 33
0.0
  0
ENDBLK
  5
54F
330
54D
100
AcDbEntity
  8
0
100
AcDbBlockEnd
  0
BLOCK
  5
560
330
55F
100
AcDbEntity
  8
0
100
AcDbBlockBegin
  2
_D_13
 70
     0
 10
0.0
 20
0.0
 30
0.0
  3
_D_13
  1

  0
LINE
  5
562
330
55F
100
AcDbEntity
  8
SLD-0
 62
     7
100
AcDbLine
 10
126.8381611368
 20
262.1781546443
 30
0.0
 11
126.8381611368
 21
254.3819478479
 31
0.0
  0
LINE
  5
563
330
55F
100
AcDbEntity
  8
SLD-0
 62
     7
100
AcDbLine
 10
161.8381611368
 20
313.4781546443
 30
0.0
 11
161.8381611368
 21
254.3819478479
 31
0.0
  0
LINE
  5
564
330
55F
100
AcDbEntity
  8
SLD-0
 62
     7
100
AcDbLine
 10
126.8381611368
 20
256.3819478479
 30
0.0
 11
161.8381611368
 21
256.3819478479
 31
0.0
  0
MTEXT
  5
565
330
55F
100
AcDbEntity
  8
SLD-0
 62
     7
100
AcDbMText
 10
135.8727999185
 20
265.3300406717
 30
0.0
 40
7.0
 41
0.0
 71
     1
 72
     1
  1
Dm
  7
SLDTEXTSTYLE3
 73
     1
 44
1.0
  0
SOLID
  5
566
330
55F
100
AcDbEntity
  8
SLD-0
 62
     7
100
AcDbTrace
 10
126.8381611368
 20
256.3819478479
 30
0.0
 11
131.8381611368
 21
255.7619478479
 31
0.0
 12
131.8381611368
 22
257.0019478479
 32
0.0
 13
131.8381611368
 23
257.0019478479
 33
0.0
  0
SOLID
  5
567
330
55F
100
AcDbEntity
  8
SLD-0
 62
     7
100
AcDbTrace
 10
161.8381611368
 20
256.3819478479
 30
0.0
 11
156.8381611368
 21
257.0019478479
 31
0.0
 12
156.8381611368
 22
255.7619478479
 32
0.0
 13
156.8381611368
 23
255.7619478479
 33
0.0
  0
ENDBLK
  5
561
330
55F
100
AcDbEntity
  8
0
100
AcDbBlockEnd
  0
BLOCK
  5
56A
330
569
100
AcDbEntity
  8
0
100
AcDbBlockBegin
  2
_D_14
 70
     0
 10
0.0
 20
0.0
 30
0.0
  3
_D_14
  1

  0
LINE
  5
56C
330
569
100
AcDbEntity
  8
SLD-0
 62
     7
100
AcDbLine
 10
112.8381611368
 20
366.1781546443
 30
0.0
 11
97.6518306063
 21
366.1781546443
 31
0.0
  0
LINE
  5
56D
330
569
100
AcDbEntity
  8
SLD-0
 62
     7
100
AcDbLine
 10
112.8381611368
 20
331.1781546443
 30
0.0
 11
97.6518306063
 21
331.1781546443
 31
0.0
  0
LINE
  5
56E
330
569
100
AcDbEntity
  8
SLD-0
 62
     7
100
AcDbLine
 10
99.6518306063
 20
366.1781546443
 30
0.0
 11
99.6518306063
 21
331.1781546443
 31
0.0
  0
MTEXT
  5
56F
330
569
100
AcDbEntity
  8
SLD-0
 62
     7
100
AcDbMText
 10
90.7037377825
 20
346.5735157984
 30
0.0
 40
7.0
 41
0.0
 71
     1
 72
     1
  1
35
  7
SLDTEXTSTYLE3
 11
6.123233995736766E-17
 21
1.0
 31
0.0
 73
     1
 44
1.0
  0
SOLID
  5
570
330
569
100
AcDbEntity
  8
SLD-0
 62
     7
100
AcDbTrace
 10
99.6518306063
 20
366.1781546443
 30
0.0
 11
99.0318306063
 21
361.1781546443
 31
0.0
 12
100.2718306063
 22
361.1781546443
 32
0.0
 13
100.2718306063
 23
361.1781546443
 33
0.0
  0
SOLID
  5
571
330
569
100
AcDbEntity
  8
SLD-0
 62
     7
100
AcDbTrace
 10
99.6518306063
 20
331.1781546443
 30
0.0
 11
100.2718306063
 21
336.1781546443
 31
0.0
 12
99.0318306063
 22
336.1781546443
 32
0.0
 13
99.0318306063
 23
336.1781546443
 33
0.0
  0
ENDBLK
  5
56B
330
569
100
AcDbEntity
  8
0
100
AcDbBlockEnd
  0
BLOCK
  5
574
330
573
100
AcDbEntity
  8
0
100
AcDbBlockBegin
  2
_D_15
 70
     0
 10
0.0
 20
0.0
 30
0.0
  3
_D_15
  1

  0
LINE
  5
576
330
573
100
AcDbEntity
  8
SLD-0
 62
     7
100
AcDbLine
 10
111.8381611368
 20
332.1781546443
 30
0.0
 11
111.8381611368
 21
315.5291953113
 31
0.0
  0
LINE
  5
577
330
573
100
AcDbEntity
  8
SLD-0
 62
     7
100
AcDbLine
 10
111.8381611368
 20
317.5291953113
 30
0.0
 11
102.8381611368
 21
317.5291953113
 31
0.0
  0
LINE
  5
578
330
573
100
AcDbEntity
  8
SLD-0
 62
     7
100
AcDbLine
 10
111.8381611368
 20
317.5291953113
 30
0.0
 11
126.8381611368
 21
317.5291953113
 31
0.0
  0
LINE
  5
579
330
573
100
AcDbEntity
  8
SLD-0
 62
     7
100
AcDbLine
 10
126.8381611368
 20
317.5291953113
 30
0.0
 11
135.8381611368
 21
317.5291953113
 31
0.0
  0
MTEXT
  5
57A
330
573
100
AcDbEntity
  8
SLD-0
 62
     7
100
AcDbMText
 10
113.0150477308
 20
326.4772881351
 30
0.0
 40
7.0
 41
0.0
 71
     1
 72
     1
  1
15
  7
SLDTEXTSTYLE3
 73
     1
 44
1.0
  0
SOLID
  5
57B
330
573
100
AcDbEntity
  8
SLD-0
 62
     7
100
AcDbTrace
 10
111.8381611368
 20
317.5291953113
 30
0.0
 11
106.8381611368
 21
318.1491953113
 31
0.0
 12
106.8381611368
 22
316.9091953113
 32
0.0
 13
106.8381611368
 23
316.9091953113
 33
0.0
  0
SOLID
  5
57C
330
573
100
AcDbEntity
  8
SLD-0
 62
     7
100
AcDbTrace
 10
126.8381611368
 20
317.5291953113
 30
0.0
 11
131.8381611368
 21
316.9091953113
 31
0.0
 12
131.8381611368
 22
318.1491953113
 32
0.0
 13
131.8381611368
 23
318.1491953113
 33
0.0
  0
ENDBLK
  5
575
330
573
100
AcDbEntity
  8
0
100
AcDbBlockEnd
  0
BLOCK
  5
57F
330
57E
100
AcDbEntity
  8
0
100
AcDbBlockBegin
  2
_D_16
 70
     0
 10
0.0
 20
0.0
 30
0.0
  3
_D_16
  1

  0
LINE
  5
581
330
57E
100
AcDbEntity
  8
SLD-0
 62
     7
100
AcDbLine
 10
126.8381611368
 20
507.1781546443
 30
0.0
 11
97.5963516407
 21
507.1781546443
 31
0.0
  0
LINE
  5
582
330
57E
100
AcDbEntity
  8
SLD-0
 62
     7
100
AcDbLine
 10
116.0381611368
 20
463.1781546443
 30
0.0
 11
97.5963516407
 21
463.1781546443
 31
0.0
  0
LINE
  5
583
330
57E
100
AcDbEntity
  8
SLD-0
 62
     7
100
AcDbLine
 10
99.5963516407
 20
507.1781546443
 30
0.0
 11
99.5963516407
 21
463.1781546443
 31
0.0
  0
MTEXT
  5
584
330
57E
100
AcDbEntity
  8
SLD-0
 62
     7
100
AcDbMText
 10
90.6482588169
 20
481.0850616943
 30
0.0
 40
7.0
 41
0.0
 71
     1
 72
     1
  1
44
  7
SLDTEXTSTYLE3
 11
6.123233995736766E-17
 21
1.0
 31
0.0
 73
     1
 44
1.0
  0
SOLID
  5
585
330
57E
100
AcDbEntity
  8
SLD-0
 62
     7
100
AcDbTrace
 10
99.5963516407
 20
507.1781546443
 30
0.0
 11
98.9763516407
 21
502.1781546443
 31
0.0
 12
100.2163516407
 22
502.1781546443
 32
0.0
 13
100.2163516407
 23
502.1781546443
 33
0.0
  0
SOLID
  5
586
330
57E
100
AcDbEntity
  8
SLD-0
 62
     7
100
AcDbTrace
 10
99.5963516407
 20
463.1781546443
 30
0.0
 11
100.2163516407
 21
468.1781546443
 31
0.0
 12
98.9763516407
 22
468.1781546443
 32
0.0
 13
98.9763516407
 23
468.1781546443
 33
0.0
  0
ENDBLK
  5
580
330
57E
100
AcDbEntity
  8
0
100
AcDbBlockEnd
  0
BLOCK
  5
58A
330
589
100
AcDbEntity
  8
0
100
AcDbBlockBegin
  2
_D_17
 70
     0
 10
0.0
 20
0.0
 30
0.0
  3
_D_17
  1

  0
ARC
  5
58C
330
589
100
AcDbEntity
  8
SLD-0
 62
     7
100
AcDbCircle
 10
129.8381611368
 20
187.4387746549
 30
0.0
 40
33.17833769016664
100
AcDbArc
 50
270.0
 51
0.0
  0
LINE
  5
58D
330
589
100
AcDbEntity
  8
SLD-0
 62
     7
100
AcDbLine
 10
129.8381611368
 20
175.2887746549
 30
0.0
 11
129.8381611368
 21
152.2604369647
 31
0.0
  0
MTEXT
  5
58E
330
589
100
AcDbEntity
  8
SLD-0
 62
     7
100
AcDbMText
 10
138.4537343748
 20
163.7233235261
 30
0.0
 40
7.0
 41
0.0
 71
     1
 72
     1
  1
90°
  7
SLDTEXTSTYLE3
 11
0.8073298350837104
 21
0.5901004468594385
 31
0.0
 73
     1
 44
1.0
  0
SOLID
  5
58F
330
589
100
AcDbEntity
  8
SLD-0
 62
     7
100
AcDbTrace
 10
129.8381611368
 20
154.2604369647
 30
0.0
 11
134.8705097894
 21
154.0157595477
 31
0.0
 12
134.7778595925
 22
155.2522933892
 32
0.0
 13
134.7778595925
 23
155.2522933892
 33
0.0
  0
SOLID
  5
590
330
589
100
AcDbEntity
  8
SLD-0
 62
     7
100
AcDbTrace
 10
163.0164988269
 20
187.4387746549
 30
0.0
 11
162.0246424025
 21
182.4990761992
 31
0.0
 12
163.2611762439
 22
182.4064260023
 32
0.0
 13
163.2611762439
 23
182.4064260023
 33
0.0
  0
ENDBLK
  5
58B
330
589
100
AcDbEntity
  8
0
100
AcDbBlockEnd
  0
BLOCK
  5
593
330
592
100
AcDbEntity
  8
0
100
AcDbBlockBegin
  2
_D_18
 70
     0
 10
0.0
 20
0.0
 30
0.0
  3
_D_18
  1

  0
LINE
  5
595
330
592
100
AcDbEntity
  8
SLD-0
 62
     7
100
AcDbLine
 10
174.3881611368
 20
196.1887746549
 30
0.0
 11
220.4309289145
 21
196.1887746549
 31
0.0
  0
LINE
  5
596
330
592
100
AcDbEntity
  8
SLD-0
 62
     7
100
AcDbLine
 10
172.9381611368
 20
179.7887746549
 30
0.0
 11
220.4309289145
 21
179.7887746549
 31
0.0
  0
LINE
  5
597
330
592
100
AcDbEntity
  8
SLD-0
 62
     7
100
AcDbLine
 10
218.4309289145
 20
196.1887746549
 30
0.0
 11
218.4309289145
 21
224.8752046205
 31
0.0
  0
LINE
  5
598
330
592
100
AcDbEntity
  8
SLD-0
 62
     7
100
AcDbLine
 10
218.4309289145
 20
196.1887746549
 30
0.0
 11
218.4309289145
 21
179.7887746549
 31
0.0
  0
MTEXT
  5
599
330
592
100
AcDbEntity
  8
SLD-0
 62
     7
100
AcDbMText
 10
209.4828360907
 20
203.6035256731
 30
0.0
 40
7.0
 41
0.0
 71
     1
 72
     1
  1
16,5
  7
SLDTEXTSTYLE3
 11
6.123233995736766E-17
 21
1.0
 31
0.0
 73
     1
 44
1.0
  0
SOLID
  5
59A
330
592
100
AcDbEntity
  8
SLD-0
 62
     7
100
AcDbTrace
 10
218.4309289145
 20
196.1887746549
 30
0.0
 11
217.8109289145
 21
191.1887746549
 31
0.0
 12
219.0509289145
 22
191.1887746549
 32
0.0
 13
219.0509289145
 23
191.1887746549
 33
0.0
  0
SOLID
  5
59B
330
592
100
AcDbEntity
  8
SLD-0
 62
     7
100
AcDbTrace
 10
218.4309289145
 20
179.7887746549
 30
0.0
 11
219.0509289145
 21
184.7887746549
 31
0.0
 12
217.8109289145
 22
184.7887746549
 32
0.0
 13
217.8109289145
 23
184.7887746549
 33
0.0
  0
ENDBLK
  5
594
330
592
100
AcDbEntity
  8
0
100
AcDbBlockEnd
  0
BLOCK
  5
59E
330
59D
100
AcDbEntity
  8
0
100
AcDbBlockBegin
  2
_D_19
 70
     0
 10
0.0
 20
0.0
 30
0.0
  3
_D_19
  1

  0
LINE
  5
5A0
330
59D
100
AcDbEntity
  8
SLD-0
 62
     7
100
AcDbLine
 10
176.8381611368
 20
195.1887746549
 30
0.0
 11
203.9750792825
 21
195.1887746549
 31
0.0
  0
LINE
  5
5A1
330
59D
100
AcDbEntity
  8
SLD-0
 62
     7
100
AcDbLine
 10
176.8381611368
 20
193.6887746549
 30
0.0
 11
203.9750792825
 21
193.6887746549
 31
0.0
  0
LINE
  5
5A2
330
59D
100
AcDbEntity
  8
SLD-0
 62
     7
100
AcDbLine
 10
201.9750792825
 20
195.1887746549
 30
0.0
 11
201.9750792825
 21
212.7754636353
 31
0.0
  0
LINE
  5
5A3
330
59D
100
AcDbEntity
  8
SLD-0
 62
     7
100
AcDbLine
 10
201.9750792825
 20
195.1887746549
 30
0.0
 11
201.9750792825
 21
193.6887746549
 31
0.0
  0
LINE
  5
5A4
330
59D
100
AcDbEntity
  8
SLD-0
 62
     7
100
AcDbLine
 10
201.9750792825
 20
193.6887746549
 30
0.0
 11
201.9750792825
 21
184.6887746549
 31
0.0
  0
MTEXT
  5
5A5
330
59D
100
AcDbEntity
  8
SLD-0
 62
     7
100
AcDbMText
 10
193.0269864587
 20
199.8449083662
 30
0.0
 40
7.0
 41
0.0
 71
     1
 72
     1
  1
1,5
  7
SLDTEXTSTYLE3
 11
6.123233995736766E-17
 21
1.0
 31
0.0
 73
     1
 44
1.0
  0
SOLID
  5
5A6
330
59D
100
AcDbEntity
  8
SLD-0
 62
     7
100
AcDbTrace
 10
201.9750792825
 20
195.1887746549
 30
0.0
 11
202.5950792825
 21
200.1887746549
 31
0.0
 12
201.3550792825
 22
200.1887746549
 32
0.0
 13
201.3550792825
 23
200.1887746549
 33
0.0
  0
SOLID
  5
5A7
330
59D
100
AcDbEntity
  8
SLD-0
 62
     7
100
AcDbTrace
 10
201.9750792825
 20
193.6887746549
 30
0.0
 11
201.3550792825
 21
188.6887746549
 31
0.0
 12
202.5950792825
 22
188.6887746549
 32
0.0
 13
202.5950792825
 23
188.6887746549
 33
0.0
  0
ENDBLK
  5
59F
330
59D
100
AcDbEntity
  8
0
100
AcDbBlockEnd
  0
BLOCK
  5
5AA
330
5A9
100
AcDbEntity
  8
0
100
AcDbBlockBegin
  2
_D_20
 70
     0
 10
0.0
 20
0.0
 30
0.0
  3
_D_20
  1

  0
LINE
  5
5AC
330
5A9
100
AcDbEntity
  8
SLD-0
 62
     7
100
AcDbLine
 10
129.8381611368
 20
199.2887746549
 30
0.0
 11
129.8381611368
 21
209.465251502
 31
0.0
  0
LINE
  5
5AD
330
5A9
100
AcDbEntity
  8
SLD-0
 62
     7
100
AcDbLine
 10
126.8381611368
 20
199.2887746549
 30
0.0
 11
126.8381611368
 21
209.465251502
 31
0.0
  0
LINE
  5
5AE
330
5A9
100
AcDbEntity
  8
SLD-0
 62
     7
100
AcDbLine
 10
129.8381611368
 20
207.465251502
 30
0.0
 11
138.8381611368
 21
207.465251502
 31
0.0
  0
LINE
  5
5AF
330
5A9
100
AcDbEntity
  8
SLD-0
 62
     7
100
AcDbLine
 10
129.8381611368
 20
207.465251502
 30
0.0
 11
126.8381611368
 21
207.465251502
 31
0.0
  0
LINE
  5
5B0
330
5A9
100
AcDbEntity
  8
SLD-0
 62
     7
100
AcDbLine
 10
126.8381611368
 20
207.465251502
 30
0.0
 11
117.8381611368
 21
207.465251502
 31
0.0
  0
MTEXT
  5
5B1
330
5A9
100
AcDbEntity
  8
SLD-0
 62
     7
100
AcDbMText
 10
125.8616528596
 20
216.4133443258
 30
0.0
 40
7.0
 41
0.0
 71
     1
 72
     1
  1
3
  7
SLDTEXTSTYLE3
 73
     1
 44
1.0
  0
SOLID
  5
5B2
330
5A9
100
AcDbEntity
  8
SLD-0
 62
     7
100
AcDbTrace
 10
129.8381611368
 20
207.465251502
 30
0.0
 11
134.8381611368
 21
206.845251502
 31
0.0
 12
134.8381611368
 22
208.085251502
 32
0.0
 13
134.8381611368
 23
208.085251502
 33
0.0
  0
SOLID
  5
5B3
330
5A9
100
AcDbEntity
  8
SLD-0
 62
     7
100
AcDbTrace
 10
126.8381611368
 20
207.465251502
 30
0.0
 11
121.8381611368
 21
208.085251502
 31
0.0
 12
121.8381611368
 22
206.845251502
 32
0.0
 13
121.8381611368
 23
206.845251502
 33
0.0
  0
ENDBLK
  5
5AB
330
5A9
100
AcDbEntity
  8
0
100
AcDbBlockEnd
  0
BLOCK
  5
5B6
330
5B5
100
AcDbEntity
  8
0
100
AcDbBlockBegin
  2
_D_21
 70
     0
 10
0.0
 20
0.0
 30
0.0
  3
_D_21
  1

  0
LINE
  5
5B8
330
5B5
100
AcDbEntity
  8
SLD-0
 62
     7
100
AcDbLine
 10
290.6815598788
 20
262.1781546443
 30
0.0
 11
290.6815598788
 21
236.4890621893
 31
0.0
  0
LINE
  5
5B9
330
5B5
100
AcDbEntity
  8
SLD-0
 62
     7
100
AcDbLine
 10
314.6815598788
 20
262.1781546443
 30
0.0
 11
314.6815598788
 21
236.4890621893
 31
0.0
  0
LINE
  5
5BA
330
5B5
100
AcDbEntity
  8
SLD-0
 62
     7
100
AcDbLine
 10
290.6815598788
 20
238.4890621893
 30
0.0
 11
314.6815598788
 21
238.4890621893
 31
0.0
  0
LINE
  5
5BB
330
5B5
100
AcDbEntity
  8
SLD-0
 62
     7
100
AcDbLine
 10
314.6815598788
 20
238.4890621893
 30
0.0
 11
369.902359754
 21
238.4890621893
 31
0.0
  0
MTEXT
  5
5BC
330
5B5
100
AcDbEntity
  8
SLD-0
 62
     7
100
AcDbMText
 10
320.7662463785
 20
247.4371550131
 30
0.0
 40
7.0
 41
0.0
 71
     1
 72
     1
  1
16,20,22,24
  7
SLDTEXTSTYLE3
 73
     1
 44
1.0
  0
SOLID
  5
5BD
330
5B5
100
AcDbEntity
  8
SLD-0
 62
     7
100
AcDbTrace
 10
290.6815598788
 20
238.4890621893
 30
0.0
 11
295.6815598788
 21
237.8690621893
 31
0.0
 12
295.6815598788
 22
239.1090621893
 32
0.0
 13
295.6815598788
 23
239.1090621893
 33
0.0
  0
SOLID
  5
5BE
330
5B5
100
AcDbEntity
  8
SLD-0
 62
     7
100
AcDbTrace
 10
314.6815598788
 20
238.4890621893
 30
0.0
 11
309.6815598788
 21
239.1090621893
 31
0.0
 12
309.6815598788
 22
237.8690621893
 32
0.0
 13
309.6815598788
 23
237.8690621893
 33
0.0
  0
ENDBLK
  5
5B7
330
5B5
100
AcDbEntity
  8
0
100
AcDbBlockEnd
  0
BLOCK
  5
5C1
330
5C0
100
AcDbEntity
  8
0
100
AcDbBlockBegin
  2
_D_22
 70
     0
 10
0.0
 20
0.0
 30
0.0
  3
_D_22
  1

  0
LINE
  5
5C3
330
5C0
100
AcDbEntity
  8
SLD-0
 62
     7
100
AcDbLine
 10
314.6815598788
 20
507.1781546443
 30
0.0
 11
364.6815598788
 21
507.1781546443
 31
0.0
  0
LINE
  5
5C4
330
5C0
100
AcDbEntity
  8
SLD-0
 62
     7
100
AcDbLine
 10
314.6815598788
 20
262.1781546443
 30
0.0
 11
364.6815598788
 21
262.1781546443
 31
0.0
  0
LINE
  5
5C5
330
5C0
100
AcDbEntity
  8
SLD-0
 62
     7
100
AcDbLine
 10
362.6815598788
 20
507.1781546443
 30
0.0
 11
362.6815598788
 21
262.1781546443
 31
0.0
  0
MTEXT
  5
5C6
330
5C0
100
AcDbEntity
  8
SLD-0
 62
     7
100
AcDbMText
 10
353.7334670551
 20
373.2252253192
 30
0.0
 40
7.0
 41
0.0
 71
     1
 72
     1
  1
245
  7
SLDTEXTSTYLE3
 11
6.123233995736766E-17
 21
1.0
 31
0.0
 73
     1
 44
1.0
  0
SOLID
  5
5C7
330
5C0
100
AcDbEntity
  8
SLD-0
 62
     7
100
AcDbTrace
 10
362.6815598788
 20
507.1781546443
 30
0.0
 11
362.0615598788
 21
502.1781546443
 31
0.0
 12
363.3015598788
 22
502.1781546443
 32
0.0
 13
363.3015598788
 23
502.1781546443
 33
0.0
  0
SOLID
  5
5C8
330
5C0
100
AcDbEntity
  8
SLD-0
 62
     7
100
AcDbTrace
 10
362.6815598788
 20
262.1781546443
 30
0.0
 11
363.3015598788
 21
267.1781546443
 31
0.0
 12
362.0615598788
 22
267.1781546443
 32
0.0
 13
362.0615598788
 23
267.1781546443
 33
0.0
  0
ENDBLK
  5
5C2
330
5C0
100
AcDbEntity
  8
0
100
AcDbBlockEnd
  0
BLOCK
  5
5CB
330
5CA
100
AcDbEntity
  8
0
100
AcDbBlockBegin
  2
_D_23
 70
     0
 10
0.0
 20
0.0
 30
0.0
  3
_D_23
  1

  0
LINE
  5
5CD
330
5CA
100
AcDbEntity
  8
SLD-0
 62
     7
100
AcDbLine
 10
307.7815598788
 20
274.1781546443
 30
0.0
 11
347.3343030662
 21
274.1781546443
 31
0.0
  0
LINE
  5
5CE
330
5CA
100
AcDbEntity
  8
SLD-0
 62
     7
100
AcDbLine
 10
307.7815598788
 20
495.1781546443
 30
0.0
 11
347.3343030662
 21
495.1781546443
 31
0.0
  0
LINE
  5
5CF
330
5CA
100
AcDbEntity
  8
SLD-0
 62
     7
100
AcDbLine
 10
345.3343030662
 20
274.1781546443
 30
0.0
 11
345.3343030662
 21
495.1781546443
 31
0.0
  0
MTEXT
  5
5D0
330
5CA
100
AcDbEntity
  8
SLD-0
 62
     7
100
AcDbMText
 10
336.3862102425
 20
373.2252253192
 30
0.0
 40
7.0
 41
0.0
 71
     1
 72
     1
  1
221
  7
SLDTEXTSTYLE3
 11
6.123233995736766E-17
 21
1.0
 31
0.0
 73
     1
 44
1.0
  0
SOLID
  5
5D1
330
5CA
100
AcDbEntity
  8
SLD-0
 62
     7
100
AcDbTrace
 10
345.3343030662
 20
274.1781546443
 30
0.0
 11
345.9543030662
 21
279.1781546443
 31
0.0
 12
344.7143030662
 22
279.1781546443
 32
0.0
 13
344.7143030662
 23
279.1781546443
 33
0.0
  0
SOLID
  5
5D2
330
5CA
100
AcDbEntity
  8
SLD-0
 62
     7
100
AcDbTrace
 10
345.3343030662
 20
495.1781546443
 30
0.0
 11
344.7143030662
 21
490.1781546443
 31
0.0
 12
345.9543030662
 22
490.1781546443
 32
0.0
 13
345.9543030662
 23
490.1781546443
 33
0.0
  0
ENDBLK
  5
5CC
330
5CA
100
AcDbEntity
  8
0
100
AcDbBlockEnd
  0
BLOCK
  5
5D5
330
5D4
100
AcDbEntity
  8
0
100
AcDbBlockBegin
  2
_D_24
 70
     0
 10
0.0
 20
0.0
 30
0.0
  3
_D_24
  1

  0
LINE
  5
5D7
330
5D4
100
AcDbEntity
  8
SLD-0
 62
     7
100
AcDbLine
 10
298.5315598788
 20
365.8781546443
 30
0.0
 11
298.5315598788
 21
377.5765390917
 31
0.0
  0
LINE
  5
5D8
330
5D4
100
AcDbEntity
  8
SLD-0
 62
     7
100
AcDbLine
 10
306.5315598788
 20
365.8781546443
 30
0.0
 11
306.5315598788
 21
377.5765390917
 31
0.0
  0
LINE
  5
5D9
330
5D4
100
AcDbEntity
  8
SLD-0
 62
     7
100
AcDbLine
 10
298.5315598788
 20
375.5765390917
 30
0.0
 11
279.7458044387
 21
375.5765390917
 31
0.0
  0
LINE
  5
5DA
330
5D4
100
AcDbEntity
  8
SLD-0
 62
     7
100
AcDbLine
 10
298.5315598788
 20
375.5765390917
 30
0.0
 11
306.5315598788
 21
375.5765390917
 31
0.0
  0
LINE
  5
5DB
330
5D4
100
AcDbEntity
  8
SLD-0
 62
     7
100
AcDbLine
 10
306.5315598788
 20
375.5765390917
 30
0.0
 11
315.5315598788
 21
375.5765390917
 31
0.0
  0
MTEXT
  5
5DC
330
5D4
100
AcDbEntity
  8
SLD-0
 62
     7
100
AcDbMText
 10
279.7458044387
 20
384.5246319155
 30
0.0
 40
7.0
 41
0.0
 71
     1
 72
     1
  1
8
  7
SLDTEXTSTYLE3
 73
     1
 44
1.0
  0
SOLID
  5
5DD
330
5D4
100
AcDbEntity
  8
SLD-0
 62
     7
100
AcDbTrace
 10
298.5315598788
 20
375.5765390917
 30
0.0
 11
293.5315598788
 21
376.1965390917
 31
0.0
 12
293.5315598788
 22
374.9565390917
 32
0.0
 13
293.5315598788
 23
374.9565390917
 33
0.0
  0
SOLID
  5
5DE
330
5D4
100
AcDbEntity
  8
SLD-0
 62
     7
100
AcDbTrace
 10
306.5315598788
 20
375.5765390917
 30
0.0
 11
311.5315598788
 21
374.9565390917
 31
0.0
 12
311.5315598788
 22
376.1965390917
 32
0.0
 13
311.5315598788
 23
376.1965390917
 33
0.0
  0
ENDBLK
  5
5D6
330
5D4
100
AcDbEntity
  8
0
100
AcDbBlockEnd
  0
BLOCK
  5
5E1
330
5E0
100
AcDbEntity
  8
0
100
AcDbBlockBegin
  2
_D_25
 70
     0
 10
0.0
 20
0.0
 30
0.0
  3
_D_25
  1

  0
LINE
  5
5E3
330
5E0
100
AcDbEntity
  8
SLD-0
 62
     7
100
AcDbLine
 10
290.6815598788
 20
507.1781546443
 30
0.0
 11
272.649599189
 21
507.1781546443
 31
0.0
  0
LINE
  5
5E4
330
5E0
100
AcDbEntity
  8
SLD-0
 62
     7
100
AcDbLine
 10
297.5815598788
 20
303.1781546443
 30
0.0
 11
272.649599189
 21
303.1781546443
 31
0.0
  0
LINE
  5
5E5
330
5E0
100
AcDbEntity
  8
SLD-0
 62
     7
100
AcDbLine
 10
274.649599189
 20
507.1781546443
 30
0.0
 11
274.649599189
 21
303.1781546443
 31
0.0
  0
MTEXT
  5
5E6
330
5E0
100
AcDbEntity
  8
SLD-0
 62
     7
100
AcDbMText
 10
265.7015063652
 20
397.1359111726
 30
0.0
 40
7.0
 41
0.0
 71
     1
 72
     1
  1
204
  7
SLDTEXTSTYLE3
 11
6.123233995736766E-17
 21
1.0
 31
0.0
 73
     1
 44
1.0
  0
SOLID
  5
5E7
330
5E0
100
AcDbEntity
  8
SLD-0
 62
     7
100
AcDbTrace
 10
274.649599189
 20
507.1781546443
 30
0.0
 11
274.029599189
 21
502.1781546443
 31
0.0
 12
275.269599189
 22
502.1781546443
 32
0.0
 13
275.269599189
 23
502.1781546443
 33
0.0
  0
SOLID
  5
5E8
330
5E0
100
AcDbEntity
  8
SLD-0
 62
     7
100
AcDbTrace
 10
274.649599189
 20
303.1781546443
 30
0.0
 11
275.269599189
 21
308.1781546443
 31
0.0
 12
274.029599189
 22
308.1781546443
 32
0.0
 13
274.029599189
 23
308.1781546443
 33
0.0
  0
ENDBLK
  5
5E2
330
5E0
100
AcDbEntity
  8
0
100
AcDbBlockEnd
  0
BLOCK
  5
5EB
330
5EA
100
AcDbEntity
  8
0
100
AcDbBlockBegin
  2
_D_26
 70
     0
 10
0.0
 20
0.0
 30
0.0
  3
_D_26
  1

  0
LINE
  5
5ED
330
5EA
100
AcDbEntity
  8
SLD-0
 62
     7
100
AcDbLine
 10
296.7315598788
 20
433.6781546443
 30
0.0
 11
296.7315598788
 21
421.6995784062
 31
0.0
  0
LINE
  5
5EE
330
5EA
100
AcDbEntity
  8
SLD-0
 62
     7
100
AcDbLine
 10
308.2315598788
 20
433.6781546443
 30
0.0
 11
308.2315598788
 21
421.6995784062
 31
0.0
  0
LINE
  5
5EF
330
5EA
100
AcDbEntity
  8
SLD-0
 62
     7
100
AcDbLine
 10
296.7315598788
 20
423.6995784062
 30
0.0
 11
287.7315598788
 21
423.6995784062
 31
0.0
  0
LINE
  5
5F0
330
5EA
100
AcDbEntity
  8
SLD-0
 62
     7
100
AcDbLine
 10
296.7315598788
 20
423.6995784062
 30
0.0
 11
308.2315598788
 21
423.6995784062
 31
0.0
  0
LINE
  5
5F1
330
5EA
100
AcDbEntity
  8
SLD-0
 62
     7
100
AcDbLine
 10
308.2315598788
 20
423.6995784062
 30
0.0
 11
336.4760064062
 21
423.6995784062
 31
0.0
  0
MTEXT
  5
5F2
330
5EA
100
AcDbEntity
  8
SLD-0
 62
     7
100
AcDbMText
 10
318.3732282844
 20
432.6476712299
 30
0.0
 40
7.0
 41
0.0
 71
     1
 72
     1
  1
11,5
  7
SLDTEXTSTYLE3
 73
     1
 44
1.0
  0
SOLID
  5
5F3
330
5EA
100
AcDbEntity
  8
SLD-0
 62
     7
100
AcDbTrace
 10
296.7315598788
 20
423.6995784062
 30
0.0
 11
291.7315598788
 21
424.3195784062
 31
0.0
 12
291.7315598788
 22
423.0795784062
 32
0.0
 13
291.7315598788
 23
423.0795784062
 33
0.0
  0
SOLID
  5
5F4
330
5EA
100
AcDbEntity
  8
SLD-0
 62
     7
100
AcDbTrace
 10
308.2315598788
 20
423.6995784062
 30
0.0
 11
313.2315598788
 21
423.0795784062
 31
0.0
 12
313.2315598788
 22
424.3195784062
 32
0.0
 13
313.2315598788
 23
424.3195784062
 33
0.0
  0
ENDBLK
  5
5EC
330
5EA
100
AcDbEntity
  8
0
100
AcDbBlockEnd
  0
BLOCK
  5
5F7
330
5F6
100
AcDbEntity
  8
0
100
AcDbBlockBegin
  2
_D_27
 70
     0
 10
0.0
 20
0.0
 30
0.0
  3
_D_27
  1

  0
LINE
  5
5F9
330
5F6
100
AcDbEntity
  8
SLD-0
 62
     7
100
AcDbLine
 10
314.6815598788
 20
507.1781546443
 30
0.0
 11
338.4615145997
 21
507.1781546443
 31
0.0
  0
LINE
  5
5FA
330
5F6
100
AcDbEntity
  8
SLD-0
 62
     7
100
AcDbLine
 10
307.7815598788
 20
495.1781546443
 30
0.0
 11
338.4615145997
 21
495.1781546443
 31
0.0
  0
LINE
  5
5FB
330
5F6
100
AcDbEntity
  8
SLD-0
 62
     7
100
AcDbLine
 10
336.4615145997
 20
507.1781546443
 30
0.0
 11
336.4615145997
 21
516.1781546443
 31
0.0
  0
LINE
  5
5FC
330
5F6
100
AcDbEntity
  8
SLD-0
 62
     7
100
AcDbLine
 10
336.4615145997
 20
507.1781546443
 30
0.0
 11
336.4615145997
 21
495.1781546443
 31
0.0
  0
LINE
  5
5FD
330
5F6
100
AcDbEntity
  8
SLD-0
 62
     7
100
AcDbLine
 10
336.4615145997
 20
495.1781546443
 30
0.0
 11
336.4615145997
 21
481.2208307217
 31
0.0
  0
MTEXT
  5
5FE
330
5F6
100
AcDbEntity
  8
SLD-0
 62
     7
100
AcDbMText
 10
327.5134217759
 20
481.2208307217
 30
0.0
 40
7.0
 41
0.0
 71
     1
 72
     1
  1
12
  7
SLDTEXTSTYLE3
 11
6.123233995736766E-17
 21
1.0
 31
0.0
 73
     1
 44
1.0
  0
SOLID
  5
5FF
330
5F6
100
AcDbEntity
  8
SLD-0
 62
     7
100
AcDbTrace
 10
336.4615145997
 20
507.1781546443
 30
0.0
 11
337.0815145997
 21
512.1781546443
 31
0.0
 12
335.8415145997
 22
512.1781546443
 32
0.0
 13
335.8415145997
 23
512.1781546443
 33
0.0
  0
SOLID
  5
600
330
5F6
100
AcDbEntity
  8
SLD-0
 62
     7
100
AcDbTrace
 10
336.4615145997
 20
495.1781546443
 30
0.0
 11
335.8415145997
 21
490.1781546443
 31
0.0
 12
337.0815145997
 22
490.1781546443
 32
0.0
 13
337.0815145997
 23
490.1781546443
 33
0.0
  0
ENDBLK
  5
5F8
330
5F6
100
AcDbEntity
  8
0
100
AcDbBlockEnd
  0
ENDSEC
  0
SECTION
  2
ENTITIES
  0
LINE
  5
12B
330
1F
100
AcDbEntity
  8
SLD-0
  6
Continuous
 62
     7
370
    18
100
AcDbLine
 10
174.1806639173
 20
414.1778198046
 30
0.0
 11
177.6610510173
 21
414.1778198046
 31
0.0
  0
LINE
  5
12C
330
1F
100
AcDbEntity
  8
SLD-0
  6
Continuous
 62
     7
370
    18
100
AcDbLine
 10
163.3881605129
 20
411.4219804659
 30
0.0
 11
160.3881618838
 21
411.4219804659
 31
0.0
  0
LINE
  5
12D
330
1F
100
AcDbEntity
  8
SLD-0
  6
Continuous
 62
     7
370
    18
100
AcDbLine
 10
155.5549106459
 20
451.9281552538
 30
0.0
 11
153.6381593804
 21
451.9281552538
 31
0.0
  0
LINE
  5
12E
330
1F
100
AcDbEntity
  8
SLD-0
  6
Continuous
 62
     7
370
    18
100
AcDbLine
 10
155.0818732838
 20
444.4281549558
 30
0.0
 11
155.9381610612
 21
444.4281549558
 31
0.0
  0
LINE
  5
12F
330
1F
100
AcDbEntity
  8
SLD-0
  6
Continuous
 62
     7
370
    18
100
AcDbLine
 10
165.4172516326
 20
469.4124550924
 30
0.0
 11
165.6381613473
 21
469.0546111569
 31
0.0
  0
LINE
  5
130
330
1F
100
AcDbEntity
  8
SLD-0
  6
Continuous
 62
     7
370
    18
100
AcDbLine
 10
165.1241085391
 20
470.984818171
 30
0.0
 11
164.576103435
 21
471.2344722256
 31
0.0
  0
LINE
  5
131
330
1F
100
AcDbEntity
  8
SLD-0
  6
Continuous
 62
     7
370
    18
100
AcDbLine
 10
164.576103435
 20
471.2344722256
 30
0.0
 11
164.4069901566
 21
471.2796450958
 31
0.0
  0
LINE
  5
132
330
1F
100
AcDbEntity
  8
SLD-0
  6
Continuous
 62
     7
370
    18
100
AcDbLine
 10
158.9297703366
 20
471.5453775033
 30
0.0
 11
164.1771993499
 21
470.3064055547
 31
0.0
  0
LINE
  5
133
330
1F
100
AcDbEntity
  8
SLD-0
  6
Continuous
 62
     7
370
    18
100
AcDbLine
 10
164.4069901566
 20
471.2796450958
 30
0.0
 11
159.8475254039
 21
472.3561869368
 31
0.0
  0
LINE
  5
134
330
1F
100
AcDbEntity
  8
SLD-0
  6
Continuous
 62
     7
370
    18
100
AcDbLine
 10
167.5881645541
 20
385.1539192155
 30
0.0
 11
167.8381613354
 21
385.0841179855
 31
0.0
  0
LINE
  5
135
330
1F
100
AcDbEntity
  8
SLD-0
  6
Continuous
 62
     7
370
    18
100
AcDbLine
 10
171.7911488275
 20
385.1781545572
 30
0.0
 11
171.3166958551
 21
385.379893928
 31
0.0
  0
LINE
  5
136
330
1F
100
AcDbEntity
  8
SLD-0
  6
Continuous
 62
     7
370
    18
100
AcDbLine
 10
171.3166958551
 20
385.379893928
 30
0.0
 11
171.1636311273
 21
385.4281545982
 31
0.0
  0
LINE
  5
137
330
1F
100
AcDbEntity
  8
SLD-0
  6
Continuous
 62
     7
370
    18
100
AcDbLine
 10
169.8742560009
 20
383.12815478
 30
0.0
 11
169.989494131
 21
383.678154777
 31
0.0
  0
LINE
  5
138
330
1F
100
AcDbEntity
  8
SLD-0
  6
Continuous
 62
     7
370
    18
100
AcDbLine
 10
160.3881618838
 20
407.0383941188
 30
0.0
 11
163.3881605129
 21
407.0383941188
 31
0.0
  0
LINE
  5
139
330
1F
100
AcDbEntity
  8
SLD-0
  6
Continuous
 62
     7
370
    18
100
AcDbLine
 10
163.3881605129
 20
407.0383941188
 30
0.0
 11
163.3881605129
 21
407.4876007989
 31
0.0
  0
LINE
  5
13A
330
1F
100
AcDbEntity
  8
SLD-0
  6
Continuous
 62
     7
370
    18
100
AcDbLine
 10
160.3881618838
 20
407.0383941188
 30
0.0
 11
160.3881618838
 21
407.4876007989
 31
0.0
  0
LINE
  5
13B
330
1F
100
AcDbEntity
  8
SLD-0
  6
Continuous
 62
     7
370
    18
100
AcDbLine
 10
163.3881605129
 20
406.7281538054
 30
0.0
 11
163.3881605129
 21
407.0383941188
 31
0.0
  0
LINE
  5
13C
330
1F
100
AcDbEntity
  8
SLD-0
  6
Continuous
 62
     7
370
    18
100
AcDbLine
 10
160.3881618838
 20
406.7281538054
 30
0.0
 11
160.3881618838
 21
407.0383941188
 31
0.0
  0
LINE
  5
13D
330
1F
100
AcDbEntity
  8
SLD-0
  6
Continuous
 62
     7
370
    18
100
AcDbLine
 10
163.3881605129
 20
408.2459432438
 30
0.0
 11
163.3881605129
 21
410.1322477117
 31
0.0
  0
LINE
  5
13E
330
1F
100
AcDbEntity
  8
SLD-0
  6
Continuous
 62
     7
370
    18
100
AcDbLine
 10
160.3881618838
 20
408.2459432438
 30
0.0
 11
160.3881618838
 21
410.1322477117
 31
0.0
  0
LINE
  5
13F
330
1F
100
AcDbEntity
  8
SLD-0
  6
Continuous
 62
     7
370
    18
100
AcDbLine
 10
163.3881605129
 20
407.4876007989
 30
0.0
 11
163.3881605129
 21
408.2459432438
 31
0.0
  0
LINE
  5
140
330
1F
100
AcDbEntity
  8
SLD-0
  6
Continuous
 62
     7
370
    18
100
AcDbLine
 10
160.3881618838
 20
407.4876007989
 30
0.0
 11
160.3881618838
 21
408.2459432438
 31
0.0
  0
LINE
  5
141
330
1F
100
AcDbEntity
  8
SLD-0
  6
Continuous
 62
     7
370
    18
100
AcDbLine
 10
163.3881605129
 20
410.1322477117
 30
0.0
 11
163.3881605129
 21
411.4219804659
 31
0.0
  0
LINE
  5
142
330
1F
100
AcDbEntity
  8
SLD-0
  6
Continuous
 62
     7
370
    18
100
AcDbLine
 10
160.3881618838
 20
410.1322477117
 30
0.0
 11
160.3881618838
 21
411.4219804659
 31
0.0
  0
LINE
  5
143
330
1F
100
AcDbEntity
  8
SLD-0
  6
Continuous
 62
     7
370
    18
100
AcDbLine
 10
157.2881615619
 20
418.7281539097
 30
0.0
 11
166.388159142
 21
418.7281539097
 31
0.0
  0
LINE
  5
144
330
1F
100
AcDbEntity
  8
SLD-0
  6
Continuous
 62
     7
370
    18
100
AcDbLine
 10
157.2881615619
 20
409.628154467
 30
0.0
 11
157.2881615619
 21
418.7281539097
 31
0.0
  0
LINE
  5
145
330
1F
100
AcDbEntity
  8
SLD-0
  6
Continuous
 62
     7
370
    18
100
AcDbLine
 10
160.1881584982
 20
409.628154467
 30
0.0
 11
157.2881615619
 21
409.628154467
 31
0.0
  0
LINE
  5
146
330
1F
100
AcDbEntity
  8
SLD-0
  6
Continuous
 62
     7
370
    18
100
AcDbLine
 10
163.4881622056
 20
406.7281538054
 30
0.0
 11
160.1881584982
 21
406.7281538054
 31
0.0
  0
LINE
  5
147
330
1F
100
AcDbEntity
  8
SLD-0
  6
Continuous
 62
     7
370
    18
100
AcDbLine
 10
163.4881622056
 20
406.7281538054
 30
0.0
 11
163.4881622056
 21
409.628154467
 31
0.0
  0
LINE
  5
148
330
1F
100
AcDbEntity
  8
SLD-0
  6
Continuous
 62
     7
370
    18
100
AcDbLine
 10
166.388159142
 20
409.628154467
 30
0.0
 11
163.4881622056
 21
409.628154467
 31
0.0
  0
LINE
  5
149
330
1F
100
AcDbEntity
  8
SLD-0
  6
Continuous
 62
     7
370
    18
100
AcDbLine
 10
166.388159142
 20
418.7281539097
 30
0.0
 11
166.388159142
 21
409.628154467
 31
0.0
  0
LINE
  5
14A
330
1F
100
AcDbEntity
  8
SLD-0
  6
Continuous
 62
     7
370
    18
100
AcDbLine
 10
160.1881584982
 20
406.7281538054
 30
0.0
 11
160.1881584982
 21
409.628154467
 31
0.0
  0
LINE
  5
14B
330
1F
100
AcDbEntity
  8
SLD-0
  6
Continuous
 62
     7
370
    18
100
AcDbLine
 10
163.4881622056
 20
410.1281554803
 30
0.0
 11
165.8881581287
 21
410.1281554803
 31
0.0
  0
LINE
  5
14C
330
1F
100
AcDbEntity
  8
SLD-0
  6
Continuous
 62
     7
370
    18
100
AcDbLine
 10
166.388159142
 20
409.628154467
 30
0.0
 11
165.8881581287
 21
410.1281554803
 31
0.0
  0
LINE
  5
14D
330
1F
100
AcDbEntity
  8
SLD-0
  6
Continuous
 62
     7
370
    18
100
AcDbLine
 10
163.4881622056
 20
409.628154467
 30
0.0
 11
163.4881622056
 21
410.1281554803
 31
0.0
  0
LINE
  5
14E
330
1F
100
AcDbEntity
  8
SLD-0
  6
Continuous
 62
     7
370
    18
100
AcDbLine
 10
157.2881615619
 20
409.628154467
 30
0.0
 11
157.7881625752
 21
410.1281554803
 31
0.0
  0
LINE
  5
14F
330
1F
100
AcDbEntity
  8
SLD-0
  6
Continuous
 62
     7
370
    18
100
AcDbLine
 10
157.7881625752
 20
410.1281554803
 30
0.0
 11
160.1881584982
 21
410.1281554803
 31
0.0
  0
LINE
  5
150
330
1F
100
AcDbEntity
  8
SLD-0
  6
Continuous
 62
     7
370
    18
100
AcDbLine
 10
160.1881584982
 20
410.1281554803
 30
0.0
 11
160.1881584982
 21
409.628154467
 31
0.0
  0
LINE
  5
151
330
1F
100
AcDbEntity
  8
SLD-0
  6
Continuous
 62
     7
370
    18
100
AcDbLine
 10
165.8881581287
 20
410.1281554803
 30
0.0
 11
165.8881581287
 21
418.2281547591
 31
0.0
  0
LINE
  5
152
330
1F
100
AcDbEntity
  8
SLD-0
  6
Continuous
 62
     7
370
    18
100
AcDbLine
 10
166.388159142
 20
418.7281539097
 30
0.0
 11
165.8881581287
 21
418.2281547591
 31
0.0
  0
LINE
  5
153
330
1F
100
AcDbEntity
  8
SLD-0
  6
Continuous
 62
     7
370
    18
100
AcDbLine
 10
157.2881615619
 20
418.7281539097
 30
0.0
 11
157.7881625752
 21
418.2281547591
 31
0.0
  0
LINE
  5
154
330
1F
100
AcDbEntity
  8
SLD-0
  6
Continuous
 62
     7
370
    18
100
AcDbLine
 10
157.7881625752
 20
418.2281547591
 30
0.0
 11
157.7881625752
 21
410.1281554803
 31
0.0
  0
LINE
  5
155
330
1F
100
AcDbEntity
  8
SLD-0
  6
Continuous
 62
     7
370
    18
100
AcDbLine
 10
165.8881581287
 20
418.2281547591
 30
0.0
 11
157.7881625752
 21
418.2281547591
 31
0.0
  0
LINE
  5
156
330
1F
100
AcDbEntity
  8
SLD-0
  6
Continuous
 62
     7
370
    18
100
AcDbLine
 10
163.4881622056
 20
408.4281546429
 30
0.0
 11
163.3881605129
 21
408.4281546429
 31
0.0
  0
LINE
  5
157
330
1F
100
AcDbEntity
  8
SLD-0
  6
Continuous
 62
     7
370
    18
100
AcDbLine
 10
160.3881618838
 20
408.4281546429
 30
0.0
 11
160.1881584982
 21
408.4281546429
 31
0.0
  0
LINE
  5
158
330
1F
100
AcDbEntity
  8
SLD-0
  6
Continuous
 62
     7
370
    18
100
AcDbLine
 10
163.4881622056
 20
408.0281553224
 30
0.0
 11
163.3881605129
 21
408.0281553224
 31
0.0
  0
LINE
  5
159
330
1F
100
AcDbEntity
  8
SLD-0
  6
Continuous
 62
     7
370
    18
100
AcDbLine
 10
160.3881618838
 20
408.0281553224
 30
0.0
 11
160.1881584982
 21
408.0281553224
 31
0.0
  0
LINE
  5
15A
330
1F
100
AcDbEntity
  8
SLD-0
  6
Continuous
 62
     7
370
    18
100
AcDbLine
 10
160.1881584982
 20
409.2281551465
 30
0.0
 11
160.3881618838
 21
409.2281551465
 31
0.0
  0
LINE
  5
15B
330
1F
100
AcDbEntity
  8
SLD-0
  6
Continuous
 62
     7
370
    18
100
AcDbLine
 10
163.3881605129
 20
409.2281551465
 30
0.0
 11
163.4881622056
 21
409.2281551465
 31
0.0
  0
LINE
  5
15C
330
1F
100
AcDbEntity
  8
SLD-0
  6
Continuous
 62
     7
370
    18
100
AcDbLine
 10
160.7381603105
 20
446.928153818
 30
0.0
 11
159.3381581845
 21
446.9281554706
 31
0.0
  0
LINE
  5
15D
330
1F
100
AcDbEntity
  8
SLD-0
  6
Continuous
 62
     7
370
    18
100
AcDbLine
 10
159.3381611368
 20
449.4281546443
 30
0.0
 11
160.7381611368
 21
449.4281546443
 31
0.0
  0
LINE
  5
15E
330
1F
100
AcDbEntity
  8
SLD-0
  6
Continuous
 62
     7
370
    18
100
AcDbLine
 10
161.0381603105
 20
449.128153818
 30
0.0
 11
161.0381603105
 21
447.228153818
 31
0.0
  0
LINE
  5
15F
330
1F
100
AcDbEntity
  8
SLD-0
  6
Continuous
 62
     7
370
    18
100
AcDbLine
 10
159.0381611368
 20
447.2281546443
 30
0.0
 11
159.0381611368
 21
449.1281546443
 31
0.0
  0
LINE
  5
160
330
1F
100
AcDbEntity
  8
SLD-0
  6
Continuous
 62
     7
370
    18
100
AcDbLine
 10
159.0381611368
 20
449.1281546443
 30
0.0
 11
159.0381613831
 21
449.4781547591
 31
0.0
  0
LINE
  5
161
330
1F
100
AcDbEntity
  8
SLD-0
  6
Continuous
 62
     7
370
    18
100
AcDbLine
 10
161.0381571593
 20
449.4781539328
 30
0.0
 11
161.0381603105
 21
449.128153818
 31
0.0
  0
LINE
  5
162
330
1F
100
AcDbEntity
  8
SLD-0
  6
Continuous
 62
     7
370
    18
100
AcDbLine
 10
161.0381603105
 20
447.228153818
 30
0.0
 11
161.0381571593
 21
446.8781546242
 31
0.0
  0
LINE
  5
163
330
1F
100
AcDbEntity
  8
SLD-0
  6
Continuous
 62
     7
370
    18
100
AcDbLine
 10
159.0381613831
 20
446.8781554505
 30
0.0
 11
159.0381611368
 21
447.2281546443
 31
0.0
  0
LINE
  5
164
330
1F
100
AcDbEntity
  8
SLD-0
  6
Continuous
 62
     7
370
    18
100
AcDbLine
 10
125.7988177764
 20
463.1781533099
 30
0.0
 11
126.1523701775
 21
463.1781533099
 31
0.0
  0
LINE
  5
165
330
1F
100
AcDbEntity
  8
SLD-0
  6
Continuous
 62
     7
370
    18
100
AcDbLine
 10
126.1523701775
 20
463.1781533099
 30
0.0
 11
126.8381588685
 21
463.1781533099
 31
0.0
  0
LINE
  5
166
330
1F
100
AcDbEntity
  8
SLD-0
  6
Continuous
 62
     7
370
    18
100
AcDbLine
 10
126.1523715797
 20
433.1781545766
 30
0.0
 11
125.7988191786
 21
433.1781545766
 31
0.0
  0
LINE
  5
167
330
1F
100
AcDbEntity
  8
SLD-0
  6
Continuous
 62
     7
370
    18
100
AcDbLine
 10
126.8381602707
 20
433.1781545766
 30
0.0
 11
126.1523715797
 21
433.1781545766
 31
0.0
  0
LINE
  5
168
330
1F
100
AcDbEntity
  8
SLD-0
  6
Continuous
 62
     7
370
    18
100
AcDbLine
 10
125.5686618913
 20
463.1781533099
 30
0.0
 11
125.7988177764
 21
463.1781533099
 31
0.0
  0
LINE
  5
169
330
1F
100
AcDbEntity
  8
SLD-0
  6
Continuous
 62
     7
370
    18
100
AcDbLine
 10
125.7988191786
 20
433.1781545766
 30
0.0
 11
125.5686632934
 21
433.1781545766
 31
0.0
  0
LINE
  5
16A
330
1F
100
AcDbEntity
  8
SLD-0
  6
Continuous
 62
     7
370
    18
100
AcDbLine
 10
116.0381548631
 20
463.1781533099
 30
0.0
 11
125.5686618913
 21
463.1781533099
 31
0.0
  0
LINE
  5
16B
330
1F
100
AcDbEntity
  8
SLD-0
  6
Continuous
 62
     7
370
    18
100
AcDbLine
 10
125.5686632934
 20
433.1781545766
 30
0.0
 11
116.0381562653
 21
433.1781545766
 31
0.0
  0
LINE
  5
16C
330
1F
100
AcDbEntity
  8
SLD-0
  6
Continuous
 62
     7
370
    18
100
AcDbLine
 10
115.5381626348
 20
462.6480282649
 30
0.0
 11
115.5410534601
 21
462.7013222679
 31
0.0
  0
LINE
  5
16D
330
1F
100
AcDbEntity
  8
SLD-0
  6
Continuous
 62
     7
370
    18
100
AcDbLine
 10
115.5410534601
 20
433.6549879417
 30
0.0
 11
115.5381626348
 21
433.70828567
 31
0.0
  0
LINE
  5
16E
330
1F
100
AcDbEntity
  8
SLD-0
  6
Continuous
 62
     7
370
    18
100
AcDbLine
 10
115.5381626348
 20
433.70828567
 30
0.0
 11
115.5381626348
 21
462.6480282649
 31
0.0
  0
LINE
  5
16F
330
1F
100
AcDbEntity
  8
SLD-0
  6
Continuous
 62
     7
370
    18
100
AcDbLine
 10
115.5381626348
 20
462.6480282649
 30
0.0
 11
115.5381611368
 21
462.6781546443
 31
0.0
  0
LINE
  5
170
330
1F
100
AcDbEntity
  8
SLD-0
  6
Continuous
 62
     7
370
    18
100
AcDbLine
 10
115.5381611368
 20
433.6781546443
 30
0.0
 11
115.5381626348
 21
433.70828567
 31
0.0
  0
LINE
  5
171
330
1F
100
AcDbEntity
  8
SLD-0
  6
Continuous
 62
     7
370
    18
100
AcDbLine
 10
172.2382656197
 20
426.8182122514
 30
0.0
 11
170.5243266086
 21
427.8489516482
 31
0.0
  0
LINE
  5
172
330
1F
100
AcDbEntity
  8
SLD-0
  6
Continuous
 62
     7
370
    18
100
AcDbLine
 10
171.5550697307
 20
429.562886934
 30
0.0
 11
170.5243266086
 21
427.8489516482
 31
0.0
  0
LINE
  5
173
330
1F
100
AcDbEntity
  8
SLD-0
  6
Continuous
 62
     7
370
    18
100
AcDbLine
 10
171.5550697307
 20
429.562886934
 30
0.0
 11
170.6981039504
 21
430.078258495
 31
0.0
  0
LINE
  5
174
330
1F
100
AcDbEntity
  8
SLD-0
  6
Continuous
 62
     7
370
    18
100
AcDbLine
 10
170.6981039504
 20
430.078258495
 30
0.0
 11
169.6673608283
 21
428.3643232092
 31
0.0
  0
LINE
  5
175
330
1F
100
AcDbEntity
  8
SLD-0
  6
Continuous
 62
     7
370
    18
100
AcDbLine
 10
169.6673608283
 20
428.3643232092
 30
0.0
 11
167.9534292678
 21
429.3950663313
 31
0.0
  0
LINE
  5
176
330
1F
100
AcDbEntity
  8
SLD-0
  6
Continuous
 62
     7
370
    18
100
AcDbLine
 10
167.9534292678
 20
429.3950663313
 30
0.0
 11
167.4380577068
 21
428.5380968258
 31
0.0
  0
LINE
  5
177
330
1F
100
AcDbEntity
  8
SLD-0
  6
Continuous
 62
     7
370
    18
100
AcDbLine
 10
169.1519892673
 20
427.507357429
 30
0.0
 11
167.4380577068
 21
428.5380968258
 31
0.0
  0
LINE
  5
178
330
1F
100
AcDbEntity
  8
SLD-0
  6
Continuous
 62
     7
370
    18
100
AcDbLine
 10
169.1519892673
 20
427.507357429
 30
0.0
 11
168.1212535958
 21
425.7934221432
 31
0.0
  0
LINE
  5
179
330
1F
100
AcDbEntity
  8
SLD-0
  6
Continuous
 62
     7
370
    18
100
AcDbLine
 10
168.978219376
 20
425.2780505821
 30
0.0
 11
168.1212535958
 21
425.7934221432
 31
0.0
  0
LINE
  5
17A
330
1F
100
AcDbEntity
  8
SLD-0
  6
Continuous
 62
     7
370
    18
100
AcDbLine
 10
170.0089624981
 20
426.9919858679
 30
0.0
 11
168.978219376
 21
425.2780505821
 31
0.0
  0
LINE
  5
17B
330
1F
100
AcDbEntity
  8
SLD-0
  6
Continuous
 62
     7
370
    18
100
AcDbLine
 10
171.7228940587
 20
425.9612427458
 30
0.0
 11
170.0089624981
 21
426.9919858679
 31
0.0
  0
LINE
  5
17C
330
1F
100
AcDbEntity
  8
SLD-0
  6
Continuous
 62
     7
370
    18
100
AcDbLine
 10
172.2382656197
 20
426.8182122514
 30
0.0
 11
171.7228940587
 21
425.9612427458
 31
0.0
  0
LINE
  5
17D
330
1F
100
AcDbEntity
  8
SLD-0
  6
Continuous
 62
     7
370
    18
100
AcDbLine
 10
168.3632335524
 20
425.8536526367
 30
0.0
 11
168.1212535958
 21
425.7934221432
 31
0.0
  0
LINE
  5
17E
330
1F
100
AcDbEntity
  8
SLD-0
  6
Continuous
 62
     7
370
    18
100
AcDbLine
 10
168.9179888825
 20
425.5200305387
 30
0.0
 11
168.3632335524
 21
425.8536526367
 31
0.0
  0
LINE
  5
17F
330
1F
100
AcDbEntity
  8
SLD-0
  6
Continuous
 62
     7
370
    18
100
AcDbLine
 10
168.9179888825
 20
425.5200305387
 30
0.0
 11
168.978219376
 21
425.2780505821
 31
0.0
  0
LINE
  5
180
330
1F
100
AcDbEntity
  8
SLD-0
  6
Continuous
 62
     7
370
    18
100
AcDbLine
 10
167.6055542092
 20
428.5797902748
 30
0.0
 11
167.4380577068
 21
428.5380968258
 31
0.0
  0
LINE
  5
181
330
1F
100
AcDbEntity
  8
SLD-0
  6
Continuous
 62
     7
370
    18
100
AcDbLine
 10
169.3939692239
 20
427.5675879225
 30
0.0
 11
167.7199429731
 21
428.5743327245
 31
0.0
  0
LINE
  5
182
330
1F
100
AcDbEntity
  8
SLD-0
  6
Continuous
 62
     7
370
    18
100
AcDbLine
 10
169.3939692239
 20
427.5675879225
 30
0.0
 11
169.1519892673
 21
427.507357429
 31
0.0
  0
LINE
  5
183
330
1F
100
AcDbEntity
  8
SLD-0
  6
Continuous
 62
     7
370
    18
100
AcDbLine
 10
169.7275987725
 20
428.1223432526
 30
0.0
 11
169.6673608283
 21
428.3643232092
 31
0.0
  0
LINE
  5
184
330
1F
100
AcDbEntity
  8
SLD-0
  6
Continuous
 62
     7
370
    18
100
AcDbLine
 10
169.7275987725
 20
428.1223432526
 30
0.0
 11
168.0535650711
 21
429.1290880546
 31
0.0
  0
LINE
  5
185
330
1F
100
AcDbEntity
  8
SLD-0
  6
Continuous
 62
     7
370
    18
100
AcDbLine
 10
167.9951227169
 20
429.2275661036
 30
0.0
 11
167.9534292678
 21
429.3950663313
 31
0.0
  0
LINE
  5
186
330
1F
100
AcDbEntity
  8
SLD-0
  6
Continuous
 62
     7
370
    18
100
AcDbLine
 10
169.3939692239
 20
427.5675879225
 30
0.0
 11
168.3632335524
 21
425.8536526367
 31
0.0
  0
LINE
  5
187
330
1F
100
AcDbEntity
  8
SLD-0
  6
Continuous
 62
     7
370
    18
100
AcDbLine
 10
169.948724554
 20
427.2339658245
 30
0.0
 11
168.9179888825
 21
425.5200305387
 31
0.0
  0
LINE
  5
188
330
1F
100
AcDbEntity
  8
SLD-0
  6
Continuous
 62
     7
370
    18
100
AcDbLine
 10
169.948724554
 20
427.2339658245
 30
0.0
 11
170.0089624981
 21
426.9919858679
 31
0.0
  0
LINE
  5
189
330
1F
100
AcDbEntity
  8
SLD-0
  6
Continuous
 62
     7
370
    18
100
AcDbLine
 10
171.6227582554
 20
426.2272210225
 30
0.0
 11
169.948724554
 21
427.2339658245
 31
0.0
  0
LINE
  5
18A
330
1F
100
AcDbEntity
  8
SLD-0
  6
Continuous
 62
     7
370
    18
100
AcDbLine
 10
171.6812006096
 20
426.1287429735
 30
0.0
 11
171.7228940587
 21
425.9612427458
 31
0.0
  0
LINE
  5
18B
330
1F
100
AcDbEntity
  8
SLD-0
  6
Continuous
 62
     7
370
    18
100
AcDbLine
 10
170.282346652
 20
427.7887211546
 30
0.0
 11
170.5243266086
 21
427.8489516482
 31
0.0
  0
LINE
  5
18C
330
1F
100
AcDbEntity
  8
SLD-0
  6
Continuous
 62
     7
370
    18
100
AcDbLine
 10
171.3130897741
 20
429.5026564404
 30
0.0
 11
170.282346652
 21
427.7887211546
 31
0.0
  0
LINE
  5
18D
330
1F
100
AcDbEntity
  8
SLD-0
  6
Continuous
 62
     7
370
    18
100
AcDbLine
 10
171.3130897741
 20
429.5026564404
 30
0.0
 11
171.5550697307
 21
429.562886934
 31
0.0
  0
LINE
  5
18E
330
1F
100
AcDbEntity
  8
SLD-0
  6
Continuous
 62
     7
370
    18
100
AcDbLine
 10
170.758334444
 20
429.8362785384
 30
0.0
 11
170.6981039504
 21
430.078258495
 31
0.0
  0
LINE
  5
18F
330
1F
100
AcDbEntity
  8
SLD-0
  6
Continuous
 62
     7
370
    18
100
AcDbLine
 10
170.758334444
 20
429.8362785384
 30
0.0
 11
169.7275987725
 21
428.1223432526
 31
0.0
  0
LINE
  5
190
330
1F
100
AcDbEntity
  8
SLD-0
  6
Continuous
 62
     7
370
    18
100
AcDbLine
 10
171.3130897741
 20
429.5026564404
 30
0.0
 11
170.758334444
 21
429.8362785384
 31
0.0
  0
LINE
  5
191
330
1F
100
AcDbEntity
  8
SLD-0
  6
Continuous
 62
     7
370
    18
100
AcDbLine
 10
172.0707616667
 20
426.7765188023
 30
0.0
 11
172.2382656197
 21
426.8182122514
 31
0.0
  0
LINE
  5
192
330
1F
100
AcDbEntity
  8
SLD-0
  6
Continuous
 62
     7
370
    18
100
AcDbLine
 10
171.9563855244
 20
426.7819804241
 30
0.0
 11
170.282346652
 21
427.7887211546
 31
0.0
  0
LINE
  5
193
330
1F
100
AcDbEntity
  8
SLD-0
  6
Continuous
 62
     7
370
    18
100
AcDbLine
 10
151.6845053892
 20
298.4236271486
 30
0.0
 11
151.8567032079
 21
298.4355555281
 31
0.0
  0
LINE
  5
194
330
1F
100
AcDbEntity
  8
SLD-0
  6
Continuous
 62
     7
370
    18
100
AcDbLine
 10
151.4061442475
 20
298.5939772233
 30
0.0
 11
151.1196619729
 21
298.8433481559
 31
0.0
  0
LINE
  5
195
330
1F
100
AcDbEntity
  8
SLD-0
  6
Continuous
 62
     7
370
    18
100
AcDbLine
 10
151.1196619729
 20
298.8433481559
 30
0.0
 11
151.10242878
 21
299.0921155915
 31
0.0
  0
LINE
  5
196
330
1F
100
AcDbEntity
  8
SLD-0
  6
Continuous
 62
     7
370
    18
100
AcDbLine
 10
151.8567032079
 20
298.4355555281
 30
0.0
 11
151.10242878
 21
299.0921155915
 31
0.0
  0
LINE
  5
197
330
1F
100
AcDbEntity
  8
SLD-0
  6
Continuous
 62
     7
370
    18
100
AcDbLine
 10
148.5738879899
 20
294.6641908392
 30
0.0
 11
149.8870155673
 21
296.172739695
 31
0.0
  0
LINE
  5
198
330
1F
100
AcDbEntity
  8
SLD-0
  6
Continuous
 62
     7
370
    18
100
AcDbLine
 10
151.3955569725
 20
294.8596121177
 30
0.0
 11
149.8870155673
 21
296.172739695
 31
0.0
  0
LINE
  5
199
330
1F
100
AcDbEntity
  8
SLD-0
  6
Continuous
 62
     7
370
    18
100
AcDbLine
 10
151.3955569725
 20
294.8596121177
 30
0.0
 11
152.0521244864
 21
295.6138865456
 31
0.0
  0
LINE
  5
19A
330
1F
100
AcDbEntity
  8
SLD-0
  6
Continuous
 62
     7
370
    18
100
AcDbLine
 10
152.0521244864
 20
295.6138865456
 30
0.0
 11
150.5435756306
 21
296.9270066723
 31
0.0
  0
LINE
  5
19B
330
1F
100
AcDbEntity
  8
SLD-0
  6
Continuous
 62
     7
370
    18
100
AcDbLine
 10
150.5435756306
 20
296.9270066723
 30
0.0
 11
151.8567032079
 21
298.4355555281
 31
0.0
  0
LINE
  5
19C
330
1F
100
AcDbEntity
  8
SLD-0
  6
Continuous
 62
     7
370
    18
100
AcDbLine
 10
149.7893086533
 20
297.5835741863
 30
0.0
 11
151.10242878
 21
299.0921155915
 31
0.0
  0
LINE
  5
19D
330
1F
100
AcDbEntity
  8
SLD-0
  6
Continuous
 62
     7
370
    18
100
AcDbLine
 10
149.7893086533
 20
297.5835741863
 30
0.0
 11
148.2807597975
 21
298.896694313
 31
0.0
  0
LINE
  5
19E
330
1F
100
AcDbEntity
  8
SLD-0
  6
Continuous
 62
     7
370
    18
100
AcDbLine
 10
147.6241997342
 20
298.1424273357
 30
0.0
 11
148.2807597975
 21
298.896694313
 31
0.0
  0
LINE
  5
19F
330
1F
100
AcDbEntity
  8
SLD-0
  6
Continuous
 62
     7
370
    18
100
AcDbLine
 10
149.1327411394
 20
296.8292997584
 30
0.0
 11
147.6241997342
 21
298.1424273357
 31
0.0
  0
LINE
  5
1A0
330
1F
100
AcDbEntity
  8
SLD-0
  6
Continuous
 62
     7
370
    18
100
AcDbLine
 10
147.8196210126
 20
295.3207583532
 30
0.0
 11
149.1327411394
 21
296.8292997584
 31
0.0
  0
LINE
  5
1A1
330
1F
100
AcDbEntity
  8
SLD-0
  6
Continuous
 62
     7
370
    18
100
AcDbLine
 10
148.5738879899
 20
294.6641908392
 30
0.0
 11
147.8196210126
 21
295.3207583532
 31
0.0
  0
LINE
  5
1A2
330
1F
100
AcDbEntity
  8
SLD-0
  6
Continuous
 62
     7
370
    18
100
AcDbLine
 10
149.8065343956
 20
297.3348067507
 30
0.0
 11
149.7893086533
 21
297.5835741863
 31
0.0
  0
LINE
  5
1A3
330
1F
100
AcDbEntity
  8
SLD-0
  6
Continuous
 62
     7
370
    18
100
AcDbLine
 10
149.8065343956
 20
297.3348067507
 30
0.0
 11
148.2979929904
 21
298.6479268774
 31
0.0
  0
LINE
  5
1A4
330
1F
100
AcDbEntity
  8
SLD-0
  6
Continuous
 62
     7
370
    18
100
AcDbLine
 10
148.2979929904
 20
298.6479268774
 30
0.0
 11
148.2807597975
 21
298.896694313
 31
0.0
  0
LINE
  5
1A5
330
1F
100
AcDbEntity
  8
SLD-0
  6
Continuous
 62
     7
370
    18
100
AcDbLine
 10
150.2948081951
 20
296.90978093
 30
0.0
 11
150.5435756306
 21
296.9270066723
 31
0.0
  0
LINE
  5
1A6
330
1F
100
AcDbEntity
  8
SLD-0
  6
Continuous
 62
     7
370
    18
100
AcDbLine
 10
150.2948081951
 20
296.90978093
 30
0.0
 11
151.5773660402
 21
298.3832077488
 31
0.0
  0
LINE
  5
1A7
330
1F
100
AcDbEntity
  8
SLD-0
  6
Continuous
 62
     7
370
    18
100
AcDbLine
 10
149.8065343956
 20
297.3348067507
 30
0.0
 11
151.1196619729
 21
298.8433481559
 31
0.0
  0
LINE
  5
1A8
330
1F
100
AcDbEntity
  8
SLD-0
  6
Continuous
 62
     7
370
    18
100
AcDbLine
 10
147.7963975529
 20
298.1543482646
 30
0.0
 11
147.6241997342
 21
298.1424273357
 31
0.0
  0
LINE
  5
1A9
330
1F
100
AcDbEntity
  8
SLD-0
  6
Continuous
 62
     7
370
    18
100
AcDbLine
 10
149.3815085749
 20
296.8465255007
 30
0.0
 11
147.9080892066
 21
298.1290833458
 31
0.0
  0
LINE
  5
1AA
330
1F
100
AcDbEntity
  8
SLD-0
  6
Continuous
 62
     7
370
    18
100
AcDbLine
 10
149.3815085749
 20
296.8465255007
 30
0.0
 11
149.1327411394
 21
296.8292997584
 31
0.0
  0
LINE
  5
1AB
330
1F
100
AcDbEntity
  8
SLD-0
  6
Continuous
 62
     7
370
    18
100
AcDbLine
 10
149.8697898249
 20
296.4215071306
 30
0.0
 11
149.8870155673
 21
296.172739695
 31
0.0
  0
LINE
  5
1AC
330
1F
100
AcDbEntity
  8
SLD-0
  6
Continuous
 62
     7
370
    18
100
AcDbLine
 10
151.3783312301
 20
295.1083795533
 30
0.0
 11
149.8697898249
 21
296.4215071306
 31
0.0
  0
LINE
  5
1AD
330
1F
100
AcDbEntity
  8
SLD-0
  6
Continuous
 62
     7
370
    18
100
AcDbLine
 10
151.3783312301
 20
295.1083795533
 30
0.0
 11
151.3955569725
 21
294.8596121177
 31
0.0
  0
LINE
  5
1AE
330
1F
100
AcDbEntity
  8
SLD-0
  6
Continuous
 62
     7
370
    18
100
AcDbLine
 10
151.8799192171
 20
295.6019581661
 30
0.0
 11
152.0521244864
 21
295.6138865456
 31
0.0
  0
LINE
  5
1AF
330
1F
100
AcDbEntity
  8
SLD-0
  6
Continuous
 62
     7
370
    18
100
AcDbLine
 10
151.7682350139
 20
295.6272305354
 30
0.0
 11
150.2948081951
 21
296.90978093
 31
0.0
  0
LINE
  5
1B0
330
1F
100
AcDbEntity
  8
SLD-0
  6
Continuous
 62
     7
370
    18
100
AcDbLine
 10
148.5566622476
 20
294.9129582748
 30
0.0
 11
148.5738879899
 21
294.6641908392
 31
0.0
  0
LINE
  5
1B1
330
1F
100
AcDbEntity
  8
SLD-0
  6
Continuous
 62
     7
370
    18
100
AcDbLine
 10
148.5566622476
 20
294.9129582748
 30
0.0
 11
149.8697898249
 21
296.4215071306
 31
0.0
  0
LINE
  5
1B2
330
1F
100
AcDbEntity
  8
SLD-0
  6
Continuous
 62
     7
370
    18
100
AcDbLine
 10
151.3783312301
 20
295.1083795533
 30
0.0
 11
151.4137810926
 21
295.1491044268
 31
0.0
  0
LINE
  5
1B3
330
1F
100
AcDbEntity
  8
SLD-0
  6
Continuous
 62
     7
370
    18
100
AcDbLine
 10
147.9918188314
 20
295.3326792821
 30
0.0
 11
147.8196210126
 21
295.3207583532
 31
0.0
  0
LINE
  5
1B4
330
1F
100
AcDbEntity
  8
SLD-0
  6
Continuous
 62
     7
370
    18
100
AcDbLine
 10
148.5566622476
 20
294.9129582748
 30
0.0
 11
148.2701799731
 21
295.1623292074
 31
0.0
  0
LINE
  5
1B5
330
1F
100
AcDbEntity
  8
SLD-0
  6
Continuous
 62
     7
370
    18
100
AcDbLine
 10
148.262543128
 20
298.6072020039
 30
0.0
 11
148.2979929904
 21
298.6479268774
 31
0.0
  0
LINE
  5
1B6
330
1F
100
AcDbEntity
  8
SLD-0
  6
Continuous
 62
     7
370
    18
100
AcDbLine
 10
148.0989581804
 20
295.3731061324
 30
0.0
 11
149.3815085749
 21
296.8465255007
 31
0.0
  0
LINE
  5
1B7
330
1F
100
AcDbEntity
  8
SLD-0
  6
Continuous
 62
     7
370
    18
100
AcDbLine
 10
148.5625258545
 20
473.3855889544
 30
0.0
 11
149.2041773061
 21
471.4913086399
 31
0.0
  0
LINE
  5
1B8
330
1F
100
AcDbEntity
  8
SLD-0
  6
Continuous
 62
     7
370
    18
100
AcDbLine
 10
147.3099044423
 20
470.8496571883
 30
0.0
 11
149.2041773061
 21
471.4913086399
 31
0.0
  0
LINE
  5
1B9
330
1F
100
AcDbEntity
  8
SLD-0
  6
Continuous
 62
     7
370
    18
100
AcDbLine
 10
147.3099044423
 20
470.8496571883
 30
0.0
 11
147.6307264428
 21
469.9025244817
 31
0.0
  0
LINE
  5
1BA
330
1F
100
AcDbEntity
  8
SLD-0
  6
Continuous
 62
     7
370
    18
100
AcDbLine
 10
147.6307264428
 20
469.9025244817
 30
0.0
 11
149.5250067572
 21
470.5441759333
 31
0.0
  0
LINE
  5
1BB
330
1F
100
AcDbEntity
  8
SLD-0
  6
Continuous
 62
     7
370
    18
100
AcDbLine
 10
149.5250067572
 20
470.5441759333
 30
0.0
 11
150.1666582088
 21
468.6498956188
 31
0.0
  0
LINE
  5
1BC
330
1F
100
AcDbEntity
  8
SLD-0
  6
Continuous
 62
     7
370
    18
100
AcDbLine
 10
150.1666582088
 20
468.6498956188
 30
0.0
 11
151.1137909154
 21
468.9707250699
 31
0.0
  0
LINE
  5
1BD
330
1F
100
AcDbEntity
  8
SLD-0
  6
Continuous
 62
     7
370
    18
100
AcDbLine
 10
150.4721394639
 20
470.8649979338
 30
0.0
 11
151.1137909154
 21
468.9707250699
 31
0.0
  0
LINE
  5
1BE
330
1F
100
AcDbEntity
  8
SLD-0
  6
Continuous
 62
     7
370
    18
100
AcDbLine
 10
150.4721394639
 20
470.8649979338
 30
0.0
 11
152.3664197783
 21
471.5066493854
 31
0.0
  0
LINE
  5
1BF
330
1F
100
AcDbEntity
  8
SLD-0
  6
Continuous
 62
     7
370
    18
100
AcDbLine
 10
152.0455903272
 20
472.4537895426
 30
0.0
 11
152.3664197783
 21
471.5066493854
 31
0.0
  0
LINE
  5
1C0
330
1F
100
AcDbEntity
  8
SLD-0
  6
Continuous
 62
     7
370
    18
100
AcDbLine
 10
150.1513174633
 20
471.812138091
 30
0.0
 11
152.0455903272
 21
472.4537895426
 31
0.0
  0
LINE
  5
1C1
330
1F
100
AcDbEntity
  8
SLD-0
  6
Continuous
 62
     7
370
    18
100
AcDbLine
 10
149.5096660118
 20
473.7064109549
 30
0.0
 11
150.1513174633
 21
471.812138091
 31
0.0
  0
LINE
  5
1C2
330
1F
100
AcDbEntity
  8
SLD-0
  6
Continuous
 62
     7
370
    18
100
AcDbLine
 10
148.5625258545
 20
473.3855889544
 30
0.0
 11
149.5096660118
 21
473.7064109549
 31
0.0
  0
LINE
  5
1C3
330
1F
100
AcDbEntity
  8
SLD-0
  6
Continuous
 62
     7
370
    18
100
AcDbLine
 10
152.1428427557
 20
471.617081891
 30
0.0
 11
152.3664197783
 21
471.5066493854
 31
0.0
  0
LINE
  5
1C4
330
1F
100
AcDbEntity
  8
SLD-0
  6
Continuous
 62
     7
370
    18
100
AcDbLine
 10
152.122159944
 20
471.6781543001
 30
0.0
 11
152.1428427557
 21
471.617081891
 31
0.0
  0
LINE
  5
1C5
330
1F
100
AcDbEntity
  8
SLD-0
  6
Continuous
 62
     7
370
    18
100
AcDbLine
 10
151.9691473703
 20
472.2990260824
 30
0.0
 11
152.0455903272
 21
472.4537895426
 31
0.0
  0
LINE
  5
1C6
330
1F
100
AcDbEntity
  8
SLD-0
  6
Continuous
 62
     7
370
    18
100
AcDbLine
 10
150.2431011657
 20
468.804659079
 30
0.0
 11
150.1666582088
 21
468.6498956188
 31
0.0
  0
LINE
  5
1C7
330
1F
100
AcDbEntity
  8
SLD-0
  6
Continuous
 62
     7
370
    18
100
AcDbLine
 10
150.5400068025
 20
468.9625294313
 30
0.0
 11
150.8902213435
 21
469.0811575755
 31
0.0
  0
LINE
  5
1C8
330
1F
100
AcDbEntity
  8
SLD-0
  6
Continuous
 62
     7
370
    18
100
AcDbLine
 10
150.8902213435
 20
469.0811575755
 30
0.0
 11
151.1137909154
 21
468.9707250699
 31
0.0
  0
LINE
  5
1C9
330
1F
100
AcDbEntity
  8
SLD-0
  6
Continuous
 62
     7
370
    18
100
AcDbLine
 10
149.4332230548
 20
473.5516549453
 30
0.0
 11
149.5096660118
 21
473.7064109549
 31
0.0
  0
LINE
  5
1CA
330
1F
100
AcDbEntity
  8
SLD-0
  6
Continuous
 62
     7
370
    18
100
AcDbLine
 10
148.7861028771
 20
473.2751489982
 30
0.0
 11
149.136317418
 21
473.3937771425
 31
0.0
  0
LINE
  5
1CB
330
1F
100
AcDbEntity
  8
SLD-0
  6
Continuous
 62
     7
370
    18
100
AcDbLine
 10
148.7861028771
 20
473.2751489982
 30
0.0
 11
148.5625258545
 21
473.3855889544
 31
0.0
  0
LINE
  5
1CC
330
1F
100
AcDbEntity
  8
SLD-0
  6
Continuous
 62
     7
370
    18
100
AcDbLine
 10
148.7861028771
 20
473.2751489982
 30
0.0
 11
149.4277543287
 21
471.3808761343
 31
0.0
  0
LINE
  5
1CD
330
1F
100
AcDbEntity
  8
SLD-0
  6
Continuous
 62
     7
370
    18
100
AcDbLine
 10
149.4277543287
 20
471.3808761343
 30
0.0
 11
149.2041773061
 21
471.4913086399
 31
0.0
  0
LINE
  5
1CE
330
1F
100
AcDbEntity
  8
SLD-0
  6
Continuous
 62
     7
370
    18
100
AcDbLine
 10
147.5334814648
 20
470.7392246827
 30
0.0
 11
147.3099044423
 21
470.8496571883
 31
0.0
  0
LINE
  5
1CF
330
1F
100
AcDbEntity
  8
SLD-0
  6
Continuous
 62
     7
370
    18
100
AcDbLine
 10
147.5334814648
 20
470.7392246827
 30
0.0
 11
147.5541642765
 21
470.6781522736
 31
0.0
  0
LINE
  5
1D0
330
1F
100
AcDbEntity
  8
SLD-0
  6
Continuous
 62
     7
370
    18
100
AcDbLine
 10
147.7071693997
 20
470.0572804913
 30
0.0
 11
147.6307264428
 21
469.9025244817
 31
0.0
  0
LINE
  5
1D1
330
1F
100
AcDbEntity
  8
SLD-0
  6
Continuous
 62
     7
370
    18
100
AcDbLine
 10
150.0408849577
 20
471.5885610685
 30
0.0
 11
151.8910578351
 21
472.215274106
 31
0.0
  0
LINE
  5
1D2
330
1F
100
AcDbEntity
  8
SLD-0
  6
Continuous
 62
     7
370
    18
100
AcDbLine
 10
150.0408849577
 20
471.5885610685
 30
0.0
 11
150.1513174633
 21
471.812138091
 31
0.0
  0
LINE
  5
1D3
330
1F
100
AcDbEntity
  8
SLD-0
  6
Continuous
 62
     7
370
    18
100
AcDbLine
 10
149.4141719202
 20
473.4387339458
 30
0.0
 11
150.0408849577
 21
471.5885610685
 31
0.0
  0
LINE
  5
1D4
330
1F
100
AcDbEntity
  8
SLD-0
  6
Continuous
 62
     7
370
    18
100
AcDbLine
 10
150.2485698919
 20
470.9754304394
 30
0.0
 11
150.4721394639
 21
470.8649979338
 31
0.0
  0
LINE
  5
1D5
330
1F
100
AcDbEntity
  8
SLD-0
  6
Continuous
 62
     7
370
    18
100
AcDbLine
 10
150.2485698919
 20
470.9754304394
 30
0.0
 11
152.1428427557
 21
471.617081891
 31
0.0
  0
LINE
  5
1D6
330
1F
100
AcDbEntity
  8
SLD-0
  6
Continuous
 62
     7
370
    18
100
AcDbLine
 10
149.6354392628
 20
470.7677455053
 30
0.0
 11
149.5250067572
 21
470.5441759333
 31
0.0
  0
LINE
  5
1D7
330
1F
100
AcDbEntity
  8
SLD-0
  6
Continuous
 62
     7
370
    18
100
AcDbLine
 10
149.6354392628
 20
470.7677455053
 30
0.0
 11
150.2621523003
 21
468.917572628
 31
0.0
  0
LINE
  5
1D8
330
1F
100
AcDbEntity
  8
SLD-0
  6
Continuous
 62
     7
370
    18
100
AcDbLine
 10
147.7852663855
 20
470.1410324678
 30
0.0
 11
149.6354392628
 21
470.7677455053
 31
0.0
  0
LINE
  5
1D9
330
1F
100
AcDbEntity
  8
SLD-0
  6
Continuous
 62
     7
370
    18
100
AcDbLine
 10
147.5334814648
 20
470.7392246827
 30
0.0
 11
149.4277543287
 21
471.3808761343
 31
0.0
  0
LINE
  5
1DA
330
1F
100
AcDbEntity
  8
SLD-0
  6
Continuous
 62
     7
370
    18
100
AcDbLine
 10
150.2485698919
 20
470.9754304394
 30
0.0
 11
150.8902213435
 21
469.0811575755
 31
0.0
  0
LINE
  5
1DB
330
1F
100
AcDbEntity
  8
SLD-0
  6
Continuous
 62
     7
370
    18
100
AcDbLine
 10
160.5772352676
 20
376.5128950953
 30
0.0
 11
160.6080210666
 21
376.3430507287
 31
0.0
  0
LINE
  5
1DC
330
1F
100
AcDbEntity
  8
SLD-0
  6
Continuous
 62
     7
370
    18
100
AcDbLine
 10
161.0078417307
 20
377.1341433593
 30
0.0
 11
161.177685166
 21
377.1649263643
 31
0.0
  0
LINE
  5
1DD
330
1F
100
AcDbEntity
  8
SLD-0
  6
Continuous
 62
     7
370
    18
100
AcDbLine
 10
161.177685166
 20
377.1649263643
 30
0.0
 11
160.6080210666
 21
376.3430507287
 31
0.0
  0
LINE
  5
1DE
330
1F
100
AcDbEntity
  8
SLD-0
  6
Continuous
 62
     7
370
    18
100
AcDbLine
 10
158.3877521994
 20
378.0965238765
 30
0.0
 11
158.1423896792
 21
378.0520522922
 31
0.0
  0
LINE
  5
1DF
330
1F
100
AcDbEntity
  8
SLD-0
  6
Continuous
 62
     7
370
    18
100
AcDbLine
 10
158.3877521994
 20
378.0965238765
 30
0.0
 11
157.2749483826
 21
376.4910392418
 31
0.0
  0
LINE
  5
1E0
330
1F
100
AcDbEntity
  8
SLD-0
  6
Continuous
 62
     7
370
    18
100
AcDbLine
 10
157.1728977802
 20
376.4390835493
 30
0.0
 11
157.0030543449
 21
376.4083005443
 31
0.0
  0
LINE
  5
1E1
330
1F
100
AcDbEntity
  8
SLD-0
  6
Continuous
 62
     7
370
    18
100
AcDbLine
 10
158.1423896792
 20
378.0520522922
 30
0.0
 11
157.0030543449
 21
376.4083005443
 31
0.0
  0
LINE
  5
1E2
330
1F
100
AcDbEntity
  8
SLD-0
  6
Continuous
 62
     7
370
    18
100
AcDbLine
 10
158.9197940092
 20
377.7277495146
 30
0.0
 11
158.9642665247
 21
377.4823832691
 31
0.0
  0
LINE
  5
1E3
330
1F
100
AcDbEntity
  8
SLD-0
  6
Continuous
 62
     7
370
    18
100
AcDbLine
 10
160.5252749185
 20
376.6149419725
 30
0.0
 11
158.9197940092
 21
377.7277495146
 31
0.0
  0
LINE
  5
1E4
330
1F
100
AcDbEntity
  8
SLD-0
  6
Continuous
 62
     7
370
    18
100
AcDbLine
 10
160.6080210666
 20
376.3430507287
 30
0.0
 11
158.9642665247
 21
377.4823832691
 31
0.0
  0
LINE
  5
1E5
330
1F
100
AcDbEntity
  8
SLD-0
  6
Continuous
 62
     7
370
    18
100
AcDbLine
 10
156.6684785726
 20
379.2221687689
 30
0.0
 11
156.4986351373
 21
379.1913848325
 31
0.0
  0
LINE
  5
1E6
330
1F
100
AcDbEntity
  8
SLD-0
  6
Continuous
 62
     7
370
    18
100
AcDbLine
 10
158.3877521994
 20
378.0965238765
 30
0.0
 11
156.7822712901
 21
379.2093314185
 31
0.0
  0
LINE
  5
1E7
330
1F
100
AcDbEntity
  8
SLD-0
  6
Continuous
 62
     7
370
    18
100
AcDbLine
 10
158.1423896792
 20
378.0520522922
 30
0.0
 11
156.4986351373
 21
379.1913848325
 31
0.0
  0
LINE
  5
1E8
330
1F
100
AcDbEntity
  8
SLD-0
  6
Continuous
 62
     7
370
    18
100
AcDbLine
 10
160.8940473122
 20
377.1469809573
 30
0.0
 11
159.2885664029
 21
378.2597894307
 31
0.0
  0
LINE
  5
1E9
330
1F
100
AcDbEntity
  8
SLD-0
  6
Continuous
 62
     7
370
    18
100
AcDbLine
 10
159.2885664029
 20
378.2597894307
 30
0.0
 11
159.5339289231
 21
378.304261015
 31
0.0
  0
LINE
  5
1EA
330
1F
100
AcDbEntity
  8
SLD-0
  6
Continuous
 62
     7
370
    18
100
AcDbLine
 10
161.177685166
 20
377.1649263643
 30
0.0
 11
159.5339289231
 21
378.304261015
 31
0.0
  0
LINE
  5
1EB
330
1F
100
AcDbEntity
  8
SLD-0
  6
Continuous
 62
     7
370
    18
100
AcDbLine
 10
160.4013702197
 20
379.865273134
 30
0.0
 11
159.2885664029
 21
378.2597894307
 31
0.0
  0
LINE
  5
1EC
330
1F
100
AcDbEntity
  8
SLD-0
  6
Continuous
 62
     7
370
    18
100
AcDbLine
 10
160.5034206646
 20
379.9172295305
 30
0.0
 11
160.6732640999
 21
379.9480125356
 31
0.0
  0
LINE
  5
1ED
330
1F
100
AcDbEntity
  8
SLD-0
  6
Continuous
 62
     7
370
    18
100
AcDbLine
 10
160.6732640999
 20
379.9480125356
 30
0.0
 11
159.5339289231
 21
378.304261015
 31
0.0
  0
LINE
  5
1EE
330
1F
100
AcDbEntity
  8
SLD-0
  6
Continuous
 62
     7
370
    18
100
AcDbLine
 10
159.8958573203
 20
380.2723109156
 30
0.0
 11
159.8513922553
 21
380.5176780924
 31
0.0
  0
LINE
  5
1EF
330
1F
100
AcDbEntity
  8
SLD-0
  6
Continuous
 62
     7
370
    18
100
AcDbLine
 10
159.8958573203
 20
380.2723109156
 30
0.0
 11
158.7565294365
 21
378.6285591677
 31
0.0
  0
LINE
  5
1F0
330
1F
100
AcDbEntity
  8
SLD-0
  6
Continuous
 62
     7
370
    18
100
AcDbLine
 10
158.7565294365
 20
378.6285591677
 30
0.0
 11
158.712056921
 21
378.8739254132
 31
0.0
  0
LINE
  5
1F1
330
1F
100
AcDbEntity
  8
SLD-0
  6
Continuous
 62
     7
370
    18
100
AcDbLine
 10
159.8513922553
 20
380.5176780924
 30
0.0
 11
158.712056921
 21
378.8739254132
 31
0.0
  0
LINE
  5
1F2
330
1F
100
AcDbEntity
  8
SLD-0
  6
Continuous
 62
     7
370
    18
100
AcDbLine
 10
157.0990848782
 20
379.8434168055
 30
0.0
 11
157.0682990792
 21
380.0132611721
 31
0.0
  0
LINE
  5
1F3
330
1F
100
AcDbEntity
  8
SLD-0
  6
Continuous
 62
     7
370
    18
100
AcDbLine
 10
157.0682990792
 20
380.0132611721
 30
0.0
 11
156.4986351373
 21
379.1913848325
 31
0.0
  0
LINE
  5
1F4
330
1F
100
AcDbEntity
  8
SLD-0
  6
Continuous
 62
     7
370
    18
100
AcDbLine
 10
160.4163027267
 20
379.9115770861
 30
0.0
 11
159.8958573203
 21
380.2723109156
 31
0.0
  0
LINE
  5
1F5
330
1F
100
AcDbEntity
  8
SLD-0
  6
Continuous
 62
     7
370
    18
100
AcDbLine
 10
160.6732640999
 20
379.9480125356
 30
0.0
 11
159.8513922553
 21
380.5176780924
 31
0.0
  0
LINE
  5
1F6
330
1F
100
AcDbEntity
  8
SLD-0
  6
Continuous
 62
     7
370
    18
100
AcDbLine
 10
158.7565294365
 20
378.6285591677
 30
0.0
 11
157.1510410766
 21
379.7413676411
 31
0.0
  0
LINE
  5
1F7
330
1F
100
AcDbEntity
  8
SLD-0
  6
Continuous
 62
     7
370
    18
100
AcDbLine
 10
158.712056921
 20
378.8739254132
 30
0.0
 11
157.0682990792
 21
380.0132611721
 31
0.0
  0
LINE
  5
1F8
330
1F
100
AcDbEntity
  8
SLD-0
  6
Continuous
 62
     7
370
    18
100
AcDbLine
 10
157.7804586749
 20
376.0839977667
 30
0.0
 11
157.260020719
 21
376.4447325274
 31
0.0
  0
LINE
  5
1F9
330
1F
100
AcDbEntity
  8
SLD-0
  6
Continuous
 62
     7
370
    18
100
AcDbLine
 10
157.7804586749
 20
376.0839977667
 30
0.0
 11
157.8249311904
 21
375.8386315212
 31
0.0
  0
LINE
  5
1FA
330
1F
100
AcDbEntity
  8
SLD-0
  6
Continuous
 62
     7
370
    18
100
AcDbLine
 10
157.8249311904
 20
375.8386315212
 30
0.0
 11
157.0030543449
 21
376.4083005443
 31
0.0
  0
LINE
  5
1FB
330
1F
100
AcDbEntity
  8
SLD-0
  6
Continuous
 62
     7
370
    18
100
AcDbLine
 10
158.9197940092
 20
377.7277495146
 30
0.0
 11
157.7804586749
 21
376.0839977667
 31
0.0
  0
LINE
  5
1FC
330
1F
100
AcDbEntity
  8
SLD-0
  6
Continuous
 62
     7
370
    18
100
AcDbLine
 10
158.9642665247
 20
377.4823832691
 30
0.0
 11
157.8249311904
 21
375.8386315212
 31
0.0
  0
LINE
  5
1FD
330
1F
100
AcDbEntity
  8
SLD-0
  6
Continuous
 62
     7
370
    18
100
AcDbLine
 10
147.7236309251
 20
299.540628039
 30
0.0
 11
147.8757607997
 21
299.2771286277
 31
0.0
  0
LINE
  5
1FE
330
1F
100
AcDbEntity
  8
SLD-0
  6
Continuous
 62
     7
370
    18
100
AcDbLine
 10
148.2354303597
 20
298.65417043
 30
0.0
 11
148.2826511133
 21
298.5723768198
 31
0.0
  0
LINE
  5
1FF
330
1F
100
AcDbEntity
  8
SLD-0
  6
Continuous
 62
     7
370
    18
100
AcDbLine
 10
146.7793855132
 20
297.3781544475
 30
0.0
 11
146.4751264549
 21
297.3781548632
 31
0.0
  0
LINE
  5
200
330
1F
100
AcDbEntity
  8
SLD-0
  6
Continuous
 62
     7
370
    18
100
AcDbLine
 10
157.7417888079
 20
381.0771311217
 30
0.0
 11
157.5896554027
 21
381.3406292865
 31
0.0
  0
LINE
  5
201
330
1F
100
AcDbEntity
  8
SLD-0
  6
Continuous
 62
     7
370
    18
100
AcDbLine
 10
160.0866641196
 20
381.3406291983
 30
0.0
 11
159.9345317967
 21
381.0771314604
 31
0.0
  0
LINE
  5
202
330
1F
100
AcDbEntity
  8
SLD-0
  6
Continuous
 62
     7
370
    18
100
AcDbLine
 10
161.8849242693
 20
377.6781558301
 30
0.0
 11
162.201193965
 21
377.6781558301
 31
0.0
  0
LINE
  5
203
330
1F
100
AcDbEntity
  8
SLD-0
  6
Continuous
 62
     7
370
    18
100
AcDbLine
 10
160.9526895234
 20
375.5156828466
 30
0.0
 11
160.800557483
 21
375.7791800602
 31
0.0
  0
LINE
  5
204
330
1F
100
AcDbEntity
  8
SLD-0
  6
Continuous
 62
     7
370
    18
100
AcDbLine
 10
166.4751297934
 20
427.178159634
 30
0.0
 11
166.7793921299
 21
427.178158515
 31
0.0
  0
LINE
  5
205
330
1F
100
AcDbEntity
  8
SLD-0
  6
Continuous
 62
     7
370
    18
100
AcDbLine
 10
167.8757674165
 20
425.2791843348
 30
0.0
 11
167.7236342636
 21
425.0156864582
 31
0.0
  0
LINE
  5
206
330
1F
100
AcDbEntity
  8
SLD-0
  6
Continuous
 62
     7
370
    18
100
AcDbLine
 10
151.9526910817
 20
468.5156815043
 30
0.0
 11
151.800563154
 21
468.7791781292
 31
0.0
  0
LINE
  5
207
330
1F
100
AcDbEntity
  8
SLD-0
  6
Continuous
 62
     7
370
    18
100
AcDbLine
 10
152.8969384406
 20
470.6781523094
 30
0.0
 11
153.2011955519
 21
470.6781546801
 31
0.0
  0
LINE
  5
208
330
1F
100
AcDbEntity
  8
SLD-0
  6
Continuous
 62
     7
370
    18
100
AcDbLine
 10
151.5773660402
 20
298.3832077488
 30
0.0
 11
151.517999814
 21
298.4491900906
 31
0.0
  0
LINE
  5
209
330
1F
100
AcDbEntity
  8
SLD-0
  6
Continuous
 62
     7
370
    18
100
AcDbLine
 10
151.517999814
 20
298.4491900906
 30
0.0
 11
151.3936719756
 21
298.5723779902
 31
0.0
  0
LINE
  5
20A
330
1F
100
AcDbEntity
  8
SLD-0
  6
Continuous
 62
     7
370
    18
100
AcDbLine
 10
153.2011951432
 20
297.3781548632
 30
0.0
 11
152.8865444721
 21
297.3781544475
 31
0.0
  0
LINE
  5
20B
330
1F
100
AcDbEntity
  8
SLD-0
  6
Continuous
 62
     7
370
    18
100
AcDbLine
 10
151.3936719756
 20
298.5723779902
 30
0.0
 11
151.430455492
 21
298.6360879049
 31
0.0
  0
LINE
  5
20C
330
1F
100
AcDbEntity
  8
SLD-0
  6
Continuous
 62
     7
370
    18
100
AcDbLine
 10
151.7921361388
 20
299.2625403909
 30
0.0
 11
151.952690673
 21
299.540628039
 31
0.0
  0
LINE
  5
20D
330
1F
100
AcDbEntity
  8
SLD-0
  6
Continuous
 62
     7
370
    18
100
AcDbLine
 10
132.3381618551
 20
292.8781540307
 30
0.0
 11
129.8381567887
 21
292.8781540307
 31
0.0
  0
LINE
  5
20E
330
1F
100
AcDbEntity
  8
SLD-0
  6
Continuous
 62
     7
370
    18
100
AcDbLine
 10
129.838158832
 20
476.4781535968
 30
0.0
 11
132.3381638984
 21
476.4781535968
 31
0.0
  0
LINE
  5
20F
330
1F
100
AcDbEntity
  8
SLD-0
  6
Continuous
 62
     7
370
    18
100
AcDbLine
 10
176.8381646733
 20
292.8781525597
 30
0.0
 11
176.8381646733
 21
476.4781535968
 31
0.0
  0
LINE
  5
210
330
1F
100
AcDbEntity
  8
SLD-0
  6
Continuous
 62
     7
370
    18
100
AcDbLine
 10
164.3381619162
 20
293.1781549626
 30
0.0
 11
159.3381619162
 21
293.1781549626
 31
0.0
  0
LINE
  5
211
330
1F
100
AcDbEntity
  8
SLD-0
  6
Continuous
 62
     7
370
    18
100
AcDbLine
 10
152.3881608157
 20
307.9281549654
 30
0.0
 11
150.2881619561
 21
307.9281543232
 31
0.0
  0
LINE
  5
212
330
1F
100
AcDbEntity
  8
SLD-0
  6
Continuous
 62
     7
370
    18
100
AcDbLine
 10
150.0881611368
 20
307.7281546443
 30
0.0
 11
150.0881588916
 21
304.6281577453
 31
0.0
  0
LINE
  5
213
330
1F
100
AcDbEntity
  8
SLD-0
  6
Continuous
 62
     7
370
    18
100
AcDbLine
 10
150.2881600142
 20
304.4281535217
 30
0.0
 11
152.3881594499
 21
304.4281532372
 31
0.0
  0
LINE
  5
214
330
1F
100
AcDbEntity
  8
SLD-0
  6
Continuous
 62
     7
370
    18
100
AcDbLine
 10
152.5881601564
 20
304.6281533795
 30
0.0
 11
152.5881601564
 21
307.7281533795
 31
0.0
  0
LINE
  5
215
330
1F
100
AcDbEntity
  8
SLD-0
  6
Continuous
 62
     7
370
    18
100
AcDbLine
 10
156.4381617968
 20
460.1781550695
 30
0.0
 11
158.0881608629
 21
460.1781537717
 31
0.0
  0
LINE
  5
216
330
1F
100
AcDbEntity
  8
SLD-0
  6
Continuous
 62
     7
370
    18
100
AcDbLine
 10
160.2881611368
 20
456.7634804285
 30
0.0
 11
160.288160191
 21
455.4781557426
 31
0.0
  0
LINE
  5
217
330
1F
100
AcDbEntity
  8
SLD-0
  6
Continuous
 62
     7
370
    18
100
AcDbLine
 10
160.4881606639
 20
455.2781541714
 30
0.0
 11
163.188164105
 21
455.2781518841
 31
0.0
  0
LINE
  5
218
330
1F
100
AcDbEntity
  8
SLD-0
  6
Continuous
 62
     7
370
    18
100
AcDbLine
 10
163.3881608796
 20
455.4781560613
 30
0.0
 11
163.3881602557
 21
456.7634791701
 31
0.0
  0
LINE
  5
219
330
1F
100
AcDbEntity
  8
SLD-0
  6
Continuous
 62
     7
370
    18
100
AcDbLine
 10
165.588162419
 20
460.1781550695
 30
0.0
 11
167.2381599116
 21
460.1781537717
 31
0.0
  0
LINE
  5
21A
330
1F
100
AcDbEntity
  8
SLD-0
  6
Continuous
 62
     7
370
    18
100
AcDbLine
 10
167.4381630679
 20
460.3781544206
 30
0.0
 11
167.438163946
 21
468.9781530751
 31
0.0
  0
LINE
  5
21B
330
1F
100
AcDbEntity
  8
SLD-0
  6
Continuous
 62
     7
370
    18
100
AcDbLine
 10
167.2381635069
 20
469.1781548596
 30
0.0
 11
165.588162181
 21
469.1781568996
 31
0.0
  0
LINE
  5
21C
330
1F
100
AcDbEntity
  8
SLD-0
  6
Continuous
 62
     7
370
    18
100
AcDbLine
 10
158.0881628168
 20
469.1781540495
 30
0.0
 11
156.4381637545
 21
469.1781560895
 31
0.0
  0
LINE
  5
21D
330
1F
100
AcDbEntity
  8
SLD-0
  6
Continuous
 62
     7
370
    18
100
AcDbLine
 10
156.2381617968
 20
468.9781550695
 30
0.0
 11
156.2381617968
 21
460.3781550695
 31
0.0
  0
LINE
  5
21E
330
1F
100
AcDbEntity
  8
SLD-0
  6
Continuous
 62
     7
370
    18
100
AcDbLine
 10
158.0881602029
 20
392.6781546224
 30
0.0
 11
158.0881602029
 21
389.1781546308
 31
0.0
  0
LINE
  5
21F
330
1F
100
AcDbEntity
  8
SLD-0
  6
Continuous
 62
     7
370
    18
100
AcDbLine
 10
165.5881611368
 20
389.1781546443
 30
0.0
 11
165.588160501
 21
392.6781546224
 31
0.0
  0
LINE
  5
220
330
1F
100
AcDbEntity
  8
SLD-0
  6
Continuous
 62
     7
370
    18
100
AcDbLine
 10
158.0881602029
 20
439.1781554922
 30
0.0
 11
158.0881602029
 21
435.6781558499
 31
0.0
  0
LINE
  5
221
330
1F
100
AcDbEntity
  8
SLD-0
  6
Continuous
 62
     7
370
    18
100
AcDbLine
 10
165.5881611368
 20
435.6781546443
 30
0.0
 11
165.588160501
 21
439.1781554922
 31
0.0
  0
LINE
  5
222
330
1F
100
AcDbEntity
  8
SLD-0
  6
Continuous
 62
     7
370
    18
100
AcDbLine
 10
156.7381597023
 20
315.2535573944
 30
0.0
 11
156.7381597023
 21
302.1781535253
 31
0.0
  0
LINE
  5
223
330
1F
100
AcDbEntity
  8
SLD-0
  6
Continuous
 62
     7
370
    18
100
AcDbLine
 10
166.9381611368
 20
302.1781546443
 30
0.0
 11
166.9381610016
 21
315.2535573944
 31
0.0
  0
LINE
  5
224
330
1F
100
AcDbEntity
  8
SLD-0
  6
Continuous
 62
     7
370
    18
100
AcDbLine
 10
172.6381617238
 20
449.4781542477
 30
0.0
 11
156.4381626615
 21
449.4781542477
 31
0.0
  0
LINE
  5
225
330
1F
100
AcDbEntity
  8
SLD-0
  6
Continuous
 62
     7
370
    18
100
AcDbLine
 10
156.4381626615
 20
449.4781542477
 30
0.0
 11
155.9381616482
 21
449.978155261
 31
0.0
  0
LINE
  5
226
330
1F
100
AcDbEntity
  8
SLD-0
  6
Continuous
 62
     7
370
    18
100
AcDbLine
 10
155.9381616482
 20
449.978155261
 30
0.0
 11
155.9381616482
 21
454.9781542179
 31
0.0
  0
LINE
  5
227
330
1F
100
AcDbEntity
  8
SLD-0
  6
Continuous
 62
     7
370
    18
100
AcDbLine
 10
155.438161686
 20
455.4781540951
 30
0.0
 11
154.1381609429
 21
455.4781551934
 31
0.0
  0
LINE
  5
228
330
1F
100
AcDbEntity
  8
SLD-0
  6
Continuous
 62
     7
370
    18
100
AcDbLine
 10
153.6381611368
 20
454.9781546443
 30
0.0
 11
153.6381593804
 21
441.3781554803
 31
0.0
  0
LINE
  5
229
330
1F
100
AcDbEntity
  8
SLD-0
  6
Continuous
 62
     7
370
    18
100
AcDbLine
 10
154.1381602586
 20
440.8781537661
 30
0.0
 11
155.4381591698
 21
440.8781535888
 31
0.0
  0
LINE
  5
22A
330
1F
100
AcDbEntity
  8
SLD-0
  6
Continuous
 62
     7
370
    18
100
AcDbLine
 10
155.9381603473
 20
441.3781536775
 30
0.0
 11
155.9381603473
 21
446.3781534704
 31
0.0
  0
LINE
  5
22B
330
1F
100
AcDbEntity
  8
SLD-0
  6
Continuous
 62
     7
370
    18
100
AcDbLine
 10
155.9381603473
 20
446.3781534704
 30
0.0
 11
156.4381613606
 21
446.8781544837
 31
0.0
  0
LINE
  5
22C
330
1F
100
AcDbEntity
  8
SLD-0
  6
Continuous
 62
     7
370
    18
100
AcDbLine
 10
156.4381613606
 20
446.8781544837
 30
0.0
 11
172.6381599182
 21
446.8781544837
 31
0.0
  0
LINE
  5
22D
330
1F
100
AcDbEntity
  8
SLD-0
  6
Continuous
 62
     7
370
    18
100
AcDbLine
 10
172.8381600198
 20
447.0781540806
 30
0.0
 11
172.8381600198
 21
449.2781540806
 31
0.0
  0
LINE
  5
22E
330
1F
100
AcDbEntity
  8
SLD-0
  6
Continuous
 62
     7
370
    18
100
AcDbLine
 10
166.1381595907
 20
345.678154405
 30
0.0
 11
172.4381619272
 21
345.678154405
 31
0.0
  0
LINE
  5
22F
330
1F
100
AcDbEntity
  8
SLD-0
  6
Continuous
 62
     7
370
    18
100
AcDbLine
 10
172.4381619272
 20
345.678154405
 30
0.0
 11
172.4381619272
 21
358.1781552538
 31
0.0
  0
LINE
  5
230
330
1F
100
AcDbEntity
  8
SLD-0
  6
Continuous
 62
     7
370
    18
100
AcDbLine
 10
172.4381619272
 20
358.1781552538
 30
0.0
 11
151.2381634573
 21
358.1781552538
 31
0.0
  0
LINE
  5
231
330
1F
100
AcDbEntity
  8
SLD-0
  6
Continuous
 62
     7
370
    18
100
AcDbLine
 10
151.2381634573
 20
358.1781552538
 30
0.0
 11
151.2381634573
 21
345.6781559989
 31
0.0
  0
LINE
  5
232
330
1F
100
AcDbEntity
  8
SLD-0
  6
Continuous
 62
     7
370
    18
100
AcDbLine
 10
151.2381634573
 20
345.6781559989
 30
0.0
 11
157.5381583433
 21
345.6781559989
 31
0.0
  0
LINE
  5
233
330
1F
100
AcDbEntity
  8
SLD-0
  6
Continuous
 62
     7
370
    18
100
AcDbLine
 10
157.5381583433
 20
345.6781559989
 30
0.0
 11
157.5381583433
 21
348.0441809997
 31
0.0
  0
LINE
  5
234
330
1F
100
AcDbEntity
  8
SLD-0
  6
Continuous
 62
     7
370
    18
100
AcDbLine
 10
157.6051458285
 20
348.2941807465
 30
0.0
 11
158.2598487758
 21
349.4281568463
 31
0.0
  0
LINE
  5
235
330
1F
100
AcDbEntity
  8
SLD-0
  6
Continuous
 62
     7
370
    18
100
AcDbLine
 10
158.6928596466
 20
349.6781543418
 30
0.0
 11
164.4061089596
 21
349.6781526267
 31
0.0
  0
LINE
  5
236
330
1F
100
AcDbEntity
  8
SLD-0
  6
Continuous
 62
     7
370
    18
100
AcDbLine
 10
164.8391202599
 20
349.4281530555
 30
0.0
 11
166.0711714015
 21
347.2941778807
 31
0.0
  0
LINE
  5
237
330
1F
100
AcDbEntity
  8
SLD-0
  6
Continuous
 62
     7
370
    18
100
AcDbLine
 10
166.1381583669
 20
347.0441784542
 30
0.0
 11
166.1381595907
 21
345.678154405
 31
0.0
  0
LINE
  5
238
330
1F
100
AcDbEntity
  8
SLD-0
  6
Continuous
 62
     7
370
    18
100
AcDbLine
 10
167.5881645541
 20
383.12815478
 30
0.0
 11
172.5881597857
 21
383.12815478
 31
0.0
  0
LINE
  5
239
330
1F
100
AcDbEntity
  8
SLD-0
  6
Continuous
 62
     7
370
    18
100
AcDbLine
 10
172.5881597857
 20
383.12815478
 30
0.0
 11
172.5881597857
 21
385.4281545982
 31
0.0
  0
LINE
  5
23A
330
1F
100
AcDbEntity
  8
SLD-0
  6
Continuous
 62
     7
370
    18
100
AcDbLine
 10
172.5881597857
 20
385.4281545982
 30
0.0
 11
167.5881645541
 21
385.4281545982
 31
0.0
  0
LINE
  5
23B
330
1F
100
AcDbEntity
  8
SLD-0
  6
Continuous
 62
     7
370
    18
100
AcDbLine
 10
167.5881645541
 20
385.4281545982
 30
0.0
 11
167.5881645541
 21
383.12815478
 31
0.0
  0
LINE
  5
23C
330
1F
100
AcDbEntity
  8
SLD-0
  6
Continuous
 62
     7
370
    18
100
AcDbLine
 10
170.5881625069
 20
436.9281539815
 30
0.0
 11
173.8881587637
 21
436.9281539815
 31
0.0
  0
LINE
  5
23D
330
1F
100
AcDbEntity
  8
SLD-0
  6
Continuous
 62
     7
370
    18
100
AcDbLine
 10
174.0881604537
 20
437.1281539747
 30
0.0
 11
174.0881621424
 21
439.228155669
 31
0.0
  0
LINE
  5
23E
330
1F
100
AcDbEntity
  8
SLD-0
  6
Continuous
 62
     7
370
    18
100
AcDbLine
 10
173.8881618141
 20
439.428153967
 30
0.0
 11
170.5881638605
 21
439.4281553216
 31
0.0
  0
LINE
  5
23F
330
1F
100
AcDbEntity
  8
SLD-0
  6
Continuous
 62
     7
370
    18
100
AcDbLine
 10
170.3881611368
 20
439.2281546443
 30
0.0
 11
170.3881597976
 21
437.128154318
 31
0.0
  0
LINE
  5
240
330
1F
100
AcDbEntity
  8
SLD-0
  6
Continuous
 62
     7
370
    18
100
AcDbLine
 10
170.588162632
 20
295.6281538563
 30
0.0
 11
173.8881588888
 21
295.6281538563
 31
0.0
  0
LINE
  5
241
330
1F
100
AcDbEntity
  8
SLD-0
  6
Continuous
 62
     7
370
    18
100
AcDbLine
 10
174.0881607041
 20
295.8281539747
 30
0.0
 11
174.0881623928
 21
297.9281554187
 31
0.0
  0
LINE
  5
242
330
1F
100
AcDbEntity
  8
SLD-0
  6
Continuous
 62
     7
370
    18
100
AcDbLine
 10
173.8881598263
 20
298.1281559548
 30
0.0
 11
170.5881618727
 21
298.1281533337
 31
0.0
  0
LINE
  5
243
330
1F
100
AcDbEntity
  8
SLD-0
  6
Continuous
 62
     7
370
    18
100
AcDbLine
 10
170.3881611368
 20
297.9281546443
 30
0.0
 11
170.3881597976
 21
295.828157793
 31
0.0
  0
LINE
  5
244
330
1F
100
AcDbEntity
  8
SLD-0
  6
Continuous
 62
     7
370
    18
100
AcDbLine
 10
148.0989581804
 20
295.3731061324
 30
0.0
 11
148.1583244066
 21
295.3071237907
 31
0.0
  0
LINE
  5
245
330
1F
100
AcDbEntity
  8
SLD-0
  6
Continuous
 62
     7
370
    18
100
AcDbLine
 10
148.1583244066
 20
295.3071237907
 30
0.0
 11
148.282652245
 21
295.1839358911
 31
0.0
  0
LINE
  5
246
330
1F
100
AcDbEntity
  8
SLD-0
  6
Continuous
 62
     7
370
    18
100
AcDbLine
 10
148.282652245
 20
295.1839358911
 30
0.0
 11
148.2458687286
 21
295.1202185258
 31
0.0
  0
LINE
  5
247
330
1F
100
AcDbEntity
  8
SLD-0
  6
Continuous
 62
     7
370
    18
100
AcDbLine
 10
147.885349697
 20
294.4957930355
 30
0.0
 11
147.7236309251
 21
294.2156816874
 31
0.0
  0
LINE
  5
248
330
1F
100
AcDbEntity
  8
SLD-0
  6
Continuous
 62
     7
370
    18
100
AcDbLine
 10
146.4751264549
 20
296.3781548632
 30
0.0
 11
146.7793855132
 21
296.378152421
 31
0.0
  0
LINE
  5
249
330
1F
100
AcDbEntity
  8
SLD-0
  6
Continuous
 62
     7
370
    18
100
AcDbLine
 10
148.5896563289
 20
293.7156816874
 30
0.0
 11
148.741786486
 21
293.9791772275
 31
0.0
  0
LINE
  5
24A
330
1F
100
AcDbEntity
  8
SLD-0
  6
Continuous
 62
     7
370
    18
100
AcDbLine
 10
150.9345370592
 20
293.9791772275
 30
0.0
 11
151.0866652692
 21
293.7156816874
 31
0.0
  0
LINE
  5
24B
330
1F
100
AcDbEntity
  8
SLD-0
  6
Continuous
 62
     7
370
    18
100
AcDbLine
 10
155.7793877013
 20
378.6781562669
 30
0.0
 11
155.4751253052
 21
378.6781560225
 31
0.0
  0
LINE
  5
24C
330
1F
100
AcDbEntity
  8
SLD-0
  6
Continuous
 62
     7
370
    18
100
AcDbLine
 10
156.7236297754
 20
380.8406291983
 30
0.0
 11
156.877253104
 21
380.5745450957
 31
0.0
  0
LINE
  5
24D
330
1F
100
AcDbEntity
  8
SLD-0
  6
Continuous
 62
     7
370
    18
100
AcDbLine
 10
157.2489789586
 20
376.5154757902
 30
0.0
 11
157.2826481323
 21
376.4839328259
 31
0.0
  0
LINE
  5
24E
330
1F
100
AcDbEntity
  8
SLD-0
  6
Continuous
 62
     7
370
    18
100
AcDbLine
 10
155.4751253052
 20
377.6781560225
 30
0.0
 11
155.7975745686
 21
377.6781560225
 31
0.0
  0
LINE
  5
24F
330
1F
100
AcDbEntity
  8
SLD-0
  6
Continuous
 62
     7
370
    18
100
AcDbLine
 10
157.2826481323
 20
376.4839328259
 30
0.0
 11
157.2340628962
 21
376.3997775868
 31
0.0
  0
LINE
  5
250
330
1F
100
AcDbEntity
  8
SLD-0
  6
Continuous
 62
     7
370
    18
100
AcDbLine
 10
156.8757629879
 20
375.7791800602
 30
0.0
 11
156.7236297754
 21
375.5156828466
 31
0.0
  0
LINE
  5
251
330
1F
100
AcDbEntity
  8
SLD-0
  6
Continuous
 62
     7
370
    18
100
AcDbLine
 10
173.2011984817
 20
428.178159634
 30
0.0
 11
172.8969371982
 21
428.1781605415
 31
0.0
  0
LINE
  5
252
330
1F
100
AcDbEntity
  8
SLD-0
  6
Continuous
 62
     7
370
    18
100
AcDbLine
 10
171.8005619116
 20
430.0771347218
 30
0.0
 11
171.9526940115
 21
430.3406328099
 31
0.0
  0
LINE
  5
253
330
1F
100
AcDbEntity
  8
SLD-0
  6
Continuous
 62
     7
370
    18
100
AcDbLine
 10
171.9526940115
 20
425.0156864582
 30
0.0
 11
171.7988035746
 21
425.2822316222
 31
0.0
  0
LINE
  5
254
330
1F
100
AcDbEntity
  8
SLD-0
  6
Continuous
 62
     7
370
    18
100
AcDbLine
 10
172.8969371982
 20
427.178158515
 30
0.0
 11
173.2011984817
 21
427.178159634
 31
0.0
  0
LINE
  5
255
330
1F
100
AcDbEntity
  8
SLD-0
  6
Continuous
 62
     7
370
    18
100
AcDbLine
 10
167.7236342636
 20
430.3406328099
 30
0.0
 11
167.8757674165
 21
430.0771347218
 31
0.0
  0
LINE
  5
256
330
1F
100
AcDbEntity
  8
SLD-0
  6
Continuous
 62
     7
370
    18
100
AcDbLine
 10
166.7919240065
 20
428.1781605415
 30
0.0
 11
166.4751297934
 21
428.178159634
 31
0.0
  0
LINE
  5
257
330
1F
100
AcDbEntity
  8
SLD-0
  6
Continuous
 62
     7
370
    18
100
AcDbLine
 10
171.0866686077
 20
430.8406328099
 30
0.0
 11
170.9345362253
 21
430.577135735
 31
0.0
  0
LINE
  5
258
330
1F
100
AcDbEntity
  8
SLD-0
  6
Continuous
 62
     7
370
    18
100
AcDbLine
 10
168.7433130212
 20
430.5744982295
 30
0.0
 11
168.5896596674
 21
430.8406328099
 31
0.0
  0
LINE
  5
259
330
1F
100
AcDbEntity
  8
SLD-0
  6
Continuous
 62
     7
370
    18
100
AcDbLine
 10
147.7236313338
 20
473.840627856
 30
0.0
 11
147.8757612083
 21
473.5771285162
 31
0.0
  0
LINE
  5
25A
330
1F
100
AcDbEntity
  8
SLD-0
  6
Continuous
 62
     7
370
    18
100
AcDbLine
 10
146.7793859218
 20
471.6781543359
 30
0.0
 11
146.4751268636
 21
471.6781546801
 31
0.0
  0
LINE
  5
25B
330
1F
100
AcDbEntity
  8
SLD-0
  6
Continuous
 62
     7
370
    18
100
AcDbLine
 10
160.4273444871
 20
379.8408328921
 30
0.0
 11
160.3936678628
 21
379.8723767877
 31
0.0
  0
LINE
  5
25C
330
1F
100
AcDbEntity
  8
SLD-0
  6
Continuous
 62
     7
370
    18
100
AcDbLine
 10
160.3936678628
 20
379.8723767877
 30
0.0
 11
160.4422605495
 21
379.9565320268
 31
0.0
  0
LINE
  5
25D
330
1F
100
AcDbEntity
  8
SLD-0
  6
Continuous
 62
     7
370
    18
100
AcDbLine
 10
160.800557483
 20
380.5771313785
 30
0.0
 11
160.9526895234
 21
380.8406291983
 31
0.0
  0
LINE
  5
25E
330
1F
100
AcDbEntity
  8
SLD-0
  6
Continuous
 62
     7
370
    18
100
AcDbLine
 10
162.2011939936
 20
378.6781560225
 30
0.0
 11
161.8969327696
 21
378.6781562669
 31
0.0
  0
LINE
  5
25F
330
1F
100
AcDbEntity
  8
SLD-0
  6
Continuous
 62
     7
370
    18
100
AcDbLine
 10
151.952690673
 20
294.2156816874
 30
0.0
 11
151.8005627454
 21
294.4791782407
 31
0.0
  0
LINE
  5
260
330
1F
100
AcDbEntity
  8
SLD-0
  6
Continuous
 62
     7
370
    18
100
AcDbLine
 10
151.4408931455
 20
295.1021439327
 30
0.0
 11
151.3936704448
 21
295.1839329501
 31
0.0
  0
LINE
  5
261
330
1F
100
AcDbEntity
  8
SLD-0
  6
Continuous
 62
     7
370
    18
100
AcDbLine
 10
152.896938032
 20
296.378152421
 30
0.0
 11
153.2011951432
 21
296.3781548632
 31
0.0
  0
LINE
  5
262
330
1F
100
AcDbEntity
  8
SLD-0
  6
Continuous
 62
     7
370
    18
100
AcDbLine
 10
151.0866652692
 20
300.040628039
 30
0.0
 11
150.9345370592
 21
299.777129641
 31
0.0
  0
LINE
  5
263
330
1F
100
AcDbEntity
  8
SLD-0
  6
Continuous
 62
     7
370
    18
100
AcDbLine
 10
148.741786486
 20
299.777129641
 30
0.0
 11
148.5896563289
 21
300.040628039
 31
0.0
  0
LINE
  5
264
330
1F
100
AcDbEntity
  8
SLD-0
  6
Continuous
 62
     7
370
    18
100
AcDbLine
 10
157.5896551792
 20
375.0156828466
 30
0.0
 11
157.7417886742
 21
375.2791799782
 31
0.0
  0
LINE
  5
265
330
1F
100
AcDbEntity
  8
SLD-0
  6
Continuous
 62
     7
370
    18
100
AcDbLine
 10
159.9345317967
 20
375.2791799782
 30
0.0
 11
160.0866641196
 21
375.0156828466
 31
0.0
  0
LINE
  5
266
330
1F
100
AcDbEntity
  8
SLD-0
  6
Continuous
 62
     7
370
    18
100
AcDbLine
 10
150.2621523003
 20
468.917572628
 30
0.0
 11
150.3588012318
 21
468.9378531083
 31
0.0
  0
LINE
  5
267
330
1F
100
AcDbEntity
  8
SLD-0
  6
Continuous
 62
     7
370
    18
100
AcDbLine
 10
150.3588012318
 20
468.9378531083
 30
0.0
 11
150.5276462893
 21
468.9839349493
 31
0.0
  0
LINE
  5
268
330
1F
100
AcDbEntity
  8
SLD-0
  6
Continuous
 62
     7
370
    18
100
AcDbLine
 10
148.5896567375
 20
468.0156815043
 30
0.0
 11
148.7457506035
 21
468.2860465512
 31
0.0
  0
LINE
  5
269
330
1F
100
AcDbEntity
  8
SLD-0
  6
Continuous
 62
     7
370
    18
100
AcDbLine
 10
150.5276462893
 20
468.9839349493
 30
0.0
 11
150.564318047
 21
468.9204112992
 31
0.0
  0
LINE
  5
26A
330
1F
100
AcDbEntity
  8
SLD-0
  6
Continuous
 62
     7
370
    18
100
AcDbLine
 10
150.924993274
 20
468.2957099542
 30
0.0
 11
151.0866656779
 21
468.0156815043
 31
0.0
  0
LINE
  5
26B
330
1F
100
AcDbEntity
  8
SLD-0
  6
Continuous
 62
     7
370
    18
100
AcDbLine
 10
168.5896596674
 20
424.5156864582
 30
0.0
 11
168.7417931028
 21
424.7791833215
 31
0.0
  0
LINE
  5
26C
330
1F
100
AcDbEntity
  8
SLD-0
  6
Continuous
 62
     7
370
    18
100
AcDbLine
 10
170.9345362253
 20
424.7791833215
 30
0.0
 11
171.0866686077
 21
424.5156864582
 31
0.0
  0
LINE
  5
26D
330
1F
100
AcDbEntity
  8
SLD-0
  6
Continuous
 62
     7
370
    18
100
AcDbLine
 10
149.4141719202
 20
473.4387339458
 30
0.0
 11
149.3175229887
 21
473.4184534654
 31
0.0
  0
LINE
  5
26E
330
1F
100
AcDbEntity
  8
SLD-0
  6
Continuous
 62
     7
370
    18
100
AcDbLine
 10
149.3175229887
 20
473.4184534654
 30
0.0
 11
149.1486779313
 21
473.372379075
 31
0.0
  0
LINE
  5
26F
330
1F
100
AcDbEntity
  8
SLD-0
  6
Continuous
 62
     7
370
    18
100
AcDbLine
 10
151.0866656779
 20
474.340627856
 30
0.0
 11
150.9345374678
 21
474.0771295294
 31
0.0
  0
LINE
  5
270
330
1F
100
AcDbEntity
  8
SLD-0
  6
Continuous
 62
     7
370
    18
100
AcDbLine
 10
149.1486779313
 20
473.372379075
 30
0.0
 11
149.1120061736
 21
473.4358952746
 31
0.0
  0
LINE
  5
271
330
1F
100
AcDbEntity
  8
SLD-0
  6
Continuous
 62
     7
370
    18
100
AcDbLine
 10
148.7501911495
 20
474.062571095
 30
0.0
 11
148.5896567375
 21
474.340627856
 31
0.0
  0
LINE
  5
272
330
1F
100
AcDbEntity
  8
SLD-0
  6
Continuous
 62
     7
370
    18
100
AcDbLine
 10
153.2011955519
 20
471.6781546801
 30
0.0
 11
152.8969384406
 21
471.6781543359
 31
0.0
  0
LINE
  5
273
330
1F
100
AcDbEntity
  8
SLD-0
  6
Continuous
 62
     7
370
    18
100
AcDbLine
 10
152.1760205307
 20
471.6781543958
 30
0.0
 11
152.0831559085
 21
471.67815474
 31
0.0
  0
LINE
  5
274
330
1F
100
AcDbEntity
  8
SLD-0
  6
Continuous
 62
     7
370
    18
100
AcDbLine
 10
151.800563154
 20
473.5771285162
 30
0.0
 11
151.9526910817
 21
473.840627856
 31
0.0
  0
LINE
  5
275
330
1F
100
AcDbEntity
  8
SLD-0
  6
Continuous
 62
     7
370
    18
100
AcDbLine
 10
146.4751268636
 20
470.6781546801
 30
0.0
 11
146.7793859218
 21
470.6781523094
 31
0.0
  0
LINE
  5
276
330
1F
100
AcDbEntity
  8
SLD-0
  6
Continuous
 62
     7
370
    18
100
AcDbLine
 10
147.5003041779
 20
470.6781523267
 30
0.0
 11
147.5931668532
 21
470.6781546974
 31
0.0
  0
LINE
  5
277
330
1F
100
AcDbEntity
  8
SLD-0
  6
Continuous
 62
     7
370
    18
100
AcDbLine
 10
147.8757612083
 20
468.7791781292
 30
0.0
 11
147.7236313338
 21
468.5156815043
 31
0.0
  0
LINE
  5
278
330
1F
100
AcDbEntity
  8
SLD-0
  6
Continuous
 62
     7
370
    18
100
AcDbLine
 10
176.8381646733
 20
291.1781535849
 30
0.0
 11
176.8381646733
 21
292.8781525597
 31
0.0
  0
LINE
  5
279
330
1F
100
AcDbEntity
  8
SLD-0
  6
Continuous
 62
     7
370
    18
100
AcDbLine
 10
176.8381646733
 20
291.1781535849
 30
0.0
 11
165.3381637196
 21
291.1781535849
 31
0.0
  0
LINE
  5
27A
330
1F
100
AcDbEntity
  8
SLD-0
  6
Continuous
 62
     7
370
    18
100
AcDbLine
 10
165.3381637196
 20
291.1781535849
 30
0.0
 11
165.3381637196
 21
292.1781556114
 31
0.0
  0
LINE
  5
27B
330
1F
100
AcDbEntity
  8
SLD-0
  6
Continuous
 62
     7
370
    18
100
AcDbLine
 10
158.3381623916
 20
291.1781550559
 30
0.0
 11
132.3381618551
 21
291.1781550559
 31
0.0
  0
LINE
  5
27C
330
1F
100
AcDbEntity
  8
SLD-0
  6
Continuous
 62
     7
370
    18
100
AcDbLine
 10
158.3381623916
 20
292.1781570825
 30
0.0
 11
158.3381623916
 21
291.1781550559
 31
0.0
  0
LINE
  5
27D
330
1F
100
AcDbEntity
  8
SLD-0
  6
Continuous
 62
     7
370
    18
100
AcDbLine
 10
132.3381618551
 20
292.8781540307
 30
0.0
 11
132.3381618551
 21
291.1781550559
 31
0.0
  0
LINE
  5
27E
330
1F
100
AcDbEntity
  8
SLD-0
  6
Continuous
 62
     7
370
    18
100
AcDbLine
 10
132.3381638984
 20
478.1781525716
 30
0.0
 11
176.8381646733
 21
478.1781525716
 31
0.0
  0
LINE
  5
27F
330
1F
100
AcDbEntity
  8
SLD-0
  6
Continuous
 62
     7
370
    18
100
AcDbLine
 10
176.8381646733
 20
476.4781535968
 30
0.0
 11
176.8381646733
 21
478.1781525716
 31
0.0
  0
LINE
  5
280
330
1F
100
AcDbEntity
  8
SLD-0
  6
Continuous
 62
     7
370
    18
100
AcDbLine
 10
132.3381638984
 20
478.1781525716
 30
0.0
 11
132.3381638984
 21
476.4781535968
 31
0.0
  0
LINE
  5
281
330
1F
100
AcDbEntity
  8
SLD-0
  6
Continuous
 62
     7
370
    18
100
AcDbLine
 10
151.2381634573
 20
353.6087365255
 30
0.0
 11
151.3381576995
 21
351.465785633
 31
0.0
  0
LINE
  5
282
330
1F
100
AcDbEntity
  8
SLD-0
  6
Continuous
 62
     7
370
    18
100
AcDbLine
 10
151.5989205698
 20
345.8778948888
 30
0.0
 11
151.6082412462
 21
345.6781559989
 31
0.0
  0
LINE
  5
283
330
1F
100
AcDbEntity
  8
SLD-0
  6
Continuous
 62
     7
370
    18
100
AcDbLine
 10
169.7461432676
 20
345.6781559989
 30
0.0
 11
169.492100821
 21
358.1781552538
 31
0.0
  0
LINE
  5
284
330
1F
100
AcDbEntity
  8
SLD-0
  6
Continuous
 62
     7
370
    18
100
AcDbLine
 10
172.3902127604
 20
345.6781559989
 30
0.0
 11
172.3861596446
 21
358.1781552538
 31
0.0
  0
LINE
  5
285
330
1F
100
AcDbEntity
  8
SLD-0
  6
Continuous
 62
     7
370
    18
100
AcDbLine
 10
165.5381611368
 20
435.6281546443
 30
0.0
 11
165.5381596546
 21
439.1281546459
 31
0.0
  0
LINE
  5
286
330
1F
100
AcDbEntity
  8
SLD-0
  6
Continuous
 62
     7
370
    18
100
AcDbLine
 10
165.5381596546
 20
389.1281546575
 30
0.0
 11
165.5381596546
 21
392.6281547073
 31
0.0
  0
LINE
  5
287
330
1F
100
AcDbEntity
  8
SLD-0
  6
Continuous
 62
     7
370
    18
100
AcDbLine
 10
155.9381610612
 20
452.0781950459
 30
0.0
 11
153.6381593804
 21
451.1777514026
 31
0.0
  0
LINE
  5
288
330
1F
100
AcDbEntity
  8
SLD-0
  6
Continuous
 62
     7
370
    18
100
AcDbLine
 10
157.9289636473
 20
446.8781554505
 30
0.0
 11
158.6477733116
 21
449.4781547591
 31
0.0
  0
LINE
  5
289
330
1F
100
AcDbEntity
  8
SLD-0
  6
Continuous
 62
     7
370
    18
100
AcDbLine
 10
153.6381593804
 20
443.2590433761
 30
0.0
 11
155.9381610612
 21
445.1215730414
 31
0.0
  0
LINE
  5
28A
330
1F
100
AcDbEntity
  8
SLD-0
  6
Continuous
 62
     7
370
    18
100
AcDbLine
 10
167.1381643872
 20
466.1281572089
 30
0.0
 11
165.6381613473
 21
466.1281572089
 31
0.0
  0
LINE
  5
28B
330
1F
100
AcDbEntity
  8
SLD-0
  6
Continuous
 62
     7
370
    18
100
AcDbLine
 10
165.6381613473
 20
466.478155683
 30
0.0
 11
165.6381613473
 21
466.1281572089
 31
0.0
  0
LINE
  5
28C
330
1F
100
AcDbEntity
  8
SLD-0
  6
Continuous
 62
     7
370
    18
100
AcDbLine
 10
156.4381620745
 20
466.6781516179
 30
0.0
 11
157.9381576638
 21
466.6781516179
 31
0.0
  0
LINE
  5
28D
330
1F
100
AcDbEntity
  8
SLD-0
  6
Continuous
 62
     7
370
    18
100
AcDbLine
 10
157.9381576638
 20
466.6781516179
 30
0.0
 11
157.9381576638
 21
466.478155683
 31
0.0
  0
LINE
  5
28E
330
1F
100
AcDbEntity
  8
SLD-0
  6
Continuous
 62
     7
370
    18
100
AcDbLine
 10
165.6381613473
 20
463.7281538352
 30
0.0
 11
167.1381643872
 21
463.7281538352
 31
0.0
  0
LINE
  5
28F
330
1F
100
AcDbEntity
  8
SLD-0
  6
Continuous
 62
     7
370
    18
100
AcDbLine
 10
167.1381643872
 20
463.1281511292
 30
0.0
 11
165.6381613473
 21
463.1281511292
 31
0.0
  0
LINE
  5
290
330
1F
100
AcDbEntity
  8
SLD-0
  6
Continuous
 62
     7
370
    18
100
AcDbLine
 10
165.6381613473
 20
463.7281538352
 30
0.0
 11
165.6381613473
 21
463.1281511292
 31
0.0
  0
LINE
  5
291
330
1F
100
AcDbEntity
  8
SLD-0
  6
Continuous
 62
     7
370
    18
100
AcDbLine
 10
167.3381588089
 20
464.7281558618
 30
0.0
 11
167.3381588089
 21
464.1281531557
 31
0.0
  0
LINE
  5
292
330
1F
100
AcDbEntity
  8
SLD-0
  6
Continuous
 62
     7
370
    18
100
AcDbLine
 10
167.3381588089
 20
464.1281531557
 30
0.0
 11
167.1381643872
 21
464.1281531557
 31
0.0
  0
LINE
  5
293
330
1F
100
AcDbEntity
  8
SLD-0
  6
Continuous
 62
     7
370
    18
100
AcDbLine
 10
167.1381643872
 20
464.7281558618
 30
0.0
 11
167.3381588089
 21
464.7281558618
 31
0.0
  0
LINE
  5
294
330
1F
100
AcDbEntity
  8
SLD-0
  6
Continuous
 62
     7
370
    18
100
AcDbLine
 10
156.238158689
 20
465.7281578883
 30
0.0
 11
156.4381620745
 21
465.7281578883
 31
0.0
  0
LINE
  5
295
330
1F
100
AcDbEntity
  8
SLD-0
  6
Continuous
 62
     7
370
    18
100
AcDbLine
 10
156.4381620745
 20
465.1281551823
 30
0.0
 11
156.238158689
 21
465.1281551823
 31
0.0
  0
LINE
  5
296
330
1F
100
AcDbEntity
  8
SLD-0
  6
Continuous
 62
     7
370
    18
100
AcDbLine
 10
156.4381620745
 20
466.1281572089
 30
0.0
 11
156.238158689
 21
466.1281572089
 31
0.0
  0
LINE
  5
297
330
1F
100
AcDbEntity
  8
SLD-0
  6
Continuous
 62
     7
370
    18
100
AcDbLine
 10
167.1381643872
 20
465.1281551823
 30
0.0
 11
165.6381613473
 21
465.1281551823
 31
0.0
  0
LINE
  5
298
330
1F
100
AcDbEntity
  8
SLD-0
  6
Continuous
 62
     7
370
    18
100
AcDbLine
 10
165.6381613473
 20
465.7281578883
 30
0.0
 11
167.1381643872
 21
465.7281578883
 31
0.0
  0
LINE
  5
299
330
1F
100
AcDbEntity
  8
SLD-0
  6
Continuous
 62
     7
370
    18
100
AcDbLine
 10
165.6381613473
 20
465.7281578883
 30
0.0
 11
165.6381613473
 21
465.1281551823
 31
0.0
  0
LINE
  5
29A
330
1F
100
AcDbEntity
  8
SLD-0
  6
Continuous
 62
     7
370
    18
100
AcDbLine
 10
167.3381588089
 20
465.7281578883
 30
0.0
 11
167.3381588089
 21
465.1281551823
 31
0.0
  0
LINE
  5
29B
330
1F
100
AcDbEntity
  8
SLD-0
  6
Continuous
 62
     7
370
    18
100
AcDbLine
 10
167.3381588089
 20
465.1281551823
 30
0.0
 11
167.1381643872
 21
465.1281551823
 31
0.0
  0
LINE
  5
29C
330
1F
100
AcDbEntity
  8
SLD-0
  6
Continuous
 62
     7
370
    18
100
AcDbLine
 10
167.1381643872
 20
465.7281578883
 30
0.0
 11
167.3381588089
 21
465.7281578883
 31
0.0
  0
LINE
  5
29D
330
1F
100
AcDbEntity
  8
SLD-0
  6
Continuous
 62
     7
370
    18
100
AcDbLine
 10
167.1381643872
 20
464.1281531557
 30
0.0
 11
165.6381613473
 21
464.1281531557
 31
0.0
  0
LINE
  5
29E
330
1F
100
AcDbEntity
  8
SLD-0
  6
Continuous
 62
     7
370
    18
100
AcDbLine
 10
165.6381613473
 20
464.7281558618
 30
0.0
 11
167.1381643872
 21
464.7281558618
 31
0.0
  0
LINE
  5
29F
330
1F
100
AcDbEntity
  8
SLD-0
  6
Continuous
 62
     7
370
    18
100
AcDbLine
 10
165.6381613473
 20
464.7281558618
 30
0.0
 11
165.6381613473
 21
464.1281531557
 31
0.0
  0
LINE
  5
2A0
330
1F
100
AcDbEntity
  8
SLD-0
  6
Continuous
 62
     7
370
    18
100
AcDbLine
 10
157.9381576638
 20
465.1281551823
 30
0.0
 11
157.9381576638
 21
465.7281578883
 31
0.0
  0
LINE
  5
2A1
330
1F
100
AcDbEntity
  8
SLD-0
  6
Continuous
 62
     7
370
    18
100
AcDbLine
 10
156.4381620745
 20
465.7281578883
 30
0.0
 11
157.9381576638
 21
465.7281578883
 31
0.0
  0
LINE
  5
2A2
330
1F
100
AcDbEntity
  8
SLD-0
  6
Continuous
 62
     7
370
    18
100
AcDbLine
 10
157.9381576638
 20
465.1281551823
 30
0.0
 11
156.4381620745
 21
465.1281551823
 31
0.0
  0
LINE
  5
2A3
330
1F
100
AcDbEntity
  8
SLD-0
  6
Continuous
 62
     7
370
    18
100
AcDbLine
 10
157.9381576638
 20
463.1281511292
 30
0.0
 11
157.9381576638
 21
463.7281538352
 31
0.0
  0
LINE
  5
2A4
330
1F
100
AcDbEntity
  8
SLD-0
  6
Continuous
 62
     7
370
    18
100
AcDbLine
 10
156.4381620745
 20
463.7281538352
 30
0.0
 11
157.9381576638
 21
463.7281538352
 31
0.0
  0
LINE
  5
2A5
330
1F
100
AcDbEntity
  8
SLD-0
  6
Continuous
 62
     7
370
    18
100
AcDbLine
 10
157.9381576638
 20
463.1281511292
 30
0.0
 11
156.4381620745
 21
463.1281511292
 31
0.0
  0
LINE
  5
2A6
330
1F
100
AcDbEntity
  8
SLD-0
  6
Continuous
 62
     7
370
    18
100
AcDbLine
 10
165.6381613473
 20
466.6781516179
 30
0.0
 11
167.1381643872
 21
466.6781516179
 31
0.0
  0
LINE
  5
2A7
330
1F
100
AcDbEntity
  8
SLD-0
  6
Continuous
 62
     7
370
    18
100
AcDbLine
 10
165.6381613473
 20
466.478155683
 30
0.0
 11
165.6381613473
 21
466.6781516179
 31
0.0
  0
LINE
  5
2A8
330
1F
100
AcDbEntity
  8
SLD-0
  6
Continuous
 62
     7
370
    18
100
AcDbLine
 10
167.3381596236
 20
466.4781531311
 30
0.0
 11
167.3381588089
 21
466.1281572089
 31
0.0
  0
LINE
  5
2A9
330
1F
100
AcDbEntity
  8
SLD-0
  6
Continuous
 62
     7
370
    18
100
AcDbLine
 10
167.3381588089
 20
466.1281572089
 30
0.0
 11
167.1381643872
 21
466.1281572089
 31
0.0
  0
LINE
  5
2AA
330
1F
100
AcDbEntity
  8
SLD-0
  6
Continuous
 62
     7
370
    18
100
AcDbLine
 10
157.9381576638
 20
464.1281531557
 30
0.0
 11
157.9381576638
 21
464.7281558618
 31
0.0
  0
LINE
  5
2AB
330
1F
100
AcDbEntity
  8
SLD-0
  6
Continuous
 62
     7
370
    18
100
AcDbLine
 10
156.4381620745
 20
464.7281558618
 30
0.0
 11
157.9381576638
 21
464.7281558618
 31
0.0
  0
LINE
  5
2AC
330
1F
100
AcDbEntity
  8
SLD-0
  6
Continuous
 62
     7
370
    18
100
AcDbLine
 10
157.9381576638
 20
464.1281531557
 30
0.0
 11
156.4381620745
 21
464.1281531557
 31
0.0
  0
LINE
  5
2AD
330
1F
100
AcDbEntity
  8
SLD-0
  6
Continuous
 62
     7
370
    18
100
AcDbLine
 10
157.9381576638
 20
466.1281572089
 30
0.0
 11
156.4381620745
 21
466.1281572089
 31
0.0
  0
LINE
  5
2AE
330
1F
100
AcDbEntity
  8
SLD-0
  6
Continuous
 62
     7
370
    18
100
AcDbLine
 10
157.9381576638
 20
466.1281572089
 30
0.0
 11
157.9381576638
 21
466.478155683
 31
0.0
  0
LINE
  5
2AF
330
1F
100
AcDbEntity
  8
SLD-0
  6
Continuous
 62
     7
370
    18
100
AcDbLine
 10
156.238158689
 20
463.7281538352
 30
0.0
 11
156.4381620745
 21
463.7281538352
 31
0.0
  0
LINE
  5
2B0
330
1F
100
AcDbEntity
  8
SLD-0
  6
Continuous
 62
     7
370
    18
100
AcDbLine
 10
156.4381620745
 20
463.1281511292
 30
0.0
 11
156.238158689
 21
463.1281511292
 31
0.0
  0
LINE
  5
2B1
330
1F
100
AcDbEntity
  8
SLD-0
  6
Continuous
 62
     7
370
    18
100
AcDbLine
 10
167.3381588089
 20
463.7281538352
 30
0.0
 11
167.3381588089
 21
463.1281511292
 31
0.0
  0
LINE
  5
2B2
330
1F
100
AcDbEntity
  8
SLD-0
  6
Continuous
 62
     7
370
    18
100
AcDbLine
 10
167.1381643872
 20
463.7281538352
 30
0.0
 11
167.3381588089
 21
463.7281538352
 31
0.0
  0
LINE
  5
2B3
330
1F
100
AcDbEntity
  8
SLD-0
  6
Continuous
 62
     7
370
    18
100
AcDbLine
 10
167.3381588089
 20
463.1281511292
 30
0.0
 11
167.1381643872
 21
463.1281511292
 31
0.0
  0
LINE
  5
2B4
330
1F
100
AcDbEntity
  8
SLD-0
  6
Continuous
 62
     7
370
    18
100
AcDbLine
 10
156.238158689
 20
464.7281558618
 30
0.0
 11
156.4381620745
 21
464.7281558618
 31
0.0
  0
LINE
  5
2B5
330
1F
100
AcDbEntity
  8
SLD-0
  6
Continuous
 62
     7
370
    18
100
AcDbLine
 10
156.4381620745
 20
464.1281531557
 30
0.0
 11
156.238158689
 21
464.1281531557
 31
0.0
  0
LINE
  5
2B6
330
1F
100
AcDbEntity
  8
SLD-0
  6
Continuous
 62
     7
370
    18
100
AcDbLine
 10
156.238158689
 20
460.7281552061
 30
0.0
 11
156.4381620745
 21
460.7281552061
 31
0.0
  0
LINE
  5
2B7
330
1F
100
AcDbEntity
  8
SLD-0
  6
Continuous
 62
     7
370
    18
100
AcDbLine
 10
157.9381576638
 20
460.378156732
 30
0.0
 11
157.9381576638
 21
460.1781533465
 31
0.0
  0
LINE
  5
2B8
330
1F
100
AcDbEntity
  8
SLD-0
  6
Continuous
 62
     7
370
    18
100
AcDbLine
 10
165.6381613473
 20
460.1781533465
 30
0.0
 11
165.6381613473
 21
460.378156732
 31
0.0
  0
LINE
  5
2B9
330
1F
100
AcDbEntity
  8
SLD-0
  6
Continuous
 62
     7
370
    18
100
AcDbLine
 10
167.3381588089
 20
460.7281552061
 30
0.0
 11
167.3381596236
 21
460.3781546443
 31
0.0
  0
LINE
  5
2BA
330
1F
100
AcDbEntity
  8
SLD-0
  6
Continuous
 62
     7
370
    18
100
AcDbLine
 10
167.1381643872
 20
460.7281552061
 30
0.0
 11
167.3381588089
 21
460.7281552061
 31
0.0
  0
LINE
  5
2BB
330
1F
100
AcDbEntity
  8
SLD-0
  6
Continuous
 62
     7
370
    18
100
AcDbLine
 10
156.4381620745
 20
462.7281518087
 30
0.0
 11
157.9381576638
 21
462.7281518087
 31
0.0
  0
LINE
  5
2BC
330
1F
100
AcDbEntity
  8
SLD-0
  6
Continuous
 62
     7
370
    18
100
AcDbLine
 10
157.9381576638
 20
462.1281565532
 30
0.0
 11
156.4381620745
 21
462.1281565532
 31
0.0
  0
LINE
  5
2BD
330
1F
100
AcDbEntity
  8
SLD-0
  6
Continuous
 62
     7
370
    18
100
AcDbLine
 10
157.9381576638
 20
462.1281565532
 30
0.0
 11
157.9381576638
 21
462.7281518087
 31
0.0
  0
LINE
  5
2BE
330
1F
100
AcDbEntity
  8
SLD-0
  6
Continuous
 62
     7
370
    18
100
AcDbLine
 10
156.238158689
 20
461.7281572327
 30
0.0
 11
156.4381620745
 21
461.7281572327
 31
0.0
  0
LINE
  5
2BF
330
1F
100
AcDbEntity
  8
SLD-0
  6
Continuous
 62
     7
370
    18
100
AcDbLine
 10
156.4381620745
 20
461.1281545266
 30
0.0
 11
156.238158689
 21
461.1281545266
 31
0.0
  0
LINE
  5
2C0
330
1F
100
AcDbEntity
  8
SLD-0
  6
Continuous
 62
     7
370
    18
100
AcDbLine
 10
167.1381643872
 20
462.1281565532
 30
0.0
 11
165.6381613473
 21
462.1281565532
 31
0.0
  0
LINE
  5
2C1
330
1F
100
AcDbEntity
  8
SLD-0
  6
Continuous
 62
     7
370
    18
100
AcDbLine
 10
165.6381613473
 20
462.7281518087
 30
0.0
 11
167.1381643872
 21
462.7281518087
 31
0.0
  0
LINE
  5
2C2
330
1F
100
AcDbEntity
  8
SLD-0
  6
Continuous
 62
     7
370
    18
100
AcDbLine
 10
165.6381613473
 20
462.7281518087
 30
0.0
 11
165.6381613473
 21
462.1281565532
 31
0.0
  0
LINE
  5
2C3
330
1F
100
AcDbEntity
  8
SLD-0
  6
Continuous
 62
     7
370
    18
100
AcDbLine
 10
157.9381576638
 20
461.1281545266
 30
0.0
 11
156.4381620745
 21
461.1281545266
 31
0.0
  0
LINE
  5
2C4
330
1F
100
AcDbEntity
  8
SLD-0
  6
Continuous
 62
     7
370
    18
100
AcDbLine
 10
156.4381620745
 20
461.7281572327
 30
0.0
 11
157.9381576638
 21
461.7281572327
 31
0.0
  0
LINE
  5
2C5
330
1F
100
AcDbEntity
  8
SLD-0
  6
Continuous
 62
     7
370
    18
100
AcDbLine
 10
157.9381576638
 20
461.1281545266
 30
0.0
 11
157.9381576638
 21
461.7281572327
 31
0.0
  0
LINE
  5
2C6
330
1F
100
AcDbEntity
  8
SLD-0
  6
Continuous
 62
     7
370
    18
100
AcDbLine
 10
165.6381613473
 20
461.7281572327
 30
0.0
 11
167.1381643872
 21
461.7281572327
 31
0.0
  0
LINE
  5
2C7
330
1F
100
AcDbEntity
  8
SLD-0
  6
Continuous
 62
     7
370
    18
100
AcDbLine
 10
167.1381643872
 20
461.1281545266
 30
0.0
 11
165.6381613473
 21
461.1281545266
 31
0.0
  0
LINE
  5
2C8
330
1F
100
AcDbEntity
  8
SLD-0
  6
Continuous
 62
     7
370
    18
100
AcDbLine
 10
165.6381613473
 20
461.7281572327
 30
0.0
 11
165.6381613473
 21
461.1281545266
 31
0.0
  0
LINE
  5
2C9
330
1F
100
AcDbEntity
  8
SLD-0
  6
Continuous
 62
     7
370
    18
100
AcDbLine
 10
156.4381620745
 20
460.7281552061
 30
0.0
 11
157.9381576638
 21
460.7281552061
 31
0.0
  0
LINE
  5
2CA
330
1F
100
AcDbEntity
  8
SLD-0
  6
Continuous
 62
     7
370
    18
100
AcDbLine
 10
157.9381576638
 20
460.378156732
 30
0.0
 11
157.9381576638
 21
460.7281552061
 31
0.0
  0
LINE
  5
2CB
330
1F
100
AcDbEntity
  8
SLD-0
  6
Continuous
 62
     7
370
    18
100
AcDbLine
 10
165.6381613473
 20
460.7281552061
 30
0.0
 11
167.1381643872
 21
460.7281552061
 31
0.0
  0
LINE
  5
2CC
330
1F
100
AcDbEntity
  8
SLD-0
  6
Continuous
 62
     7
370
    18
100
AcDbLine
 10
165.6381613473
 20
460.7281552061
 30
0.0
 11
165.6381613473
 21
460.378156732
 31
0.0
  0
LINE
  5
2CD
330
1F
100
AcDbEntity
  8
SLD-0
  6
Continuous
 62
     7
370
    18
100
AcDbLine
 10
156.238158689
 20
462.7281518087
 30
0.0
 11
156.4381620745
 21
462.7281518087
 31
0.0
  0
LINE
  5
2CE
330
1F
100
AcDbEntity
  8
SLD-0
  6
Continuous
 62
     7
370
    18
100
AcDbLine
 10
156.4381620745
 20
462.1281565532
 30
0.0
 11
156.238158689
 21
462.1281565532
 31
0.0
  0
LINE
  5
2CF
330
1F
100
AcDbEntity
  8
SLD-0
  6
Continuous
 62
     7
370
    18
100
AcDbLine
 10
167.3381588089
 20
462.7281518087
 30
0.0
 11
167.3381588089
 21
462.1281565532
 31
0.0
  0
LINE
  5
2D0
330
1F
100
AcDbEntity
  8
SLD-0
  6
Continuous
 62
     7
370
    18
100
AcDbLine
 10
167.3381588089
 20
462.1281565532
 30
0.0
 11
167.1381643872
 21
462.1281565532
 31
0.0
  0
LINE
  5
2D1
330
1F
100
AcDbEntity
  8
SLD-0
  6
Continuous
 62
     7
370
    18
100
AcDbLine
 10
167.1381643872
 20
462.7281518087
 30
0.0
 11
167.3381588089
 21
462.7281518087
 31
0.0
  0
LINE
  5
2D2
330
1F
100
AcDbEntity
  8
SLD-0
  6
Continuous
 62
     7
370
    18
100
AcDbLine
 10
167.3381588089
 20
461.7281572327
 30
0.0
 11
167.3381588089
 21
461.1281545266
 31
0.0
  0
LINE
  5
2D3
330
1F
100
AcDbEntity
  8
SLD-0
  6
Continuous
 62
     7
370
    18
100
AcDbLine
 10
167.1381643872
 20
461.7281572327
 30
0.0
 11
167.3381588089
 21
461.7281572327
 31
0.0
  0
LINE
  5
2D4
330
1F
100
AcDbEntity
  8
SLD-0
  6
Continuous
 62
     7
370
    18
100
AcDbLine
 10
167.3381588089
 20
461.1281545266
 30
0.0
 11
167.1381643872
 21
461.1281545266
 31
0.0
  0
LINE
  5
2D5
330
1F
100
AcDbEntity
  8
SLD-0
  6
Continuous
 62
     7
370
    18
100
AcDbLine
 10
157.9381576638
 20
462.7281518087
 30
0.0
 11
157.9381576638
 21
463.1281511292
 31
0.0
  0
LINE
  5
2D6
330
1F
100
AcDbEntity
  8
SLD-0
  6
Continuous
 62
     7
370
    18
100
AcDbLine
 10
157.9381576638
 20
464.7281558618
 30
0.0
 11
157.9381576638
 21
465.1281551823
 31
0.0
  0
LINE
  5
2D7
330
1F
100
AcDbEntity
  8
SLD-0
  6
Continuous
 62
     7
370
    18
100
AcDbLine
 10
167.3381588089
 20
465.7281578883
 30
0.0
 11
167.3381588089
 21
466.1281572089
 31
0.0
  0
LINE
  5
2D8
330
1F
100
AcDbEntity
  8
SLD-0
  6
Continuous
 62
     7
370
    18
100
AcDbLine
 10
165.6381613473
 20
466.1281572089
 30
0.0
 11
165.6381613473
 21
465.7281578883
 31
0.0
  0
LINE
  5
2D9
330
1F
100
AcDbEntity
  8
SLD-0
  6
Continuous
 62
     7
370
    18
100
AcDbLine
 10
167.3381588089
 20
462.7281518087
 30
0.0
 11
167.3381588089
 21
463.1281511292
 31
0.0
  0
LINE
  5
2DA
330
1F
100
AcDbEntity
  8
SLD-0
  6
Continuous
 62
     7
370
    18
100
AcDbLine
 10
165.6381613473
 20
463.1281511292
 30
0.0
 11
165.6381613473
 21
462.7281518087
 31
0.0
  0
LINE
  5
2DB
330
1F
100
AcDbEntity
  8
SLD-0
  6
Continuous
 62
     7
370
    18
100
AcDbLine
 10
167.3381588089
 20
463.7281538352
 30
0.0
 11
167.3381588089
 21
464.1281531557
 31
0.0
  0
LINE
  5
2DC
330
1F
100
AcDbEntity
  8
SLD-0
  6
Continuous
 62
     7
370
    18
100
AcDbLine
 10
165.6381613473
 20
464.1281531557
 30
0.0
 11
165.6381613473
 21
463.7281538352
 31
0.0
  0
LINE
  5
2DD
330
1F
100
AcDbEntity
  8
SLD-0
  6
Continuous
 62
     7
370
    18
100
AcDbLine
 10
167.3381588089
 20
464.7281558618
 30
0.0
 11
167.3381588089
 21
465.1281551823
 31
0.0
  0
LINE
  5
2DE
330
1F
100
AcDbEntity
  8
SLD-0
  6
Continuous
 62
     7
370
    18
100
AcDbLine
 10
165.6381613473
 20
465.1281551823
 30
0.0
 11
165.6381613473
 21
464.7281558618
 31
0.0
  0
LINE
  5
2DF
330
1F
100
AcDbEntity
  8
SLD-0
  6
Continuous
 62
     7
370
    18
100
AcDbLine
 10
157.9381576638
 20
465.7281578883
 30
0.0
 11
157.9381576638
 21
466.1281572089
 31
0.0
  0
LINE
  5
2E0
330
1F
100
AcDbEntity
  8
SLD-0
  6
Continuous
 62
     7
370
    18
100
AcDbLine
 10
157.9381576638
 20
463.7281538352
 30
0.0
 11
157.9381576638
 21
464.1281531557
 31
0.0
  0
LINE
  5
2E1
330
1F
100
AcDbEntity
  8
SLD-0
  6
Continuous
 62
     7
370
    18
100
AcDbLine
 10
163.0881628851
 20
455.3781540498
 30
0.0
 11
160.4881635766
 21
455.3781540498
 31
0.0
  0
LINE
  5
2E2
330
1F
100
AcDbEntity
  8
SLD-0
  6
Continuous
 62
     7
370
    18
100
AcDbLine
 10
163.2881588201
 20
455.5781574353
 30
0.0
 11
163.2881588201
 21
456.6323847875
 31
0.0
  0
LINE
  5
2E3
330
1F
100
AcDbEntity
  8
SLD-0
  6
Continuous
 62
     7
370
    18
100
AcDbLine
 10
167.3381588089
 20
460.7281552061
 30
0.0
 11
167.3381588089
 21
461.1281545266
 31
0.0
  0
LINE
  5
2E4
330
1F
100
AcDbEntity
  8
SLD-0
  6
Continuous
 62
     7
370
    18
100
AcDbLine
 10
165.6381613473
 20
461.1281545266
 30
0.0
 11
165.6381613473
 21
460.7281552061
 31
0.0
  0
LINE
  5
2E5
330
1F
100
AcDbEntity
  8
SLD-0
  6
Continuous
 62
     7
370
    18
100
AcDbLine
 10
167.3381588089
 20
461.7281572327
 30
0.0
 11
167.3381588089
 21
462.1281565532
 31
0.0
  0
LINE
  5
2E6
330
1F
100
AcDbEntity
  8
SLD-0
  6
Continuous
 62
     7
370
    18
100
AcDbLine
 10
165.6381613473
 20
462.1281565532
 30
0.0
 11
165.6381613473
 21
461.7281572327
 31
0.0
  0
LINE
  5
2E7
330
1F
100
AcDbEntity
  8
SLD-0
  6
Continuous
 62
     7
370
    18
100
AcDbLine
 10
157.9381576638
 20
460.7281552061
 30
0.0
 11
157.9381576638
 21
461.1281545266
 31
0.0
  0
LINE
  5
2E8
330
1F
100
AcDbEntity
  8
SLD-0
  6
Continuous
 62
     7
370
    18
100
AcDbLine
 10
157.9381576638
 20
461.7281572327
 30
0.0
 11
157.9381576638
 21
462.1281565532
 31
0.0
  0
LINE
  5
2E9
330
1F
100
AcDbEntity
  8
SLD-0
  6
Continuous
 62
     7
370
    18
100
AcDbLine
 10
163.2881588201
 20
456.6323847875
 30
0.0
 11
163.4571752409
 21
456.7087308869
 31
0.0
  0
LINE
  5
2EA
330
1F
100
AcDbEntity
  8
SLD-0
  6
Continuous
 62
     7
370
    18
100
AcDbLine
 10
157.9381576638
 20
469.1781566843
 30
0.0
 11
157.9381576638
 21
466.6781516179
 31
0.0
  0
LINE
  5
2EB
330
1F
100
AcDbEntity
  8
SLD-0
  6
Continuous
 62
     7
370
    18
100
AcDbLine
 10
165.6381613473
 20
466.6781516179
 30
0.0
 11
165.6381613473
 21
469.1781566843
 31
0.0
  0
LINE
  5
2EC
330
1F
100
AcDbEntity
  8
SLD-0
  6
Continuous
 62
     7
370
    18
100
AcDbLine
 10
157.0381647806
 20
351.7727830812
 30
0.0
 11
151.6381611368
 21
351.7727813737
 31
0.0
  0
LINE
  5
2ED
330
1F
100
AcDbEntity
  8
SLD-0
  6
Continuous
 62
     7
370
    18
100
AcDbLine
 10
157.3381617725
 20
346.0727803613
 30
0.0
 11
157.338160501
 21
351.4727820095
 31
0.0
  0
LINE
  5
2EE
330
1F
100
AcDbEntity
  8
SLD-0
  6
Continuous
 62
     7
370
    18
100
AcDbLine
 10
151.3381611368
 20
351.4727813737
 30
0.0
 11
151.3381611368
 21
346.3727813737
 31
0.0
  0
LINE
  5
2EF
330
1F
100
AcDbEntity
  8
SLD-0
  6
Continuous
 62
     7
370
    18
100
AcDbLine
 10
151.9381611368
 20
345.7727813737
 30
0.0
 11
157.0381611368
 21
345.7727813737
 31
0.0
  0
LINE
  5
2F0
330
1F
100
AcDbEntity
  8
SLD-0
  6
Continuous
 62
     7
370
    18
100
AcDbLine
 10
158.688162909
 20
349.6781343028
 30
0.0
 11
158.688162909
 21
358.1781552538
 31
0.0
  0
LINE
  5
2F1
330
1F
100
AcDbEntity
  8
SLD-0
  6
Continuous
 62
     7
370
    18
100
AcDbLine
 10
126.8381602029
 20
331.1781564161
 30
0.0
 11
112.8381616334
 21
331.1781564161
 31
0.0
  0
LINE
  5
2F2
330
1F
100
AcDbEntity
  8
SLD-0
  6
Continuous
 62
     7
370
    18
100
AcDbLine
 10
161.8381640772
 20
358.1781552538
 30
0.0
 11
161.8381640772
 21
349.6781529292
 31
0.0
  0
LINE
  5
2F3
330
1F
100
AcDbEntity
  8
SLD-0
  6
Continuous
 62
     7
370
    18
100
AcDbLine
 10
158.7381637554
 20
349.6781529292
 30
0.0
 11
158.7381637554
 21
358.1781552538
 31
0.0
  0
LINE
  5
2F4
330
1F
100
AcDbEntity
  8
SLD-0
  6
Continuous
 62
     7
370
    18
100
AcDbLine
 10
112.8381616334
 20
366.1781547024
 30
0.0
 11
126.8381602029
 21
366.1781547024
 31
0.0
  0
LINE
  5
2F5
330
1F
100
AcDbEntity
  8
SLD-0
  6
Continuous
 62
     7
370
    18
100
AcDbLine
 10
111.8381596069
 20
332.1781547173
 30
0.0
 11
111.8381596069
 21
365.1781545386
 31
0.0
  0
LINE
  5
2F6
330
1F
100
AcDbEntity
  8
SLD-0
  6
Continuous
 62
     7
370
    18
100
AcDbLine
 10
126.8381602029
 20
507.1781517371
 30
0.0
 11
126.8381602029
 21
262.1781618699
 31
0.0
  0
LINE
  5
2F7
330
1F
100
AcDbEntity
  8
SLD-0
  6
Continuous
 62
     7
370
    18
100
AcDbLine
 10
126.8381602029
 20
507.1781517371
 30
0.0
 11
129.838158832
 21
507.1781517371
 31
0.0
  0
LINE
  5
2F8
330
1F
100
AcDbEntity
  8
SLD-0
  6
Continuous
 62
     7
370
    18
100
AcDbLine
 10
129.838158832
 20
507.1781517371
 30
0.0
 11
129.838158832
 21
262.1781618699
 31
0.0
  0
LINE
  5
2F9
330
1F
100
AcDbEntity
  8
SLD-0
  6
Continuous
 62
     7
370
    18
100
AcDbLine
 10
126.8381602029
 20
262.1781618699
 30
0.0
 11
129.838158832
 21
262.1781618699
 31
0.0
  0
LINE
  5
2FA
330
1F
100
AcDbEntity
  8
SLD-0
  6
Continuous
 62
     7
370
    18
100
AcDbLine
 10
152.4381614189
 20
304.8513473377
 30
0.0
 11
152.4381614189
 21
307.3049650893
 31
0.0
  0
LINE
  5
2FB
330
1F
100
AcDbEntity
  8
SLD-0
  6
Continuous
 62
     7
370
    18
100
AcDbLine
 10
150.1881605844
 20
304.8513473377
 30
0.0
 11
150.1881605844
 21
307.3049650893
 31
0.0
  0
LINE
  5
2FC
330
1F
100
AcDbEntity
  8
SLD-0
  6
Continuous
 62
     7
370
    18
100
AcDbLine
 10
150.1881605844
 20
307.3049650893
 30
0.0
 11
150.1881605844
 21
307.6036514148
 31
0.0
  0
LINE
  5
2FD
330
1F
100
AcDbEntity
  8
SLD-0
  6
Continuous
 62
     7
370
    18
100
AcDbLine
 10
152.4381614189
 20
307.6036514148
 30
0.0
 11
152.4381614189
 21
307.3049650893
 31
0.0
  0
LINE
  5
2FE
330
1F
100
AcDbEntity
  8
SLD-0
  6
Continuous
 62
     7
370
    18
100
AcDbLine
 10
150.1881605844
 20
304.5526535615
 30
0.0
 11
150.1881605844
 21
304.8513473377
 31
0.0
  0
LINE
  5
2FF
330
1F
100
AcDbEntity
  8
SLD-0
  6
Continuous
 62
     7
370
    18
100
AcDbLine
 10
152.4381614189
 20
304.8513473377
 30
0.0
 11
152.4381614189
 21
304.5526535615
 31
0.0
  0
LINE
  5
300
330
1F
100
AcDbEntity
  8
SLD-0
  6
Continuous
 62
     7
370
    18
100
AcDbLine
 10
150.1881605844
 20
307.7281580672
 30
0.0
 11
152.4381614189
 21
307.7281580672
 31
0.0
  0
LINE
  5
301
330
1F
100
AcDbEntity
  8
SLD-0
  6
Continuous
 62
     7
370
    18
100
AcDbLine
 10
150.1881605844
 20
307.6036514148
 30
0.0
 11
150.1881605844
 21
307.7281580672
 31
0.0
  0
LINE
  5
302
330
1F
100
AcDbEntity
  8
SLD-0
  6
Continuous
 62
     7
370
    18
100
AcDbLine
 10
152.4381614189
 20
307.6036514148
 30
0.0
 11
152.4381614189
 21
307.7281580672
 31
0.0
  0
LINE
  5
303
330
1F
100
AcDbEntity
  8
SLD-0
  6
Continuous
 62
     7
370
    18
100
AcDbLine
 10
150.1881605844
 20
304.4549466476
 30
0.0
 11
150.1881605844
 21
304.5526535615
 31
0.0
  0
LINE
  5
304
330
1F
100
AcDbEntity
  8
SLD-0
  6
Continuous
 62
     7
370
    18
100
AcDbLine
 10
152.4381614189
 20
304.4345022544
 30
0.0
 11
152.4381614189
 21
304.5526535615
 31
0.0
  0
LINE
  5
305
330
1F
100
AcDbEntity
  8
SLD-0
  6
Continuous
 62
     7
370
    18
100
AcDbLine
 10
150.1881605844
 20
307.7281580672
 30
0.0
 11
150.1881605844
 21
307.9013617143
 31
0.0
  0
LINE
  5
306
330
1F
100
AcDbEntity
  8
SLD-0
  6
Continuous
 62
     7
370
    18
100
AcDbLine
 10
152.4381614189
 20
307.7281580672
 30
0.0
 11
152.4381614189
 21
307.9218061075
 31
0.0
  0
LINE
  5
307
330
1F
100
AcDbEntity
  8
SLD-0
  6
Continuous
 62
     7
370
    18
100
AcDbLine
 10
167.8381613354
 20
385.1781545572
 30
0.0
 11
167.8381613354
 21
383.678154777
 31
0.0
  0
LINE
  5
308
330
1F
100
AcDbEntity
  8
SLD-0
  6
Continuous
 62
     7
370
    18
100
AcDbLine
 10
172.3381630043
 20
383.678154777
 30
0.0
 11
172.3381630043
 21
385.1781545572
 31
0.0
  0
LINE
  5
309
330
1F
100
AcDbEntity
  8
SLD-0
  6
Continuous
 62
     7
370
    18
100
AcDbLine
 10
167.8381613354
 20
383.678154777
 30
0.0
 11
172.3381630043
 21
383.678154777
 31
0.0
  0
LINE
  5
30A
330
1F
100
AcDbEntity
  8
SLD-0
  6
Continuous
 62
     7
370
    18
100
AcDbLine
 10
172.3381630043
 20
385.1781545572
 30
0.0
 11
167.8381613354
 21
385.1781545572
 31
0.0
  0
LINE
  5
30B
330
1F
100
AcDbEntity
  8
SLD-0
  6
Continuous
 62
     7
370
    18
100
AcDbLine
 10
131.3381618719
 20
478.1781525716
 30
0.0
 11
129.838158832
 21
478.1781525716
 31
0.0
  0
LINE
  5
30C
330
1F
100
AcDbEntity
  8
SLD-0
  6
Continuous
 62
     7
370
    18
100
AcDbLine
 10
131.3381618719
 20
476.4781535968
 30
0.0
 11
131.3381618719
 21
478.1781525716
 31
0.0
  0
LINE
  5
30D
330
1F
100
AcDbEntity
  8
SLD-0
  6
Continuous
 62
     7
370
    18
100
AcDbLine
 10
131.3381598286
 20
291.1781550559
 30
0.0
 11
129.8381567887
 21
291.1781550559
 31
0.0
  0
LINE
  5
30E
330
1F
100
AcDbEntity
  8
SLD-0
  6
Continuous
 62
     7
370
    18
100
AcDbLine
 10
131.3381598286
 20
291.1781550559
 30
0.0
 11
131.3381598286
 21
292.8781540307
 31
0.0
  0
LINE
  5
30F
330
1F
100
AcDbEntity
  8
SLD-0
  6
Continuous
 62
     7
370
    18
100
AcDbLine
 10
172.3381630043
 20
383.678154777
 30
0.0
 11
172.5881597857
 21
383.678154777
 31
0.0
  0
LINE
  5
310
330
1F
100
AcDbEntity
  8
SLD-0
  6
Continuous
 62
     7
370
    18
100
AcDbLine
 10
172.5881597857
 20
385.1781545572
 30
0.0
 11
172.3381630043
 21
385.1781545572
 31
0.0
  0
LINE
  5
311
330
1F
100
AcDbEntity
  8
SLD-0
  6
Continuous
 62
     7
370
    18
100
AcDbLine
 10
131.5381557635
 20
291.1781550559
 30
0.0
 11
131.3381598286
 21
291.1781550559
 31
0.0
  0
LINE
  5
312
330
1F
100
AcDbEntity
  8
SLD-0
  6
Continuous
 62
     7
370
    18
100
AcDbLine
 10
131.3381618719
 20
478.1781525716
 30
0.0
 11
131.5381578068
 21
478.1781525716
 31
0.0
  0
LINE
  5
313
330
1F
100
AcDbEntity
  8
SLD-0
  6
Continuous
 62
     7
370
    18
100
AcDbLine
 10
166.1381623606
 20
346.5781563327
 30
0.0
 11
169.7278520922
 21
346.5781563327
 31
0.0
  0
LINE
  5
314
330
1F
100
AcDbEntity
  8
SLD-0
  6
Continuous
 62
     7
370
    18
100
AcDbLine
 10
172.3896614174
 20
347.3810197219
 30
0.0
 11
172.4381646971
 21
347.445273529
 31
0.0
  0
LINE
  5
315
330
1F
100
AcDbEntity
  8
SLD-0
  6
Continuous
 62
     7
370
    18
100
AcDbLine
 10
172.4381646971
 20
349.911035727
 30
0.0
 11
172.3888195018
 21
349.9763586923
 31
0.0
  0
LINE
  5
316
330
1F
100
AcDbEntity
  8
SLD-0
  6
Continuous
 62
     7
370
    18
100
AcDbLine
 10
169.6424907903
 20
350.7781529233
 30
0.0
 11
161.8381640772
 21
350.7781529233
 31
0.0
  0
LINE
  5
317
330
1F
100
AcDbEntity
  8
SLD-0
  6
Continuous
 62
     7
370
    18
100
AcDbLine
 10
170.6881581886
 20
437.0781542348
 30
0.0
 11
173.7881585104
 21
437.0781542348
 31
0.0
  0
LINE
  5
318
330
1F
100
AcDbEntity
  8
SLD-0
  6
Continuous
 62
     7
370
    18
100
AcDbLine
 10
173.9881624863
 20
437.2781548211
 30
0.0
 11
173.9881624863
 21
439.0781539763
 31
0.0
  0
LINE
  5
319
330
1F
100
AcDbEntity
  8
SLD-0
  6
Continuous
 62
     7
370
    18
100
AcDbLine
 10
173.7881605445
 20
439.2781552366
 30
0.0
 11
170.6881568331
 21
439.278154052
 31
0.0
  0
LINE
  5
31A
330
1F
100
AcDbEntity
  8
SLD-0
  6
Continuous
 62
     7
370
    18
100
AcDbLine
 10
170.4881611368
 20
439.0781546443
 30
0.0
 11
170.4881614904
 21
437.2781531319
 31
0.0
  0
LINE
  5
31B
330
1F
100
AcDbEntity
  8
SLD-0
  6
Continuous
 62
     7
370
    18
100
AcDbLine
 10
170.4881614904
 20
297.7781535491
 30
0.0
 11
170.4881614904
 21
295.9781528816
 31
0.0
  0
LINE
  5
31C
330
1F
100
AcDbEntity
  8
SLD-0
  6
Continuous
 62
     7
370
    18
100
AcDbLine
 10
170.6881613136
 20
295.7781548211
 30
0.0
 11
173.788157924
 21
295.7781571234
 31
0.0
  0
LINE
  5
31D
330
1F
100
AcDbEntity
  8
SLD-0
  6
Continuous
 62
     7
370
    18
100
AcDbLine
 10
173.9881601625
 20
295.9781559722
 30
0.0
 11
173.9881601625
 21
297.778154877
 31
0.0
  0
LINE
  5
31E
330
1F
100
AcDbEntity
  8
SLD-0
  6
Continuous
 62
     7
370
    18
100
AcDbLine
 10
173.7881624588
 20
297.9781533223
 30
0.0
 11
170.6881587474
 21
297.9781556127
 31
0.0
  0
LINE
  5
31F
330
1F
100
AcDbEntity
  8
SLD-0
  6
Continuous
 62
     7
370
    18
100
AcDbLine
 10
131.5381557635
 20
291.1781550559
 30
0.0
 11
132.3381618551
 21
291.1781550559
 31
0.0
  0
LINE
  5
320
330
1F
100
AcDbEntity
  8
SLD-0
  6
Continuous
 62
     7
370
    18
100
AcDbLine
 10
132.3381638984
 20
478.1781525716
 30
0.0
 11
131.5381578068
 21
478.1781525716
 31
0.0
  0
LINE
  5
321
330
1F
100
AcDbEntity
  8
SLD-0
 62
     7
370
    18
100
AcDbLine
 10
142.1047325648
 20
317.8557329956
 30
0.0
 11
139.4009082925
 21
322.1070544731
 31
0.0
  0
LINE
  5
322
330
1F
100
AcDbEntity
  8
SLD-0
 62
     7
370
    18
100
AcDbLine
 10
139.4009082925
 20
322.1070544731
 30
0.0
 11
138.4444352989
 21
321.3179034023
 31
0.0
  0
LINE
  5
323
330
1F
100
AcDbEntity
  8
SLD-0
 62
     7
370
    18
100
AcDbLine
 10
138.4444352989
 20
321.3179034023
 30
0.0
 11
142.1047325648
 21
317.8557329956
 31
0.0
  0
LINE
  5
324
330
1F
100
AcDbEntity
  8
SLD-0
 62
     7
370
    18
100
AcDbLine
 10
140.5252870813
 20
411.2263562766
 30
0.0
 11
136.1182503745
 21
408.7845480399
 31
0.0
  0
LINE
  5
325
330
1F
100
AcDbEntity
  8
SLD-0
 62
     7
370
    18
100
AcDbLine
 10
136.1182503745
 20
408.7845480399
 30
0.0
 11
136.8481215114
 21
407.7821069576
 31
0.0
  0
LINE
  5
326
330
1F
100
AcDbEntity
  8
SLD-0
 62
     7
370
    18
100
AcDbLine
 10
136.8481215114
 20
407.7821069576
 30
0.0
 11
140.5252870813
 21
411.2263562766
 31
0.0
  0
LINE
  5
327
330
1F
100
AcDbEntity
  8
SLD-0
  6
Continuous
 62
     7
370
    18
100
AcDbLine
 10
140.5252870813
 20
411.2263562766
 30
0.0
 11
93.3858221796
 21
376.9044041451
 31
0.0
  0
LINE
  5
328
330
1F
100
AcDbEntity
  8
SLD-0
  6
Continuous
 62
     7
370
    18
100
AcDbLine
 10
93.3858221796
 20
376.9044041451
 30
0.0
 11
89.5933014354
 21
376.7488038278
 31
0.0
  0
LINE
  5
329
330
1F
100
AcDbEntity
  8
SLD-0
  6
Continuous
 62
     7
370
    18
100
AcDbLine
 10
93.3858221796
 20
376.9044041451
 30
0.0
 11
142.1047325648
 21
317.8557329956
 31
0.0
  0
LINE
  5
32A
330
1F
100
AcDbEntity
  8
SLD-0
  6
CENTERX2
 62
     7
370
    18
100
AcDbLine
 10
135.8951142342
 20
448.1781546443
 30
0.0
 11
178.8024733466
 21
448.1781546443
 31
0.0
  0
LINE
  5
32B
330
1F
100
AcDbEntity
  8
SLD-0
  6
Continuous
 62
     7
370
    18
100
AcDbLine
 10
131.3381618719
 20
183.6910451498
 30
0.0
 11
131.4065060477
 21
183.7061102237
 31
0.0
  0
LINE
  5
32C
330
1F
100
AcDbEntity
  8
SLD-0
  6
Continuous
 62
     7
370
    18
100
AcDbLine
 10
131.4065060477
 20
183.7061102237
 30
0.0
 11
131.7381611924
 21
183.7387735691
 31
0.0
  0
LINE
  5
32D
330
1F
100
AcDbEntity
  8
SLD-0
  6
Continuous
 62
     7
370
    18
100
AcDbLine
 10
131.7381611924
 20
191.2387738671
 30
0.0
 11
131.4065060477
 21
191.2714409377
 31
0.0
  0
LINE
  5
32E
330
1F
100
AcDbEntity
  8
SLD-0
  6
Continuous
 62
     7
370
    18
100
AcDbLine
 10
131.4065060477
 20
191.2714409377
 30
0.0
 11
131.3381618719
 21
191.2865022864
 31
0.0
  0
LINE
  5
32F
330
1F
100
AcDbEntity
  8
SLD-0
  6
Continuous
 62
     7
370
    18
100
AcDbLine
 10
132.3381638984
 20
191.2387738671
 30
0.0
 11
131.7381611924
 21
191.2387738671
 31
0.0
  0
LINE
  5
330
330
1F
100
AcDbEntity
  8
SLD-0
  6
Continuous
 62
     7
370
    18
100
AcDbLine
 10
131.7381611924
 20
183.7387735691
 30
0.0
 11
132.3381638984
 21
183.7387735691
 31
0.0
  0
LINE
  5
331
330
1F
100
AcDbEntity
  8
SLD-0
  6
Continuous
 62
     7
370
    18
100
AcDbLine
 10
138.8381621699
 20
193.6887743618
 30
0.0
 11
138.8381621699
 21
193.4887747016
 31
0.0
  0
LINE
  5
332
330
1F
100
AcDbEntity
  8
SLD-0
  6
Continuous
 62
     7
370
    18
100
AcDbLine
 10
167.8881621818
 20
196.1887757029
 30
0.0
 11
167.8881621818
 21
195.1887736764
 31
0.0
  0
LINE
  5
333
330
1F
100
AcDbEntity
  8
SLD-0
  6
Continuous
 62
     7
370
    18
100
AcDbLine
 10
160.7881612043
 20
195.2887753691
 30
0.0
 11
160.7881612043
 21
196.1887757029
 31
0.0
  0
LINE
  5
334
330
1F
100
AcDbEntity
  8
SLD-0
  6
Continuous
 62
     7
370
    18
100
AcDbLine
 10
156.8881622414
 20
196.1887757029
 30
0.0
 11
156.8881622414
 21
195.3887733366
 31
0.0
  0
LINE
  5
335
330
1F
100
AcDbEntity
  8
SLD-0
  6
Continuous
 62
     7
370
    18
100
AcDbLine
 10
146.3381624679
 20
193.6887743618
 30
0.0
 11
146.3381624679
 21
193.4887747016
 31
0.0
  0
LINE
  5
336
330
1F
100
AcDbEntity
  8
SLD-0
  6
Continuous
 62
     7
370
    18
100
AcDbLine
 10
151.7881578664
 20
195.1887736764
 30
0.0
 11
151.7881578664
 21
196.1887757029
 31
0.0
  0
LINE
  5
337
330
1F
100
AcDbEntity
  8
SLD-0
  6
Continuous
 62
     7
370
    18
100
AcDbLine
 10
147.8881589035
 20
196.1887757029
 30
0.0
 11
147.8881589035
 21
195.1887736764
 31
0.0
  0
LINE
  5
338
330
1F
100
AcDbEntity
  8
SLD-0
  6
Continuous
 62
     7
370
    18
100
AcDbLine
 10
174.3881604533
 20
195.1887736764
 30
0.0
 11
174.3881604533
 21
196.1887757029
 31
0.0
  0
LINE
  5
339
330
1F
100
AcDbEntity
  8
SLD-0
  6
Continuous
 62
     7
370
    18
100
AcDbLine
 10
170.4881614904
 20
196.1887757029
 30
0.0
 11
170.4881614904
 21
195.1887736764
 31
0.0
  0
LINE
  5
33A
330
1F
100
AcDbEntity
  8
SLD-0
  6
Continuous
 62
     7
370
    18
100
AcDbLine
 10
149.8381621103
 20
193.4887747016
 30
0.0
 11
149.8381621103
 21
193.6887743618
 31
0.0
  0
LINE
  5
33B
330
1F
100
AcDbEntity
  8
SLD-0
  6
Continuous
 62
     7
370
    18
100
AcDbLine
 10
176.8381646733
 20
193.6887740573
 30
0.0
 11
176.8381646733
 21
193.4887743971
 31
0.0
  0
LINE
  5
33C
330
1F
100
AcDbEntity
  8
SLD-0
  6
Continuous
 62
     7
370
    18
100
AcDbLine
 10
116.6866678288
 20
190.7902667939
 30
0.0
 11
116.4769786885
 21
190.999952209
 31
0.0
  0
LINE
  5
33D
330
1F
100
AcDbEntity
  8
SLD-0
  6
Continuous
 62
     7
370
    18
100
AcDbLine
 10
116.4769786885
 20
190.999952209
 30
0.0
 11
116.2227797797
 21
191.2541511178
 31
0.0
  0
LINE
  5
33E
330
1F
100
AcDbEntity
  8
SLD-0
  6
Continuous
 62
     7
370
    18
100
AcDbLine
 10
116.2227797797
 20
191.2541511178
 30
0.0
 11
115.9352916768
 21
191.5416466713
 31
0.0
  0
LINE
  5
33F
330
1F
100
AcDbEntity
  8
SLD-0
  6
Continuous
 62
     7
370
    18
100
AcDbLine
 10
115.9352916768
 20
191.5416466713
 30
0.0
 11
115.6271803668
 21
191.8497468054
 31
0.0
  0
LINE
  5
340
330
1F
100
AcDbEntity
  8
SLD-0
  6
Continuous
 62
     7
370
    18
100
AcDbLine
 10
115.5381626348
 20
192.0630390491
 30
0.0
 11
115.5381626348
 21
192.3621724095
 31
0.0
  0
LINE
  5
341
330
1F
100
AcDbEntity
  8
SLD-0
  6
Continuous
 62
     7
370
    18
100
AcDbLine
 10
121.5506546987
 20
192.7387730085
 30
0.0
 11
121.5484865798
 21
192.8255983494
 31
0.0
  0
LINE
  5
342
330
1F
100
AcDbEntity
  8
SLD-0
  6
Continuous
 62
     7
370
    18
100
AcDbLine
 10
121.5484865798
 20
192.8255983494
 30
0.0
 11
121.5463780655
 21
192.9097861849
 31
0.0
  0
LINE
  5
343
330
1F
100
AcDbEntity
  8
SLD-0
  6
Continuous
 62
     7
370
    18
100
AcDbLine
 10
121.5463780655
 20
192.9097861849
 30
0.0
 11
121.5444111122
 21
192.9887735151
 31
0.0
  0
LINE
  5
344
330
1F
100
AcDbEntity
  8
SLD-0
  6
Continuous
 62
     7
370
    18
100
AcDbLine
 10
121.5444111122
 20
192.9887735151
 30
0.0
 11
121.5426229729
 21
193.0601687037
 31
0.0
  0
LINE
  5
345
330
1F
100
AcDbEntity
  8
SLD-0
  6
Continuous
 62
     7
370
    18
100
AcDbLine
 10
121.5426229729
 20
193.0601687037
 30
0.0
 11
121.5410807027
 21
193.1217961811
 31
0.0
  0
LINE
  5
346
330
1F
100
AcDbEntity
  8
SLD-0
  6
Continuous
 62
     7
370
    18
100
AcDbLine
 10
121.5410807027
 20
193.1217961811
 30
0.0
 11
121.5398364557
 21
193.1717858516
 31
0.0
  0
LINE
  5
347
330
1F
100
AcDbEntity
  8
SLD-0
  6
Continuous
 62
     7
370
    18
100
AcDbLine
 10
121.5398364557
 20
193.1717858516
 30
0.0
 11
121.5389125837
 21
193.2086215221
 31
0.0
  0
LINE
  5
348
330
1F
100
AcDbEntity
  8
SLD-0
  6
Continuous
 62
     7
370
    18
100
AcDbLine
 10
121.5389125837
 20
193.2086215221
 30
0.0
 11
121.5383537902
 21
193.2311781548
 31
0.0
  0
LINE
  5
349
330
1F
100
AcDbEntity
  8
SLD-0
  6
Continuous
 62
     7
370
    18
100
AcDbLine
 10
121.5383537902
 20
193.2311781548
 30
0.0
 11
121.5381600751
 21
193.2387740217
 31
0.0
  0
LINE
  5
34A
330
1F
100
AcDbEntity
  8
SLD-0
  6
Continuous
 62
     7
370
    18
100
AcDbLine
 10
121.5381600751
 20
193.2387740217
 30
0.0
 11
126.838160385
 21
193.2387740217
 31
0.0
  0
LINE
  5
34B
330
1F
100
AcDbEntity
  8
SLD-0
  6
Continuous
 62
     7
370
    18
100
AcDbLine
 10
115.8231773271
 20
192.9530256294
 30
0.0
 11
121.5381600751
 21
193.2387740217
 31
0.0
  0
LINE
  5
34C
330
1F
100
AcDbEntity
  8
SLD-0
  6
Continuous
 62
     7
370
    18
100
AcDbLine
 10
115.5381626348
 20
192.3621724095
 30
0.0
 11
115.5381611368
 21
192.653399889
 31
0.0
  0
LINE
  5
34D
330
1F
100
AcDbEntity
  8
SLD-0
  6
Continuous
 62
     7
370
    18
100
AcDbLine
 10
125.2151090196
 20
182.261821878
 30
0.0
 11
124.9324190906
 21
182.544511807
 31
0.0
  0
LINE
  5
34E
330
1F
100
AcDbEntity
  8
SLD-0
  6
Continuous
 62
     7
370
    18
100
AcDbLine
 10
124.9324190906
 20
182.544511807
 30
0.0
 11
124.6598619512
 21
182.8170726717
 31
0.0
  0
LINE
  5
34F
330
1F
100
AcDbEntity
  8
SLD-0
  6
Continuous
 62
     7
370
    18
100
AcDbLine
 10
124.6598619512
 20
182.8170726717
 30
0.0
 11
124.407197862
 21
183.0697330356
 31
0.0
  0
LINE
  5
350
330
1F
100
AcDbEntity
  8
SLD-0
  6
Continuous
 62
     7
370
    18
100
AcDbLine
 10
124.407197862
 20
183.0697330356
 30
0.0
 11
124.1834941796
 21
183.293436718
 31
0.0
  0
LINE
  5
351
330
1F
100
AcDbEntity
  8
SLD-0
  6
Continuous
 62
     7
370
    18
100
AcDbLine
 10
124.1834941796
 20
183.293436718
 30
0.0
 11
123.9967602781
 21
183.4801743448
 31
0.0
  0
LINE
  5
352
330
1F
100
AcDbEntity
  8
SLD-0
  6
Continuous
 62
     7
370
    18
100
AcDbLine
 10
126.838158398
 20
181.7387724937
 30
0.0
 11
126.1523728942
 21
181.7387739073
 31
0.0
  0
LINE
  5
353
330
1F
100
AcDbEntity
  8
SLD-0
  6
Continuous
 62
     7
370
    18
100
AcDbLine
 10
125.445266113
 20
182.0316671261
 30
0.0
 11
125.2151090196
 21
182.261821878
 31
0.0
  0
LINE
  5
354
330
1F
100
AcDbEntity
  8
SLD-0
  6
Continuous
 62
     7
370
    18
100
AcDbLine
 10
115.6271803668
 20
191.8497468054
 30
0.0
 11
115.6260329774
 21
191.8509053707
 31
0.0
  0
LINE
  5
355
330
1F
100
AcDbEntity
  8
SLD-0
  6
Continuous
 62
     7
370
    18
100
AcDbLine
 10
123.9967602781
 20
183.4801743448
 30
0.0
 11
123.4365585736
 21
184.0403760493
 31
0.0
  0
LINE
  5
356
330
1F
100
AcDbEntity
  8
SLD-0
  6
Continuous
 62
     7
370
    18
100
AcDbLine
 10
123.4365585736
 20
184.0403760493
 30
0.0
 11
122.7654400757
 21
184.7114945471
 31
0.0
  0
LINE
  5
357
330
1F
100
AcDbEntity
  8
SLD-0
  6
Continuous
 62
     7
370
    18
100
AcDbLine
 10
122.7654400757
 20
184.7114945471
 30
0.0
 11
122.0074627093
 21
185.4694719136
 31
0.0
  0
LINE
  5
358
330
1F
100
AcDbEntity
  8
SLD-0
  6
Continuous
 62
     7
370
    18
100
AcDbLine
 10
122.0074627093
 20
185.4694719136
 30
0.0
 11
121.1897838405
 21
186.2871507824
 31
0.0
  0
LINE
  5
359
330
1F
100
AcDbEntity
  8
SLD-0
  6
Continuous
 62
     7
370
    18
100
AcDbLine
 10
121.1897838405
 20
186.2871507824
 30
0.0
 11
120.3417140535
 21
187.1352205694
 31
0.0
  0
LINE
  5
35A
330
1F
100
AcDbEntity
  8
SLD-0
  6
Continuous
 62
     7
370
    18
100
AcDbLine
 10
120.3417140535
 20
187.1352205694
 30
0.0
 11
119.4936442664
 21
187.9832903564
 31
0.0
  0
LINE
  5
35B
330
1F
100
AcDbEntity
  8
SLD-0
  6
Continuous
 62
     7
370
    18
100
AcDbLine
 10
119.4936442664
 20
187.9832903564
 30
0.0
 11
118.675957947
 21
188.8009692251
 31
0.0
  0
LINE
  5
35C
330
1F
100
AcDbEntity
  8
SLD-0
  6
Continuous
 62
     7
370
    18
100
AcDbLine
 10
118.675957947
 20
188.8009692251
 30
0.0
 11
117.9179805806
 21
189.5589465916
 31
0.0
  0
LINE
  5
35D
330
1F
100
AcDbEntity
  8
SLD-0
  6
Continuous
 62
     7
370
    18
100
AcDbLine
 10
117.9179805806
 20
189.5589465916
 30
0.0
 11
117.2468620827
 21
190.2300650894
 31
0.0
  0
LINE
  5
35E
330
1F
100
AcDbEntity
  8
SLD-0
  6
Continuous
 62
     7
370
    18
100
AcDbLine
 10
117.2468620827
 20
190.2300650894
 30
0.0
 11
116.6866678288
 21
190.7902667939
 31
0.0
  0
LINE
  5
35F
330
1F
100
AcDbEntity
  8
SLD-0
  6
Continuous
 62
     7
370
    18
100
AcDbLine
 10
159.3381611368
 20
195.2387746549
 30
0.0
 11
160.288160191
 21
195.2387745228
 31
0.0
  0
LINE
  5
360
330
1F
100
AcDbEntity
  8
SLD-0
  6
Continuous
 62
     7
370
    18
100
AcDbLine
 10
176.8381646733
 20
193.4887743971
 30
0.0
 11
176.8381646733
 21
181.1887751069
 31
0.0
  0
LINE
  5
361
330
1F
100
AcDbEntity
  8
SLD-0
  6
Continuous
 62
     7
370
    18
100
AcDbLine
 10
132.3381638984
 20
193.4887747016
 30
0.0
 11
132.3381638984
 21
181.1887751069
 31
0.0
  0
LINE
  5
362
330
1F
100
AcDbEntity
  8
SLD-0
  6
Continuous
 62
     7
370
    18
100
AcDbLine
 10
132.3381638984
 20
193.4887747016
 30
0.0
 11
160.3381610374
 21
193.4887747016
 31
0.0
  0
LINE
  5
363
330
1F
100
AcDbEntity
  8
SLD-0
  6
Continuous
 62
     7
370
    18
100
AcDbLine
 10
161.3381610374
 20
189.4887746549
 30
0.0
 11
169.3381642759
 21
189.4887740459
 31
0.0
  0
LINE
  5
364
330
1F
100
AcDbEntity
  8
SLD-0
  6
Continuous
 62
     7
370
    18
100
AcDbLine
 10
170.3381613419
 20
190.4887743504
 30
0.0
 11
170.3381591563
 21
193.4887743971
 31
0.0
  0
LINE
  5
365
330
1F
100
AcDbEntity
  8
SLD-0
  6
Continuous
 62
     7
370
    18
100
AcDbLine
 10
160.3381610374
 20
193.4887747016
 30
0.0
 11
160.3381610374
 21
190.4887746549
 31
0.0
  0
LINE
  5
366
330
1F
100
AcDbEntity
  8
SLD-0
  6
Continuous
 62
     7
370
    18
100
AcDbLine
 10
170.3381591563
 20
193.4887743971
 30
0.0
 11
176.8381646733
 21
193.4887743971
 31
0.0
  0
LINE
  5
367
330
1F
100
AcDbEntity
  8
SLD-0
  6
Continuous
 62
     7
370
    18
100
AcDbLine
 10
132.3381638984
 20
181.1887751069
 30
0.0
 11
132.3381638984
 21
179.4887761321
 31
0.0
  0
LINE
  5
368
330
1F
100
AcDbEntity
  8
SLD-0
  6
Continuous
 62
     7
370
    18
100
AcDbLine
 10
176.8381646733
 20
179.4887761321
 30
0.0
 11
132.3381638984
 21
179.4887761321
 31
0.0
  0
LINE
  5
369
330
1F
100
AcDbEntity
  8
SLD-0
  6
Continuous
 62
     7
370
    18
100
AcDbLine
 10
176.8381646733
 20
179.4887761321
 30
0.0
 11
176.8381646733
 21
181.1887751069
 31
0.0
  0
LINE
  5
36A
330
1F
100
AcDbEntity
  8
SLD-0
  6
Continuous
 62
     7
370
    18
100
AcDbLine
 10
129.838158832
 20
180.9887754466
 30
0.0
 11
132.3381638984
 21
180.9887754466
 31
0.0
  0
LINE
  5
36B
330
1F
100
AcDbEntity
  8
SLD-0
  6
Continuous
 62
     7
370
    18
100
AcDbLine
 10
129.838158832
 20
179.4887761321
 30
0.0
 11
132.3381638984
 21
179.4887761321
 31
0.0
  0
LINE
  5
36C
330
1F
100
AcDbEntity
  8
SLD-0
  6
Continuous
 62
     7
370
    18
100
AcDbLine
 10
165.6381613473
 20
195.3887733366
 30
0.0
 11
167.1381643872
 21
195.3887733366
 31
0.0
  0
LINE
  5
36D
330
1F
100
AcDbEntity
  8
SLD-0
  6
Continuous
 62
     7
370
    18
100
AcDbLine
 10
165.6381613473
 20
195.1887736764
 30
0.0
 11
165.6381613473
 21
195.3887733366
 31
0.0
  0
LINE
  5
36E
330
1F
100
AcDbEntity
  8
SLD-0
  6
Continuous
 62
     7
370
    18
100
AcDbLine
 10
156.4381611368
 20
195.3887746549
 30
0.0
 11
157.9381576638
 21
195.3887733366
 31
0.0
  0
LINE
  5
36F
330
1F
100
AcDbEntity
  8
SLD-0
  6
Continuous
 62
     7
370
    18
100
AcDbLine
 10
157.9381576638
 20
195.3887733366
 30
0.0
 11
157.9381576638
 21
195.1887736764
 31
0.0
  0
LINE
  5
370
330
1F
100
AcDbEntity
  8
SLD-0
  6
Continuous
 62
     7
370
    18
100
AcDbLine
 10
160.288160191
 20
195.2887753691
 30
0.0
 11
160.288160191
 21
195.1887736764
 31
0.0
  0
LINE
  5
371
330
1F
100
AcDbEntity
  8
SLD-0
  6
Continuous
 62
     7
370
    18
100
AcDbLine
 10
163.2881588201
 20
195.2887753691
 30
0.0
 11
160.288160191
 21
195.2887753691
 31
0.0
  0
LINE
  5
372
330
1F
100
AcDbEntity
  8
SLD-0
  6
Continuous
 62
     7
370
    18
100
AcDbLine
 10
163.2881588201
 20
195.2887753691
 30
0.0
 11
163.2881588201
 21
195.1887736764
 31
0.0
  0
LINE
  5
373
330
1F
100
AcDbEntity
  8
SLD-0
  6
Continuous
 62
     7
370
    18
100
AcDbLine
 10
112.8381616335
 20
191.4387735274
 30
0.0
 11
116.0381561976
 21
191.4387735274
 31
0.0
  0
LINE
  5
374
330
1F
100
AcDbEntity
  8
SLD-0
  6
Continuous
 62
     7
370
    18
100
AcDbLine
 10
131.3381618719
 20
191.4387735274
 30
0.0
 11
132.3381638984
 21
191.4387735274
 31
0.0
  0
LINE
  5
375
330
1F
100
AcDbEntity
  8
SLD-0
  6
Continuous
 62
     7
370
    18
100
AcDbLine
 10
111.8381596069
 20
184.4387742426
 30
0.0
 11
111.8381596069
 21
190.4387752261
 31
0.0
  0
LINE
  5
376
330
1F
100
AcDbEntity
  8
SLD-0
  6
Continuous
 62
     7
370
    18
100
AcDbLine
 10
132.3381638984
 20
183.4387759413
 30
0.0
 11
131.3381618719
 21
183.4387759413
 31
0.0
  0
LINE
  5
377
330
1F
100
AcDbEntity
  8
SLD-0
  6
Continuous
 62
     7
370
    18
100
AcDbLine
 10
124.0381575089
 20
183.4387759414
 30
0.0
 11
112.8381616335
 21
183.4387759414
 31
0.0
  0
LINE
  5
378
330
1F
100
AcDbEntity
  8
SLD-0
  6
Continuous
 62
     7
370
    18
100
AcDbLine
 10
126.8381602029
 20
199.2887760248
 30
0.0
 11
126.8381602029
 21
175.2887720909
 31
0.0
  0
LINE
  5
379
330
1F
100
AcDbEntity
  8
SLD-0
  6
Continuous
 62
     7
370
    18
100
AcDbLine
 10
129.838158832
 20
199.2887760248
 30
0.0
 11
126.8381602029
 21
199.2887760248
 31
0.0
  0
LINE
  5
37A
330
1F
100
AcDbEntity
  8
SLD-0
  6
Continuous
 62
     7
370
    18
100
AcDbLine
 10
129.838158832
 20
175.2887720909
 30
0.0
 11
129.838158832
 21
199.2887760248
 31
0.0
  0
LINE
  5
37B
330
1F
100
AcDbEntity
  8
SLD-0
  6
Continuous
 62
     7
370
    18
100
AcDbLine
 10
126.8381602029
 20
175.2887720909
 30
0.0
 11
129.838158832
 21
175.2887720909
 31
0.0
  0
LINE
  5
37C
330
1F
100
AcDbEntity
  8
SLD-0
  6
Continuous
 62
     7
370
    18
100
AcDbLine
 10
170.4881614904
 20
196.1887757029
 30
0.0
 11
167.8881621818
 21
196.1887757029
 31
0.0
  0
LINE
  5
37D
330
1F
100
AcDbEntity
  8
SLD-0
  6
Continuous
 62
     7
370
    18
100
AcDbLine
 10
160.7881612043
 20
196.1887757029
 30
0.0
 11
156.8881622414
 21
196.1887757029
 31
0.0
  0
LINE
  5
37E
330
1F
100
AcDbEntity
  8
SLD-0
  6
Continuous
 62
     7
370
    18
100
AcDbLine
 10
151.7881578664
 20
196.1887757029
 30
0.0
 11
147.8881589035
 21
196.1887757029
 31
0.0
  0
LINE
  5
37F
330
1F
100
AcDbEntity
  8
SLD-0
  6
Continuous
 62
     7
370
    18
100
AcDbLine
 10
172.4381646971
 20
196.1887757029
 30
0.0
 11
174.3881604533
 21
196.1887757029
 31
0.0
  0
LINE
  5
380
330
1F
100
AcDbEntity
  8
SLD-0
  6
Continuous
 62
     7
370
    18
100
AcDbLine
 10
170.4881614904
 20
196.1887757029
 30
0.0
 11
172.4381646971
 21
196.1887757029
 31
0.0
  0
LINE
  5
381
330
1F
100
AcDbEntity
  8
SLD-0
  6
Continuous
 62
     7
370
    18
100
AcDbLine
 10
150.1881605844
 20
196.1887757029
 30
0.0
 11
150.1881605844
 21
196.4037547555
 31
0.0
  0
LINE
  5
382
330
1F
100
AcDbEntity
  8
SLD-0
  6
Continuous
 62
     7
370
    18
100
AcDbLine
 10
152.4381614189
 20
195.1887736764
 30
0.0
 11
152.4381614189
 21
196.4037547555
 31
0.0
  0
LINE
  5
383
330
1F
100
AcDbEntity
  8
SLD-0
  6
Continuous
 62
     7
370
    18
100
AcDbLine
 10
150.1881605844
 20
196.6887729909
 30
0.0
 11
152.4381614189
 21
196.6887729909
 31
0.0
  0
LINE
  5
384
330
1F
100
AcDbEntity
  8
SLD-0
  6
Continuous
 62
     7
370
    18
100
AcDbLine
 10
150.1881605844
 20
196.4037547555
 30
0.0
 11
150.1881605844
 21
196.6887729909
 31
0.0
  0
LINE
  5
385
330
1F
100
AcDbEntity
  8
SLD-0
  6
Continuous
 62
     7
370
    18
100
AcDbLine
 10
152.4381614189
 20
196.6887729909
 30
0.0
 11
152.4381614189
 21
196.4037547555
 31
0.0
  0
LINE
  5
386
330
1F
100
AcDbEntity
  8
SLD-0
  6
Continuous
 62
     7
370
    18
100
AcDbLine
 10
131.3381615044
 20
181.1887748768
 30
0.0
 11
129.8381584645
 21
181.1887748768
 31
0.0
  0
LINE
  5
387
330
1F
100
AcDbEntity
  8
SLD-0
  6
Continuous
 62
     7
370
    18
100
AcDbLine
 10
131.3381615044
 20
181.1887748768
 30
0.0
 11
131.3381615044
 21
193.4887744715
 31
0.0
  0
LINE
  5
388
330
1F
100
AcDbEntity
  8
SLD-0
  6
Continuous
 62
     7
370
    18
100
AcDbLine
 10
176.8381646733
 20
193.6887740573
 30
0.0
 11
131.5381611368
 21
193.6887740573
 31
0.0
  0
LINE
  5
389
330
1F
100
AcDbEntity
  8
SLD-0
  6
Continuous
 62
     7
370
    18
100
AcDbLine
 10
176.8381646733
 20
195.1887733719
 30
0.0
 11
131.5381611368
 21
195.1887743504
 31
0.0
  0
LINE
  5
38A
330
1F
100
AcDbEntity
  8
SLD-0
  6
Continuous
 62
     7
370
    18
100
AcDbLine
 10
176.8381646733
 20
193.6887740573
 30
0.0
 11
176.8381646733
 21
195.1887733719
 31
0.0
  0
LINE
  5
38B
330
1F
100
AcDbEntity
  8
SLD-0
  6
Continuous
 62
     7
370
    18
100
AcDbLine
 10
130.3381598453
 20
194.6929335079
 30
0.0
 11
130.3381598453
 21
195.1887733719
 31
0.0
  0
LINE
  5
38C
330
1F
100
AcDbEntity
  8
SLD-0
  6
Continuous
 62
     7
370
    18
100
AcDbLine
 10
130.3381598453
 20
195.1887733719
 30
0.0
 11
131.5381611368
 21
195.1887743504
 31
0.0
  0
LINE
  5
38D
330
1F
100
AcDbEntity
  8
SLD-0
  6
CENTERX2
 62
     7
370
    18
100
AcDbLine
 10
111.8381611368
 20
187.4387746549
 30
0.0
 11
169.8839262856
 21
187.4387746549
 31
0.0
  0
LINE
  5
38E
330
1F
100
AcDbEntity
  8
SLD-0
  6
Continuous
 62
     7
370
    18
100
AcDbLine
 10
308.5315589202
 20
452.5937305197
 30
0.0
 11
308.2315612925
 21
452.5937305197
 31
0.0
  0
LINE
  5
38F
330
1F
100
AcDbEntity
  8
SLD-0
  6
Continuous
 62
     7
370
    18
100
AcDbLine
 10
304.0663030339
 20
300.3781528577
 30
0.0
 11
301.2956928802
 21
300.3781528577
 31
0.0
  0
LINE
  5
390
330
1F
100
AcDbEntity
  8
SLD-0
  6
Continuous
 62
     7
370
    18
100
AcDbLine
 10
297.5071844054
 20
463.1781519756
 30
0.0
 11
297.6081627064
 21
463.1781546443
 31
0.0
  0
LINE
  5
391
330
1F
100
AcDbEntity
  8
SLD-0
  6
Continuous
 62
     7
370
    18
100
AcDbLine
 10
297.6081627064
 20
433.1781546443
 30
0.0
 11
297.5071844053
 21
433.1781545088
 31
0.0
  0
LINE
  5
392
330
1F
100
AcDbEntity
  8
SLD-0
  6
Continuous
 62
     7
370
    18
100
AcDbLine
 10
297.5071844053
 20
433.1781545088
 30
0.0
 11
297.2315613521
 21
433.1781545088
 31
0.0
  0
LINE
  5
393
330
1F
100
AcDbEntity
  8
SLD-0
  6
Continuous
 62
     7
370
    18
100
AcDbLine
 10
296.7315603388
 20
433.678155522
 30
0.0
 11
296.7315603388
 21
462.6781509623
 31
0.0
  0
LINE
  5
394
330
1F
100
AcDbEntity
  8
SLD-0
  6
Continuous
 62
     7
370
    18
100
AcDbLine
 10
297.2315613521
 20
463.1781519756
 30
0.0
 11
297.5071844054
 21
463.1781519756
 31
0.0
  0
LINE
  5
395
330
1F
100
AcDbEntity
  8
SLD-0
  6
Continuous
 62
     7
370
    18
100
AcDbLine
 10
307.3549559104
 20
463.178152187
 30
0.0
 11
307.5851117956
 21
463.178152187
 31
0.0
  0
LINE
  5
396
330
1F
100
AcDbEntity
  8
SLD-0
  6
Continuous
 62
     7
370
    18
100
AcDbLine
 10
307.5851120955
 20
433.1781542011
 30
0.0
 11
307.3549562102
 21
433.1781542011
 31
0.0
  0
LINE
  5
397
330
1F
100
AcDbEntity
  8
SLD-0
  6
Continuous
 62
     7
370
    18
100
AcDbLine
 10
308.2315610819
 20
462.6781512937
 30
0.0
 11
308.2315610819
 21
433.6781558534
 31
0.0
  0
LINE
  5
398
330
1F
100
AcDbEntity
  8
SLD-0
  6
Continuous
 62
     7
370
    18
100
AcDbLine
 10
307.7315607077
 20
433.1781542011
 30
0.0
 11
307.5851120955
 21
433.1781542011
 31
0.0
  0
LINE
  5
399
330
1F
100
AcDbEntity
  8
SLD-0
  6
Continuous
 62
     7
370
    18
100
AcDbLine
 10
307.5851117956
 20
463.178152187
 30
0.0
 11
307.7315604078
 21
463.178152187
 31
0.0
  0
LINE
  5
39A
330
1F
100
AcDbEntity
  8
SLD-0
  6
Continuous
 62
     7
370
    18
100
AcDbLine
 10
306.5315589135
 20
366.178155509
 30
0.0
 11
306.5315589135
 21
365.8781560186
 31
0.0
  0
LINE
  5
39B
330
1F
100
AcDbEntity
  8
SLD-0
  6
Continuous
 62
     7
370
    18
100
AcDbLine
 10
306.5315589135
 20
331.4781548503
 30
0.0
 11
306.5315589135
 21
331.0781555298
 31
0.0
  0
LINE
  5
39C
330
1F
100
AcDbEntity
  8
SLD-0
  6
Continuous
 62
     7
370
    18
100
AcDbLine
 10
308.5315589202
 20
457.6781557307
 30
0.0
 11
308.2315612925
 21
457.6781557307
 31
0.0
  0
LINE
  5
39D
330
1F
100
AcDbEntity
  8
SLD-0
  6
Continuous
 62
     7
370
    18
100
AcDbLine
 10
308.5315589202
 20
453.3781574473
 30
0.0
 11
308.2315612925
 21
453.3781574473
 31
0.0
  0
LINE
  5
39E
330
1F
100
AcDbEntity
  8
SLD-0
  6
Continuous
 62
     7
370
    18
100
AcDbLine
 10
298.8315598788
 20
366.1781546443
 30
0.0
 11
306.2315609647
 21
366.1781546443
 31
0.0
  0
LINE
  5
39F
330
1F
100
AcDbEntity
  8
SLD-0
  6
Continuous
 62
     7
370
    18
100
AcDbLine
 10
298.5315610064
 20
331.4781540438
 30
0.0
 11
298.5315598788
 21
365.8781546443
 31
0.0
  0
LINE
  5
3A0
330
1F
100
AcDbEntity
  8
SLD-0
  6
Continuous
 62
     7
370
    18
100
AcDbLine
 10
306.2315615285
 20
331.1781569799
 30
0.0
 11
298.8315604426
 21
331.1781552081
 31
0.0
  0
LINE
  5
3A1
330
1F
100
AcDbEntity
  8
SLD-0
  6
Continuous
 62
     7
370
    18
100
AcDbLine
 10
306.5315589135
 20
365.8781560186
 30
0.0
 11
306.5315589135
 21
331.4781548503
 31
0.0
  0
LINE
  5
3A2
330
1F
100
AcDbEntity
  8
SLD-0
  6
Continuous
 62
     7
370
    18
100
AcDbLine
 10
298.6315589739
 20
366.1781547025
 30
0.0
 11
298.6315589739
 21
366.101762037
 31
0.0
  0
LINE
  5
3A3
330
1F
100
AcDbEntity
  8
SLD-0
  6
Continuous
 62
     7
370
    18
100
AcDbLine
 10
298.6315589739
 20
331.2545471608
 30
0.0
 11
298.6315589739
 21
331.0781546651
 31
0.0
  0
LINE
  5
3A4
330
1F
100
AcDbEntity
  8
SLD-0
  6
Continuous
 62
     7
370
    18
100
AcDbLine
 10
298.6315589739
 20
331.0781546651
 30
0.0
 11
306.7315582526
 21
331.0781546651
 31
0.0
  0
LINE
  5
3A5
330
1F
100
AcDbEntity
  8
SLD-0
  6
Continuous
 62
     7
370
    18
100
AcDbLine
 10
306.7315582526
 20
331.0781546651
 30
0.0
 11
306.7315582526
 21
366.1781546443
 31
0.0
  0
LINE
  5
3A6
330
1F
100
AcDbEntity
  8
SLD-0
  6
Continuous
 62
     7
370
    18
100
AcDbLine
 10
306.7315582526
 20
366.1781546443
 30
0.0
 11
306.2315609647
 21
366.1781546443
 31
0.0
  0
LINE
  5
3A7
330
1F
100
AcDbEntity
  8
SLD-0
  6
Continuous
 62
     7
370
    18
100
AcDbLine
 10
297.3315598788
 20
433.0781546443
 30
0.0
 11
297.8081617845
 21
433.078152816
 31
0.0
  0
LINE
  5
3A8
330
1F
100
AcDbEntity
  8
SLD-0
  6
Continuous
 62
     7
370
    18
100
AcDbLine
 10
307.5549570512
 20
433.0781546443
 30
0.0
 11
308.0315616322
 21
433.078152816
 31
0.0
  0
LINE
  5
3A9
330
1F
100
AcDbEntity
  8
SLD-0
  6
Continuous
 62
     7
370
    18
100
AcDbLine
 10
308.531560793
 20
433.5781537301
 30
0.0
 11
308.5315598344
 21
462.7781517409
 31
0.0
  0
LINE
  5
3AA
330
1F
100
AcDbEntity
  8
SLD-0
  6
Continuous
 62
     7
370
    18
100
AcDbLine
 10
308.0315603137
 20
463.2781532509
 30
0.0
 11
307.5549558769
 21
463.2781522749
 31
0.0
  0
LINE
  5
3AB
330
1F
100
AcDbEntity
  8
SLD-0
  6
Continuous
 62
     7
370
    18
100
AcDbLine
 10
297.8081627064
 20
463.2781546443
 30
0.0
 11
297.3315598788
 21
463.2781546443
 31
0.0
  0
LINE
  5
3AC
330
1F
100
AcDbEntity
  8
SLD-0
  6
Continuous
 62
     7
370
    18
100
AcDbLine
 10
290.6815585089
 20
507.1781517371
 30
0.0
 11
314.6815624429
 21
507.1781517371
 31
0.0
  0
LINE
  5
3AD
330
1F
100
AcDbEntity
  8
SLD-0
  6
Continuous
 62
     7
370
    18
100
AcDbLine
 10
314.6815624429
 20
507.1781517371
 30
0.0
 11
314.6815624429
 21
262.1781618699
 31
0.0
  0
LINE
  5
3AE
330
1F
100
AcDbEntity
  8
SLD-0
  6
Continuous
 62
     7
370
    18
100
AcDbLine
 10
290.6815585089
 20
262.1781618699
 30
0.0
 11
314.6815624429
 21
262.1781618699
 31
0.0
  0
LINE
  5
3AF
330
1F
100
AcDbEntity
  8
SLD-0
  6
Continuous
 62
     7
370
    18
100
AcDbLine
 10
290.6815585089
 20
507.1781517371
 30
0.0
 11
290.6815585089
 21
262.1781618699
 31
0.0
  0
LINE
  5
3B0
330
1F
100
AcDbEntity
  8
SLD-0
  6
Continuous
 62
     7
370
    18
100
AcDbLine
 10
299.1815608336
 20
496.4285136566
 30
0.0
 11
298.6196492208
 21
496.4285136566
 31
0.0
  0
LINE
  5
3B1
330
1F
100
AcDbEntity
  8
SLD-0
  6
Continuous
 62
     7
370
    18
100
AcDbLine
 10
298.6196485204
 20
493.9277956424
 30
0.0
 11
299.1815587627
 21
493.9277989077
 31
0.0
  0
LINE
  5
3B2
330
1F
100
AcDbEntity
  8
SLD-0
  6
Continuous
 62
     7
370
    18
100
AcDbLine
 10
301.4315595972
 20
491.6777980733
 30
0.0
 11
301.4315595972
 21
491.1161360549
 31
0.0
  0
LINE
  5
3B3
330
1F
100
AcDbEntity
  8
SLD-0
  6
Continuous
 62
     7
370
    18
100
AcDbLine
 10
303.9315597912
 20
491.1161357268
 30
0.0
 11
303.9315591962
 21
491.6778002353
 31
0.0
  0
LINE
  5
3B4
330
1F
100
AcDbEntity
  8
SLD-0
  6
Continuous
 62
     7
370
    18
100
AcDbLine
 10
306.181561456
 20
493.927799348
 30
0.0
 11
306.7434693434
 21
493.927799348
 31
0.0
  0
LINE
  5
3B5
330
1F
100
AcDbEntity
  8
SLD-0
  6
Continuous
 62
     7
370
    18
100
AcDbLine
 10
306.7434685257
 20
496.4285103319
 30
0.0
 11
306.1815594776
 21
496.4285122195
 31
0.0
  0
LINE
  5
3B6
330
1F
100
AcDbEntity
  8
SLD-0
  6
Continuous
 62
     7
370
    18
100
AcDbLine
 10
303.9315592838
 20
498.678512226
 30
0.0
 11
303.9315592838
 21
499.2401742442
 31
0.0
  0
LINE
  5
3B7
330
1F
100
AcDbEntity
  8
SLD-0
  6
Continuous
 62
     7
370
    18
100
AcDbLine
 10
301.4315598788
 20
499.2401738466
 30
0.0
 11
301.431561668
 21
498.678514491
 31
0.0
  0
LINE
  5
3B8
330
1F
100
AcDbEntity
  8
SLD-0
  6
Continuous
 62
     7
370
    18
100
AcDbLine
 10
306.1815610657
 20
301.9277995105
 30
0.0
 11
306.7434689532
 21
301.9277995105
 31
0.0
  0
LINE
  5
3B9
330
1F
100
AcDbEntity
  8
SLD-0
  6
Continuous
 62
     7
370
    18
100
AcDbLine
 10
306.7434686047
 20
304.4285121633
 30
0.0
 11
306.1815595566
 21
304.428512382
 31
0.0
  0
LINE
  5
3BA
330
1F
100
AcDbEntity
  8
SLD-0
  6
Continuous
 62
     7
370
    18
100
AcDbLine
 10
303.9315590825
 20
306.6785121678
 30
0.0
 11
303.9315590825
 21
307.2401741862
 31
0.0
  0
LINE
  5
3BB
330
1F
100
AcDbEntity
  8
SLD-0
  6
Continuous
 62
     7
370
    18
100
AcDbLine
 10
301.4315610325
 20
307.2401741775
 30
0.0
 11
301.4315628217
 21
306.678513153
 31
0.0
  0
LINE
  5
3BC
330
1F
100
AcDbEntity
  8
SLD-0
  6
Continuous
 62
     7
370
    18
100
AcDbLine
 10
299.1815619873
 20
304.4285123185
 30
0.0
 11
298.6196503745
 21
304.4285123185
 31
0.0
  0
LINE
  5
3BD
330
1F
100
AcDbEntity
  8
SLD-0
  6
Continuous
 62
     7
370
    18
100
AcDbLine
 10
298.6196505912
 20
301.9277975197
 30
0.0
 11
299.1815608335
 21
301.9277991161
 31
0.0
  0
LINE
  5
3BE
330
1F
100
AcDbEntity
  8
SLD-0
  6
Continuous
 62
     7
370
    18
100
AcDbLine
 10
301.4315616681
 20
299.6777982816
 30
0.0
 11
301.4315616681
 21
299.1161362633
 31
0.0
  0
LINE
  5
3BF
330
1F
100
AcDbEntity
  8
SLD-0
  6
Continuous
 62
     7
370
    18
100
AcDbLine
 10
303.9315598789
 20
299.1161366952
 30
0.0
 11
303.9315592839
 21
299.6777995349
 31
0.0
  0
LINE
  5
3C0
330
1F
100
AcDbEntity
  8
SLD-0
  6
Continuous
 62
     7
370
    18
100
AcDbLine
 10
306.743467826
 20
275.4285136791
 30
0.0
 11
306.1815599386
 21
275.4285136791
 31
0.0
  0
LINE
  5
3C1
330
1F
100
AcDbEntity
  8
SLD-0
  6
Continuous
 62
     7
370
    18
100
AcDbLine
 10
303.9315589617
 20
277.6785126098
 30
0.0
 11
303.9315589617
 21
278.240174628
 31
0.0
  0
LINE
  5
3C2
330
1F
100
AcDbEntity
  8
SLD-0
  6
Continuous
 62
     7
370
    18
100
AcDbLine
 10
301.4315611702
 20
278.2401745523
 30
0.0
 11
301.4315629594
 21
277.6785143622
 31
0.0
  0
LINE
  5
3C3
330
1F
100
AcDbEntity
  8
SLD-0
  6
Continuous
 62
     7
370
    18
100
AcDbLine
 10
299.1815621249
 20
275.4285135278
 30
0.0
 11
298.6196505122
 21
275.4285135278
 31
0.0
  0
LINE
  5
3C4
330
1F
100
AcDbEntity
  8
SLD-0
  6
Continuous
 62
     7
370
    18
100
AcDbLine
 10
298.6196505912
 20
272.9277975197
 30
0.0
 11
299.1815608335
 21
272.9277999505
 31
0.0
  0
LINE
  5
3C5
330
1F
100
AcDbEntity
  8
SLD-0
  6
Continuous
 62
     7
370
    18
100
AcDbLine
 10
301.431561668
 20
270.677799116
 30
0.0
 11
301.431561668
 21
270.1161370978
 31
0.0
  0
LINE
  5
3C6
330
1F
100
AcDbEntity
  8
SLD-0
  6
Continuous
 62
     7
370
    18
100
AcDbLine
 10
303.9315598788
 20
270.1161374575
 30
0.0
 11
303.9315592838
 21
270.6778011316
 31
0.0
  0
LINE
  5
3C7
330
1F
100
AcDbEntity
  8
SLD-0
  6
Continuous
 62
     7
370
    18
100
AcDbLine
 10
306.1815609182
 20
272.9278008075
 30
0.0
 11
306.7434688056
 21
272.9278008075
 31
0.0
  0
LINE
  5
3C8
330
1F
100
AcDbEntity
  8
SLD-0
  6
Continuous
 62
     7
370
    18
100
AcDbLine
 10
305.28155972
 20
303.0781538591
 30
0.0
 11
305.28155972
 21
301.7359466657
 31
0.0
  0
LINE
  5
3C9
330
1F
100
AcDbEntity
  8
SLD-0
  6
Continuous
 62
     7
370
    18
100
AcDbLine
 10
299.7815598143
 20
301.8123672709
 30
0.0
 11
299.7815598143
 21
303.0781546443
 31
0.0
  0
LINE
  5
3CA
330
1F
100
AcDbEntity
  8
SLD-0
  6
CENTERX2
 62
     7
370
    18
100
AcDbLine
 10
302.6815598788
 20
507.1781546443
 30
0.0
 11
302.6815598788
 21
262.1781546443
 31
0.0
  0
ARC
  5
3CB
330
1F
100
AcDbEntity
  8
SLD-0
  6
Continuous
 62
     7
370
    18
100
AcDbCircle
 10
125.5686753669
 20
461.178127362
 30
0.0
 40
2.000025947974498
100
AcDbArc
 50
90.0003860443
 51
144.3142559298
  0
ARC
  5
3CC
330
1F
100
AcDbEntity
  8
SLD-0
  6
Continuous
 62
     7
370
    18
100
AcDbCircle
 10
125.5686583052
 20
435.1781445317
 30
0.0
 40
1.999989955189814
100
AcDbArc
 50
215.6852151233
 51
270.0001429026
  0
ARC
  5
3CD
330
1F
100
AcDbEntity
  8
SLD-0
  6
Continuous
 62
     7
370
    18
100
AcDbCircle
 10
120.7944744311
 20
464.5402023289
 30
0.0
 40
3.8393296069398
100
AcDbArc
 50
267.3598657385
 51
325.1231970817
  0
ARC
  5
3CE
330
1F
100
AcDbEntity
  8
SLD-0
  6
Continuous
 62
     7
370
    18
100
AcDbCircle
 10
120.8439645391
 20
431.9024159142
 30
0.0
 40
3.749617411363042
100
AcDbArc
 50
34.2272290153
 51
91.0859103712
  0
ARC
  5
3CF
330
1F
100
AcDbEntity
  8
SLD-0
  6
Continuous
 62
     7
370
    18
100
AcDbCircle
 10
153.7716854531
 20
458.7783476864
 30
0.0
 40
12.45974704778345
100
AcDbArc
 50
306.9642631187
 51
311.718867633
  0
ARC
  5
3D0
330
1F
100
AcDbEntity
  8
SLD-0
  6
Continuous
 62
     7
370
    18
100
AcDbCircle
 10
164.9298671245
 20
445.7338697965
 30
0.0
 40
4.81307912554401
100
AcDbArc
 50
128.927685546
 51
141.7208115395
  0
ARC
  5
3D1
330
1F
100
AcDbEntity
  8
SLD-0
  6
Continuous
 62
     7
370
    18
100
AcDbCircle
 10
144.2899414065
 20
470.5264734421
 30
0.0
 40
28.55251967038639
100
AcDbArc
 50
307.9748125266
 51
312.5083368023
  0
ARC
  5
3D2
330
1F
100
AcDbEntity
  8
SLD-0
  6
Continuous
 62
     7
370
    18
100
AcDbCircle
 10
161.5514766945
 20
448.4134652253
 30
0.0
 40
0.5045151565649821
100
AcDbArc
 50
131.088083494
 51
314.0209674367
  0
ARC
  5
3D3
330
1F
100
AcDbEntity
  8
SLD-0
  6
Continuous
 62
     7
370
    18
100
AcDbCircle
 10
163.7188585558
 20
468.3635628942
 30
0.0
 40
1.996174813701226
100
AcDbArc
 50
31.6986142461
 51
76.7259147744
  0
CIRCLE
  5
3D4
330
1F
100
AcDbEntity
  8
SLD-0
  6
Continuous
 62
     7
370
    18
100
AcDbCircle
 10
161.8381611368
 20
414.1781546443
 30
0.0
 40
8.450000000000045
  0
ARC
  5
3D5
330
1F
100
AcDbEntity
  8
SLD-0
  6
Continuous
 62
     7
370
    18
100
AcDbCircle
 10
160.7381603105
 20
449.1281546443
 30
0.0
 40
0.3000000000000125
100
AcDbArc
 50
359.9998421888
 51
89.9998421881
  0
ARC
  5
3D6
330
1F
100
AcDbEntity
  8
SLD-0
  6
Continuous
 62
     7
370
    18
100
AcDbCircle
 10
160.7381603105
 20
447.228153818
 30
0.0
 40
0.3000000000000682
100
AcDbArc
 50
270.0
 51
0.0
  0
ARC
  5
3D7
330
1F
100
AcDbEntity
  8
SLD-0
  6
Continuous
 62
     7
370
    18
100
AcDbCircle
 10
159.3381611368
 20
449.1281546443
 30
0.0
 40
0.3000000000000114
100
AcDbArc
 50
90.0
 51
180.0
  0
ARC
  5
3D8
330
1F
100
AcDbEntity
  8
SLD-0
  6
Continuous
 62
     7
370
    18
100
AcDbCircle
 10
159.3381603105
 20
447.2281546443
 30
0.0
 40
0.2999991737037817
100
AcDbArc
 50
180.0
 51
269.9995939617
  0
ARC
  5
3D9
330
1F
100
AcDbEntity
  8
SLD-0
  6
Continuous
 62
     7
370
    18
100
AcDbCircle
 10
116.0381598025
 20
462.6781546443
 30
0.0
 40
0.4999986656621758
100
AcDbArc
 50
90.0005660051
 51
180.0
  0
ARC
  5
3DA
330
1F
100
AcDbEntity
  8
SLD-0
  6
Continuous
 62
     7
370
    18
100
AcDbCircle
 10
116.0381612046
 20
433.6781546443
 30
0.0
 40
0.5000000677622012
100
AcDbArc
 50
180.0
 51
269.9994339981
  0
CIRCLE
  5
3DB
330
1F
100
AcDbEntity
  8
SLD-0
  6
Continuous
 62
     7
370
    18
100
AcDbCircle
 10
169.8381641376
 20
427.678159634
 30
0.0
 40
3.099999999999984
  0
CIRCLE
  5
3DC
330
1F
100
AcDbEntity
  8
SLD-0
  6
Continuous
 62
     7
370
    18
100
AcDbCircle
 10
149.8381607991
 20
296.8781548632
 30
0.0
 40
3.099999999999994
  0
CIRCLE
  5
3DD
330
1F
100
AcDbEntity
  8
SLD-0
  6
Continuous
 62
     7
370
    18
100
AcDbCircle
 10
149.8381612077
 20
471.1781546801
 30
0.0
 40
3.100000000000038
  0
CIRCLE
  5
3DE
330
1F
100
AcDbEntity
  8
SLD-0
  6
Continuous
 62
     7
370
    18
100
AcDbCircle
 10
158.8381596494
 20
378.1781560225
 30
0.0
 40
3.099999999999984
  0
CIRCLE
  5
3DF
330
1F
100
AcDbEntity
  8
SLD-0
  6
Continuous
 62
     7
370
    18
100
AcDbCircle
 10
142.8381611368
 20
314.1781546443
 30
0.0
 40
3.299999999999955
  0
CIRCLE
  5
3E0
330
1F
100
AcDbEntity
  8
SLD-0
  6
Continuous
 62
     7
370
    18
100
AcDbCircle
 10
142.8381611368
 20
314.1781546443
 30
0.0
 40
3.500000000000028
  0
CIRCLE
  5
3E1
330
1F
100
AcDbEntity
  8
SLD-0
  6
Continuous
 62
     7
370
    18
100
AcDbCircle
 10
142.8381611368
 20
314.1781546443
 30
0.0
 40
3.700000000000045
  0
CIRCLE
  5
3E2
330
1F
100
AcDbEntity
  8
SLD-0
  6
Continuous
 62
     7
370
    18
100
AcDbCircle
 10
142.8381611368
 20
414.1781546443
 30
0.0
 40
3.700000000000017
  0
CIRCLE
  5
3E3
330
1F
100
AcDbEntity
  8
SLD-0
  6
Continuous
 62
     7
370
    18
100
AcDbCircle
 10
142.8381611368
 20
414.1781546443
 30
0.0
 40
3.499999999999972
  0
CIRCLE
  5
3E4
330
1F
100
AcDbEntity
  8
SLD-0
  6
Continuous
 62
     7
370
    18
100
AcDbCircle
 10
142.8381611368
 20
414.1781546443
 30
0.0
 40
3.299999999999926
  0
ARC
  5
3E5
330
1F
100
AcDbEntity
  8
SLD-0
  6
Continuous
 62
     7
370
    18
100
AcDbCircle
 10
149.8381607991
 20
296.8781548632
 30
0.0
 40
2.299999656658207
100
AcDbArc
 50
132.5558577986
 51
147.0517014509
  0
ARC
  5
3E6
330
1F
100
AcDbEntity
  8
SLD-0
  6
Continuous
 62
     7
370
    18
100
AcDbCircle
 10
149.8381607991
 20
296.8781548632
 30
0.0
 40
3.400000000000011
100
AcDbArc
 50
128.4565193353
 51
171.5434806647
  0
ARC
  5
3E7
330
1F
100
AcDbEntity
  8
SLD-0
  6
Continuous
 62
     7
370
    18
100
AcDbCircle
 10
158.8381596494
 20
378.1781560225
 30
0.0
 40
3.400000000000083
100
AcDbArc
 50
68.4565193353
 51
111.5434766159
  0
ARC
  5
3E8
330
1F
100
AcDbEntity
  8
SLD-0
  6
Continuous
 62
     7
370
    18
100
AcDbCircle
 10
158.8381596494
 20
378.1781560225
 30
0.0
 40
2.299999151574696
100
AcDbArc
 50
317.1830346088
 51
333.3629528106
  0
ARC
  5
3E9
330
1F
100
AcDbEntity
  8
SLD-0
  6
Continuous
 62
     7
370
    18
100
AcDbCircle
 10
158.8381596494
 20
378.1781560225
 30
0.0
 40
3.400000000000026
100
AcDbArc
 50
308.4565193353
 51
351.5434773868
  0
ARC
  5
3EA
330
1F
100
AcDbEntity
  8
SLD-0
  6
Continuous
 62
     7
370
    18
100
AcDbCircle
 10
169.8381641376
 20
427.678159634
 30
0.0
 40
3.4
100
AcDbArc
 50
188.4565193353
 51
231.5434806647
  0
ARC
  5
3EB
330
1F
100
AcDbEntity
  8
SLD-0
  6
Continuous
 62
     7
370
    18
100
AcDbCircle
 10
149.8381612077
 20
471.1781546801
 30
0.0
 40
3.399999999999949
100
AcDbArc
 50
308.4565193353
 51
351.5434806647
  0
ARC
  5
3EC
330
1F
100
AcDbEntity
  8
SLD-0
  6
Continuous
 62
     7
370
    18
100
AcDbCircle
 10
149.8381607991
 20
296.8781548632
 30
0.0
 40
3.40000000000002
100
AcDbArc
 50
8.4565193353
 51
51.5434806647
  0
ARC
  5
3ED
330
1F
100
AcDbEntity
  8
SLD-0
  6
Continuous
 62
     7
370
    18
100
AcDbCircle
 10
159.3381619162
 20
292.1781549626
 30
0.0
 40
1.000000000000004
100
AcDbArc
 50
90.0
 51
135.5729959992
  0
ARC
  5
3EE
330
1F
100
AcDbEntity
  8
SLD-0
  6
Continuous
 62
     7
370
    18
100
AcDbCircle
 10
164.3381619162
 20
292.1781549626
 30
0.0
 40
1.0
100
AcDbArc
 50
44.4270040008
 51
90.0
  0
ARC
  5
3EF
330
1F
100
AcDbEntity
  8
SLD-0
  6
Continuous
 62
     7
370
    18
100
AcDbCircle
 10
152.3881601564
 20
307.7281549654
 30
0.0
 40
0.1999999999999955
100
AcDbArc
 50
359.9995456603
 51
89.9998111362
  0
ARC
  5
3F0
330
1F
100
AcDbEntity
  8
SLD-0
  6
Continuous
 62
     7
370
    18
100
AcDbCircle
 10
150.2881608157
 20
307.7281546443
 30
0.0
 40
0.199999678901662
100
AcDbArc
 50
89.9996732984
 51
180.0
  0
ARC
  5
3F1
330
1F
100
AcDbEntity
  8
SLD-0
  6
Continuous
 62
     7
370
    18
100
AcDbCircle
 10
150.2881600142
 20
304.6281546443
 30
0.0
 40
0.2000011226120364
100
AcDbArc
 50
179.9991116389
 51
270.0
  0
ARC
  5
3F2
330
1F
100
AcDbEntity
  8
SLD-0
  6
Continuous
 62
     7
370
    18
100
AcDbCircle
 10
152.3881600142
 20
304.6281533795
 30
0.0
 40
0.2000001422504741
100
AcDbArc
 50
269.9998383402
 51
0.0
  0
CIRCLE
  5
3F3
330
1F
100
AcDbEntity
  8
SLD-0
  6
Continuous
 62
     7
370
    18
100
AcDbCircle
 10
161.8381611368
 20
414.1781546443
 30
0.0
 40
8.5
  0
ARC
  5
3F4
330
1F
100
AcDbEntity
  8
SLD-0
  6
Continuous
 62
     7
370
    18
100
AcDbCircle
 10
156.4381617968
 20
460.3781550695
 30
0.0
 40
0.1999999999999886
100
AcDbArc
 50
180.0
 51
270.0
  0
ARC
  5
3F5
330
1F
100
AcDbEntity
  8
SLD-0
  6
Continuous
 62
     7
370
    18
100
AcDbCircle
 10
161.8381613298
 20
460.1781550695
 30
0.0
 40
3.750000466950152
100
AcDbArc
 50
180.0000198289
 51
245.5855976851
  0
ARC
  5
3F6
330
1F
100
AcDbEntity
  8
SLD-0
  6
Continuous
 62
     7
370
    18
100
AcDbCircle
 10
160.4881606639
 20
455.4781546443
 30
0.0
 40
0.2000004729015388
100
AcDbArc
 50
179.9996853617
 51
270.0
  0
ARC
  5
3F7
330
1F
100
AcDbEntity
  8
SLD-0
  6
Continuous
 62
     7
370
    18
100
AcDbCircle
 10
163.188159736
 20
455.4781530277
 30
0.0
 40
0.200001143664878
100
AcDbArc
 50
270.0012516233
 51
0.000869038
  0
ARC
  5
3F8
330
1F
100
AcDbEntity
  8
SLD-0
  6
Continuous
 62
     7
370
    18
100
AcDbCircle
 10
161.8381613298
 20
460.1781550695
 30
0.0
 40
3.750001089146764
100
AcDbArc
 50
294.4143767389
 51
0.0
  0
ARC
  5
3F9
330
1F
100
AcDbEntity
  8
SLD-0
  6
Continuous
 62
     7
370
    18
100
AcDbCircle
 10
167.2381624189
 20
460.3781544206
 30
0.0
 40
0.2000006489079456
100
AcDbArc
 50
269.9992816875
 51
0.0
  0
ARC
  5
3FA
330
1F
100
AcDbEntity
  8
SLD-0
  6
Continuous
 62
     7
370
    18
100
AcDbCircle
 10
167.2381635069
 20
468.9781544206
 30
0.0
 40
0.2000004390523384
100
AcDbArc
 50
359.9996145443
 51
90.0
  0
ARC
  5
3FB
330
1F
100
AcDbEntity
  8
SLD-0
  6
Continuous
 62
     7
370
    18
100
AcDbCircle
 10
161.8381624989
 20
469.1781540495
 30
0.0
 40
3.749999682100284
100
AcDbArc
 50
0.000043547
 51
180.0
  0
ARC
  5
3FC
330
1F
100
AcDbEntity
  8
SLD-0
  6
Continuous
 62
     7
370
    18
100
AcDbCircle
 10
156.4381628168
 20
468.9781550695
 30
0.0
 40
0.2000010200011201
100
AcDbArc
 50
89.9997313715
 51
180.0
  0
ARC
  5
3FD
330
1F
100
AcDbEntity
  8
SLD-0
  6
Continuous
 62
     7
370
    18
100
AcDbCircle
 10
161.8381606699
 20
389.1781546443
 30
0.0
 40
3.750000466950041
100
AcDbArc
 50
180.0000002063
 51
0.0
  0
ARC
  5
3FE
330
1F
100
AcDbEntity
  8
SLD-0
  6
Continuous
 62
     7
370
    18
100
AcDbCircle
 10
161.8381603519
 20
392.6781546224
 30
0.0
 40
3.75000014905001
100
AcDbArc
 50
0.0
 51
180.0
  0
ARC
  5
3FF
330
1F
100
AcDbEntity
  8
SLD-0
  6
Continuous
 62
     7
370
    18
100
AcDbCircle
 10
161.8381606698
 20
435.6781546443
 30
0.0
 40
3.750000466950127
100
AcDbArc
 50
179.9999815798
 51
360.0
  0
ARC
  5
400
330
1F
100
AcDbEntity
  8
SLD-0
  6
Continuous
 62
     7
370
    18
100
AcDbCircle
 10
161.8381603519
 20
439.1781554922
 30
0.0
 40
3.75000014905001
100
AcDbArc
 50
0.0
 51
180.0
  0
ARC
  5
401
330
1F
100
AcDbEntity
  8
SLD-0
  6
Continuous
 62
     7
370
    18
100
AcDbCircle
 10
161.8381604195
 20
302.1781546443
 30
0.0
 40
5.100000717250083
100
AcDbArc
 50
180.0000125714
 51
0.0
  0
ARC
  5
402
330
1F
100
AcDbEntity
  8
SLD-0
  6
Continuous
 62
     7
370
    18
100
AcDbCircle
 10
161.8381603519
 20
322.1781546443
 30
0.0
 40
8.600003122078146
100
AcDbArc
 50
306.3718324658
 51
233.6281675342
  0
CIRCLE
  5
403
330
1F
100
AcDbEntity
  8
SLD-0
  6
Continuous
 62
     7
370
    18
100
AcDbCircle
 10
172.4381611368
 20
465.1781546443
 30
0.0
 40
1.69999999999996
  0
ARC
  5
404
330
1F
100
AcDbEntity
  8
SLD-0
  6
Continuous
 62
     7
370
    18
100
AcDbCircle
 10
172.6381600198
 20
449.2781542478
 30
0.0
 40
0.2000000000000869
100
AcDbArc
 50
359.9999520988
 51
89.99951184
  0
ARC
  5
405
330
1F
100
AcDbEntity
  8
SLD-0
  6
Continuous
 62
     7
370
    18
100
AcDbCircle
 10
155.438161686
 20
454.9781541329
 30
0.0
 40
0.499999962200036
100
AcDbArc
 50
0.0000097403
 51
90.0
  0
ARC
  5
406
330
1F
100
AcDbEntity
  8
SLD-0
  6
Continuous
 62
     7
370
    18
100
AcDbCircle
 10
154.138161686
 20
454.9781546443
 30
0.0
 40
0.5000005491502699
100
AcDbArc
 50
90.0000851528
 51
180.0
  0
ARC
  5
407
330
1F
100
AcDbEntity
  8
SLD-0
  6
Continuous
 62
     7
370
    18
100
AcDbCircle
 10
154.1381602586
 20
441.3781546443
 30
0.0
 40
0.5000008782003132
100
AcDbArc
 50
179.9999042018
 51
270.0
  0
ARC
  5
408
330
1F
100
AcDbEntity
  8
SLD-0
  6
Continuous
 62
     7
370
    18
100
AcDbCircle
 10
155.4381602586
 20
441.3781536775
 30
0.0
 40
0.500000088650637
100
AcDbArc
 50
269.9998752328
 51
0.0
  0
ARC
  5
409
330
1F
100
AcDbEntity
  8
SLD-0
  6
Continuous
 62
     7
370
    18
100
AcDbCircle
 10
172.6381604229
 20
447.0781540806
 30
0.0
 40
0.1999995969003123
100
AcDbArc
 50
269.9998554135
 51
0.0
  0
ARC
  5
40A
330
1F
100
AcDbEntity
  8
SLD-0
  6
Continuous
 62
     7
370
    18
100
AcDbCircle
 10
158.03815974
 20
348.0441800481
 30
0.0
 40
0.5000013967504339
100
AcDbArc
 50
150.0
 51
179.9998909553
  0
ARC
  5
40B
330
1F
100
AcDbEntity
  8
SLD-0
  6
Continuous
 62
     7
370
    18
100
AcDbCircle
 10
158.6928596466
 20
349.1781550091
 30
0.0
 40
0.4999993327789474
100
AcDbArc
 50
90.0
 51
149.9997127581
  0
ARC
  5
40C
330
1F
100
AcDbEntity
  8
SLD-0
  6
Continuous
 62
     7
370
    18
100
AcDbCircle
 10
164.4061083007
 20
349.1781534843
 30
0.0
 40
0.4999991424502276
100
AcDbArc
 50
30.0
 51
89.9999244954
  0
ARC
  5
40D
330
1F
100
AcDbEntity
  8
SLD-0
  6
Continuous
 62
     7
370
    18
100
AcDbCircle
 10
165.6381583567
 20
347.0441784542
 30
0.0
 40
0.5000000102624824
100
AcDbArc
 50
0.0
 51
29.9999234453
  0
ARC
  5
40E
330
1F
100
AcDbEntity
  8
SLD-0
  6
Continuous
 62
     7
370
    18
100
AcDbCircle
 10
173.8881604605
 20
437.1281539747
 30
0.0
 40
0.1999999932536767
100
AcDbArc
 50
269.9995139026
 51
0.0
  0
ARC
  5
40F
330
1F
100
AcDbEntity
  8
SLD-0
  6
Continuous
 62
     7
370
    18
100
AcDbCircle
 10
173.8881612981
 20
439.2281531226
 30
0.0
 40
0.2000008443536507
100
AcDbArc
 50
0.0007294749
 51
89.9998521718
  0
ARC
  5
410
330
1F
100
AcDbEntity
  8
SLD-0
  6
Continuous
 62
     7
370
    18
100
AcDbCircle
 10
170.5881618141
 20
439.2281546443
 30
0.0
 40
0.2000006773052974
100
AcDbArc
 50
89.9994137535
 51
180.0
  0
ARC
  5
411
330
1F
100
AcDbEntity
  8
SLD-0
  6
Continuous
 62
     7
370
    18
100
AcDbCircle
 10
170.5881604605
 20
437.1281546443
 30
0.0
 40
0.2000006628554263
100
AcDbArc
 50
180.0000934775
 51
270.0005862505
  0
ARC
  5
412
330
1F
100
AcDbEntity
  8
SLD-0
  6
Continuous
 62
     7
370
    18
100
AcDbCircle
 10
173.8881605856
 20
295.8281539747
 30
0.0
 40
0.2000001184536018
100
AcDbArc
 50
269.9995139032
 51
0.0
  0
ARC
  5
413
330
1F
100
AcDbEntity
  8
SLD-0
  6
Continuous
 62
     7
370
    18
100
AcDbCircle
 10
173.8881615484
 20
297.9281551105
 30
0.0
 40
0.2000008443526691
100
AcDbArc
 50
0.000088292
 51
90.0004933661
  0
ARC
  5
414
330
1F
100
AcDbEntity
  8
SLD-0
  6
Continuous
 62
     7
370
    18
100
AcDbCircle
 10
170.5881598263
 20
297.9281546443
 30
0.0
 40
0.1999986894552525
100
AcDbArc
 50
89.9994137419
 51
180.0
  0
ARC
  5
415
330
1F
100
AcDbEntity
  8
SLD-0
  6
Continuous
 62
     7
370
    18
100
AcDbCircle
 10
170.5881605856
 20
295.8281546443
 30
0.0
 40
0.2000007880676282
100
AcDbArc
 50
179.9990979699
 51
270.0005862497
  0
ARC
  5
416
330
1F
100
AcDbEntity
  8
SLD-0
  6
Continuous
 62
     7
370
    18
100
AcDbCircle
 10
158.8381596494
 20
378.1781560225
 30
0.0
 40
3.400000000000055
100
AcDbArc
 50
111.5434766159
 51
128.4565193353
  0
ARC
  5
417
330
1F
100
AcDbEntity
  8
SLD-0
  6
Continuous
 62
     7
370
    18
100
AcDbCircle
 10
158.8381596494
 20
378.1781560225
 30
0.0
 40
3.400000000000057
100
AcDbArc
 50
128.4565193353
 51
171.5434806647
  0
ARC
  5
418
330
1F
100
AcDbEntity
  8
SLD-0
  6
Continuous
 62
     7
370
    18
100
AcDbCircle
 10
158.8381596494
 20
378.1781560225
 30
0.0
 40
3.400000000000057
100
AcDbArc
 50
171.5434806647
 51
188.4565193353
  0
ARC
  5
419
330
1F
100
AcDbEntity
  8
SLD-0
  6
Continuous
 62
     7
370
    18
100
AcDbCircle
 10
158.8381596494
 20
378.1781560225
 30
0.0
 40
3.400000000000048
100
AcDbArc
 50
188.4565193353
 51
231.5434806647
  0
ARC
  5
41A
330
1F
100
AcDbEntity
  8
SLD-0
  6
Continuous
 62
     7
370
    18
100
AcDbCircle
 10
158.8381596494
 20
378.1781560225
 30
0.0
 40
3.40000000000003
100
AcDbArc
 50
248.4565193353
 51
291.5434806647
  0
ARC
  5
41B
330
1F
100
AcDbEntity
  8
SLD-0
  6
Continuous
 62
     7
370
    18
100
AcDbCircle
 10
158.8381596494
 20
378.1781560225
 30
0.0
 40
3.400000000000037
100
AcDbArc
 50
8.4565193353
 51
51.5434806647
  0
ARC
  5
41C
330
1F
100
AcDbEntity
  8
SLD-0
  6
Continuous
 62
     7
370
    18
100
AcDbCircle
 10
158.8381596494
 20
378.1781560225
 30
0.0
 40
3.400000000000083
100
AcDbArc
 50
51.5434806647
 51
68.4565193353
  0
ARC
  5
41D
330
1F
100
AcDbEntity
  8
SLD-0
  6
Continuous
 62
     7
370
    18
100
AcDbCircle
 10
149.8381607991
 20
296.8781548632
 30
0.0
 40
3.399999999999976
100
AcDbArc
 50
68.4565193353
 51
111.5434806647
  0
ARC
  5
41E
330
1F
100
AcDbEntity
  8
SLD-0
  6
Continuous
 62
     7
370
    18
100
AcDbCircle
 10
149.8381607991
 20
296.8781548632
 30
0.0
 40
3.400000000000011
100
AcDbArc
 50
188.4565193353
 51
231.5434806647
  0
ARC
  5
41F
330
1F
100
AcDbEntity
  8
SLD-0
  6
Continuous
 62
     7
370
    18
100
AcDbCircle
 10
149.8381607991
 20
296.8781548632
 30
0.0
 40
3.40000000000004
100
AcDbArc
 50
248.4565193353
 51
291.5434806647
  0
ARC
  5
420
330
1F
100
AcDbEntity
  8
SLD-0
  6
Continuous
 62
     7
370
    18
100
AcDbCircle
 10
149.8381607991
 20
296.8781548632
 30
0.0
 40
3.40000000000002
100
AcDbArc
 50
308.4565193353
 51
351.5434806647
  0
ARC
  5
421
330
1F
100
AcDbEntity
  8
SLD-0
  6
Continuous
 62
     7
370
    18
100
AcDbCircle
 10
169.8381641376
 20
427.678159634
 30
0.0
 40
3.399999999999987
100
AcDbArc
 50
68.4565193353
 51
111.5434806647
  0
ARC
  5
422
330
1F
100
AcDbEntity
  8
SLD-0
  6
Continuous
 62
     7
370
    18
100
AcDbCircle
 10
169.8381641376
 20
427.678159634
 30
0.0
 40
3.40000000000002
100
AcDbArc
 50
128.4565193353
 51
171.5434806647
  0
ARC
  5
423
330
1F
100
AcDbEntity
  8
SLD-0
  6
Continuous
 62
     7
370
    18
100
AcDbCircle
 10
169.8381641376
 20
427.678159634
 30
0.0
 40
3.399999999999987
100
AcDbArc
 50
248.4565193353
 51
291.5434806647
  0
ARC
  5
424
330
1F
100
AcDbEntity
  8
SLD-0
  6
Continuous
 62
     7
370
    18
100
AcDbCircle
 10
169.8381641376
 20
427.678159634
 30
0.0
 40
3.400000000000011
100
AcDbArc
 50
308.4565193353
 51
351.5434806647
  0
ARC
  5
425
330
1F
100
AcDbEntity
  8
SLD-0
  6
Continuous
 62
     7
370
    18
100
AcDbCircle
 10
169.8381641376
 20
427.678159634
 30
0.0
 40
3.400000000000011
100
AcDbArc
 50
8.4565193353
 51
51.5434806647
  0
ARC
  5
426
330
1F
100
AcDbEntity
  8
SLD-0
  6
Continuous
 62
     7
370
    18
100
AcDbCircle
 10
149.8381612077
 20
471.1781546801
 30
0.0
 40
3.399999999999944
100
AcDbArc
 50
351.5434806647
 51
8.4565193353
  0
ARC
  5
427
330
1F
100
AcDbEntity
  8
SLD-0
  6
Continuous
 62
     7
370
    18
100
AcDbCircle
 10
149.8381612077
 20
471.1781546801
 30
0.0
 40
3.399999999999944
100
AcDbArc
 50
8.4565193353
 51
51.5434806647
  0
ARC
  5
428
330
1F
100
AcDbEntity
  8
SLD-0
  6
Continuous
 62
     7
370
    18
100
AcDbCircle
 10
149.8381612077
 20
471.1781546801
 30
0.0
 40
3.399999999999966
100
AcDbArc
 50
51.5434806647
 51
68.4565193353
  0
ARC
  5
429
330
1F
100
AcDbEntity
  8
SLD-0
  6
Continuous
 62
     7
370
    18
100
AcDbCircle
 10
149.8381612077
 20
471.1781546801
 30
0.0
 40
3.399999999999976
100
AcDbArc
 50
68.4565193353
 51
111.5434806647
  0
ARC
  5
42A
330
1F
100
AcDbEntity
  8
SLD-0
  6
Continuous
 62
     7
370
    18
100
AcDbCircle
 10
149.8381612077
 20
471.1781546801
 30
0.0
 40
3.399999999999976
100
AcDbArc
 50
111.5434806647
 51
128.4565193353
  0
ARC
  5
42B
330
1F
100
AcDbEntity
  8
SLD-0
  6
Continuous
 62
     7
370
    18
100
AcDbCircle
 10
149.8381612077
 20
471.1781546801
 30
0.0
 40
3.399999999999972
100
AcDbArc
 50
128.4565193353
 51
171.5434806647
  0
ARC
  5
42C
330
1F
100
AcDbEntity
  8
SLD-0
  6
Continuous
 62
     7
370
    18
100
AcDbCircle
 10
149.8381612077
 20
471.1781546801
 30
0.0
 40
3.399999999999972
100
AcDbArc
 50
171.5434806647
 51
188.4565193353
  0
ARC
  5
42D
330
1F
100
AcDbEntity
  8
SLD-0
  6
Continuous
 62
     7
370
    18
100
AcDbCircle
 10
149.8381612077
 20
471.1781546801
 30
0.0
 40
3.399999999999956
100
AcDbArc
 50
188.4565193353
 51
231.5434806647
  0
ARC
  5
42E
330
1F
100
AcDbEntity
  8
SLD-0
  6
Continuous
 62
     7
370
    18
100
AcDbCircle
 10
149.8381612077
 20
471.1781546801
 30
0.0
 40
3.399999999999949
100
AcDbArc
 50
231.5434806647
 51
248.4565193353
  0
ARC
  5
42F
330
1F
100
AcDbEntity
  8
SLD-0
  6
Continuous
 62
     7
370
    18
100
AcDbCircle
 10
149.8381612077
 20
471.1781546801
 30
0.0
 40
3.399999999999934
100
AcDbArc
 50
248.4565193353
 51
291.5434806647
  0
ARC
  5
430
330
1F
100
AcDbEntity
  8
SLD-0
  6
Continuous
 62
     7
370
    18
100
AcDbCircle
 10
149.8381612077
 20
471.1781546801
 30
0.0
 40
3.399999999999949
100
AcDbArc
 50
291.5434806647
 51
308.4565193353
  0
CIRCLE
  5
431
330
1F
100
AcDbEntity
  8
SLD-0
  6
Continuous
 62
     7
370
    18
100
AcDbCircle
 10
142.8381611368
 20
414.1781546443
 30
0.0
 40
3.749999999999972
  0
CIRCLE
  5
432
330
1F
100
AcDbEntity
  8
SLD-0
  6
Continuous
 62
     7
370
    18
100
AcDbCircle
 10
142.8381611368
 20
314.1781546443
 30
0.0
 40
3.749999999999972
  0
ARC
  5
433
330
1F
100
AcDbEntity
  8
SLD-0
  6
Continuous
 62
     7
370
    18
100
AcDbCircle
 10
169.8381641376
 20
427.678159634
 30
0.0
 40
3.399999999999993
100
AcDbArc
 50
231.5434806647
 51
248.4565193353
  0
ARC
  5
434
330
1F
100
AcDbEntity
  8
SLD-0
  6
Continuous
 62
     7
370
    18
100
AcDbCircle
 10
169.8381641376
 20
427.678159634
 30
0.0
 40
3.400000000000011
100
AcDbArc
 50
291.5434806647
 51
308.4565193353
  0
ARC
  5
435
330
1F
100
AcDbEntity
  8
SLD-0
  6
Continuous
 62
     7
370
    18
100
AcDbCircle
 10
158.8381596494
 20
378.1781560225
 30
0.0
 40
3.400000000000037
100
AcDbArc
 50
351.5434773868
 51
8.4565193353
  0
ARC
  5
436
330
1F
100
AcDbEntity
  8
SLD-0
  6
Continuous
 62
     7
370
    18
100
AcDbCircle
 10
169.8381641376
 20
427.678159634
 30
0.0
 40
3.399999999999972
100
AcDbArc
 50
351.5434806647
 51
8.4565193353
  0
ARC
  5
437
330
1F
100
AcDbEntity
  8
SLD-0
  6
Continuous
 62
     7
370
    18
100
AcDbCircle
 10
169.8381641376
 20
427.678159634
 30
0.0
 40
3.400000000000011
100
AcDbArc
 50
51.5434806647
 51
68.4565193353
  0
ARC
  5
438
330
1F
100
AcDbEntity
  8
SLD-0
  6
Continuous
 62
     7
370
    18
100
AcDbCircle
 10
169.8381641376
 20
427.678159634
 30
0.0
 40
3.400000000000011
100
AcDbArc
 50
111.5434806647
 51
128.4565193353
  0
ARC
  5
439
330
1F
100
AcDbEntity
  8
SLD-0
  6
Continuous
 62
     7
370
    18
100
AcDbCircle
 10
169.8381641376
 20
427.678159634
 30
0.0
 40
3.40000000000002
100
AcDbArc
 50
171.5434806647
 51
188.4565193353
  0
ARC
  5
43A
330
1F
100
AcDbEntity
  8
SLD-0
  6
Continuous
 62
     7
370
    18
100
AcDbCircle
 10
149.8381607991
 20
296.8781548632
 30
0.0
 40
3.40000000000003
100
AcDbArc
 50
231.5434806647
 51
248.4565193353
  0
ARC
  5
43B
330
1F
100
AcDbEntity
  8
SLD-0
  6
Continuous
 62
     7
370
    18
100
AcDbCircle
 10
149.8381607991
 20
296.8781548632
 30
0.0
 40
3.40000000000004
100
AcDbArc
 50
291.5434806647
 51
308.4565193353
  0
ARC
  5
43C
330
1F
100
AcDbEntity
  8
SLD-0
  6
Continuous
 62
     7
370
    18
100
AcDbCircle
 10
149.8381607991
 20
296.8781548632
 30
0.0
 40
3.40000000000002
100
AcDbArc
 50
351.5434806647
 51
8.4565193353
  0
ARC
  5
43D
330
1F
100
AcDbEntity
  8
SLD-0
  6
Continuous
 62
     7
370
    18
100
AcDbCircle
 10
149.8381607991
 20
296.8781548632
 30
0.0
 40
3.400000000000011
100
AcDbArc
 50
51.5434806647
 51
68.4565193353
  0
ARC
  5
43E
330
1F
100
AcDbEntity
  8
SLD-0
  6
Continuous
 62
     7
370
    18
100
AcDbCircle
 10
149.8381607991
 20
296.8781548632
 30
0.0
 40
3.400000000000011
100
AcDbArc
 50
111.5434806647
 51
128.4565193353
  0
ARC
  5
43F
330
1F
100
AcDbEntity
  8
SLD-0
  6
Continuous
 62
     7
370
    18
100
AcDbCircle
 10
149.8381607991
 20
296.8781548632
 30
0.0
 40
3.399999999999992
100
AcDbArc
 50
171.5434806647
 51
188.4565193353
  0
ARC
  5
440
330
1F
100
AcDbEntity
  8
SLD-0
  6
Continuous
 62
     7
370
    18
100
AcDbCircle
 10
158.8381596494
 20
378.1781560225
 30
0.0
 40
3.400000000000011
100
AcDbArc
 50
231.5434806647
 51
248.4565193353
  0
ARC
  5
441
330
1F
100
AcDbEntity
  8
SLD-0
  6
Continuous
 62
     7
370
    18
100
AcDbCircle
 10
158.8381596494
 20
378.1781560225
 30
0.0
 40
3.40000000000003
100
AcDbArc
 50
291.5434806647
 51
308.4565193353
  0
ARC
  5
442
330
1F
100
AcDbEntity
  8
SLD-0
  6
Continuous
 62
     7
370
    18
100
AcDbCircle
 10
158.8381596494
 20
378.1781560225
 30
0.0
 40
2.299999922460049
100
AcDbArc
 50
137.1831349719
 51
153.3629532228
  0
ARC
  5
443
330
1F
100
AcDbEntity
  8
SLD-0
  6
Continuous
 62
     7
370
    18
100
AcDbCircle
 10
169.8381641376
 20
427.678159634
 30
0.0
 40
2.299999786921267
100
AcDbArc
 50
320.8876599793
 51
337.0677017266
  0
ARC
  5
444
330
1F
100
AcDbEntity
  8
SLD-0
  6
Continuous
 62
     7
370
    18
100
AcDbCircle
 10
169.8381641376
 20
427.678159634
 30
0.0
 40
2.299997197747807
100
AcDbArc
 50
140.8879347264
 51
157.0678399618
  0
ARC
  5
445
330
1F
100
AcDbEntity
  8
SLD-0
  6
Continuous
 62
     7
370
    18
100
AcDbCircle
 10
149.8381607991
 20
296.8781548632
 30
0.0
 40
2.299999597531614
100
AcDbArc
 50
312.5558577986
 51
327.0518238352
  0
ARC
  5
446
330
1F
100
AcDbEntity
  8
SLD-0
  6
Continuous
 62
     7
370
    18
100
AcDbCircle
 10
149.8381612077
 20
471.1781546801
 30
0.0
 40
2.300000275256395
100
AcDbArc
 50
12.5558577986
 51
26.8028176798
  0
ARC
  5
447
330
1F
100
AcDbEntity
  8
SLD-0
  6
Continuous
 62
     7
370
    18
100
AcDbCircle
 10
149.8381612077
 20
471.1781546801
 30
0.0
 40
2.299999920532948
100
AcDbArc
 50
192.5558577986
 51
206.8028999136
  0
ARC
  5
448
330
1F
100
AcDbEntity
  8
SLD-0
  6
Continuous
 62
     7
370
    18
100
AcDbCircle
 10
164.3370591077
 20
292.1777020321
 30
0.0
 40
1.001104714623187
100
AcDbArc
 50
0.0259595023
 51
44.4013346909
  0
ARC
  5
449
330
1F
100
AcDbEntity
  8
SLD-0
  6
Continuous
 62
     7
370
    18
100
AcDbCircle
 10
159.3400615174
 20
292.1773799054
 30
0.0
 40
1.001899427281065
100
AcDbArc
 50
135.6173857783
 51
179.9555554506
  0
ARC
  5
44A
330
1F
100
AcDbEntity
  8
SLD-0
  6
Continuous
 62
     7
370
    18
100
AcDbCircle
 10
161.7881611368
 20
435.6281546443
 30
0.0
 40
3.750000000000032
100
AcDbArc
 50
315.5401973967
 51
0.0
  0
ARC
  5
44B
330
1F
100
AcDbEntity
  8
SLD-0
  6
Continuous
 62
     7
370
    18
100
AcDbCircle
 10
161.7881603957
 20
439.1281546443
 30
0.0
 40
3.749999258900033
100
AcDbArc
 50
0.0000000244
 51
134.4601604092
  0
ARC
  5
44C
330
1F
100
AcDbEntity
  8
SLD-0
  6
Continuous
 62
     7
370
    18
100
AcDbCircle
 10
161.7881603957
 20
392.6281546443
 30
0.0
 40
3.749999258900033
100
AcDbArc
 50
0.0000009626
 51
134.4598022033
  0
ARC
  5
44D
330
1F
100
AcDbEntity
  8
SLD-0
  6
Continuous
 62
     7
370
    18
100
AcDbCircle
 10
161.7881603957
 20
389.1281546443
 30
0.0
 40
3.749999258900004
100
AcDbArc
 50
315.5401982663
 51
0.0000002017
  0
ARC
  5
44E
330
1F
100
AcDbEntity
  8
SLD-0
  6
Continuous
 62
     7
370
    18
100
AcDbCircle
 10
156.4381611368
 20
466.4781531311
 30
0.0
 40
0.1999984868011024
100
AcDbArc
 50
89.9997313647
 51
180.0
  0
ARC
  5
44F
330
1F
100
AcDbEntity
  8
SLD-0
  6
Continuous
 62
     7
370
    18
100
AcDbCircle
 10
167.1381611368
 20
466.4781531311
 30
0.0
 40
0.1999984868132667
100
AcDbArc
 50
0.0
 51
89.9990688149
  0
ARC
  5
450
330
1F
100
AcDbEntity
  8
SLD-0
  6
Continuous
 62
     7
370
    18
100
AcDbCircle
 10
167.1381596236
 20
460.3781546443
 30
0.0
 40
0.2000000000000455
100
AcDbArc
 50
270.0
 51
0.0
  0
ARC
  5
451
330
1F
100
AcDbEntity
  8
SLD-0
  6
Continuous
 62
     7
370
    18
100
AcDbCircle
 10
163.0881662235
 20
455.5781466466
 30
0.0
 40
0.1999925968516641
100
AcDbArc
 50
269.9990435827
 51
0.003090855
  0
ARC
  5
452
330
1F
100
AcDbEntity
  8
SLD-0
  6
Continuous
 62
     7
370
    18
100
AcDbCircle
 10
160.4881527881
 20
455.5781466469
 30
0.0
 40
0.1999925973829655
100
AcDbArc
 50
179.9969092195
 51
270.003090792
  0
ARC
  5
453
330
1F
100
AcDbEntity
  8
SLD-0
  6
Continuous
 62
     7
370
    18
100
AcDbCircle
 10
161.788160553
 20
460.1781560241
 30
0.0
 40
3.849998501771973
100
AcDbArc
 50
247.0697411195
 51
292.9302403098
  0
ARC
  5
454
330
1F
100
AcDbEntity
  8
SLD-0
  6
Continuous
 62
     7
370
    18
100
AcDbCircle
 10
151.6381611368
 20
351.4727813737
 30
0.0
 40
0.3000000000000398
100
AcDbArc
 50
90.0
 51
180.0
  0
ARC
  5
455
330
1F
100
AcDbEntity
  8
SLD-0
  6
Continuous
 62
     7
370
    18
100
AcDbCircle
 10
157.0381596473
 20
351.4727822275
 30
0.0
 40
0.3000008537610423
100
AcDbArc
 50
359.99995836
 51
89.9990196122
  0
ARC
  5
456
330
1F
100
AcDbEntity
  8
SLD-0
  6
Continuous
 62
     7
370
    18
100
AcDbCircle
 10
157.0381611368
 20
346.0727820095
 30
0.0
 40
0.3000006357522494
100
AcDbArc
 50
270.0
 51
359.9996852183
  0
ARC
  5
457
330
1F
100
AcDbEntity
  8
SLD-0
  6
Continuous
 62
     7
370
    18
100
AcDbCircle
 10
151.9381611368
 20
346.3727813737
 30
0.0
 40
0.6000000000000227
100
AcDbArc
 50
180.0
 51
270.0
  0
ARC
  5
458
330
1F
100
AcDbEntity
  8
SLD-0
  6
Continuous
 62
     7
370
    18
100
AcDbCircle
 10
112.8381562486
 20
332.1781530578
 30
0.0
 40
0.9999966417256617
100
AcDbArc
 50
179.9999049147
 51
270.0003085274
  0
ARC
  5
459
330
1F
100
AcDbEntity
  8
SLD-0
  6
Continuous
 62
     7
370
    18
100
AcDbCircle
 10
112.8381603352
 20
365.1781539741
 30
0.0
 40
1.000000728350531
100
AcDbArc
 50
89.9999256187
 51
179.9999676566
  0
CIRCLE
  5
45A
330
1F
100
AcDbEntity
  8
SLD-0
  6
Continuous
 62
     7
370
    18
100
AcDbCircle
 10
172.4381611368
 20
465.1781546443
 30
0.0
 40
1.300000000000011
  0
CIRCLE
  5
45B
330
1F
100
AcDbEntity
  8
SLD-0
  6
Continuous
 62
     7
370
    18
100
AcDbCircle
 10
172.4381611368
 20
465.1781546443
 30
0.0
 40
1.599999999999994
  0
ARC
  5
45C
330
1F
100
AcDbEntity
  8
SLD-0
  6
Continuous
 62
     7
370
    18
100
AcDbCircle
 10
173.7881619
 20
437.2781548211
 30
0.0
 40
0.200000586364371
100
AcDbArc
 50
269.9990289568
 51
0.0
  0
ARC
  5
45D
330
1F
100
AcDbEntity
  8
SLD-0
  6
Continuous
 62
     7
370
    18
100
AcDbCircle
 10
173.7881624883
 20
439.0781552386
 30
0.0
 40
0.1999999980009237
100
AcDbArc
 50
359.9996383818
 51
90.0005568662
  0
ARC
  5
45E
330
1F
100
AcDbEntity
  8
SLD-0
  6
Continuous
 62
     7
370
    18
100
AcDbCircle
 10
170.6881605445
 20
439.0781546443
 30
0.0
 40
0.1999994077172573
100
AcDbArc
 50
90.0010632441
 51
180.0
  0
ARC
  5
45F
330
1F
100
AcDbEntity
  8
SLD-0
  6
Continuous
 62
     7
370
    18
100
AcDbCircle
 10
170.6881619
 20
437.2781546443
 30
0.0
 40
0.2000004095701285
100
AcDbArc
 50
180.0004332715
 51
269.9989367684
  0
ARC
  5
460
330
1F
100
AcDbEntity
  8
SLD-0
  6
Continuous
 62
     7
370
    18
100
AcDbCircle
 10
170.6881613136
 20
295.9781546443
 30
0.0
 40
0.1999998232039191
100
AcDbArc
 50
180.0005049772
 51
270.0
  0
ARC
  5
461
330
1F
100
AcDbEntity
  8
SLD-0
  6
Continuous
 62
     7
370
    18
100
AcDbCircle
 10
173.7881613136
 20
295.9781559722
 30
0.0
 40
0.199998848864386
100
AcDbArc
 50
269.99902894
 51
0.0
  0
ARC
  5
462
330
1F
100
AcDbEntity
  8
SLD-0
  6
Continuous
 62
     7
370
    18
100
AcDbCircle
 10
173.7881601645
 20
297.7781533243
 30
0.0
 40
0.1999999980015739
100
AcDbArc
 50
0.0004448244
 51
89.9993427155
  0
ARC
  5
463
330
1F
100
AcDbEntity
  8
SLD-0
  6
Continuous
 62
     7
370
    18
100
AcDbCircle
 10
170.6881624588
 20
297.7781546443
 30
0.0
 40
0.2000009684187374
100
AcDbArc
 50
90.0010632256
 51
180.0003137522
  0
ARC
  5
464
330
1F
100
AcDbEntity
  8
SLD-0
  6
Continuous
 62
     7
370
    18
100
AcDbCircle
 10
115.8359048957
 20
192.0580225423
 30
0.0
 40
0.294863886467036
100
AcDbArc
 50
180.486875983
 51
224.9383360644
  0
ARC
  5
465
330
1F
100
AcDbEntity
  8
SLD-0
  6
Continuous
 62
     7
370
    18
100
AcDbCircle
 10
115.8381613102
 20
192.653399889
 30
0.0
 40
0.3000001734256487
100
AcDbArc
 50
92.8629195041
 51
180.0
  0
ARC
  5
466
330
1F
100
AcDbEntity
  8
SLD-0
  6
Continuous
 62
     7
370
    18
100
AcDbCircle
 10
126.1523728942
 20
182.7387739073
 30
0.0
 40
1.000000000000008
100
AcDbArc
 50
225.0
 51
270.0
  0
ARC
  5
467
330
1F
100
AcDbEntity
  8
SLD-0
  6
Continuous
 62
     7
370
    18
100
AcDbCircle
 10
115.8381600795
 20
192.0630387236
 30
0.0
 40
0.2999974446725336
100
AcDbArc
 50
179.9999378338
 51
225.0008441647
  0
ARC
  5
468
330
1F
100
AcDbEntity
  8
SLD-0
  6
Continuous
 62
     7
370
    18
100
AcDbCircle
 10
159.3381611368
 20
194.9387746549
 30
0.0
 40
0.2999999999999842
100
AcDbArc
 50
90.0
 51
123.557309762
  0
ARC
  5
469
330
1F
100
AcDbEntity
  8
SLD-0
  6
Continuous
 62
     7
370
    18
100
AcDbCircle
 10
161.3381610374
 20
190.4887746549
 30
0.0
 40
1.0
100
AcDbArc
 50
180.0
 51
270.0
  0
ARC
  5
46A
330
1F
100
AcDbEntity
  8
SLD-0
  6
Continuous
 62
     7
370
    18
100
AcDbCircle
 10
169.3381610374
 20
190.4887743504
 30
0.0
 40
1.000000304502592
100
AcDbArc
 50
270.0001855523
 51
0.0
  0
ARC
  5
46B
330
1F
100
AcDbEntity
  8
SLD-0
  6
Continuous
 62
     7
370
    18
100
AcDbCircle
 10
156.4381611368
 20
195.1887746549
 30
0.0
 40
0.2000000000000171
100
AcDbArc
 50
90.0
 51
180.0
  0
ARC
  5
46C
330
1F
100
AcDbEntity
  8
SLD-0
  6
Continuous
 62
     7
370
    18
100
AcDbCircle
 10
167.1381611368
 20
195.1887739958
 30
0.0
 40
0.1999993408632669
100
AcDbArc
 50
0.0
 51
89.9990688229
  0
ARC
  5
46D
330
1F
100
AcDbEntity
  8
SLD-0
  6
Continuous
 62
     7
370
    18
100
AcDbCircle
 10
112.8381576891
 20
190.4387754452
 30
0.0
 40
0.9999980821818527
100
AcDbArc
 50
89.9997740021
 51
180.0000125547
  0
ARC
  5
46E
330
1F
100
AcDbEntity
  8
SLD-0
  6
Continuous
 62
     7
370
    18
100
AcDbCircle
 10
112.8381576891
 20
184.4387740235
 30
0.0
 40
0.9999980821538896
100
AcDbArc
 50
179.9999874465
 51
270.0002259979
  0
ARC
  5
46F
330
1F
100
AcDbEntity
  8
SLD-0
  6
Continuous
 62
     7
370
    18
100
AcDbCircle
 10
131.5381611368
 20
193.4887744248
 30
0.0
 40
1.699999925549946
100
AcDbArc
 50
90.0
 51
180.0
  0
ARC
  5
470
330
1F
100
AcDbEntity
  8
SLD-0
  6
Continuous
 62
     7
370
    18
100
AcDbCircle
 10
131.5381611368
 20
193.4887744248
 30
0.0
 40
0.199999632450016
100
AcDbArc
 50
90.0
 51
179.9999866214
  0
ARC
  5
471
330
1F
100
AcDbEntity
  8
SLD-0
  6
Continuous
 62
     7
370
    18
100
AcDbCircle
 10
297.6081627064
 20
461.1781546443
 30
0.0
 40
2.000000000000003
100
AcDbArc
 50
81.7094151916
 51
90.0
  0
ARC
  5
472
330
1F
100
AcDbEntity
  8
SLD-0
  6
Continuous
 62
     7
370
    18
100
AcDbCircle
 10
297.6081627064
 20
435.1781546443
 30
0.0
 40
2.000000000000003
100
AcDbArc
 50
270.0
 51
278.2905848084
  0
ARC
  5
473
330
1F
100
AcDbEntity
  8
SLD-0
  6
Continuous
 62
     7
370
    18
100
AcDbCircle
 10
297.5122933505
 20
462.6831682934
 30
0.0
 40
0.495010047330572
100
AcDbArc
 50
90.5913540354
 51
180.5807494614
  0
ARC
  5
474
330
1F
100
AcDbEntity
  8
SLD-0
  6
Continuous
 62
     7
370
    18
100
AcDbCircle
 10
297.5123008022
 20
433.6731454918
 30
0.0
 40
0.4950174247732071
100
AcDbArc
 50
179.4201042768
 51
269.4077922322
  0
ARC
  5
475
330
1F
100
AcDbEntity
  8
SLD-0
  6
Continuous
 62
     7
370
    18
100
AcDbCircle
 10
297.6081701426
 20
461.1781716382
 30
0.0
 40
1.9999821114059
100
AcDbArc
 50
35.6850447353
 51
81.7095557983
  0
ARC
  5
476
330
1F
100
AcDbEntity
  8
SLD-0
  6
Continuous
 62
     7
370
    18
100
AcDbCircle
 10
297.6081627064
 20
435.1781546443
 30
0.0
 40
2.000000000000019
100
AcDbArc
 50
278.2905848084
 51
324.3146216231
  0
ARC
  5
477
330
1F
100
AcDbEntity
  8
SLD-0
  6
Continuous
 62
     7
370
    18
100
AcDbCircle
 10
297.2315610385
 20
433.6781552084
 30
0.0
 40
0.5000006996339568
100
AcDbArc
 50
179.9999640628
 51
270.0000359359
  0
ARC
  5
478
330
1F
100
AcDbEntity
  8
SLD-0
  6
Continuous
 62
     7
370
    18
100
AcDbCircle
 10
297.2315555792
 20
462.6781567352
 30
0.0
 40
0.4999952404333095
100
AcDbArc
 50
89.9993384681
 51
180.0006615319
  0
ARC
  5
479
330
1F
100
AcDbEntity
  8
SLD-0
  6
Continuous
 62
     7
370
    18
100
AcDbCircle
 10
302.4815590816
 20
464.6781551032
 30
0.0
 40
4.000001555721596
100
AcDbArc
 50
215.68535612
 51
324.3146438797
  0
ARC
  5
47A
330
1F
100
AcDbEntity
  8
SLD-0
  6
Continuous
 62
     7
370
    18
100
AcDbCircle
 10
302.4815593815
 20
431.6781542652
 30
0.0
 40
3.999999817241364
100
AcDbArc
 50
35.6853214472
 51
144.3146785531
  0
ARC
  5
47B
330
1F
100
AcDbEntity
  8
SLD-0
  6
Continuous
 62
     7
370
    18
100
AcDbCircle
 10
307.3549480841
 20
461.1781677643
 30
0.0
 40
1.999984422769989
100
AcDbArc
 50
89.9997757913
 51
144.3148661828
  0
ARC
  5
47C
330
1F
100
AcDbEntity
  8
SLD-0
  6
Continuous
 62
     7
370
    18
100
AcDbCircle
 10
307.3549539218
 20
435.178149419
 30
0.0
 40
1.999995217940082
100
AcDbArc
 50
215.6852924642
 51
270.00006556
  0
ARC
  5
47D
330
1F
100
AcDbEntity
  8
SLD-0
  6
Continuous
 62
     7
370
    18
100
AcDbCircle
 10
307.7315603073
 20
433.6781549757
 30
0.0
 40
0.5000007746004269
100
AcDbArc
 50
270.0000458825
 51
0.0001005767
  0
ARC
  5
47E
330
1F
100
AcDbEntity
  8
SLD-0
  6
Continuous
 62
     7
370
    18
100
AcDbCircle
 10
307.7315617094
 20
462.6781528145
 30
0.0
 40
0.4999993725068522
100
AcDbArc
 50
359.99982572
 51
90.0001491482
  0
ARC
  5
47F
330
1F
100
AcDbEntity
  8
SLD-0
  6
Continuous
 62
     7
370
    18
100
AcDbCircle
 10
306.2315508905
 20
365.9727808926
 30
0.0
 40
0.3000077019061537
100
AcDbArc
 50
0.0000799037
 51
43.2011542772
  0
ARC
  5
480
330
1F
100
AcDbEntity
  8
SLD-0
  6
Continuous
 62
     7
370
    18
100
AcDbCircle
 10
298.8315598788
 20
365.8781546443
 30
0.0
 40
0.3000000000000114
100
AcDbArc
 50
90.0
 51
180.0
  0
ARC
  5
481
330
1F
100
AcDbEntity
  8
SLD-0
  6
Continuous
 62
     7
370
    18
100
AcDbCircle
 10
298.8315604426
 20
331.4781546443
 30
0.0
 40
0.2999994362002667
100
AcDbArc
 50
180.0001146875
 51
270.0
  0
ARC
  5
482
330
1F
100
AcDbEntity
  8
SLD-0
  6
Continuous
 62
     7
370
    18
100
AcDbCircle
 10
306.2315604426
 20
331.4781554508
 30
0.0
 40
0.2999984709012763
100
AcDbArc
 50
270.0002073929
 51
359.9998853125
  0
ARC
  5
483
330
1F
100
AcDbEntity
  8
SLD-0
  6
Continuous
 62
     7
370
    18
100
AcDbCircle
 10
306.2315595276
 20
365.8781552584
 30
0.0
 40
0.2999993859012622
100
AcDbArc
 50
0.0001451875
 51
89.9997255334
  0
CIRCLE
  5
484
330
1F
100
AcDbEntity
  8
SLD-0
  6
Continuous
 62
     7
370
    18
100
AcDbCircle
 10
302.6815600717
 20
303.178155271
 30
0.0
 40
5.000000000000007
  0
CIRCLE
  5
485
330
1F
100
AcDbEntity
  8
SLD-0
  6
Continuous
 62
     7
370
    18
100
AcDbCircle
 10
302.6815602273
 20
495.1781535118
 30
0.0
 40
4.999999999999952
  0
ARC
  5
486
330
1F
100
AcDbEntity
  8
SLD-0
  6
Continuous
 62
     7
370
    18
100
AcDbCircle
 10
297.3315598788
 20
462.7781546443
 30
0.0
 40
0.5000000000000785
100
AcDbArc
 50
90.0
 51
143.1300195714
  0
ARC
  5
487
330
1F
100
AcDbEntity
  8
SLD-0
  6
Continuous
 62
     7
370
    18
100
AcDbCircle
 10
297.3315598788
 20
433.5781546443
 30
0.0
 40
0.5000000000000654
100
AcDbArc
 50
216.8698683358
 51
270.0
  0
ARC
  5
488
330
1F
100
AcDbEntity
  8
SLD-0
  6
Continuous
 62
     7
370
    18
100
AcDbCircle
 10
297.8081627064
 20
435.0781537301
 30
0.0
 40
2.000000914150179
100
AcDbArc
 50
269.9999735895
 51
324.3146652873
  0
ARC
  5
489
330
1F
100
AcDbEntity
  8
SLD-0
  6
Continuous
 62
     7
370
    18
100
AcDbCircle
 10
302.6815606213
 20
431.5781531969
 30
0.0
 40
3.999999999998125
100
AcDbArc
 50
65.0366225192
 51
144.3146652873
  0
ARC
  5
48A
330
1F
100
AcDbEntity
  8
SLD-0
  6
Continuous
 62
     7
370
    18
100
AcDbCircle
 10
307.5549570512
 20
435.0781546443
 30
0.0
 40
2.000000000000023
100
AcDbArc
 50
240.2303468321
 51
270.0
  0
ARC
  5
48B
330
1F
100
AcDbEntity
  8
SLD-0
  6
Continuous
 62
     7
370
    18
100
AcDbCircle
 10
308.0315598788
 20
433.5781537301
 30
0.0
 40
0.5000009141515468
100
AcDbArc
 50
270.0002009241
 51
0.0
  0
ARC
  5
48C
330
1F
100
AcDbEntity
  8
SLD-0
  6
Continuous
 62
     7
370
    18
100
AcDbCircle
 10
308.0315603137
 20
462.7781537302
 30
0.0
 40
0.4999995207019765
100
AcDbArc
 50
359.999772054
 51
90.0
  0
ARC
  5
48D
330
1F
100
AcDbEntity
  8
SLD-0
  6
Continuous
 62
     7
370
    18
100
AcDbCircle
 10
307.5549574861
 20
461.2781527629
 30
0.0
 40
1.99999951200043
100
AcDbArc
 50
90.0000461002
 51
119.76965643
  0
ARC
  5
48E
330
1F
100
AcDbEntity
  8
SLD-0
  6
Continuous
 62
     7
370
    18
100
AcDbCircle
 10
302.6815598788
 20
464.7781546443
 30
0.0
 40
3.999999999999979
100
AcDbArc
 50
215.6853347127
 51
294.9633753443
  0
ARC
  5
48F
330
1F
100
AcDbEntity
  8
SLD-0
  6
Continuous
 62
     7
370
    18
100
AcDbCircle
 10
297.8081627064
 20
461.2781546443
 30
0.0
 40
2.000000000000114
100
AcDbArc
 50
35.6853347126
 51
90.0
  0
CIRCLE
  5
490
330
1F
100
AcDbEntity
  8
SLD-0
  6
Continuous
 62
     7
370
    18
100
AcDbCircle
 10
302.6815601889
 20
274.1781556521
 30
0.0
 40
5.000000000000007
  0
ARC
  5
491
330
1F
100
AcDbEntity
  8
SLD-0
  6
Continuous
 62
     7
370
    18
100
AcDbCircle
 10
299.1815700453
 20
498.6785052793
 30
0.0
 40
2.249991622736487
100
AcDbArc
 50
269.9997654239
 51
0.0002345761
  0
ARC
  5
492
330
1F
100
AcDbEntity
  8
SLD-0
  6
Continuous
 62
     7
370
    18
100
AcDbCircle
 10
302.6815602273
 20
495.1781535118
 30
0.0
 40
4.250002531366944
100
AcDbArc
 50
162.8902953277
 51
197.1096725756
  0
ARC
  5
493
330
1F
100
AcDbEntity
  8
SLD-0
  6
Continuous
 62
     7
370
    18
100
AcDbCircle
 10
299.1815516759
 20
491.6777909864
 30
0.0
 40
2.250007921321545
100
AcDbArc
 50
0.0001804647
 51
89.9998195368
  0
ARC
  5
494
330
1F
100
AcDbEntity
  8
SLD-0
  6
Continuous
 62
     7
370
    18
100
AcDbCircle
 10
302.6815602273
 20
495.1781535118
 30
0.0
 40
4.249998517060105
100
AcDbArc
 50
252.8953497831
 51
287.1046351766
  0
ARC
  5
495
330
1F
100
AcDbEntity
  8
SLD-0
  6
Continuous
 62
     7
370
    18
100
AcDbCircle
 10
306.1815753917
 20
491.6777831524
 30
0.0
 40
2.250016195645961
100
AcDbArc
 50
90.0003548681
 51
179.9995649893
  0
ARC
  5
496
330
1F
100
AcDbEntity
  8
SLD-0
  6
Continuous
 62
     7
370
    18
100
AcDbCircle
 10
302.6815602273
 20
495.1781535118
 30
0.0
 40
4.24999896499054
100
AcDbArc
 50
342.8903648937
 51
17.1096725756
  0
ARC
  5
497
330
1F
100
AcDbEntity
  8
SLD-0
  6
Continuous
 62
     7
370
    18
100
AcDbCircle
 10
306.1815672052
 20
498.6785201408
 30
0.0
 40
2.250007921371543
100
AcDbArc
 50
180.0002015495
 51
269.9998032204
  0
ARC
  5
498
330
1F
100
AcDbEntity
  8
SLD-0
  6
Continuous
 62
     7
370
    18
100
AcDbCircle
 10
302.6815602273
 20
495.1781535118
 30
0.0
 40
4.25000118495497
100
AcDbArc
 50
72.8953830478
 51
107.1046351766
  0
ARC
  5
499
330
1F
100
AcDbEntity
  8
SLD-0
  6
Continuous
 62
     7
370
    18
100
AcDbCircle
 10
306.1815754795
 20
299.6777833149
 30
0.0
 40
2.2500161956395
100
AcDbArc
 50
90.0003670396
 51
179.999586964
  0
ARC
  5
49A
330
1F
100
AcDbEntity
  8
SLD-0
  6
Continuous
 62
     7
370
    18
100
AcDbCircle
 10
302.6815600717
 20
303.178155271
 30
0.0
 40
4.249999210486769
100
AcDbArc
 50
342.8903433904
 51
17.1096725756
  0
ARC
  5
49B
330
1F
100
AcDbEntity
  8
SLD-0
  6
Continuous
 62
     7
370
    18
100
AcDbCircle
 10
306.1815670038
 20
306.6785203033
 30
0.0
 40
2.250007921321516
100
AcDbArc
 50
180.0002071666
 51
269.9998103587
  0
ARC
  5
49C
330
1F
100
AcDbEntity
  8
SLD-0
  6
Continuous
 62
     7
370
    18
100
AcDbCircle
 10
302.6815600717
 20
303.178155271
 30
0.0
 40
4.249999434699233
100
AcDbArc
 50
72.8953764304
 51
107.1046239688
  0
ARC
  5
49D
330
1F
100
AcDbEntity
  8
SLD-0
  6
Continuous
 62
     7
370
    18
100
AcDbCircle
 10
299.1815661263
 20
306.6785090139
 30
0.0
 40
2.2499966953971
100
AcDbArc
 50
269.9998945991
 51
0.0001054015
  0
ARC
  5
49E
330
1F
100
AcDbEntity
  8
SLD-0
  6
Continuous
 62
     7
370
    18
100
AcDbCircle
 10
302.6815600717
 20
303.178155271
 30
0.0
 40
4.250000368713565
100
AcDbArc
 50
162.8903300422
 51
197.1096798848
  0
ARC
  5
49F
330
1F
100
AcDbEntity
  8
SLD-0
  6
Continuous
 62
     7
370
    18
100
AcDbCircle
 10
299.1815537467
 20
299.6777911947
 30
0.0
 40
2.250007921371568
100
AcDbArc
 50
0.0001804647
 51
89.9998195368
  0
ARC
  5
4A0
330
1F
100
AcDbEntity
  8
SLD-0
  6
Continuous
 62
     7
370
    18
100
AcDbCircle
 10
302.6815600717
 20
303.178155271
 30
0.0
 40
4.249999344387249
100
AcDbArc
 50
252.8953846207
 51
287.1046351766
  0
ARC
  5
4A1
330
1F
100
AcDbEntity
  8
SLD-0
  6
Continuous
 62
     7
370
    18
100
AcDbCircle
 10
306.181566883
 20
277.6785216004
 30
0.0
 40
2.250007921321583
100
AcDbArc
 50
180.0002289434
 51
269.9998231633
  0
ARC
  5
4A2
330
1F
100
AcDbEntity
  8
SLD-0
  6
Continuous
 62
     7
370
    18
100
AcDbCircle
 10
302.6815601889
 20
274.1781556521
 30
0.0
 40
4.249999422712455
100
AcDbArc
 50
72.8953797389
 51
107.1046237307
  0
ARC
  5
4A3
330
1F
100
AcDbEntity
  8
SLD-0
  6
Continuous
 62
     7
370
    18
100
AcDbCircle
 10
299.1815713367
 20
277.6785051505
 30
0.0
 40
2.249991622727733
100
AcDbArc
 50
269.9997654239
 51
0.0002345749
  0
ARC
  5
4A4
330
1F
100
AcDbEntity
  8
SLD-0
  6
Continuous
 62
     7
370
    18
100
AcDbCircle
 10
302.6815601889
 20
274.1781556521
 30
0.0
 40
4.250000592889323
100
AcDbArc
 50
162.8903192899
 51
197.1096843303
  0
ARC
  5
4A5
330
1F
100
AcDbEntity
  8
SLD-0
  6
Continuous
 62
     7
370
    18
100
AcDbCircle
 10
299.1815537467
 20
270.6777920292
 30
0.0
 40
2.250007921321545
100
AcDbArc
 50
0.0001804647
 51
89.9998195368
  0
ARC
  5
4A6
330
1F
100
AcDbEntity
  8
SLD-0
  6
Continuous
 62
     7
370
    18
100
AcDbCircle
 10
302.6815601889
 20
274.1781556521
 30
0.0
 40
4.249998945592557
100
AcDbArc
 50
252.8953813118
 51
287.1046351766
  0
ARC
  5
4A7
330
1F
100
AcDbEntity
  8
SLD-0
  6
Continuous
 62
     7
370
    18
100
AcDbCircle
 10
306.1815754794
 20
270.6777846119
 30
0.0
 40
2.250016195645963
100
AcDbArc
 50
90.0003707944
 51
179.9995793311
  0
ARC
  5
4A8
330
1F
100
AcDbEntity
  8
SLD-0
  6
Continuous
 62
     7
370
    18
100
AcDbCircle
 10
302.6815601889
 20
274.1781556521
 30
0.0
 40
4.249998687991074
100
AcDbArc
 50
342.8903541414
 51
17.109690749
  0
ARC
  5
4A9
330
1F
100
AcDbEntity
  8
SLD-0
  6
Continuous
 62
     7
370
    18
100
AcDbCircle
 10
302.5315597672
 20
303.0781546443
 30
0.0
 40
2.749999952850033
100
AcDbArc
 50
359.9999836405
 51
180.0
  0
ARC
  5
4AA
330
1F
100
AcDbEntity
  8
SLD-0
  6
Continuous
 62
     7
370
    18
100
AcDbCircle
 10
302.5935404895
 20
495.2664992323
 30
0.0
 40
11.91198061062528
100
AcDbArc
 50
89.576629145
 51
180.0
  0
ARC
  5
4AB
330
1F
100
AcDbEntity
  8
SLD-0
  6
Continuous
 62
     7
370
    18
100
AcDbCircle
 10
302.5922202013
 20
495.0878247551
 30
0.0
 40
12.09065996577548
100
AcDbArc
 50
0.8467417103
 51
89.5766291451
  0
ARC
  5
4AC
330
1F
100
AcDbEntity
  8
SLD-0
  6
Continuous
 62
     7
370
    18
100
AcDbCircle
 10
302.5726234809
 20
274.0687192419
 30
0.0
 40
11.89106360204255
100
AcDbArc
 50
180.0
 51
270.5249053705
  0
ARC
  5
4AD
330
1F
100
AcDbEntity
  8
SLD-0
  6
Continuous
 62
     7
370
    18
100
AcDbCircle
 10
302.5705902512
 20
274.2906491835
 30
0.0
 40
12.11300285727785
100
AcDbArc
 50
270.5249053707
 51
358.9501892582
  0
INSERT
  5
4AE
330
1F
100
AcDbEntity
  8
0
  6
Continuous
 62
     7
100
AcDbBlockReference
  2
SW_NOTE_4
 10
292.5501625434
 20
264.3260557013
 30
0.0
  0
INSERT
  5
4AF
330
1F
100
AcDbEntity
  8
0
  6
Continuous
 62
     7
100
AcDbBlockReference
  2
SW_CENTERMARKSYMBOL_12
 10
302.6815598788
 20
495.1781546443
 30
0.0
  0
INSERT
  5
4B0
330
1F
100
AcDbEntity
  8
0
  6
Continuous
 62
     7
100
AcDbBlockReference
  2
SW_CENTERMARKSYMBOL_0
 10
161.8381611368
 20
414.1781546443
 30
0.0
  0
INSERT
  5
4B1
330
1F
100
AcDbEntity
  8
0
  6
Continuous
 62
     7
100
AcDbBlockReference
  2
SW_CENTERMARKSYMBOL_4
 10
161.8381611368
 20
389.1781546443
 30
0.0
  0
INSERT
  5
4B2
330
1F
100
AcDbEntity
  8
0
  6
Continuous
 62
     7
100
AcDbBlockReference
  2
SW_CENTERMARKSYMBOL_10
 10
142.8381611368
 20
414.1781546443
 30
0.0
  0
INSERT
  5
4B3
330
1F
100
AcDbEntity
  8
0
  6
Continuous
 62
     7
100
AcDbBlockReference
  2
SW_CENTERMARKSYMBOL_5
 10
161.8381611368
 20
469.1781546443
 30
0.0
  0
INSERT
  5
4B4
330
1F
100
AcDbEntity
  8
0
  6
Continuous
 62
     7
100
AcDbBlockReference
  2
SW_CENTERMARKSYMBOL_9
 10
161.8381611368
 20
414.1781546443
 30
0.0
  0
INSERT
  5
4B5
330
1F
100
AcDbEntity
  8
0
  6
Continuous
 62
     7
100
AcDbBlockReference
  2
SW_CENTERMARKSYMBOL_14
 10
302.6815598788
 20
274.1781546443
 30
0.0
  0
INSERT
  5
4B6
330
1F
100
AcDbEntity
  8
0
  6
Continuous
 62
     7
100
AcDbBlockReference
  2
SW_CENTERMARKSYMBOL_6
 10
161.8381611368
 20
460.1781546443
 30
0.0
  0
INSERT
  5
4B7
330
1F
100
AcDbEntity
  8
0
  6
Continuous
 62
     7
100
AcDbBlockReference
  2
SW_CENTERMARKSYMBOL_8
 10
161.8381611368
 20
435.6781546443
 30
0.0
  0
INSERT
  5
4B8
330
1F
100
AcDbEntity
  8
0
  6
Continuous
 62
     7
100
AcDbBlockReference
  2
SW_CENTERMARKSYMBOL_3
 10
161.8381611368
 20
392.6781546443
 30
0.0
  0
INSERT
  5
4B9
330
1F
100
AcDbEntity
  8
0
  6
Continuous
 62
     7
100
AcDbBlockReference
  2
SW_CENTERMARKSYMBOL_7
 10
161.8381611368
 20
439.1781546443
 30
0.0
  0
INSERT
  5
4BA
330
1F
100
AcDbEntity
  8
0
  6
Continuous
 62
     7
100
AcDbBlockReference
  2
SW_CENTERMARKSYMBOL_1
 10
161.8381611368
 20
322.1781546443
 30
0.0
  0
INSERT
  5
4BB
330
1F
100
AcDbEntity
  8
0
  6
Continuous
 62
     7
100
AcDbBlockReference
  2
SW_CENTERMARKSYMBOL_2
 10
161.8381611368
 20
302.1781546443
 30
0.0
  0
INSERT
  5
4BC
330
1F
100
AcDbEntity
  8
0
  6
Continuous
 62
     7
100
AcDbBlockReference
  2
SW_CENTERMARKSYMBOL_11
 10
161.7881611368
 20
392.6281546443
 30
0.0
  0
INSERT
  5
4BD
330
1F
100
AcDbEntity
  8
0
  6
Continuous
 62
     7
100
AcDbBlockReference
  2
SW_CENTERMARKSYMBOL_13
 10
302.6815598788
 20
303.1781546443
 30
0.0
  0
INSERT
  5
4C2
330
1F
100
AcDbEntity
  8
0
  6
Continuous
 62
     7
370
    18
100
AcDbBlockReference
  2
SW_HATCH_0
 10
140.6064363448
 20
320.2115587662
 30
0.0
  0
HATCH
  5
4C3
330
1F
100
AcDbEntity
  8
0
  6
Continuous
 62
     7
100
AcDbHatch
 10
0.0
 20
0.0
 30
0.0
210
0.0
220
0.0
230
1.0
  2
ANSI31
 70
     0
 71
     0
 91
        1
 92
        0
 93
        3
 72
     1
 10
136.1182503745
 20
408.7845480399
 11
136.8481215114
 21
407.7821069576
 72
     1
 10
136.8481215114
 20
407.7821069576
 11
140.5252870813
 21
411.2263562766
 72
     1
 10
140.5252870813
 20
411.2263562766
 11
136.1182503745
 21
408.7845480399
 97
        0
 75
     0
 76
     1
 52
0.0
 41
1.0
 77
     0
 78
     1
 53
45.0
 43
0.0
 44
0.0
 45
-2.245064030267288
 46
2.245064030267288
 79
     0
 98
        1
 10
0.0
 20
0.0
  0
DIMENSION
  5
4C4
330
1F
100
AcDbEntity
  8
SLD-0
 62
     7
100
AcDbDimension
  2
_D
 10
231.3997069079
 20
414.1781540509
 30
0.0
 11
231.3997065284
 21
369.6907778744
 31
0.0
 70
   160
  1
<>
 71
     2
 42
-1.0
  3
SLDDIMSTYLE0
100
AcDbAlignedDimension
 13
161.8381603519
 23
322.1781546443
 33
0.0
 14
161.8381611368
 24
414.1781546443
 34
0.0
 50
89.9999995112
100
AcDbRotatedDimension
  0
DIMENSION
  5
4D0
330
1F
100
AcDbEntity
  8
SLD-0
 62
     7
100
AcDbDimension
  2
_D_1
 10
247.9813219982
 20
291.1781546443
 30
0.0
 11
247.9813219982
 21
383.5658206979
 31
0.0
 70
   160
  1
<>
 71
     2
 42
-1.0
  3
SLDDIMSTYLE1
100
AcDbAlignedDimension
 13
170.3381611368
 23
478.1781546443
 33
0.0
 14
176.8381611368
 24
291.1781546443
 34
0.0
 50
90.0
100
AcDbRotatedDimension
  0
DIMENSION
  5
4E0
330
1F
100
AcDbEntity
  8
SLD-0
 62
     7
100
AcDbDimension
  2
_D_2
 10
231.3997065284
 20
322.1781546443
 30
0.0
 11
231.3997065284
 21
305.5803939835
 31
0.0
 70
   160
  1
<>
 71
     2
 42
-1.0
  3
SLDDIMSTYLE2
100
AcDbAlignedDimension
 13
176.8381611368
 23
291.1781546443
 33
0.0
 14
170.5381611368
 24
322.1781546443
 34
0.0
 50
90.0
100
AcDbRotatedDimension
  0
DIMENSION
  5
4EB
330
1F
100
AcDbEntity
  8
SLD-0
 62
     7
100
AcDbDimension
  2
_D_3
 10
212.858034589
 20
439.1781546443
 30
0.0
 11
212.858034589
 21
426.1379533773
 31
0.0
 70
   160
  1
<>
 71
     2
 42
-1.0
  3
SLDDIMSTYLE1
100
AcDbAlignedDimension
 13
165.6881611368
 23
389.1781546443
 33
0.0
 14
165.6881611368
 24
439.1781546443
 34
0.0
 50
90.0
100
AcDbRotatedDimension
  0
DIMENSION
  5
4F5
330
1F
100
AcDbEntity
  8
SLD-0
 62
     7
100
AcDbDimension
  2
_D_4
 10
203.6216176859
 20
389.1781546443
 30
0.0
 11
203.6216176859
 21
376.9804996894
 31
0.0
 70
   160
  1
<>
 71
     2
 42
-1.0
  3
SLDDIMSTYLE3
100
AcDbAlignedDimension
 13
165.6881611368
 23
392.6781546443
 33
0.0
 14
165.6881611368
 24
389.1781546443
 34
0.0
 50
90.0
100
AcDbRotatedDimension
  0
DIMENSION
  5
502
330
1F
100
AcDbEntity
  8
SLD-0
 62
     7
100
AcDbDimension
  2
_D_5
 10
165.5881611368
 20
383.5658206979
 30
0.0
 11
145.0388440699
 21
383.5658206979
 31
0.0
 70
   160
  1
<>
 71
     2
 42
-1.0
  3
SLDDIMSTYLE3
100
AcDbAlignedDimension
 13
158.0881611368
 23
389.1781546443
 33
0.0
 14
165.5881611368
 24
389.1781546443
 34
0.0
100
AcDbRotatedDimension
  0
DIMENSION
  5
50E
330
1F
100
AcDbEntity
  8
SLD-0
 62
     7
100
AcDbDimension
  2
_D_6
 10
176.3207003835
 20
478.1781546443
 30
0.0
 11
176.3207003835
 21
491.8302301941
 31
0.0
 70
   160
  1
<>
 71
     2
 42
-1.0
  3
SLDDIMSTYLE1
100
AcDbAlignedDimension
 13
129.8381611368
 23
507.1781546443
 33
0.0
 14
176.8381611368
 24
478.1781546443
 34
0.0
 50
90.0
100
AcDbRotatedDimension
  0
DIMENSION
  5
517
330
1F
100
AcDbEntity
  8
SLD-0
 62
     7
100
AcDbDimension
  2
_D_7
 10
99.5963516407
 20
463.1781546443
 30
0.0
 11
99.5963516407
 21
455.4015336018
 31
0.0
 70
   160
  1
<>
 71
     2
 42
-1.0
  3
SLDDIMSTYLE1
100
AcDbAlignedDimension
 13
116.0381611368
 23
433.1781546443
 33
0.0
 14
116.0381611368
 24
463.1781546443
 34
0.0
 50
90.0
100
AcDbRotatedDimension
  0
DIMENSION
  5
521
330
1F
100
AcDbEntity
  8
SLD-0
 62
     7
100
AcDbDimension
  2
_D_8
 10
81.8381611368
 20
448.1781546443
 30
0.0
 11
81.8381611368
 21
433.8547824122
 31
0.0
 70
   160
  1
<>
 71
     2
 42
-1.0
  3
SLDDIMSTYLE1
100
AcDbAlignedDimension
 13
136.1399306342
 23
414.1781546443
 33
0.0
 14
135.8951142342
 24
448.1781546443
 34
0.0
 50
90.0
100
AcDbRotatedDimension
  0
DIMENSION
  5
52D
330
1F
100
AcDbEntity
  8
SLD-0
 62
     7
100
AcDbDimension
  2
_D_9
 10
99.6518306063
 20
433.1990556499
 30
0.0
 11
99.6518306063
 21
396.9404140539
 31
0.0
 70
   160
  1
<>
 71
     2
 42
-1.0
  3
SLDDIMSTYLE1
100
AcDbAlignedDimension
 13
112.8381611368
 23
366.1781546443
 33
0.0
 14
116.0381611368
 24
433.1990556499
 34
0.0
 50
90.0
100
AcDbRotatedDimension
  0
DIMENSION
  5
537
330
1F
100
AcDbEntity
  8
SLD-0
 62
     7
100
AcDbDimension
  2
_D_10
 10
161.8381611368
 20
256.3819478479
 30
0.0
 11
186.0225866855
 21
256.3819478479
 31
0.0
 70
   160
  1
<>
 71
     2
 42
-1.0
  3
SLDDIMSTYLE1
100
AcDbAlignedDimension
 13
176.8381611368
 23
291.1781546443
 33
0.0
 14
161.8381611368
 24
284.2873780712
 34
0.0
100
AcDbRotatedDimension
  0
DIMENSION
  5
542
330
1F
100
AcDbEntity
  8
SLD-0
 62
     7
100
AcDbDimension
  2
_D_11
 10
231.3997065284
 20
460.3781546443
 30
0.0
 11
231.3997065284
 21
438.2508437742
 31
0.0
 70
   160
  1
<>
 71
     2
 42
-1.0
  3
SLDDIMSTYLE2
100
AcDbAlignedDimension
 13
170.3881611368
 23
414.1781546443
 33
0.0
 14
157.9381611368
 24
460.3781546443
 34
0.0
 50
90.0
100
AcDbRotatedDimension
  0
DIMENSION
  5
54C
330
1F
100
AcDbEntity
  8
SLD-0
 62
     7
100
AcDbDimension
  2
_D_12
 10
150.5461698465
 20
410.1281546443
 30
0.0
 11
150.5461698465
 21
430.1961913286
 31
0.0
 70
   160
  1
{\fGDT;o}<>*
 71
     2
 42
-1.0
  3
SLDDIMSTYLE1
100
AcDbAlignedDimension
 13
157.7881611368
 23
418.2281546443
 33
0.0
 14
163.4881611368
 24
410.1281546443
 34
0.0
 50
90.0
100
AcDbRotatedDimension
  0
DIMENSION
  5
55D
330
1F
100
AcDbEntity
  8
SLD-0
 62
     7
100
AcDbDimension
  2
_D_13
 10
126.8381611368
 20
256.3819478479
 30
0.0
 11
143.7186338161
 21
256.3819478479
 31
0.0
 70
   160
  1
Dm<>
 71
     2
 42
-1.0
  3
SLDDIMSTYLE4
100
AcDbAlignedDimension
 13
161.8381611368
 23
313.4781546443
 33
0.0
 14
126.8381611368
 24
262.1781546443
 34
0.0
100
AcDbRotatedDimension
  0
DIMENSION
  5
568
330
1F
100
AcDbEntity
  8
SLD-0
 62
     7
100
AcDbDimension
  2
_D_14
 10
99.6518306063
 20
366.1781546443
 30
0.0
 11
99.6518306063
 21
351.7457381854
 31
0.0
 70
   160
  1
<>
 71
     2
 42
-1.0
  3
SLDDIMSTYLE1
100
AcDbAlignedDimension
 13
112.8381611368
 23
331.1781546443
 33
0.0
 14
112.8381611368
 24
366.1781546443
 34
0.0
 50
90.0
100
AcDbRotatedDimension
  0
DIMENSION
  5
572
330
1F
100
AcDbEntity
  8
SLD-0
 62
     7
100
AcDbDimension
  2
_D_15
 10
111.8381611368
 20
317.5291953113
 30
0.0
 11
118.1872701179
 21
317.5291953113
 31
0.0
 70
   160
  1
<>
 71
     2
 42
-1.0
  3
SLDDIMSTYLE1
100
AcDbAlignedDimension
 13
126.8381611368
 23
262.1781546443
 33
0.0
 14
111.8381611368
 24
332.1781546443
 34
0.0
100
AcDbRotatedDimension
  0
DIMENSION
  5
57D
330
1F
100
AcDbEntity
  8
SLD-0
 62
     7
100
AcDbDimension
  2
_D_16
 10
99.5963516407
 20
507.1781546443
 30
0.0
 11
99.5963516407
 21
486.2572840814
 31
0.0
 70
   160
  1
<>
 71
     2
 42
-1.0
  3
SLDDIMSTYLE1
100
AcDbAlignedDimension
 13
116.0381611368
 23
463.1781546443
 33
0.0
 14
126.8381611368
 24
507.1781546443
 34
0.0
 50
90.0
100
AcDbRotatedDimension
  0
DIMENSION
  5
587
330
1F
100
AcDbEntity
  8
SLD-0
 62
     7
100
AcDbDimension
  2
_D_17
 10
111.8381611368
 20
187.4387746549
 30
0.0
 11
142.2747957119
 21
158.4956426532
 31
0.0
 70
   162
  1
<>
 71
     1
 42
-1.0
  3
SLDDIMSTYLE5
100
AcDb2LineAngularDimension
 13
129.8381611368
 23
175.2887746549
 33
0.0
 14
129.8381611368
 24
199.2887746549
 34
0.0
 15
169.8839262856
 25
187.4387746549
 35
0.0
 16
153.298788706
 26
163.9781470857
 36
0.0
  0
DIMENSION
  5
591
330
1F
100
AcDbEntity
  8
SLD-0
 62
     7
100
AcDbDimension
  2
_D_18
 10
218.4309289145
 20
196.1887746549
 30
0.0
 11
218.4309289145
 21
212.6518651468
 31
0.0
 70
   160
  1
<>
 71
     2
 42
-1.0
  3
SLDDIMSTYLE3
100
AcDbAlignedDimension
 13
172.9381611368
 23
179.7887746549
 33
0.0
 14
174.3881611368
 24
196.1887746549
 34
0.0
 50
90.0
100
AcDbRotatedDimension
  0
DIMENSION
  5
59C
330
1F
100
AcDbEntity
  8
SLD-0
 62
     7
100
AcDbDimension
  2
_D_19
 10
201.9750792825
 20
195.1887746549
 30
0.0
 11
201.9750792825
 21
206.3101860008
 31
0.0
 70
   160
  1
<>
 71
     2
 42
-1.0
  3
SLDDIMSTYLE3
100
AcDbAlignedDimension
 13
176.8381611368
 23
193.6887746549
 33
0.0
 14
176.8381611368
 24
195.1887746549
 34
0.0
 50
90.0
100
AcDbRotatedDimension
  0
DIMENSION
  5
5A8
330
1F
100
AcDbEntity
  8
SLD-0
 62
     7
100
AcDbDimension
  2
_D_20
 10
129.8381611368
 20
207.465251502
 30
0.0
 11
128.4477640531
 21
207.465251502
 31
0.0
 70
   160
  1
<>
 71
     2
 42
-1.0
  3
SLDDIMSTYLE1
100
AcDbAlignedDimension
 13
126.8381611368
 23
199.2887746549
 33
0.0
 14
129.8381611368
 24
199.2887746549
 34
0.0
100
AcDbRotatedDimension
  0
DIMENSION
  5
5B4
330
1F
100
AcDbEntity
  8
SLD-0
 62
     7
100
AcDbDimension
  2
_D_21
 10
290.6815598788
 20
238.4890621893
 30
0.0
 11
345.3343030662
 21
238.4890621893
 31
0.0
 70
   160
  1
16.20.22.<>
 71
     2
 42
-1.0
  3
SLDDIMSTYLE1
100
AcDbAlignedDimension
 13
314.6815598788
 23
262.1781546443
 33
0.0
 14
290.6815598788
 24
262.1781546443
 34
0.0
100
AcDbRotatedDimension
  0
DIMENSION
  5
5BF
330
1F
100
AcDbEntity
  8
SLD-0
 62
     7
100
AcDbDimension
  2
_D_22
 10
362.6815598788
 20
507.1781546443
 30
0.0
 11
362.6815598788
 21
380.9835586669
 31
0.0
 70
   160
  1
<>
 71
     2
 42
-1.0
  3
SLDDIMSTYLE1
100
AcDbAlignedDimension
 13
314.6815598788
 23
262.1781546443
 33
0.0
 14
314.6815598788
 24
507.1781546443
 34
0.0
 50
90.0
100
AcDbRotatedDimension
  0
DIMENSION
  5
5C9
330
1F
100
AcDbEntity
  8
SLD-0
 62
     7
100
AcDbDimension
  2
_D_23
 10
345.3343030662
 20
274.1781546443
 30
0.0
 11
345.3343030662
 21
380.9835586669
 31
0.0
 70
   160
  1
<>
 71
     2
 42
-1.0
  3
SLDDIMSTYLE1
100
AcDbAlignedDimension
 13
307.7815598788
 23
495.1781546443
 33
0.0
 14
307.7815598788
 24
274.1781546443
 34
0.0
 50
90.0
100
AcDbRotatedDimension
  0
DIMENSION
  5
5D3
330
1F
100
AcDbEntity
  8
SLD-0
 62
     7
100
AcDbDimension
  2
_D_24
 10
298.5315598788
 20
375.5765390917
 30
0.0
 11
282.3319156322
 21
375.5765390917
 31
0.0
 70
   160
  1
<>
 71
     2
 42
-1.0
  3
SLDDIMSTYLE1
100
AcDbAlignedDimension
 13
306.5315598788
 23
365.8781546443
 33
0.0
 14
298.5315598788
 24
365.8781546443
 34
0.0
100
AcDbRotatedDimension
  0
DIMENSION
  5
5DF
330
1F
100
AcDbEntity
  8
SLD-0
 62
     7
100
AcDbDimension
  2
_D_25
 10
274.649599189
 20
507.1781546443
 30
0.0
 11
274.649599189
 21
404.8942445203
 31
0.0
 70
   160
  1
<>
 71
     2
 42
-1.0
  3
SLDDIMSTYLE1
100
AcDbAlignedDimension
 13
297.5815598788
 23
303.1781546443
 33
0.0
 14
290.6815598788
 24
507.1781546443
 34
0.0
 50
90.0
100
AcDbRotatedDimension
  0
DIMENSION
  5
5E9
330
1F
100
AcDbEntity
  8
SLD-0
 62
     7
100
AcDbDimension
  2
_D_26
 10
296.7315598788
 20
423.6995784062
 30
0.0
 11
327.4246173453
 21
423.6995784062
 31
0.0
 70
   160
  1
<>
 71
     2
 42
-1.0
  3
SLDDIMSTYLE3
100
AcDbAlignedDimension
 13
308.2315598788
 23
433.6781546443
 33
0.0
 14
296.7315598788
 24
433.6781546443
 34
0.0
100
AcDbRotatedDimension
  0
DIMENSION
  5
5F5
330
1F
100
AcDbEntity
  8
SLD-0
 62
     7
100
AcDbDimension
  2
_D_27
 10
336.4615145997
 20
507.1781546443
 30
0.0
 11
336.4615145997
 21
486.3930531087
 31
0.0
 70
   160
  1
<>
 71
     2
 42
-1.0
  3
SLDDIMSTYLE1
100
AcDbAlignedDimension
 13
307.7815598788
 23
495.1781546443
 33
0.0
 14
314.6815598788
 24
507.1781546443
 34
0.0
 50
90.0
100
AcDbRotatedDimension
  0
MTEXT
  5
602
330
1F
100
AcDbEntity
  8
SLD-0
 62
     7
100
AcDbMText
 10
48.0381536166
 20
381.3696189981
 30
0.0
 40
7.0
 41
0.0
 71
     1
 72
     1
  1
ab DM 35
  7
SLDTEXTSTYLE4
 73
     1
 44
1.0
  0
ENDSEC
  0
SECTION
  2
OBJECTS
  0
DICTIONARY
  5
C
330
0
100
AcDbDictionary
281
     1
  3
ACAD_GROUP
350
D
  3
ACAD_LAYOUT
350
1A
  3
ACAD_MLINESTYLE
350
17
  3
ACAD_PLOTSETTINGS
350
19
  3
ACAD_PLOTSTYLENAME
350
E
  3
ACAD_SCALELIST
350
47
  0
DICTIONARY
  5
D
102
{ACAD_REACTORS
330
C
102
}
330
C
100
AcDbDictionary
281
     1
  0
DICTIONARY
  5
1A
102
{ACAD_REACTORS
330
C
102
}
330
C
100
AcDbDictionary
281
     1
  3
Layout1
350
1E
  3
Layout2
350
26
  3
Model
350
22
  0
DICTIONARY
  5
17
102
{ACAD_REACTORS
330
C
102
}
330
C
100
AcDbDictionary
281
     1
  3
Standard
350
18
  0
DICTIONARY
  5
19
102
{ACAD_REACTORS
330
C
102
}
330
C
100
AcDbDictionary
281
     1
  0
ACDBDICTIONARYWDFLT
  5
E
102
{ACAD_REACTORS
330
C
102
}
330
C
100
AcDbDictionary
281
     1
  3
Normal
350
F
100
AcDbDictionaryWithDefault
340
F
  0
DICTIONARY
  5
47
102
{ACAD_REACTORS
330
C
102
}
330
C
100
AcDbDictionary
281
     1
  3
A0
350
48
  3
A1
350
49
  3
A2
350
4A
  3
A3
350
4B
  3
A4
350
4C
  3
A5
350
4D
  3
A6
350
4E
  3
A7
350
4F
  3
A8
350
50
  3
A9
350
51
  3
B0
350
52
  3
B1
350
53
  3
B2
350
54
  3
B3
350
55
  3
B4
350
56
  3
B5
350
57
  3
B6
350
58
  3
B7
350
59
  3
B8
350
5A
  3
B9
350
5B
  3
C0
350
5C
  3
C1
350
5D
  3
C2
350
5E
  3
C3
350
5F
  3
C4
350
60
  3
C5
350
61
  3
C6
350
62
  3
C7
350
63
  3
C8
350
64
  3
C9
350
65
  3
D0
350
66
  3
D1
350
67
  3
D2
350
68
  0
LAYOUT
  5
1E
102
{ACAD_REACTORS
330
1A
102
}
330
1A
100
AcDbPlotSettings
  1

  2
none_device
  4

  6

 40
0.0
 41
0.0
 42
0.0
 43
0.0
 44
0.0
 45
0.0
 46
0.0
 47
0.0
 48
0.0
 49
0.0
140
0.0
141
0.0
142
1.0
143
1.0
 70
   688
 72
     1
 73
     0
 74
     5
  7

 75
    16
147
1.0
148
0.0
149
0.0
100
AcDbLayout
  1
Layout1
 70
     1
 71
     1
 10
0.0
 20
0.0
 11
420.0
 21
297.0
 12
0.0
 22
0.0
 32
0.0
 14
1.0000000000E+20
 24
1.0000000000E+20
 34
1.0000000000E+20
 15
-1.0000000000E+20
 25
-1.0000000000E+20
 35
-1.0000000000E+20
146
0.0
 13
0.0
 23
0.0
 33
0.0
 16
1.0
 26
0.0
 36
0.0
 17
0.0
 27
1.0
 37
0.0
 76
     0
330
1B
  0
LAYOUT
  5
26
102
{ACAD_REACTORS
330
1A
102
}
330
1A
100
AcDbPlotSettings
  1

  2
none_device
  4

  6

 40
0.0
 41
0.0
 42
0.0
 43
0.0
 44
0.0
 45
0.0
 46
0.0
 47
0.0
 48
0.0
 49
0.0
140
0.0
141
0.0
142
1.0
143
1.0
 70
   688
 72
     1
 73
     0
 74
     5
  7

 75
    16
147
1.0
148
0.0
149
0.0
100
AcDbLayout
  1
Layout2
 70
     1
 71
     2
 10
0.0
 20
0.0
 11
0.0
 21
0.0
 12
0.0
 22
0.0
 32
0.0
 14
0.0
 24
0.0
 34
0.0
 15
0.0
 25
0.0
 35
0.0
146
0.0
 13
0.0
 23
0.0
 33
0.0
 16
1.0
 26
0.0
 36
0.0
 17
0.0
 27
1.0
 37
0.0
 76
     0
330
23
  0
LAYOUT
  5
22
102
{ACAD_REACTORS
330
1A
102
}
330
1A
100
AcDbPlotSettings
  1

  2
none_device
  4
Letter_(8.50_x_11.00_Inches)
  6

 40
6.35
 41
6.35
 42
6.35000508
 43
6.35000508
 44
215.9
 45
279.4
 46
0.0
 47
0.0
 48
0.0
 49
0.0
140
0.0
141
0.0
142
1.0
143
1.0
 70
  1712
 72
     1
 73
     0
 74
     0
  7

 75
     0
147
1.0
148
0.0
149
0.0
100
AcDbLayout
  1
Model
 70
     1
 71
     0
 10
0.0
 20
0.0
 11
841.0
 21
594.0
 12
0.0
 22
0.0
 32
0.0
 14
0.0
 24
0.0
 34
0.0
 15
841.0
 25
594.0
 35
0.0
146
0.0
 13
0.0
 23
0.0
 33
0.0
 16
1.0
 26
0.0
 36
0.0
 17
0.0
 27
1.0
 37
0.0
 76
     0
330
1F
331
29
  0
MLINESTYLE
  5
18
102
{ACAD_REACTORS
330
17
102
}
330
17
100
AcDbMlineStyle
  2
Standard
 70
     0
  3

 62
   256
 51
90.0
 52
90.0
 71
     2
 49
0.5
 62
   256
  6
BYLAYER
 49
-0.5
 62
   256
  6
BYLAYER
  0
ACDBPLACEHOLDER
  5
F
102
{ACAD_REACTORS
330
E
102
}
330
E
  0
SCALE
  5
48
102
{ACAD_REACTORS
330
47
102
}
330
47
100
AcDbScale
 70
     0
300
1:1
140
1.0
141
1.0
290
     1
  0
SCALE
  5
49
102
{ACAD_REACTORS
330
47
102
}
330
47
100
AcDbScale
 70
     0
300
1:2
140
1.0
141
2.0
290
     0
  0
SCALE
  5
4A
102
{ACAD_REACTORS
330
47
102
}
330
47
100
AcDbScale
 70
     0
300
1:4
140
1.0
141
4.0
290
     0
  0
SCALE
  5
4B
102
{ACAD_REACTORS
330
47
102
}
330
47
100
AcDbScale
 70
     0
300
1:5
140
1.0
141
5.0
290
     0
  0
SCALE
  5
4C
102
{ACAD_REACTORS
330
47
102
}
330
47
100
AcDbScale
 70
     0
300
1:8
140
1.0
141
8.0
290
     0
  0
SCALE
  5
4D
102
{ACAD_REACTORS
330
47
102
}
330
47
100
AcDbScale
 70
     0
300
1:10
140
1.0
141
10.0
290
     0
  0
SCALE
  5
4E
102
{ACAD_REACTORS
330
47
102
}
330
47
100
AcDbScale
 70
     0
300
1:16
140
1.0
141
16.0
290
     0
  0
SCALE
  5
4F
102
{ACAD_REACTORS
330
47
102
}
330
47
100
AcDbScale
 70
     0
300
1:20
140
1.0
141
20.0
290
     0
  0
SCALE
  5
50
102
{ACAD_REACTORS
330
47
102
}
330
47
100
AcDbScale
 70
     0
300
1:30
140
1.0
141
30.0
290
     0
  0
SCALE
  5
51
102
{ACAD_REACTORS
330
47
102
}
330
47
100
AcDbScale
 70
     0
300
1:40
140
1.0
141
40.0
290
     0
  0
SCALE
  5
52
102
{ACAD_REACTORS
330
47
102
}
330
47
100
AcDbScale
 70
     0
300
1:50
140
1.0
141
50.0
290
     0
  0
SCALE
  5
53
102
{ACAD_REACTORS
330
47
102
}
330
47
100
AcDbScale
 70
     0
300
1:100
140
1.0
141
100.0
290
     0
  0
SCALE
  5
54
102
{ACAD_REACTORS
330
47
102
}
330
47
100
AcDbScale
 70
     0
300
2:1
140
2.0
141
1.0
290
     0
  0
SCALE
  5
55
102
{ACAD_REACTORS
330
47
102
}
330
47
100
AcDbScale
 70
     0
300
4:1
140
4.0
141
1.0
290
     0
  0
SCALE
  5
56
102
{ACAD_REACTORS
330
47
102
}
330
47
100
AcDbScale
 70
     0
300
8:1
140
8.0
141
1.0
290
     0
  0
SCALE
  5
57
102
{ACAD_REACTORS
330
47
102
}
330
47
100
AcDbScale
 70
     0
300
10:1
140
10.0
141
1.0
290
     0
  0
SCALE
  5
58
102
{ACAD_REACTORS
330
47
102
}
330
47
100
AcDbScale
 70
     0
300
100:1
140
100.0
141
1.0
290
     0
  0
SCALE
  5
59
102
{ACAD_REACTORS
330
47
102
}
330
47
100
AcDbScale
 70
     0
300
1/128" = 1'-0"
140
0.0078125
141
12.0
290
     0
  0
SCALE
  5
5A
102
{ACAD_REACTORS
330
47
102
}
330
47
100
AcDbScale
 70
     0
300
1/64" = 1'-0"
140
0.015625
141
12.0
290
     0
  0
SCALE
  5
5B
102
{ACAD_REACTORS
330
47
102
}
330
47
100
AcDbScale
 70
     0
300
1/32" = 1'-0"
140
0.03125
141
12.0
290
     0
  0
SCALE
  5
5C
102
{ACAD_REACTORS
330
47
102
}
330
47
100
AcDbScale
 70
     0
300
1/16" = 1'-0"
140
0.0625
141
12.0
290
     0
  0
SCALE
  5
5D
102
{ACAD_REACTORS
330
47
102
}
330
47
100
AcDbScale
 70
     0
300
3/32" = 1'-0"
140
0.09375
141
12.0
290
     0
  0
SCALE
  5
5E
102
{ACAD_REACTORS
330
47
102
}
330
47
100
AcDbScale
 70
     0
300
1/8" = 1'-0"
140
0.125
141
12.0
290
     0
  0
SCALE
  5
5F
102
{ACAD_REACTORS
330
47
102
}
330
47
100
AcDbScale
 70
     0
300
3/16" = 1'-0"
140
0.1875
141
12.0
290
     0
  0
SCALE
  5
60
102
{ACAD_REACTORS
330
47
102
}
330
47
100
AcDbScale
 70
     0
300
1/4" = 1'-0"
140
0.25
141
12.0
290
     0
  0
SCALE
  5
61
102
{ACAD_REACTORS
330
47
102
}
330
47
100
AcDbScale
 70
     0
300
3/8" = 1'-0"
140
0.375
141
12.0
290
     0
  0
SCALE
  5
62
102
{ACAD_REACTORS
330
47
102
}
330
47
100
AcDbScale
 70
     0
300
1/2" = 1'-0"
140
0.5
141
12.0
290
     0
  0
SCALE
  5
63
102
{ACAD_REACTORS
330
47
102
}
330
47
100
AcDbScale
 70
     0
300
3/4" = 1'-0"
140
0.75
141
12.0
290
     0
  0
SCALE
  5
64
102
{ACAD_REACTORS
330
47
102
}
330
47
100
AcDbScale
 70
     0
300
1" = 1'-0"
140
1.0
141
12.0
290
     0
  0
SCALE
  5
65
102
{ACAD_REACTORS
330
47
102
}
330
47
100
AcDbScale
 70
     0
300
1-1/2" = 1'-0"
140
1.5
141
12.0
290
     0
  0
SCALE
  5
66
102
{ACAD_REACTORS
330
47
102
}
330
47
100
AcDbScale
 70
     0
300
3" = 1'-0"
140
3.0
141
12.0
290
     0
  0
SCALE
  5
67
102
{ACAD_REACTORS
330
47
102
}
330
47
100
AcDbScale
 70
     0
300
6" = 1'-0"
140
6.0
141
12.0
290
     0
  0
SCALE
  5
68
102
{ACAD_REACTORS
330
47
102
}
330
47
100
AcDbScale
 70
     0
300
1'-0" = 1'-0"
140
12.0
141
12.0
290
     0
  0
ENDSEC
  0
EOF
