  0
SECTION
  2
HEADER
  9
$ACADVER
  1
AC1015
  9
$ACADMAINTVER
 70
     6
  9
$DWGCODEPAGE
  3
ANSI_1252
  9
$INSBASE
 10
0.0
 20
0.0
 30
0.0
  9
$EXTMIN
 10
0.0
 20
0.0
 30
0.0
  9
$EXTMAX
 10
420.0
 20
297.0
 30
0.0
  9
$LIMMIN
 10
0.0
 20
0.0
  9
$LIMMAX
 10
420.0
 20
297.0
  9
$ORTHOMODE
 70
     0
  9
$REGENMODE
 70
     1
  9
$FILLMODE
 70
     1
  9
$QTEXTMODE
 70
     0
  9
$MIRRTEXT
 70
     1
  9
$LTSCALE
 40
1.0
  9
$ATTMODE
 70
     1
  9
$TEXTSIZE
 40
3.5
  9
$TRACEWID
 40
1.0
  9
$TEXTSTYLE
  7
Standard
  9
$CLAYER
  8
0
  9
$CELTYPE
  6
ByLayer
  9
$CECOLOR
 62
   256
  9
$CELTSCALE
 40
1.0
  9
$DISPSILH
 70
     0
  9
$DIMSCALE
 40
1.0
  9
$DIMASZ
 40
3.302
  9
$DIMEXO
 40
1.0
  9
$DIMDLI
 40
3.75
  9
$DIMRND
 40
0.0
  9
$DIMDLE
 40
0.0
  9
$DIMEXE
 40
1.0
  9
$DIMTP
 40
0.0
  9
$DIMTM
 40
0.0
  9
$DIMTXT
 40
3.5
  9
$DIMCEN
 40
2.5
  9
$DIMTSZ
 40
0.0
  9
$DIMTOL
 70
     0
  9
$DIMLIM
 70
     0
  9
$DIMTIH
 70
     1
  9
$DIMTOH
 70
     1
  9
$DIMSE1
 70
     0
  9
$DIMSE2
 70
     0
  9
$DIMTAD
 70
     1
  9
$DIMZIN
 70
     1
  9
$DIMBLK
  1

  9
$DIMASO
 70
     1
  9
$DIMSHO
 70
     1
  9
$DIMPOST
  1

  9
$DIMAPOST
  1

  9
$DIMALT
 70
     0
  9
$DIMALTD
 70
     3
  9
$DIMALTF
 40
0.0393700787
  9
$DIMLFAC
 40
1.0
  9
$DIMTOFL
 70
     1
  9
$DIMTVP
 40
0.0
  9
$DIMTIX
 70
     0
  9
$DIMSOXD
 70
     0
  9
$DIMSAH
 70
     0
  9
$DIMBLK1
  1

  9
$DIMBLK2
  1

  9
$DIMSTYLE
  2
ISO-25
  9
$DIMCLRD
 70
     0
  9
$DIMCLRE
 70
     0
  9
$DIMCLRT
 70
     0
  9
$DIMTFAC
 40
1.0
  9
$DIMGAP
 40
1.524
  9
$DIMJUST
 70
     0
  9
$DIMSD1
 70
     0
  9
$DIMSD2
 70
     0
  9
$DIMTOLJ
 70
     0
  9
$DIMTZIN
 70
     1
  9
$DIMALTZ
 70
     0
  9
$DIMALTTZ
 70
     0
  9
$DIMUPT
 70
     0
  9
$DIMDEC
 70
     0
  9
$DIMTDEC
 70
     2
  9
$DIMALTU
 70
     2
  9
$DIMALTTD
 70
     3
  9
$DIMTXSTY
  7
Standard
  9
$DIMAUNIT
 70
     0
  9
$DIMADEC
 70
     0
  9
$DIMALTRND
 40
0.0
  9
$DIMAZIN
 70
     0
  9
$DIMDSEP
 70
    44
  9
$DIMATFIT
 70
     3
  9
$DIMFRAC
 70
     0
  9
$DIMLDRBLK
  1

  9
$DIMLUNIT
 70
     2
  9
$DIMLWD
 70
    -2
  9
$DIMLWE
 70
    -2
  9
$DIMTMOVE
 70
     0
  9
$LUNITS
 70
     2
  9
$LUPREC
 70
     2
  9
$SKETCHINC
 40
1.0
  9
$FILLETRAD
 40
10.0
  9
$AUNITS
 70
     0
  9
$AUPREC
 70
     2
  9
$MENU
  1
.
  9
$ELEVATION
 40
0.0
  9
$PELEVATION
 40
0.0
  9
$THICKNESS
 40
0.0
  9
$LIMCHECK
 70
     0
  9
$CHAMFERA
 40
0.0
  9
$CHAMFERB
 40
0.0
  9
$CHAMFERC
 40
0.0
  9
$CHAMFERD
 40
0.0
  9
$SKPOLY
 70
     0
  9
$TDCREATE
 40
2459261.641924062
  9
$TDUCREATE
 40
2459261.600257396
  9
$TDUPDATE
 40
2459261.641925752
  9
$TDUUPDATE
 40
2459261.600259086
  9
$TDINDWG
 40
0.0000000116
  9
$TDUSRTIMER
 40
0.0000000116
  9
$USRTIMER
 70
     1
  9
$ANGBASE
 50
0.0
  9
$ANGDIR
 70
     0
  9
$PDMODE
 70
     0
  9
$PDSIZE
 40
-1.0
  9
$PLINEWID
 40
0.0
  9
$SPLFRAME
 70
     0
  9
$SPLINETYPE
 70
     6
  9
$SPLINESEGS
 70
     8
  9
$HANDSEED
  5
3C3
  9
$SURFTAB1
 70
     6
  9
$SURFTAB2
 70
     6
  9
$SURFTYPE
 70
     6
  9
$SURFU
 70
     6
  9
$SURFV
 70
     6
  9
$UCSBASE
  2

  9
$UCSNAME
  2

  9
$UCSORG
 10
0.0
 20
0.0
 30
0.0
  9
$UCSXDIR
 10
1.0
 20
0.0
 30
0.0
  9
$UCSYDIR
 10
0.0
 20
1.0
 30
0.0
  9
$UCSORTHOREF
  2

  9
$UCSORTHOVIEW
 70
     0
  9
$UCSORGTOP
 10
0.0
 20
0.0
 30
0.0
  9
$UCSORGBOTTOM
 10
0.0
 20
0.0
 30
0.0
  9
$UCSORGLEFT
 10
0.0
 20
0.0
 30
0.0
  9
$UCSORGRIGHT
 10
0.0
 20
0.0
 30
0.0
  9
$UCSORGFRONT
 10
0.0
 20
0.0
 30
0.0
  9
$UCSORGBACK
 10
0.0
 20
0.0
 30
0.0
  9
$PUCSBASE
  2

  9
$PUCSNAME
  2

  9
$PUCSORG
 10
0.0
 20
0.0
 30
0.0
  9
$PUCSXDIR
 10
1.0
 20
0.0
 30
0.0
  9
$PUCSYDIR
 10
0.0
 20
1.0
 30
0.0
  9
$PUCSORTHOREF
  2

  9
$PUCSORTHOVIEW
 70
     0
  9
$PUCSORGTOP
 10
0.0
 20
0.0
 30
0.0
  9
$PUCSORGBOTTOM
 10
0.0
 20
0.0
 30
0.0
  9
$PUCSORGLEFT
 10
0.0
 20
0.0
 30
0.0
  9
$PUCSORGRIGHT
 10
0.0
 20
0.0
 30
0.0
  9
$PUCSORGFRONT
 10
0.0
 20
0.0
 30
0.0
  9
$PUCSORGBACK
 10
0.0
 20
0.0
 30
0.0
  9
$USERI1
 70
     0
  9
$USERI2
 70
     0
  9
$USERI3
 70
     0
  9
$USERI4
 70
     0
  9
$USERI5
 70
     0
  9
$USERR1
 40
0.0
  9
$USERR2
 40
0.0
  9
$USERR3
 40
0.0
  9
$USERR4
 40
0.0
  9
$USERR5
 40
0.0
  9
$WORLDVIEW
 70
     1
  9
$SHADEDGE
 70
     3
  9
$SHADEDIF
 70
    70
  9
$TILEMODE
 70
     1
  9
$MAXACTVP
 70
    64
  9
$PINSBASE
 10
0.0
 20
0.0
 30
0.0
  9
$PLIMCHECK
 70
     0
  9
$PEXTMIN
 10
1.0000000000E+20
 20
1.0000000000E+20
 30
1.0000000000E+20
  9
$PEXTMAX
 10
-1.0000000000E+20
 20
-1.0000000000E+20
 30
-1.0000000000E+20
  9
$PLIMMIN
 10
0.0
 20
0.0
  9
$PLIMMAX
 10
420.0
 20
297.0
  9
$UNITMODE
 70
     0
  9
$VISRETAIN
 70
     1
  9
$PLINEGEN
 70
     0
  9
$PSLTSCALE
 70
     1
  9
$TREEDEPTH
 70
  3020
  9
$CMLSTYLE
  2
Standard
  9
$CMLJUST
 70
     0
  9
$CMLSCALE
 40
20.0
  9
$PROXYGRAPHICS
 70
     1
  9
$MEASUREMENT
 70
     1
  9
$CELWEIGHT
370
    -1
  9
$ENDCAPS
280
     0
  9
$JOINSTYLE
280
     0
  9
$LWDISPLAY
290
     1
  9
$INSUNITS
 70
     4
  9
$HYPERLINKBASE
  1

  9
$STYLESHEET
  1

  9
$XEDIT
290
     1
  9
$CEPSNTYPE
380
     0
  9
$PSTYLEMODE
290
     1
  9
$FINGERPRINTGUID
  2
{93b65c96-6710-485d-98a0-b99e5fcdae2e}
  9
$VERSIONGUID
  2
{FAEB1C32-E019-11D5-929B-00C0DF256EC4}
  9
$EXTNAMES
290
     1
  9
$PSVPSCALE
 40
0.0
  9
$OLESTARTUP
290
     0
  0
ENDSEC
  0
SECTION
  2
CLASSES
  0
CLASS
  1
ACDBDICTIONARYWDFLT
  2
AcDbDictionaryWithDefault
  3
ObjectDBX Classes
 90
        0
280
     0
281
     0
  0
CLASS
  1
VISUALSTYLE
  2
AcDbVisualStyle
  3
ObjectDBX Classes
 90
     4095
280
     0
281
     0
  0
CLASS
  1
MATERIAL
  2
AcDbMaterial
  3
ObjectDBX Classes
 90
     1153
280
     0
281
     0
  0
CLASS
  1
SCALE
  2
AcDbScale
  3
ObjectDBX Classes
 90
     1153
280
     0
281
     0
  0
CLASS
  1
TABLESTYLE
  2
AcDbTableStyle
  3
ObjectDBX Classes
 90
     4095
280
     0
281
     0
  0
CLASS
  1
MLEADERSTYLE
  2
AcDbMLeaderStyle
  3
ACDB_MLEADERSTYLE_CLASS
 90
     4095
280
     0
281
     0
  0
CLASS
  1
SUN
  2
AcDbSun
  3
SCENEOE
 90
     1153
280
     0
281
     0
  0
CLASS
  1
ACDBPLACEHOLDER
  2
AcDbPlaceHolder
  3
ObjectDBX Classes
 90
        0
280
     0
281
     0
  0
CLASS
  1
LAYOUT
  2
AcDbLayout
  3
ObjectDBX Classes
 90
        0
280
     0
281
     0
  0
ENDSEC
  0
SECTION
  2
TABLES
  0
TABLE
  2
VPORT
  5
8
330
0
100
AcDbSymbolTable
 70
     1
  0
VPORT
  5
29
330
8
100
AcDbSymbolTableRecord
100
AcDbViewportTableRecord
  2
*Active
 70
     0
 10
0.0
 20
0.0
 11
1.0
 21
1.0
 12
210.0
 22
148.5
 13
0.0
 23
0.0
 14
10.0
 24
10.0
 15
10.0
 25
10.0
 16
0.0
 26
0.0
 36
1.0
 17
0.0
 27
0.0
 37
0.0
 40
297.0
 41
1.4141414141
 42
50.0
 43
0.0
 44
0.0
 50
0.0
 51
0.0
 71
     0
 72
  2000
 73
     1
 74
     3
 75
     0
 76
     0
 77
     0
 78
     0
281
     0
 65
     1
110
0.0
120
0.0
130
0.0
111
1.0
121
0.0
131
0.0
112
0.0
122
1.0
132
0.0
 79
     0
146
0.0
  0
ENDTAB
  0
TABLE
  2
LTYPE
  5
5
330
0
100
AcDbSymbolTable
 70
     6
  0
LTYPE
  5
14
330
5
100
AcDbSymbolTableRecord
100
AcDbLinetypeTableRecord
  2
ByBlock
 70
     0
  3

 72
    65
 73
     0
 40
0.0
  0
LTYPE
  5
15
330
5
100
AcDbSymbolTableRecord
100
AcDbLinetypeTableRecord
  2
ByLayer
 70
     0
  3

 72
    65
 73
     0
 40
0.0
  0
LTYPE
  5
16
330
5
100
AcDbSymbolTableRecord
100
AcDbLinetypeTableRecord
  2
Continuous
 70
     0
  3
Solid line
 72
    65
 73
     0
 40
0.0
  0
LTYPE
  5
6E
330
5
100
AcDbSymbolTableRecord
100
AcDbLinetypeTableRecord
  2
HIDDEN
 70
     0
  3
Hidden __ __ __ __ __ __ __ __ __ __ __ __ __ __
 72
    65
 73
     2
 40
1.905
 49
1.27
 74
     0
 49
-0.635
 74
     0
  0
LTYPE
  5
6F
330
5
100
AcDbSymbolTableRecord
100
AcDbLinetypeTableRecord
  2
PHANTOM
 70
     0
  3
Phantom ______  __  __  ______  __  __  ______
 72
    65
 73
     6
 40
12.7
 49
6.35
 74
     0
 49
-1.27
 74
     0
 49
1.27
 74
     0
 49
-1.27
 74
     0
 49
1.27
 74
     0
 49
-1.27
 74
     0
  0
LTYPE
  5
70
330
5
100
AcDbSymbolTableRecord
100
AcDbLinetypeTableRecord
  2
CENTER
 70
     0
  3
Center ____ _ ____ _ ____ _ ____ _ ____ _ ____
 72
    65
 73
     4
 40
10.16
 49
6.35
 74
     0
 49
-1.27
 74
     0
 49
1.27
 74
     0
 49
-1.27
 74
     0
  0
LTYPE
  5
71
330
5
100
AcDbSymbolTableRecord
100
AcDbLinetypeTableRecord
  2
CENTERX2
 70
     0
  3
Center (2x) ________  __  ________  __  _____
 72
    65
 73
     4
 40
20.32
 49
12.7
 74
     0
 49
-2.54
 74
     0
 49
2.54
 74
     0
 49
-2.54
 74
     0
  0
LTYPE
  5
72
330
5
100
AcDbSymbolTableRecord
100
AcDbLinetypeTableRecord
  2
DOT2
 70
     0
  3
Dot (.5x) ........................................
 72
    65
 73
     2
 40
0.635
 49
0.0
 74
     0
 49
-0.635
 74
     0
  0
ENDTAB
  0
TABLE
  2
LAYER
  5
2
330
0
100
AcDbSymbolTable
 70
     3
  0
LAYER
  5
10
330
2
100
AcDbSymbolTableRecord
100
AcDbLayerTableRecord
  2
0
 70
     0
 62
     7
  6
Continuous
370
    -3
390
F
  0
LAYER
  5
73
330
2
100
AcDbSymbolTableRecord
100
AcDbLayerTableRecord
  2
SLD-0
 70
     0
 62
   179
  6
Continuous
370
    -3
390
F
  0
LAYER
  5
74
330
2
100
AcDbSymbolTableRecord
100
AcDbLayerTableRecord
  2
FORMAT
 70
     0
 62
   179
  6
Continuous
370
    -3
390
F
  0
ENDTAB
  0
TABLE
  2
STYLE
  5
3
330
0
100
AcDbSymbolTable
 70
     4
  0
STYLE
  5
11
330
3
100
AcDbSymbolTableRecord
100
AcDbTextStyleTableRecord
  2
Standard
 70
     0
 40
0.0
 41
1.0
 50
0.0
 71
     0
 42
3.5
  3
txt
  4

  0
STYLE
  5
9E
330
3
100
AcDbSymbolTableRecord
100
AcDbTextStyleTableRecord
  2
SLDTEXTSTYLE0
 70
     0
 40
0.0
 41
0.7
 50
0.0
 71
     0
 42
3.5
  3
TXT
  4

  0
STYLE
  5
2E1
330
3
100
AcDbSymbolTableRecord
100
AcDbTextStyleTableRecord
  2
SLDTEXTSTYLE1
 70
     0
 40
0.0
 41
1.0
 50
0.0
 71
     0
 42
3.5
  3
TXT
  4

  0
STYLE
  5
2EC
330
3
100
AcDbSymbolTableRecord
100
AcDbTextStyleTableRecord
  2
SLDTEXTSTYLE2
 70
     0
 40
0.0
 41
0.96
 50
0.0
 71
     0
 42
3.5
  3
TXT
  4

  0
ENDTAB
  0
TABLE
  2
VIEW
  5
6
330
0
100
AcDbSymbolTable
 70
     0
  0
ENDTAB
  0
TABLE
  2
UCS
  5
7
330
0
100
AcDbSymbolTable
 70
     0
  0
ENDTAB
  0
TABLE
  2
APPID
  5
9
330
0
100
AcDbSymbolTable
 70
     1
  0
APPID
  5
12
330
9
100
AcDbSymbolTableRecord
100
AcDbRegAppTableRecord
  2
ACAD
 70
     0
  0
ENDTAB
  0
TABLE
  2
DIMSTYLE
  5
A
330
0
100
AcDbSymbolTable
 70
     5
100
AcDbDimStyleTable
  0
DIMSTYLE
105
27
330
A
100
AcDbSymbolTableRecord
100
AcDbDimStyleTableRecord
  2
ISO-25
 70
     0
 41
2.5
 42
0.625
 43
3.75
 44
1.25
 73
     0
 74
     0
 77
     1
 78
     8
140
2.5
141
2.5
143
0.0393700787
147
0.625
171
     3
172
     1
178
     0
271
     2
272
     2
274
     3
278
    44
283
     0
284
     8
340
11
  0
DIMSTYLE
105
2E2
102
{ACAD_REACTORS
330
2E0
102
}
330
A
100
AcDbSymbolTableRecord
100
AcDbDimStyleTableRecord
  2
SLDDIMSTYLE0
 70
     0
 41
3.302
 44
0.0
 45
0.000000001
 73
     0
 74
     0
 77
     1
 78
     4
 79
     1
140
3.5
147
0.875
173
     1
178
     0
276
     2
284
    12
340
2E1
341
2E3
343
2E3
344
2E3
  0
DIMSTYLE
105
2F1
102
{ACAD_REACTORS
330
2F0
330
2FD
330
30E
330
318
330
322
330
32C
330
341
330
34B
330
355
330
35F
330
375
330
381
330
38B
330
397
330
3A3
102
}
330
A
100
AcDbSymbolTableRecord
100
AcDbDimStyleTableRecord
  2
SLDDIMSTYLE1
 70
     0
 41
3.302
 44
0.0
 45
0.000000001
 73
     0
 74
     0
 77
     1
 78
    12
 79
     3
140
3.5
147
0.875
173
     1
178
     0
271
     0
276
     2
284
    12
340
2E1
341
2E3
343
2E3
344
2E3
  0
DIMSTYLE
105
337
102
{ACAD_REACTORS
330
336
330
369
330
3B7
102
}
330
A
100
AcDbSymbolTableRecord
100
AcDbDimStyleTableRecord
  2
SLDDIMSTYLE2
 70
     0
 41
3.302
 44
0.0
 45
0.000000001
 73
     0
 74
     0
 77
     1
 78
    12
 79
     3
140
3.5
147
0.875
173
     1
178
     0
271
     1
276
     2
284
    12
340
2E1
341
2E3
343
2E3
344
2E3
  0
DIMSTYLE
105
3AE
102
{ACAD_REACTORS
330
3AD
102
}
330
A
100
AcDbSymbolTableRecord
100
AcDbDimStyleTableRecord
  2
SLDDIMSTYLE3
 70
     0
 41
3.302
 44
0.0
 73
     0
 74
     0
 77
     1
 78
    12
 79
     3
140
3.5
147
0.875
173
     1
178
     0
276
     2
284
    12
340
2E1
341
2E3
343
2E3
344
2E3
  0
ENDTAB
  0
TABLE
  2
BLOCK_RECORD
  5
1
330
0
100
AcDbSymbolTable
 70
    29
  0
BLOCK_RECORD
  5
1F
330
1
100
AcDbSymbolTableRecord
100
AcDbBlockTableRecord
  2
*Model_Space
340
22
  0
BLOCK_RECORD
  5
1B
330
1
100
AcDbSymbolTableRecord
100
AcDbBlockTableRecord
  2
*Paper_Space
340
1E
  0
BLOCK_RECORD
  5
23
330
1
100
AcDbSymbolTableRecord
100
AcDbBlockTableRecord
  2
*Paper_Space0
340
26
  0
BLOCK_RECORD
  5
75
330
1
100
AcDbSymbolTableRecord
100
AcDbBlockTableRecord
  2
SW_CENTERMARKSYMBOL_0
340
0
102
{BLKREFS
331
2DD
102
}
  0
BLOCK_RECORD
  5
80
330
1
100
AcDbSymbolTableRecord
100
AcDbBlockTableRecord
  2
SW_CENTERMARKSYMBOL_1
340
0
102
{BLKREFS
331
2D9
102
}
  0
BLOCK_RECORD
  5
8B
330
1
100
AcDbSymbolTableRecord
100
AcDbBlockTableRecord
  2
SW_CENTERMARKSYMBOL_2
340
0
102
{BLKREFS
331
2DA
102
}
  0
BLOCK_RECORD
  5
96
330
1
100
AcDbSymbolTableRecord
100
AcDbBlockTableRecord
  2
SW_NOTE_3
340
0
102
{BLKREFS
331
2DB
102
}
  0
BLOCK_RECORD
  5
9B
330
1
100
AcDbSymbolTableRecord
100
AcDbBlockTableRecord
  2
SW_NOTE_0
340
0
102
{BLKREFS
331
A0
102
}
  0
BLOCK_RECORD
  5
A1
330
1
100
AcDbSymbolTableRecord
100
AcDbBlockTableRecord
  2
SW_CENTERMARKSYMBOL_3
340
0
102
{BLKREFS
331
2DE
102
}
  0
BLOCK_RECORD
  5
AC
330
1
100
AcDbSymbolTableRecord
100
AcDbBlockTableRecord
  2
SW_CENTERMARKSYMBOL_4
340
0
102
{BLKREFS
331
2DC
102
}
  0
BLOCK_RECORD
  5
2E3
330
1
100
AcDbSymbolTableRecord
100
AcDbBlockTableRecord
  2
_None
340
0
  0
BLOCK_RECORD
  5
2E6
330
1
100
AcDbSymbolTableRecord
100
AcDbBlockTableRecord
  2
_D
340
0
  0
BLOCK_RECORD
  5
2F2
330
1
100
AcDbSymbolTableRecord
100
AcDbBlockTableRecord
  2
_D_1
340
0
  0
BLOCK_RECORD
  5
2FE
330
1
100
AcDbSymbolTableRecord
100
AcDbBlockTableRecord
  2
_D_2
340
0
  0
BLOCK_RECORD
  5
30F
330
1
100
AcDbSymbolTableRecord
100
AcDbBlockTableRecord
  2
_D_3
340
0
  0
BLOCK_RECORD
  5
319
330
1
100
AcDbSymbolTableRecord
100
AcDbBlockTableRecord
  2
_D_4
340
0
  0
BLOCK_RECORD
  5
323
330
1
100
AcDbSymbolTableRecord
100
AcDbBlockTableRecord
  2
_D_5
340
0
  0
BLOCK_RECORD
  5
32D
330
1
100
AcDbSymbolTableRecord
100
AcDbBlockTableRecord
  2
_D_6
340
0
  0
BLOCK_RECORD
  5
338
330
1
100
AcDbSymbolTableRecord
100
AcDbBlockTableRecord
  2
_D_7
340
0
  0
BLOCK_RECORD
  5
342
330
1
100
AcDbSymbolTableRecord
100
AcDbBlockTableRecord
  2
_D_8
340
0
  0
BLOCK_RECORD
  5
34C
330
1
100
AcDbSymbolTableRecord
100
AcDbBlockTableRecord
  2
_D_9
340
0
  0
BLOCK_RECORD
  5
356
330
1
100
AcDbSymbolTableRecord
100
AcDbBlockTableRecord
  2
_D_10
340
0
  0
BLOCK_RECORD
  5
360
330
1
100
AcDbSymbolTableRecord
100
AcDbBlockTableRecord
  2
_D_11
340
0
  0
BLOCK_RECORD
  5
36A
330
1
100
AcDbSymbolTableRecord
100
AcDbBlockTableRecord
  2
_D_12
340
0
  0
BLOCK_RECORD
  5
376
330
1
100
AcDbSymbolTableRecord
100
AcDbBlockTableRecord
  2
_D_13
340
0
  0
BLOCK_RECORD
  5
382
330
1
100
AcDbSymbolTableRecord
100
AcDbBlockTableRecord
  2
_D_14
340
0
  0
BLOCK_RECORD
  5
38C
330
1
100
AcDbSymbolTableRecord
100
AcDbBlockTableRecord
  2
_D_15
340
0
  0
BLOCK_RECORD
  5
398
330
1
100
AcDbSymbolTableRecord
100
AcDbBlockTableRecord
  2
_D_16
340
0
  0
BLOCK_RECORD
  5
3A4
330
1
100
AcDbSymbolTableRecord
100
AcDbBlockTableRecord
  2
_D_17
340
0
  0
BLOCK_RECORD
  5
3AF
330
1
100
AcDbSymbolTableRecord
100
AcDbBlockTableRecord
  2
_D_18
340
0
  0
BLOCK_RECORD
  5
3B8
330
1
100
AcDbSymbolTableRecord
100
AcDbBlockTableRecord
  2
_D_19
340
0
  0
ENDTAB
  0
ENDSEC
  0
SECTION
  2
BLOCKS
  0
BLOCK
  5
20
330
1F
100
AcDbEntity
  8
0
100
AcDbBlockBegin
  2
*Model_Space
 70
     0
 10
0.0
 20
0.0
 30
0.0
  3
*Model_Space
  1

  0
ENDBLK
  5
21
330
1F
100
AcDbEntity
  8
0
100
AcDbBlockEnd
  0
BLOCK
  5
1C
330
1B
100
AcDbEntity
 67
     1
  8
0
100
AcDbBlockBegin
  2
*Paper_Space
 70
     0
 10
0.0
 20
0.0
 30
0.0
  3
*Paper_Space
  1

  0
ENDBLK
  5
1D
330
1B
100
AcDbEntity
 67
     1
  8
0
100
AcDbBlockEnd
  0
BLOCK
  5
24
330
23
100
AcDbEntity
  8
0
100
AcDbBlockBegin
  2
*Paper_Space0
 70
     0
 10
0.0
 20
0.0
 30
0.0
  3
*Paper_Space0
  1

  0
ENDBLK
  5
25
330
23
100
AcDbEntity
  8
0
100
AcDbBlockEnd
  0
BLOCK
  5
76
330
75
100
AcDbEntity
  8
0
100
AcDbBlockBegin
  2
SW_CENTERMARKSYMBOL_0
 70
     0
 10
0.0
 20
0.0
 30
0.0
  3
SW_CENTERMARKSYMBOL_0
  1

  0
LINE
  5
78
330
75
100
AcDbEntity
  8
SLD-0
  6
Continuous
 62
   179
100
AcDbLine
 10
0.0
 20
0.0
 30
0.0
 11
0.0
 21
2.5
 31
0.0
  0
LINE
  5
79
330
75
100
AcDbEntity
  8
SLD-0
  6
Continuous
 62
   179
100
AcDbLine
 10
0.0
 20
0.0
 30
0.0
 11
-2.5
 21
0.0
 31
0.0
  0
LINE
  5
7A
330
75
100
AcDbEntity
  8
SLD-0
  6
Continuous
 62
   179
100
AcDbLine
 10
0.0
 20
0.0
 30
0.0
 11
0.0
 21
-2.5
 31
0.0
  0
LINE
  5
7B
330
75
100
AcDbEntity
  8
SLD-0
  6
Continuous
 62
   179
100
AcDbLine
 10
0.0
 20
0.0
 30
0.0
 11
2.5
 21
0.0
 31
0.0
  0
LINE
  5
7C
330
75
100
AcDbEntity
  8
SLD-0
  6
Continuous
 62
   179
100
AcDbLine
 10
0.0
 20
5.0
 30
0.0
 11
0.0
 21
11.0
 31
0.0
  0
LINE
  5
7D
330
75
100
AcDbEntity
  8
SLD-0
  6
Continuous
 62
   179
100
AcDbLine
 10
-5.0
 20
0.0
 30
0.0
 11
-11.0
 21
0.0
 31
0.0
  0
LINE
  5
7E
330
75
100
AcDbEntity
  8
SLD-0
  6
Continuous
 62
   179
100
AcDbLine
 10
0.0
 20
-5.0
 30
0.0
 11
0.0
 21
-11.0
 31
0.0
  0
LINE
  5
7F
330
75
100
AcDbEntity
  8
SLD-0
  6
Continuous
 62
   179
100
AcDbLine
 10
5.0
 20
0.0
 30
0.0
 11
11.0
 21
0.0
 31
0.0
  0
ENDBLK
  5
77
330
75
100
AcDbEntity
  8
0
100
AcDbBlockEnd
  0
BLOCK
  5
81
330
80
100
AcDbEntity
  8
0
100
AcDbBlockBegin
  2
SW_CENTERMARKSYMBOL_1
 70
     0
 10
0.0
 20
0.0
 30
0.0
  3
SW_CENTERMARKSYMBOL_1
  1

  0
LINE
  5
83
330
80
100
AcDbEntity
  8
SLD-0
  6
Continuous
 62
   179
100
AcDbLine
 10
0.0
 20
0.0
 30
0.0
 11
0.0
 21
2.5
 31
0.0
  0
LINE
  5
84
330
80
100
AcDbEntity
  8
SLD-0
  6
Continuous
 62
   179
100
AcDbLine
 10
0.0
 20
0.0
 30
0.0
 11
-2.5
 21
0.0
 31
0.0
  0
LINE
  5
85
330
80
100
AcDbEntity
  8
SLD-0
  6
Continuous
 62
   179
100
AcDbLine
 10
0.0
 20
0.0
 30
0.0
 11
0.0
 21
-2.5
 31
0.0
  0
LINE
  5
86
330
80
100
AcDbEntity
  8
SLD-0
  6
Continuous
 62
   179
100
AcDbLine
 10
0.0
 20
0.0
 30
0.0
 11
2.5
 21
0.0
 31
0.0
  0
LINE
  5
87
330
80
100
AcDbEntity
  8
SLD-0
  6
Continuous
 62
   179
100
AcDbLine
 10
0.0
 20
5.0
 30
0.0
 11
0.0
 21
6.25
 31
0.0
  0
LINE
  5
88
330
80
100
AcDbEntity
  8
SLD-0
  6
Continuous
 62
   179
100
AcDbLine
 10
-5.0
 20
0.0
 30
0.0
 11
-6.25
 21
0.0
 31
0.0
  0
LINE
  5
89
330
80
100
AcDbEntity
  8
SLD-0
  6
Continuous
 62
   179
100
AcDbLine
 10
0.0
 20
-5.0
 30
0.0
 11
0.0
 21
-6.25
 31
0.0
  0
LINE
  5
8A
330
80
100
AcDbEntity
  8
SLD-0
  6
Continuous
 62
   179
100
AcDbLine
 10
5.0
 20
0.0
 30
0.0
 11
6.25
 21
0.0
 31
0.0
  0
ENDBLK
  5
82
330
80
100
AcDbEntity
  8
0
100
AcDbBlockEnd
  0
BLOCK
  5
8C
330
8B
100
AcDbEntity
  8
0
100
AcDbBlockBegin
  2
SW_CENTERMARKSYMBOL_2
 70
     0
 10
0.0
 20
0.0
 30
0.0
  3
SW_CENTERMARKSYMBOL_2
  1

  0
LINE
  5
8E
330
8B
100
AcDbEntity
  8
SLD-0
  6
Continuous
 62
   179
100
AcDbLine
 10
0.0
 20
0.0
 30
0.0
 11
0.0
 21
2.5
 31
0.0
  0
LINE
  5
8F
330
8B
100
AcDbEntity
  8
SLD-0
  6
Continuous
 62
   179
100
AcDbLine
 10
0.0
 20
0.0
 30
0.0
 11
-2.5
 21
0.0
 31
0.0
  0
LINE
  5
90
330
8B
100
AcDbEntity
  8
SLD-0
  6
Continuous
 62
   179
100
AcDbLine
 10
0.0
 20
0.0
 30
0.0
 11
0.0
 21
-2.5
 31
0.0
  0
LINE
  5
91
330
8B
100
AcDbEntity
  8
SLD-0
  6
Continuous
 62
   179
100
AcDbLine
 10
0.0
 20
0.0
 30
0.0
 11
2.5
 21
0.0
 31
0.0
  0
LINE
  5
92
330
8B
100
AcDbEntity
  8
SLD-0
  6
Continuous
 62
   179
100
AcDbLine
 10
0.0
 20
5.0
 30
0.0
 11
0.0
 21
6.25
 31
0.0
  0
LINE
  5
93
330
8B
100
AcDbEntity
  8
SLD-0
  6
Continuous
 62
   179
100
AcDbLine
 10
-5.0
 20
0.0
 30
0.0
 11
-6.25
 21
0.0
 31
0.0
  0
LINE
  5
94
330
8B
100
AcDbEntity
  8
SLD-0
  6
Continuous
 62
   179
100
AcDbLine
 10
0.0
 20
-5.0
 30
0.0
 11
0.0
 21
-6.25
 31
0.0
  0
LINE
  5
95
330
8B
100
AcDbEntity
  8
SLD-0
  6
Continuous
 62
   179
100
AcDbLine
 10
5.0
 20
0.0
 30
0.0
 11
6.25
 21
0.0
 31
0.0
  0
ENDBLK
  5
8D
330
8B
100
AcDbEntity
  8
0
100
AcDbBlockEnd
  0
BLOCK
  5
97
330
96
100
AcDbEntity
  8
0
100
AcDbBlockBegin
  2
SW_NOTE_3
 70
     0
 10
0.0
 20
0.0
 30
0.0
  3
SW_NOTE_3
  1

  0
LINE
  5
99
330
96
100
AcDbEntity
  8
SLD-0
  6
Continuous
 62
   179
100
AcDbLine
 10
44.0167533655
 20
-17.3396539121
 30
0.0
 11
17.7794239134
 21
-17.3396539121
 31
0.0
  0
LINE
  5
9A
330
96
100
AcDbEntity
  8
SLD-0
  6
Continuous
 62
   179
100
AcDbLine
 10
17.7794239134
 20
-17.3396539121
 30
0.0
 11
0.0
 21
0.0
 31
0.0
  0
INSERT
  5
A0
330
96
100
AcDbEntity
  8
SLD-0
 62
   179
100
AcDbBlockReference
  2
SW_NOTE_0
 10
18.2325080898
 20
-17.4581254003
 30
0.0
  0
ENDBLK
  5
98
330
96
100
AcDbEntity
  8
0
100
AcDbBlockEnd
  0
BLOCK
  5
9C
330
9B
100
AcDbEntity
  8
0
100
AcDbBlockBegin
  2
SW_NOTE_0
 70
     0
 10
0.0
 20
0.0
 30
0.0
  3
SW_NOTE_0
  1

  0
MTEXT
  5
9F
330
9B
100
AcDbEntity
  8
SLD-0
 62
     0
100
AcDbMText
 10
0.0
 20
4.5117370892
 30
0.0
 40
3.5
 41
0.0
 71
     1
 72
     1
  1
rund/käntig
  7
SLDTEXTSTYLE0
 73
     1
 44
1.0
  0
ENDBLK
  5
9D
330
9B
100
AcDbEntity
  8
0
100
AcDbBlockEnd
  0
BLOCK
  5
A2
330
A1
100
AcDbEntity
  8
0
100
AcDbBlockBegin
  2
SW_CENTERMARKSYMBOL_3
 70
     0
 10
0.0
 20
0.0
 30
0.0
  3
SW_CENTERMARKSYMBOL_3
  1

  0
LINE
  5
A4
330
A1
100
AcDbEntity
  8
SLD-0
  6
Continuous
 62
   179
100
AcDbLine
 10
0.0
 20
0.0
 30
0.0
 11
0.0
 21
2.5
 31
0.0
  0
LINE
  5
A5
330
A1
100
AcDbEntity
  8
SLD-0
  6
Continuous
 62
   179
100
AcDbLine
 10
0.0
 20
0.0
 30
0.0
 11
-2.5
 21
0.0
 31
0.0
  0
LINE
  5
A6
330
A1
100
AcDbEntity
  8
SLD-0
  6
Continuous
 62
   179
100
AcDbLine
 10
0.0
 20
0.0
 30
0.0
 11
0.0
 21
-2.5
 31
0.0
  0
LINE
  5
A7
330
A1
100
AcDbEntity
  8
SLD-0
  6
Continuous
 62
   179
100
AcDbLine
 10
0.0
 20
0.0
 30
0.0
 11
2.5
 21
0.0
 31
0.0
  0
LINE
  5
A8
330
A1
100
AcDbEntity
  8
SLD-0
  6
Continuous
 62
   179
100
AcDbLine
 10
0.0
 20
5.0
 30
0.0
 11
0.0
 21
7.5
 31
0.0
  0
LINE
  5
A9
330
A1
100
AcDbEntity
  8
SLD-0
  6
Continuous
 62
   179
100
AcDbLine
 10
-5.0
 20
0.0
 30
0.0
 11
-7.5
 21
0.0
 31
0.0
  0
LINE
  5
AA
330
A1
100
AcDbEntity
  8
SLD-0
  6
Continuous
 62
   179
100
AcDbLine
 10
0.0
 20
-5.0
 30
0.0
 11
0.0
 21
-7.5
 31
0.0
  0
LINE
  5
AB
330
A1
100
AcDbEntity
  8
SLD-0
  6
Continuous
 62
   179
100
AcDbLine
 10
5.0
 20
0.0
 30
0.0
 11
7.5
 21
0.0
 31
0.0
  0
ENDBLK
  5
A3
330
A1
100
AcDbEntity
  8
0
100
AcDbBlockEnd
  0
BLOCK
  5
AD
330
AC
100
AcDbEntity
  8
0
100
AcDbBlockBegin
  2
SW_CENTERMARKSYMBOL_4
 70
     0
 10
0.0
 20
0.0
 30
0.0
  3
SW_CENTERMARKSYMBOL_4
  1

  0
LINE
  5
AF
330
AC
100
AcDbEntity
  8
SLD-0
  6
Continuous
 62
   179
100
AcDbLine
 10
0.0
 20
0.0
 30
0.0
 11
0.0
 21
2.5
 31
0.0
  0
LINE
  5
B0
330
AC
100
AcDbEntity
  8
SLD-0
  6
Continuous
 62
   179
100
AcDbLine
 10
0.0
 20
0.0
 30
0.0
 11
-2.5
 21
0.0
 31
0.0
  0
LINE
  5
B1
330
AC
100
AcDbEntity
  8
SLD-0
  6
Continuous
 62
   179
100
AcDbLine
 10
0.0
 20
0.0
 30
0.0
 11
0.0
 21
-2.5
 31
0.0
  0
LINE
  5
B2
330
AC
100
AcDbEntity
  8
SLD-0
  6
Continuous
 62
   179
100
AcDbLine
 10
0.0
 20
0.0
 30
0.0
 11
2.5
 21
0.0
 31
0.0
  0
LINE
  5
B3
330
AC
100
AcDbEntity
  8
SLD-0
  6
Continuous
 62
   179
100
AcDbLine
 10
0.0
 20
5.0
 30
0.0
 11
0.0
 21
7.5
 31
0.0
  0
LINE
  5
B4
330
AC
100
AcDbEntity
  8
SLD-0
  6
Continuous
 62
   179
100
AcDbLine
 10
-5.0
 20
0.0
 30
0.0
 11
-7.5
 21
0.0
 31
0.0
  0
LINE
  5
B5
330
AC
100
AcDbEntity
  8
SLD-0
  6
Continuous
 62
   179
100
AcDbLine
 10
0.0
 20
-5.0
 30
0.0
 11
0.0
 21
-7.5
 31
0.0
  0
LINE
  5
B6
330
AC
100
AcDbEntity
  8
SLD-0
  6
Continuous
 62
   179
100
AcDbLine
 10
5.0
 20
0.0
 30
0.0
 11
7.5
 21
0.0
 31
0.0
  0
ENDBLK
  5
AE
330
AC
100
AcDbEntity
  8
0
100
AcDbBlockEnd
  0
BLOCK
  5
2E4
330
2E3
100
AcDbEntity
  8
0
100
AcDbBlockBegin
  2
_None
 70
     0
 10
0.0
 20
0.0
 30
0.0
  3
_None
  1

  0
ENDBLK
  5
2E5
330
2E3
100
AcDbEntity
  8
0
100
AcDbBlockEnd
  0
BLOCK
  5
2E7
330
2E6
100
AcDbEntity
  8
0
100
AcDbBlockBegin
  2
_D
 70
     0
 10
0.0
 20
0.0
 30
0.0
  3
_D
  1

  0
LINE
  5
2E9
330
2E6
100
AcDbEntity
  8
SLD-0
 62
     7
100
AcDbLine
 10
134.5418988823
 20
135.0554557125
 30
0.0
 11
134.5418988823
 21
93.7249322777
 31
0.0
  0
LINE
  5
2EA
330
2E6
100
AcDbEntity
  8
SLD-0
 62
     7
100
AcDbLine
 10
99.5418988823
 20
102.3054557125
 30
0.0
 11
99.5418988823
 21
93.7249322777
 31
0.0
  0
LINE
  5
2EB
330
2E6
100
AcDbEntity
  8
SLD-0
 62
     7
100
AcDbLine
 10
134.5418988823
 20
94.7249322777
 30
0.0
 11
99.5418988823
 21
94.7249322777
 31
0.0
  0
MTEXT
  5
2ED
330
2E6
100
AcDbEntity
  8
SLD-0
 62
     7
100
AcDbMText
 10
113.0378139969
 20
99.1989786896
 30
0.0
 40
3.5
 41
0.0
 71
     1
 72
     1
  1
DM
  7
SLDTEXTSTYLE2
 73
     1
 44
1.0
  0
SOLID
  5
2EE
330
2E6
100
AcDbEntity
  8
SLD-0
 62
     7
100
AcDbTrace
 10
134.5418988823
 20
94.7249322777
 30
0.0
 11
131.2398988823
 21
95.2329322777
 31
0.0
 12
131.2398988823
 22
94.2169322777
 32
0.0
 13
131.2398988823
 23
94.2169322777
 33
0.0
  0
SOLID
  5
2EF
330
2E6
100
AcDbEntity
  8
SLD-0
 62
     7
100
AcDbTrace
 10
99.5418988823
 20
94.7249322777
 30
0.0
 11
102.8438988823
 21
94.2169322777
 31
0.0
 12
102.8438988823
 22
95.2329322777
 32
0.0
 13
102.8438988823
 23
95.2329322777
 33
0.0
  0
ENDBLK
  5
2E8
330
2E6
100
AcDbEntity
  8
0
100
AcDbBlockEnd
  0
BLOCK
  5
2F3
330
2F2
100
AcDbEntity
  8
0
100
AcDbBlockBegin
  2
_D_1
 70
     0
 10
0.0
 20
0.0
 30
0.0
  3
_D_1
  1

  0
LINE
  5
2F5
330
2F2
100
AcDbEntity
  8
SLD-0
 62
     7
100
AcDbLine
 10
149.5418988823
 20
118.3054557125
 30
0.0
 11
149.5418988823
 21
93.7249322777
 31
0.0
  0
LINE
  5
2F6
330
2F2
100
AcDbEntity
  8
SLD-0
 62
     7
100
AcDbLine
 10
134.5418988823
 20
135.0554557125
 30
0.0
 11
134.5418988823
 21
93.7249322777
 31
0.0
  0
LINE
  5
2F7
330
2F2
100
AcDbEntity
  8
SLD-0
 62
     7
100
AcDbLine
 10
149.5418988823
 20
94.7249322777
 30
0.0
 11
155.8918988823
 21
94.7249322777
 31
0.0
  0
LINE
  5
2F8
330
2F2
100
AcDbEntity
  8
SLD-0
 62
     7
100
AcDbLine
 10
149.5418988823
 20
94.7249322777
 30
0.0
 11
134.5418988823
 21
94.7249322777
 31
0.0
  0
LINE
  5
2F9
330
2F2
100
AcDbEntity
  8
SLD-0
 62
     7
100
AcDbLine
 10
134.5418988823
 20
94.7249322777
 30
0.0
 11
128.1918988823
 21
94.7249322777
 31
0.0
  0
MTEXT
  5
2FA
330
2F2
100
AcDbEntity
  8
SLD-0
 62
     7
100
AcDbMText
 10
139.1872844635
 20
99.1989786896
 30
0.0
 40
3.5
 41
0.0
 71
     1
 72
     1
  1
15
  7
SLDTEXTSTYLE2
 73
     1
 44
1.0
  0
SOLID
  5
2FB
330
2F2
100
AcDbEntity
  8
SLD-0
 62
     7
100
AcDbTrace
 10
149.5418988823
 20
94.7249322777
 30
0.0
 11
152.8438988823
 21
94.2169322777
 31
0.0
 12
152.8438988823
 22
95.2329322777
 32
0.0
 13
152.8438988823
 23
95.2329322777
 33
0.0
  0
SOLID
  5
2FC
330
2F2
100
AcDbEntity
  8
SLD-0
 62
     7
100
AcDbTrace
 10
134.5418988823
 20
94.7249322777
 30
0.0
 11
131.2398988823
 21
95.2329322777
 31
0.0
 12
131.2398988823
 22
94.2169322777
 32
0.0
 13
131.2398988823
 23
94.2169322777
 33
0.0
  0
ENDBLK
  5
2F4
330
2F2
100
AcDbEntity
  8
0
100
AcDbBlockEnd
  0
BLOCK
  5
2FF
330
2FE
100
AcDbEntity
  8
0
100
AcDbBlockBegin
  2
_D_2
 70
     0
 10
0.0
 20
0.0
 30
0.0
  3
_D_2
  1

  0
LINE
  5
301
330
2FE
100
AcDbEntity
  8
SLD-0
 62
     7
100
AcDbLine
 10
130.5546816849
 20
162.2057401301
 30
0.0
 11
130.6577774839
 21
153.8726221722
 31
0.0
  0
LINE
  5
302
330
2FE
100
AcDbEntity
  8
SLD-0
 62
     7
100
AcDbLine
 10
138.6540618557
 20
162.3059441683
 30
0.0
 11
138.7571576547
 21
153.9728262104
 31
0.0
  0
LINE
  5
303
330
2FE
100
AcDbEntity
  8
SLD-0
 62
     7
100
AcDbLine
 10
130.645406615
 20
154.8725456501
 30
0.0
 11
114.0831237693
 21
154.6676401403
 31
0.0
  0
LINE
  5
304
330
2FE
100
AcDbEntity
  8
SLD-0
 62
     7
100
AcDbLine
 10
130.645406615
 20
154.8725456501
 30
0.0
 11
138.7447867858
 21
154.9727496882
 31
0.0
  0
LINE
  5
305
330
2FE
100
AcDbEntity
  8
SLD-0
 62
     7
100
AcDbLine
 10
138.7447867858
 20
154.9727496882
 30
0.0
 11
145.0943008703
 21
155.0513047058
 31
0.0
  0
LINE
  5
306
330
2FE
100
AcDbEntity
  8
SLD-0
 62
     7
100
AcDbLine
 10
114.9601304508
 20
156.0580880576
 30
0.0
 11
117.6423470461
 21
156.0912719468
 31
0.0
  0
LINE
  5
307
330
2FE
100
AcDbEntity
  8
SLD-0
 62
     7
100
AcDbLine
 10
114.9601304508
 20
156.0580880576
 30
0.0
 11
114.9269465616
 21
158.7403046529
 31
0.0
  0
LINE
  5
308
330
2FE
100
AcDbEntity
  8
SLD-0
 62
     7
100
AcDbLine
 10
114.9269465616
 20
158.7403046529
 30
0.0
 11
117.6091631569
 21
158.7734885421
 31
0.0
  0
LINE
  5
309
330
2FE
100
AcDbEntity
  8
SLD-0
 62
     7
100
AcDbLine
 10
117.6091631569
 20
158.7734885421
 30
0.0
 11
117.6423470461
 21
156.0912719468
 31
0.0
  0
MTEXT
  5
30A
330
2FE
100
AcDbEntity
  8
SLD-0
 62
     7
100
AcDbMText
 10
119.0273565754
 20
159.2566745221
 30
0.0
 40
3.5
 41
0.0
 71
     1
 72
     1
  1
8
  7
SLDTEXTSTYLE2
 11
0.9999234778733658
 21
0.01237086891178858
 31
0.0
 73
     1
 44
1.0
  0
MTEXT
  5
30B
330
2FE
100
AcDbEntity
  8
SLD-0
 62
     7
100
AcDbMText
 10
121.613270107
 20
159.2886669675
 30
0.0
 40
3.5
 41
0.0
 71
     1
 72
     1
  1
/9
  7
SLDTEXTSTYLE2
 11
0.9999234778733658
 21
0.01237086891178858
 31
0.0
 73
     1
 44
1.0
  0
SOLID
  5
30C
330
2FE
100
AcDbEntity
  8
SLD-0
 62
     7
100
AcDbTrace
 10
130.645406615
 20
154.8725456501
 30
0.0
 11
127.3373748897
 21
155.3396581677
 31
0.0
 12
127.3499436925
 22
154.3237359141
 32
0.0
 13
127.3499436925
 23
154.3237359141
 33
0.0
  0
SOLID
  5
30D
330
2FE
100
AcDbEntity
  8
SLD-0
 62
     7
100
AcDbTrace
 10
138.7447867858
 20
154.9727496882
 30
0.0
 11
142.0528185111
 21
154.5056371706
 31
0.0
 12
142.0402497083
 22
155.5215594241
 32
0.0
 13
142.0402497083
 23
155.5215594241
 33
0.0
  0
ENDBLK
  5
300
330
2FE
100
AcDbEntity
  8
0
100
AcDbBlockEnd
  0
BLOCK
  5
310
330
30F
100
AcDbEntity
  8
0
100
AcDbBlockBegin
  2
_D_3
 70
     0
 10
0.0
 20
0.0
 30
0.0
  3
_D_3
  1

  0
LINE
  5
312
330
30F
100
AcDbEntity
  8
SLD-0
 62
     7
100
AcDbLine
 10
146.5418988823
 20
167.3054557125
 30
0.0
 11
162.1943510607
 21
167.3054557125
 31
0.0
  0
LINE
  5
313
330
30F
100
AcDbEntity
  8
SLD-0
 62
     7
100
AcDbLine
 10
150.5418988823
 20
231.3054557125
 30
0.0
 11
162.1943510607
 21
231.3054557125
 31
0.0
  0
LINE
  5
314
330
30F
100
AcDbEntity
  8
SLD-0
 62
     7
100
AcDbLine
 10
161.1943510607
 20
167.3054557125
 30
0.0
 11
161.1943510607
 21
231.3054557125
 31
0.0
  0
MTEXT
  5
315
330
30F
100
AcDbEntity
  8
SLD-0
 62
     7
100
AcDbMText
 10
156.7203046488
 20
196.5636963731
 30
0.0
 40
3.5
 41
0.0
 71
     1
 72
     1
  1
64
  7
SLDTEXTSTYLE2
 11
6.123233995736766E-17
 21
1.0
 31
0.0
 73
     1
 44
1.0
  0
SOLID
  5
316
330
30F
100
AcDbEntity
  8
SLD-0
 62
     7
100
AcDbTrace
 10
161.1943510607
 20
167.3054557125
 30
0.0
 11
161.7023510607
 21
170.6074557125
 31
0.0
 12
160.6863510607
 22
170.6074557125
 32
0.0
 13
160.6863510607
 23
170.6074557125
 33
0.0
  0
SOLID
  5
317
330
30F
100
AcDbEntity
  8
SLD-0
 62
     7
100
AcDbTrace
 10
161.1943510607
 20
231.3054557125
 30
0.0
 11
160.6863510607
 21
228.0034557125
 31
0.0
 12
161.7023510607
 22
228.0034557125
 32
0.0
 13
161.7023510607
 23
228.0034557125
 33
0.0
  0
ENDBLK
  5
311
330
30F
100
AcDbEntity
  8
0
100
AcDbBlockEnd
  0
BLOCK
  5
31A
330
319
100
AcDbEntity
  8
0
100
AcDbBlockBegin
  2
_D_4
 70
     0
 10
0.0
 20
0.0
 30
0.0
  3
_D_4
  1

  0
LINE
  5
31C
330
319
100
AcDbEntity
  8
SLD-0
 62
     7
100
AcDbLine
 10
141.7918988823
 20
192.3054557125
 30
0.0
 11
174.1943510607
 21
192.3054557125
 31
0.0
  0
LINE
  5
31D
330
319
100
AcDbEntity
  8
SLD-0
 62
     7
100
AcDbLine
 10
141.7918988823
 20
142.3054557125
 30
0.0
 11
174.1943510607
 21
142.3054557125
 31
0.0
  0
LINE
  5
31E
330
319
100
AcDbEntity
  8
SLD-0
 62
     7
100
AcDbLine
 10
173.1943510607
 20
192.3054557125
 30
0.0
 11
173.1943510607
 21
142.3054557125
 31
0.0
  0
MTEXT
  5
31F
330
319
100
AcDbEntity
  8
SLD-0
 62
     7
100
AcDbMText
 10
168.7203046488
 20
164.7107193813
 30
0.0
 40
3.5
 41
0.0
 71
     1
 72
     1
  1
50
  7
SLDTEXTSTYLE2
 11
6.123233995736766E-17
 21
1.0
 31
0.0
 73
     1
 44
1.0
  0
SOLID
  5
320
330
319
100
AcDbEntity
  8
SLD-0
 62
     7
100
AcDbTrace
 10
173.1943510607
 20
192.3054557125
 30
0.0
 11
172.6863510607
 21
189.0034557125
 31
0.0
 12
173.7023510607
 22
189.0034557125
 32
0.0
 13
173.7023510607
 23
189.0034557125
 33
0.0
  0
SOLID
  5
321
330
319
100
AcDbEntity
  8
SLD-0
 62
     7
100
AcDbTrace
 10
173.1943510607
 20
142.3054557125
 30
0.0
 11
173.7023510607
 21
145.6074557125
 31
0.0
 12
172.6863510607
 22
145.6074557125
 32
0.0
 13
172.6863510607
 23
145.6074557125
 33
0.0
  0
ENDBLK
  5
31B
330
319
100
AcDbEntity
  8
0
100
AcDbBlockEnd
  0
BLOCK
  5
324
330
323
100
AcDbEntity
  8
0
100
AcDbBlockBegin
  2
_D_5
 70
     0
 10
0.0
 20
0.0
 30
0.0
  3
_D_5
  1

  0
LINE
  5
326
330
323
100
AcDbEntity
  8
SLD-0
 62
     7
100
AcDbLine
 10
150.5418988823
 20
119.3054557125
 30
0.0
 11
183.3371885948
 21
119.3054557125
 31
0.0
  0
LINE
  5
327
330
323
100
AcDbEntity
  8
SLD-0
 62
     7
100
AcDbLine
 10
150.5418988823
 20
231.3054557125
 30
0.0
 11
183.3371885948
 21
231.3054557125
 31
0.0
  0
LINE
  5
328
330
323
100
AcDbEntity
  8
SLD-0
 62
     7
100
AcDbLine
 10
182.3371885948
 20
119.3054557125
 30
0.0
 11
182.3371885948
 21
231.3054557125
 31
0.0
  0
MTEXT
  5
329
330
323
100
AcDbEntity
  8
SLD-0
 62
     7
100
AcDbMText
 10
177.8631421829
 20
180.4148969265
 30
0.0
 40
3.5
 41
0.0
 71
     1
 72
     1
  1
112
  7
SLDTEXTSTYLE2
 11
6.123233995736766E-17
 21
1.0
 31
0.0
 73
     1
 44
1.0
  0
SOLID
  5
32A
330
323
100
AcDbEntity
  8
SLD-0
 62
     7
100
AcDbTrace
 10
182.3371885948
 20
119.3054557125
 30
0.0
 11
182.8451885948
 21
122.6074557125
 31
0.0
 12
181.8291885948
 22
122.6074557125
 32
0.0
 13
181.8291885948
 23
122.6074557125
 33
0.0
  0
SOLID
  5
32B
330
323
100
AcDbEntity
  8
SLD-0
 62
     7
100
AcDbTrace
 10
182.3371885948
 20
231.3054557125
 30
0.0
 11
181.8291885948
 21
228.0034557125
 31
0.0
 12
182.8451885948
 22
228.0034557125
 32
0.0
 13
182.8451885948
 23
228.0034557125
 33
0.0
  0
ENDBLK
  5
325
330
323
100
AcDbEntity
  8
0
100
AcDbBlockEnd
  0
BLOCK
  5
32E
330
32D
100
AcDbEntity
  8
0
100
AcDbBlockBegin
  2
_D_6
 70
     0
 10
0.0
 20
0.0
 30
0.0
  3
_D_6
  1

  0
LINE
  5
330
330
32D
100
AcDbEntity
  8
SLD-0
 62
     7
100
AcDbLine
 10
103.5418988823
 20
258.3054557125
 30
0.0
 11
183.3371885948
 21
258.3054557125
 31
0.0
  0
LINE
  5
331
330
32D
100
AcDbEntity
  8
SLD-0
 62
     7
100
AcDbLine
 10
150.5418988823
 20
231.3054557125
 30
0.0
 11
183.3371885948
 21
231.3054557125
 31
0.0
  0
LINE
  5
332
330
32D
100
AcDbEntity
  8
SLD-0
 62
     7
100
AcDbLine
 10
182.3371885948
 20
258.3054557125
 30
0.0
 11
182.3371885948
 21
231.3054557125
 31
0.0
  0
MTEXT
  5
333
330
32D
100
AcDbEntity
  8
SLD-0
 62
     7
100
AcDbMText
 10
177.8631421829
 20
241.91797409
 30
0.0
 40
3.5
 41
0.0
 71
     1
 72
     1
  1
27
  7
SLDTEXTSTYLE2
 11
6.123233995736766E-17
 21
1.0
 31
0.0
 73
     1
 44
1.0
  0
SOLID
  5
334
330
32D
100
AcDbEntity
  8
SLD-0
 62
     7
100
AcDbTrace
 10
182.3371885948
 20
258.3054557125
 30
0.0
 11
181.8291885948
 21
255.0034557125
 31
0.0
 12
182.8451885948
 22
255.0034557125
 32
0.0
 13
182.8451885948
 23
255.0034557125
 33
0.0
  0
SOLID
  5
335
330
32D
100
AcDbEntity
  8
SLD-0
 62
     7
100
AcDbTrace
 10
182.3371885948
 20
231.3054557125
 30
0.0
 11
182.8451885948
 21
234.6074557125
 31
0.0
 12
181.8291885948
 22
234.6074557125
 32
0.0
 13
181.8291885948
 23
234.6074557125
 33
0.0
  0
ENDBLK
  5
32F
330
32D
100
AcDbEntity
  8
0
100
AcDbBlockEnd
  0
BLOCK
  5
339
330
338
100
AcDbEntity
  8
0
100
AcDbBlockBegin
  2
_D_7
 70
     0
 10
0.0
 20
0.0
 30
0.0
  3
_D_7
  1

  0
LINE
  5
33B
330
338
100
AcDbEntity
  8
SLD-0
 62
     7
100
AcDbLine
 10
88.0418988823
 20
216.7753262463
 30
0.0
 11
88.0418988823
 21
223.9922651283
 31
0.0
  0
LINE
  5
33C
330
338
100
AcDbEntity
  8
SLD-0
 62
     7
100
AcDbLine
 10
88.0418988823
 20
222.9922651283
 30
0.0
 11
77.0197449014
 21
222.9922651283
 31
0.0
  0
LINE
  5
33D
330
338
100
AcDbEntity
  8
SLD-0
 62
     7
100
AcDbLine
 10
88.0418988823
 20
222.9922651283
 30
0.0
 11
99.5418988823
 21
222.9922651283
 31
0.0
  0
MTEXT
  5
33E
330
338
100
AcDbEntity
  8
SLD-0
 62
     7
100
AcDbMText
 10
77.0197449014
 20
227.4663115402
 30
0.0
 40
3.5
 41
0.0
 71
     1
 72
     1
  1
11,5
  7
SLDTEXTSTYLE2
 73
     1
 44
1.0
  0
SOLID
  5
33F
330
338
100
AcDbEntity
  8
SLD-0
 62
     7
100
AcDbTrace
 10
88.0418988823
 20
222.9922651283
 30
0.0
 11
91.3438988823
 21
222.4842651283
 31
0.0
 12
91.3438988823
 22
223.5002651283
 32
0.0
 13
91.3438988823
 23
223.5002651283
 33
0.0
  0
SOLID
  5
340
330
338
100
AcDbEntity
  8
SLD-0
 62
     7
100
AcDbTrace
 10
99.5418988823
 20
222.9922651283
 30
0.0
 11
96.2398988823
 21
223.5002651283
 31
0.0
 12
96.2398988823
 22
222.4842651283
 32
0.0
 13
96.2398988823
 23
222.4842651283
 33
0.0
  0
ENDBLK
  5
33A
330
338
100
AcDbEntity
  8
0
100
AcDbBlockEnd
  0
BLOCK
  5
343
330
342
100
AcDbEntity
  8
0
100
AcDbBlockBegin
  2
_D_8
 70
     0
 10
0.0
 20
0.0
 30
0.0
  3
_D_8
  1

  0
LINE
  5
345
330
342
100
AcDbEntity
  8
SLD-0
 62
     7
100
AcDbLine
 10
98.5418988823
 20
258.3054557125
 30
0.0
 11
71.0162466832
 21
258.3054557125
 31
0.0
  0
LINE
  5
346
330
342
100
AcDbEntity
  8
SLD-0
 62
     7
100
AcDbLine
 10
87.5418988823
 20
216.3054557125
 30
0.0
 11
71.0162466832
 21
216.3054557125
 31
0.0
  0
LINE
  5
347
330
342
100
AcDbEntity
  8
SLD-0
 62
     7
100
AcDbLine
 10
72.0162466832
 20
258.3054557125
 30
0.0
 11
72.0162466832
 21
216.3054557125
 31
0.0
  0
MTEXT
  5
348
330
342
100
AcDbEntity
  8
SLD-0
 62
     7
100
AcDbMText
 10
67.5422002713
 20
234.8777420392
 30
0.0
 40
3.5
 41
0.0
 71
     1
 72
     1
  1
42
  7
SLDTEXTSTYLE2
 11
6.123233995736766E-17
 21
1.0
 31
0.0
 73
     1
 44
1.0
  0
SOLID
  5
349
330
342
100
AcDbEntity
  8
SLD-0
 62
     7
100
AcDbTrace
 10
72.0162466832
 20
258.3054557125
 30
0.0
 11
71.5082466832
 21
255.0034557125
 31
0.0
 12
72.5242466832
 22
255.0034557125
 32
0.0
 13
72.5242466832
 23
255.0034557125
 33
0.0
  0
SOLID
  5
34A
330
342
100
AcDbEntity
  8
SLD-0
 62
     7
100
AcDbTrace
 10
72.0162466832
 20
216.3054557125
 30
0.0
 11
72.5242466832
 21
219.6074557125
 31
0.0
 12
71.5082466832
 22
219.6074557125
 32
0.0
 13
71.5082466832
 23
219.6074557125
 33
0.0
  0
ENDBLK
  5
344
330
342
100
AcDbEntity
  8
0
100
AcDbBlockEnd
  0
BLOCK
  5
34D
330
34C
100
AcDbEntity
  8
0
100
AcDbBlockBegin
  2
_D_9
 70
     0
 10
0.0
 20
0.0
 30
0.0
  3
_D_9
  1

  0
LINE
  5
34F
330
34C
100
AcDbEntity
  8
SLD-0
 62
     7
100
AcDbLine
 10
87.5418988823
 20
216.3054557125
 30
0.0
 11
71.0162466832
 21
216.3054557125
 31
0.0
  0
LINE
  5
350
330
34C
100
AcDbEntity
  8
SLD-0
 62
     7
100
AcDbLine
 10
87.5418988823
 20
186.3054557125
 30
0.0
 11
71.0162466832
 21
186.3054557125
 31
0.0
  0
LINE
  5
351
330
34C
100
AcDbEntity
  8
SLD-0
 62
     7
100
AcDbLine
 10
72.0162466832
 20
216.3054557125
 30
0.0
 11
72.0162466832
 21
186.3054557125
 31
0.0
  0
MTEXT
  5
352
330
34C
100
AcDbEntity
  8
SLD-0
 62
     7
100
AcDbMText
 10
67.5422002713
 20
198.698771778
 30
0.0
 40
3.5
 41
0.0
 71
     1
 72
     1
  1
30
  7
SLDTEXTSTYLE2
 11
6.123233995736766E-17
 21
1.0
 31
0.0
 73
     1
 44
1.0
  0
SOLID
  5
353
330
34C
100
AcDbEntity
  8
SLD-0
 62
     7
100
AcDbTrace
 10
72.0162466832
 20
216.3054557125
 30
0.0
 11
71.5082466832
 21
213.0034557125
 31
0.0
 12
72.5242466832
 22
213.0034557125
 32
0.0
 13
72.5242466832
 23
213.0034557125
 33
0.0
  0
SOLID
  5
354
330
34C
100
AcDbEntity
  8
SLD-0
 62
     7
100
AcDbTrace
 10
72.0162466832
 20
186.3054557125
 30
0.0
 11
72.5242466832
 21
189.6074557125
 31
0.0
 12
71.5082466832
 22
189.6074557125
 32
0.0
 13
71.5082466832
 23
189.6074557125
 33
0.0
  0
ENDBLK
  5
34E
330
34C
100
AcDbEntity
  8
0
100
AcDbBlockEnd
  0
BLOCK
  5
357
330
356
100
AcDbEntity
  8
0
100
AcDbBlockBegin
  2
_D_10
 70
     0
 10
0.0
 20
0.0
 30
0.0
  3
_D_10
  1

  0
LINE
  5
359
330
356
100
AcDbEntity
  8
SLD-0
 62
     7
100
AcDbLine
 10
87.5418988823
 20
186.3054557125
 30
0.0
 11
71.0162466832
 21
186.3054557125
 31
0.0
  0
LINE
  5
35A
330
356
100
AcDbEntity
  8
SLD-0
 62
     7
100
AcDbLine
 10
122.5418988823
 20
167.3054557125
 30
0.0
 11
71.0162466832
 21
167.3054557125
 31
0.0
  0
LINE
  5
35B
330
356
100
AcDbEntity
  8
SLD-0
 62
     7
100
AcDbLine
 10
72.0162466832
 20
186.3054557125
 30
0.0
 11
72.0162466832
 21
167.3054557125
 31
0.0
  0
MTEXT
  5
35C
330
356
100
AcDbEntity
  8
SLD-0
 62
     7
100
AcDbMText
 10
67.5422002713
 20
174.449083603
 30
0.0
 40
3.5
 41
0.0
 71
     1
 72
     1
  1
19
  7
SLDTEXTSTYLE2
 11
6.123233995736766E-17
 21
1.0
 31
0.0
 73
     1
 44
1.0
  0
SOLID
  5
35D
330
356
100
AcDbEntity
  8
SLD-0
 62
     7
100
AcDbTrace
 10
72.0162466832
 20
186.3054557125
 30
0.0
 11
71.5082466832
 21
183.0034557125
 31
0.0
 12
72.5242466832
 22
183.0034557125
 32
0.0
 13
72.5242466832
 23
183.0034557125
 33
0.0
  0
SOLID
  5
35E
330
356
100
AcDbEntity
  8
SLD-0
 62
     7
100
AcDbTrace
 10
72.0162466832
 20
167.3054557125
 30
0.0
 11
72.5242466832
 21
170.6074557125
 31
0.0
 12
71.5082466832
 22
170.6074557125
 32
0.0
 13
71.5082466832
 23
170.6074557125
 33
0.0
  0
ENDBLK
  5
358
330
356
100
AcDbEntity
  8
0
100
AcDbBlockEnd
  0
BLOCK
  5
361
330
360
100
AcDbEntity
  8
0
100
AcDbBlockBegin
  2
_D_11
 70
     0
 10
0.0
 20
0.0
 30
0.0
  3
_D_11
  1

  0
LINE
  5
363
330
360
100
AcDbEntity
  8
SLD-0
 62
     7
100
AcDbLine
 10
225.247011614
 20
102.3054557125
 30
0.0
 11
225.247011614
 21
88.6005475716
 31
0.0
  0
LINE
  5
364
330
360
100
AcDbEntity
  8
SLD-0
 62
     7
100
AcDbLine
 10
249.247011614
 20
102.3054557125
 30
0.0
 11
249.247011614
 21
88.6005475716
 31
0.0
  0
LINE
  5
365
330
360
100
AcDbEntity
  8
SLD-0
 62
     7
100
AcDbLine
 10
225.247011614
 20
89.6005475716
 30
0.0
 11
249.247011614
 21
89.6005475716
 31
0.0
  0
MTEXT
  5
366
330
360
100
AcDbEntity
  8
SLD-0
 62
     7
100
AcDbMText
 10
235.0353765937
 20
94.0745939835
 30
0.0
 40
3.5
 41
0.0
 71
     1
 72
     1
  1
24
  7
SLDTEXTSTYLE2
 73
     1
 44
1.0
  0
SOLID
  5
367
330
360
100
AcDbEntity
  8
SLD-0
 62
     7
100
AcDbTrace
 10
225.247011614
 20
89.6005475716
 30
0.0
 11
228.549011614
 21
89.0925475716
 31
0.0
 12
228.549011614
 22
90.1085475716
 32
0.0
 13
228.549011614
 23
90.1085475716
 33
0.0
  0
SOLID
  5
368
330
360
100
AcDbEntity
  8
SLD-0
 62
     7
100
AcDbTrace
 10
249.247011614
 20
89.6005475716
 30
0.0
 11
245.945011614
 21
90.1085475716
 31
0.0
 12
245.945011614
 22
89.0925475716
 32
0.0
 13
245.945011614
 23
89.0925475716
 33
0.0
  0
ENDBLK
  5
362
330
360
100
AcDbEntity
  8
0
100
AcDbBlockEnd
  0
BLOCK
  5
36B
330
36A
100
AcDbEntity
  8
0
100
AcDbBlockBegin
  2
_D_12
 70
     0
 10
0.0
 20
0.0
 30
0.0
  3
_D_12
  1

  0
LINE
  5
36D
330
36A
100
AcDbEntity
  8
SLD-0
 62
     7
100
AcDbLine
 10
231.497011614
 20
216.8054557125
 30
0.0
 11
231.497011614
 21
223.9266609756
 31
0.0
  0
LINE
  5
36E
330
36A
100
AcDbEntity
  8
SLD-0
 62
     7
100
AcDbLine
 10
242.997011614
 20
216.8054557125
 30
0.0
 11
242.997011614
 21
223.9266609756
 31
0.0
  0
LINE
  5
36F
330
36A
100
AcDbEntity
  8
SLD-0
 62
     7
100
AcDbLine
 10
231.497011614
 20
222.9266609756
 30
0.0
 11
225.147011614
 21
222.9266609756
 31
0.0
  0
LINE
  5
370
330
36A
100
AcDbEntity
  8
SLD-0
 62
     7
100
AcDbLine
 10
231.497011614
 20
222.9266609756
 30
0.0
 11
242.997011614
 21
222.9266609756
 31
0.0
  0
LINE
  5
371
330
36A
100
AcDbEntity
  8
SLD-0
 62
     7
100
AcDbLine
 10
242.997011614
 20
222.9266609756
 30
0.0
 11
249.347011614
 21
222.9266609756
 31
0.0
  0
MTEXT
  5
372
330
36A
100
AcDbEntity
  8
SLD-0
 62
     7
100
AcDbMText
 10
232.8363167793
 20
227.4007073875
 30
0.0
 40
3.5
 41
0.0
 71
     1
 72
     1
  1
11,5
  7
SLDTEXTSTYLE2
 73
     1
 44
1.0
  0
SOLID
  5
373
330
36A
100
AcDbEntity
  8
SLD-0
 62
     7
100
AcDbTrace
 10
231.497011614
 20
222.9266609756
 30
0.0
 11
228.195011614
 21
223.4346609756
 31
0.0
 12
228.195011614
 22
222.4186609756
 32
0.0
 13
228.195011614
 23
222.4186609756
 33
0.0
  0
SOLID
  5
374
330
36A
100
AcDbEntity
  8
SLD-0
 62
     7
100
AcDbTrace
 10
242.997011614
 20
222.9266609756
 30
0.0
 11
246.299011614
 21
222.4186609756
 31
0.0
 12
246.299011614
 22
223.4346609756
 32
0.0
 13
246.299011614
 23
223.4346609756
 33
0.0
  0
ENDBLK
  5
36C
330
36A
100
AcDbEntity
  8
0
100
AcDbBlockEnd
  0
BLOCK
  5
377
330
376
100
AcDbEntity
  8
0
100
AcDbBlockBegin
  2
_D_13
 70
     0
 10
0.0
 20
0.0
 30
0.0
  3
_D_13
  1

  0
LINE
  5
379
330
376
100
AcDbEntity
  8
SLD-0
 62
     7
100
AcDbLine
 10
224.247011614
 20
258.3054557125
 30
0.0
 11
216.096753645
 21
258.3054557125
 31
0.0
  0
LINE
  5
37A
330
376
100
AcDbEntity
  8
SLD-0
 62
     7
100
AcDbLine
 10
236.247011614
 20
248.3054557125
 30
0.0
 11
216.096753645
 21
248.3054557125
 31
0.0
  0
LINE
  5
37B
330
376
100
AcDbEntity
  8
SLD-0
 62
     7
100
AcDbLine
 10
217.096753645
 20
258.3054557125
 30
0.0
 11
217.096753645
 21
264.6554557125
 31
0.0
  0
LINE
  5
37C
330
376
100
AcDbEntity
  8
SLD-0
 62
     7
100
AcDbLine
 10
217.096753645
 20
258.3054557125
 30
0.0
 11
217.096753645
 21
248.3054557125
 31
0.0
  0
LINE
  5
37D
330
376
100
AcDbEntity
  8
SLD-0
 62
     7
100
AcDbLine
 10
217.096753645
 20
248.3054557125
 30
0.0
 11
217.096753645
 21
241.9554557125
 31
0.0
  0
MTEXT
  5
37E
330
376
100
AcDbEntity
  8
SLD-0
 62
     7
100
AcDbMText
 10
212.6227072331
 20
250.6406386565
 30
0.0
 40
3.5
 41
0.0
 71
     1
 72
     1
  1
10
  7
SLDTEXTSTYLE2
 11
6.123233995736766E-17
 21
1.0
 31
0.0
 73
     1
 44
1.0
  0
SOLID
  5
37F
330
376
100
AcDbEntity
  8
SLD-0
 62
     7
100
AcDbTrace
 10
217.096753645
 20
258.3054557125
 30
0.0
 11
217.604753645
 21
261.6074557125
 31
0.0
 12
216.588753645
 22
261.6074557125
 32
0.0
 13
216.588753645
 23
261.6074557125
 33
0.0
  0
SOLID
  5
380
330
376
100
AcDbEntity
  8
SLD-0
 62
     7
100
AcDbTrace
 10
217.096753645
 20
248.3054557125
 30
0.0
 11
216.588753645
 21
245.0034557125
 31
0.0
 12
217.604753645
 22
245.0034557125
 32
0.0
 13
217.604753645
 23
245.0034557125
 33
0.0
  0
ENDBLK
  5
378
330
376
100
AcDbEntity
  8
0
100
AcDbBlockEnd
  0
BLOCK
  5
383
330
382
100
AcDbEntity
  8
0
100
AcDbBlockBegin
  2
_D_14
 70
     0
 10
0.0
 20
0.0
 30
0.0
  3
_D_14
  1

  0
LINE
  5
385
330
382
100
AcDbEntity
  8
SLD-0
 62
     7
100
AcDbLine
 10
224.247011614
 20
258.3054557125
 30
0.0
 11
206.3682818632
 21
258.3054557125
 31
0.0
  0
LINE
  5
386
330
382
100
AcDbEntity
  8
SLD-0
 62
     7
100
AcDbLine
 10
224.247011614
 20
103.3054557125
 30
0.0
 11
206.3682818632
 21
103.3054557125
 31
0.0
  0
LINE
  5
387
330
382
100
AcDbEntity
  8
SLD-0
 62
     7
100
AcDbLine
 10
207.3682818632
 20
258.3054557125
 30
0.0
 11
207.3682818632
 21
103.3054557125
 31
0.0
  0
MTEXT
  5
388
330
382
100
AcDbEntity
  8
SLD-0
 62
     7
100
AcDbMText
 10
202.8942354513
 20
170.2199023008
 30
0.0
 40
3.5
 41
0.0
 71
     1
 72
     1
  1
155
  7
SLDTEXTSTYLE2
 11
6.123233995736766E-17
 21
1.0
 31
0.0
 73
     1
 44
1.0
  0
SOLID
  5
389
330
382
100
AcDbEntity
  8
SLD-0
 62
     7
100
AcDbTrace
 10
207.3682818632
 20
258.3054557125
 30
0.0
 11
206.8602818632
 21
255.0034557125
 31
0.0
 12
207.8762818632
 22
255.0034557125
 32
0.0
 13
207.8762818632
 23
255.0034557125
 33
0.0
  0
SOLID
  5
38A
330
382
100
AcDbEntity
  8
SLD-0
 62
     7
100
AcDbTrace
 10
207.3682818632
 20
103.3054557125
 30
0.0
 11
207.8762818632
 21
106.6074557125
 31
0.0
 12
206.8602818632
 22
106.6074557125
 32
0.0
 13
206.8602818632
 23
106.6074557125
 33
0.0
  0
ENDBLK
  5
384
330
382
100
AcDbEntity
  8
0
100
AcDbBlockEnd
  0
BLOCK
  5
38D
330
38C
100
AcDbEntity
  8
0
100
AcDbBlockBegin
  2
_D_15
 70
     0
 10
0.0
 20
0.0
 30
0.0
  3
_D_15
  1

  0
LINE
  5
38F
330
38C
100
AcDbEntity
  8
SLD-0
 62
     7
100
AcDbLine
 10
236.247011614
 20
113.3054557125
 30
0.0
 11
216.096753645
 21
113.3054557125
 31
0.0
  0
LINE
  5
390
330
38C
100
AcDbEntity
  8
SLD-0
 62
     7
100
AcDbLine
 10
224.247011614
 20
103.3054557125
 30
0.0
 11
216.096753645
 21
103.3054557125
 31
0.0
  0
LINE
  5
391
330
38C
100
AcDbEntity
  8
SLD-0
 62
     7
100
AcDbLine
 10
217.096753645
 20
113.3054557125
 30
0.0
 11
217.096753645
 21
119.6554557125
 31
0.0
  0
LINE
  5
392
330
38C
100
AcDbEntity
  8
SLD-0
 62
     7
100
AcDbLine
 10
217.096753645
 20
113.3054557125
 30
0.0
 11
217.096753645
 21
103.3054557125
 31
0.0
  0
LINE
  5
393
330
38C
100
AcDbEntity
  8
SLD-0
 62
     7
100
AcDbLine
 10
217.096753645
 20
103.3054557125
 30
0.0
 11
217.096753645
 21
96.9554557125
 31
0.0
  0
MTEXT
  5
394
330
38C
100
AcDbEntity
  8
SLD-0
 62
     7
100
AcDbMText
 10
212.6227072331
 20
105.8113909062
 30
0.0
 40
3.5
 41
0.0
 71
     1
 72
     1
  1
10
  7
SLDTEXTSTYLE2
 11
6.123233995736766E-17
 21
1.0
 31
0.0
 73
     1
 44
1.0
  0
SOLID
  5
395
330
38C
100
AcDbEntity
  8
SLD-0
 62
     7
100
AcDbTrace
 10
217.096753645
 20
113.3054557125
 30
0.0
 11
217.604753645
 21
116.6074557125
 31
0.0
 12
216.588753645
 22
116.6074557125
 32
0.0
 13
216.588753645
 23
116.6074557125
 33
0.0
  0
SOLID
  5
396
330
38C
100
AcDbEntity
  8
SLD-0
 62
     7
100
AcDbTrace
 10
217.096753645
 20
103.3054557125
 30
0.0
 11
216.588753645
 21
100.0034557125
 31
0.0
 12
217.604753645
 22
100.0034557125
 32
0.0
 13
217.604753645
 23
100.0034557125
 33
0.0
  0
ENDBLK
  5
38E
330
38C
100
AcDbEntity
  8
0
100
AcDbBlockEnd
  0
BLOCK
  5
399
330
398
100
AcDbEntity
  8
0
100
AcDbBlockBegin
  2
_D_16
 70
     0
 10
0.0
 20
0.0
 30
0.0
  3
_D_16
  1

  0
LINE
  5
39B
330
398
100
AcDbEntity
  8
SLD-0
 62
     7
100
AcDbLine
 10
102.5418988823
 20
60.7747057431
 30
0.0
 11
102.5418988823
 21
71.3765010738
 31
0.0
  0
LINE
  5
39C
330
398
100
AcDbEntity
  8
SLD-0
 62
     7
100
AcDbLine
 10
99.5418988823
 20
60.7747057431
 30
0.0
 11
99.5418988823
 21
71.3765010738
 31
0.0
  0
LINE
  5
39D
330
398
100
AcDbEntity
  8
SLD-0
 62
     7
100
AcDbLine
 10
102.5418988823
 20
70.3765010738
 30
0.0
 11
109.3685857236
 21
70.3765010738
 31
0.0
  0
LINE
  5
39E
330
398
100
AcDbEntity
  8
SLD-0
 62
     7
100
AcDbLine
 10
102.5418988823
 20
70.3765010738
 30
0.0
 11
99.5418988823
 21
70.3765010738
 31
0.0
  0
LINE
  5
39F
330
398
100
AcDbEntity
  8
SLD-0
 62
     7
100
AcDbLine
 10
99.5418988823
 20
70.3765010738
 30
0.0
 11
93.1918988823
 21
70.3765010738
 31
0.0
  0
MTEXT
  5
3A0
330
398
100
AcDbEntity
  8
SLD-0
 62
     7
100
AcDbMText
 10
106.7824745301
 20
74.8505474857
 30
0.0
 40
3.5
 41
0.0
 71
     1
 72
     1
  1
3
  7
SLDTEXTSTYLE2
 73
     1
 44
1.0
  0
SOLID
  5
3A1
330
398
100
AcDbEntity
  8
SLD-0
 62
     7
100
AcDbTrace
 10
102.5418988823
 20
70.3765010738
 30
0.0
 11
105.8438988823
 21
69.8685010738
 31
0.0
 12
105.8438988823
 22
70.8845010738
 32
0.0
 13
105.8438988823
 23
70.8845010738
 33
0.0
  0
SOLID
  5
3A2
330
398
100
AcDbEntity
  8
SLD-0
 62
     7
100
AcDbTrace
 10
99.5418988823
 20
70.3765010738
 30
0.0
 11
96.2398988823
 21
70.8845010738
 31
0.0
 12
96.2398988823
 22
69.8685010738
 32
0.0
 13
96.2398988823
 23
69.8685010738
 33
0.0
  0
ENDBLK
  5
39A
330
398
100
AcDbEntity
  8
0
100
AcDbBlockEnd
  0
BLOCK
  5
3A5
330
3A4
100
AcDbEntity
  8
0
100
AcDbBlockBegin
  2
_D_17
 70
     0
 10
0.0
 20
0.0
 30
0.0
  3
_D_17
  1

  0
LINE
  5
3A7
330
3A4
100
AcDbEntity
  8
SLD-0
 62
     7
100
AcDbLine
 10
150.5418988823
 20
55.6747057431
 30
0.0
 11
167.285562001
 21
55.6747057431
 31
0.0
  0
LINE
  5
3A8
330
3A4
100
AcDbEntity
  8
SLD-0
 62
     7
100
AcDbLine
 10
150.5418988823
 20
39.9747057431
 30
0.0
 11
167.285562001
 21
39.9747057431
 31
0.0
  0
LINE
  5
3A9
330
3A4
100
AcDbEntity
  8
SLD-0
 62
     7
100
AcDbLine
 10
166.285562001
 20
55.6747057431
 30
0.0
 11
166.285562001
 21
39.9747057431
 31
0.0
  0
MTEXT
  5
3AA
330
3A4
100
AcDbEntity
  8
SLD-0
 62
     7
100
AcDbMText
 10
161.8115155891
 20
44.2269349018
 30
0.0
 40
3.5
 41
0.0
 71
     1
 72
     1
  1
16
  7
SLDTEXTSTYLE2
 11
6.123233995736766E-17
 21
1.0
 31
0.0
 73
     1
 44
1.0
  0
SOLID
  5
3AB
330
3A4
100
AcDbEntity
  8
SLD-0
 62
     7
100
AcDbTrace
 10
166.285562001
 20
55.6747057431
 30
0.0
 11
165.777562001
 21
52.3727057431
 31
0.0
 12
166.793562001
 22
52.3727057431
 32
0.0
 13
166.793562001
 23
52.3727057431
 33
0.0
  0
SOLID
  5
3AC
330
3A4
100
AcDbEntity
  8
SLD-0
 62
     7
100
AcDbTrace
 10
166.285562001
 20
39.9747057431
 30
0.0
 11
166.793562001
 21
43.2767057431
 31
0.0
 12
165.777562001
 22
43.2767057431
 32
0.0
 13
165.777562001
 23
43.2767057431
 33
0.0
  0
ENDBLK
  5
3A6
330
3A4
100
AcDbEntity
  8
0
100
AcDbBlockEnd
  0
BLOCK
  5
3B0
330
3AF
100
AcDbEntity
  8
0
100
AcDbBlockBegin
  2
_D_18
 70
     0
 10
0.0
 20
0.0
 30
0.0
  3
_D_18
  1

  0
ARC
  5
3B2
330
3AF
100
AcDbEntity
  8
SLD-0
 62
     7
100
AcDbCircle
 10
102.5418988823
 20
47.8247057431
 30
0.0
 40
25.17030096528217
100
AcDbArc
 50
270.0
 51
0.0
  0
LINE
  5
3B3
330
3AF
100
AcDbEntity
  8
SLD-0
 62
     7
100
AcDbLine
 10
102.5418988823
 20
34.7747057431
 30
0.0
 11
102.5418988823
 21
21.6544047778
 31
0.0
  0
MTEXT
  5
3B4
330
3AF
100
AcDbEntity
  8
SLD-0
 62
     7
100
AcDbMText
 10
114.0721275239
 20
30.2811807394
 30
0.0
 40
3.5
 41
0.0
 71
     1
 72
     1
  1
90°
  7
SLDTEXTSTYLE2
 11
0.7317666642552506
 21
0.68155524287085
 31
0.0
 73
     1
 44
1.0
  0
SOLID
  5
3B5
330
3AF
100
AcDbEntity
  8
SLD-0
 62
     7
100
AcDbTrace
 10
102.5418988823
 20
22.6544047778
 30
0.0
 11
105.8699870879
 21
22.362691055
 31
0.0
 12
105.8037697927
 22
23.376530919
 32
0.0
 13
105.8037697927
 23
23.376530919
 33
0.0
  0
SOLID
  5
3B6
330
3AF
100
AcDbEntity
  8
SLD-0
 62
     7
100
AcDbTrace
 10
127.7121998476
 20
47.8247057431
 30
0.0
 11
126.9900737064
 21
44.5628348327
 31
0.0
 12
128.0039135704
 22
44.4966175376
 32
0.0
 13
128.0039135704
 23
44.4966175376
 33
0.0
  0
ENDBLK
  5
3B1
330
3AF
100
AcDbEntity
  8
0
100
AcDbBlockEnd
  0
BLOCK
  5
3B9
330
3B8
100
AcDbEntity
  8
0
100
AcDbBlockBegin
  2
_D_19
 70
     0
 10
0.0
 20
0.0
 30
0.0
  3
_D_19
  1

  0
LINE
  5
3BB
330
3B8
100
AcDbEntity
  8
SLD-0
 62
     7
100
AcDbLine
 10
150.5418988823
 20
55.6747057431
 30
0.0
 11
159.7120351878
 21
55.6747057431
 31
0.0
  0
LINE
  5
3BC
330
3B8
100
AcDbEntity
  8
SLD-0
 62
     7
100
AcDbLine
 10
150.5418988823
 20
54.1747057431
 30
0.0
 11
159.7120351878
 21
54.1747057431
 31
0.0
  0
LINE
  5
3BD
330
3B8
100
AcDbEntity
  8
SLD-0
 62
     7
100
AcDbLine
 10
158.7120351878
 20
55.6747057431
 30
0.0
 11
158.7120351878
 21
65.6423802057
 31
0.0
  0
LINE
  5
3BE
330
3B8
100
AcDbEntity
  8
SLD-0
 62
     7
100
AcDbLine
 10
158.7120351878
 20
55.6747057431
 30
0.0
 11
158.7120351878
 21
54.1747057431
 31
0.0
  0
LINE
  5
3BF
330
3B8
100
AcDbEntity
  8
SLD-0
 62
     7
100
AcDbLine
 10
158.7120351878
 20
54.1747057431
 30
0.0
 11
158.7120351878
 21
47.8247057431
 31
0.0
  0
MTEXT
  5
3C0
330
3B8
100
AcDbEntity
  8
SLD-0
 62
     7
100
AcDbMText
 10
154.2379887759
 20
59.1771025711
 30
0.0
 40
3.5
 41
0.0
 71
     1
 72
     1
  1
1,5
  7
SLDTEXTSTYLE2
 11
6.123233995736766E-17
 21
1.0
 31
0.0
 73
     1
 44
1.0
  0
SOLID
  5
3C1
330
3B8
100
AcDbEntity
  8
SLD-0
 62
     7
100
AcDbTrace
 10
158.7120351878
 20
55.6747057431
 30
0.0
 11
159.2200351878
 21
58.9767057431
 31
0.0
 12
158.2040351878
 22
58.9767057431
 32
0.0
 13
158.2040351878
 23
58.9767057431
 33
0.0
  0
SOLID
  5
3C2
330
3B8
100
AcDbEntity
  8
SLD-0
 62
     7
100
AcDbTrace
 10
158.7120351878
 20
54.1747057431
 30
0.0
 11
158.2040351878
 21
50.8727057431
 31
0.0
 12
159.2200351878
 22
50.8727057431
 32
0.0
 13
159.2200351878
 23
50.8727057431
 33
0.0
  0
ENDBLK
  5
3BA
330
3B8
100
AcDbEntity
  8
0
100
AcDbBlockEnd
  0
ENDSEC
  0
SECTION
  2
ENTITIES
  0
LINE
  5
B7
330
1F
100
AcDbEntity
  8
SLD-0
  6
Continuous
 62
     7
100
AcDbLine
 10
128.6418988823
 20
205.0554557125
 30
0.0
 11
126.3418988823
 21
205.0554557125
 31
0.0
  0
LINE
  5
B8
330
1F
100
AcDbEntity
  8
SLD-0
  6
Continuous
 62
     7
100
AcDbLine
 10
126.3418988823
 20
197.5554557125
 30
0.0
 11
128.6418988823
 21
197.5554557125
 31
0.0
  0
LINE
  5
B9
330
1F
100
AcDbEntity
  8
SLD-0
  6
Continuous
 62
     7
100
AcDbLine
 10
136.1258765343
 20
164.568667952
 30
0.0
 11
133.1261061007
 21
164.5315553453
 31
0.0
  0
LINE
  5
BA
330
1F
100
AcDbEntity
  8
SLD-0
  6
Continuous
 62
     7
100
AcDbLine
 10
140.9262281389
 20
138.5054557125
 30
0.0
 11
140.8859694199
 21
138.3765872399
 31
0.0
  0
LINE
  5
BB
330
1F
100
AcDbEntity
  8
SLD-0
  6
Continuous
 62
     7
100
AcDbLine
 10
140.8859694199
 20
138.3765872399
 30
0.0
 11
140.8823396445
 21
138.3054557125
 31
0.0
  0
LINE
  5
BC
330
1F
100
AcDbEntity
  8
SLD-0
  6
Continuous
 62
     7
100
AcDbLine
 10
144.667236788
 20
138.2995523113
 30
0.0
 11
143.5194362115
 21
138.4782070511
 31
0.0
  0
LINE
  5
BD
330
1F
100
AcDbEntity
  8
SLD-0
  6
Continuous
 62
     7
100
AcDbLine
 10
143.5194362115
 20
138.4782070511
 30
0.0
 11
143.050534474
 21
138.5554557125
 31
0.0
  0
LINE
  5
BE
330
1F
100
AcDbEntity
  8
SLD-0
  6
Continuous
 62
     7
100
AcDbLine
 10
138.1722115458
 20
222.6235468729
 30
0.0
 11
138.2899064428
 21
222.4276822499
 31
0.0
  0
LINE
  5
BF
330
1F
100
AcDbEntity
  8
SLD-0
  6
Continuous
 62
     7
100
AcDbLine
 10
137.6887589144
 20
224.3149869211
 30
0.0
 11
137.1843819259
 21
224.50270295
 31
0.0
  0
LINE
  5
C0
330
1F
100
AcDbEntity
  8
SLD-0
  6
Continuous
 62
     7
100
AcDbLine
 10
131.7612125248
 20
224.8214611538
 30
0.0
 11
136.9429495659
 21
223.5322852999
 31
0.0
  0
LINE
  5
C1
330
1F
100
AcDbEntity
  8
SLD-0
  6
Continuous
 62
     7
100
AcDbLine
 10
137.1843819259
 20
224.50270295
 30
0.0
 11
132.7579760327
 21
225.6039582919
 31
0.0
  0
LINE
  5
C2
330
1F
100
AcDbEntity
  8
SLD-0
  6
Continuous
 62
     7
100
AcDbLine
 10
142.7256233258
 20
136.8054557125
 30
0.0
 11
142.7031430387
 21
136.5554557125
 31
0.0
  0
LINE
  5
C3
330
1F
100
AcDbEntity
  8
SLD-0
  6
Continuous
 62
     7
100
AcDbLine
 10
133.2418988823
 20
200.0554557125
 30
0.0
 11
131.8418988823
 21
200.0554557125
 31
0.0
  0
LINE
  5
C4
330
1F
100
AcDbEntity
  8
SLD-0
  6
Continuous
 62
     7
100
AcDbLine
 10
133.5418988823
 20
202.2554557125
 30
0.0
 11
133.5418988823
 21
200.3554557125
 31
0.0
  0
LINE
  5
C5
330
1F
100
AcDbEntity
  8
SLD-0
  6
Continuous
 62
     7
100
AcDbLine
 10
131.5418988823
 20
200.3554557125
 30
0.0
 11
131.5418988823
 21
202.2554557125
 31
0.0
  0
LINE
  5
C6
330
1F
100
AcDbEntity
  8
SLD-0
  6
Continuous
 62
     7
100
AcDbLine
 10
131.8418988823
 20
202.5554557125
 30
0.0
 11
133.2418988823
 21
202.5554557125
 31
0.0
  0
LINE
  5
C7
330
1F
100
AcDbEntity
  8
SLD-0
  6
Continuous
 62
     7
100
AcDbLine
 10
133.5418988823
 20
200.3554557125
 30
0.0
 11
133.5418988823
 21
200.0054557125
 31
0.0
  0
LINE
  5
C8
330
1F
100
AcDbEntity
  8
SLD-0
  6
Continuous
 62
     7
100
AcDbLine
 10
131.5418988823
 20
200.0054557125
 30
0.0
 11
131.5418988823
 21
200.3554557125
 31
0.0
  0
LINE
  5
C9
330
1F
100
AcDbEntity
  8
SLD-0
  6
Continuous
 62
     7
100
AcDbLine
 10
133.5418988823
 20
202.6054557125
 30
0.0
 11
133.5418988823
 21
202.2554557125
 31
0.0
  0
LINE
  5
CA
330
1F
100
AcDbEntity
  8
SLD-0
  6
Continuous
 62
     7
100
AcDbLine
 10
131.5418988823
 20
202.2554557125
 30
0.0
 11
131.5418988823
 21
202.6054557125
 31
0.0
  0
LINE
  5
CB
330
1F
100
AcDbEntity
  8
SLD-0
  6
Continuous
 62
     7
100
AcDbLine
 10
99.5418988823
 20
186.3054557125
 30
0.0
 11
98.6561124447
 21
186.3054557125
 31
0.0
  0
LINE
  5
CC
330
1F
100
AcDbEntity
  8
SLD-0
  6
Continuous
 62
     7
100
AcDbLine
 10
98.6561124447
 20
186.3054557125
 30
0.0
 11
98.3025590541
 21
186.3054557125
 31
0.0
  0
LINE
  5
CD
330
1F
100
AcDbEntity
  8
SLD-0
  6
Continuous
 62
     7
100
AcDbLine
 10
98.3025590541
 20
216.3054557125
 30
0.0
 11
98.6561124447
 21
216.3054557125
 31
0.0
  0
LINE
  5
CE
330
1F
100
AcDbEntity
  8
SLD-0
  6
Continuous
 62
     7
100
AcDbLine
 10
98.6561124447
 20
216.3054557125
 30
0.0
 11
99.5418988823
 21
216.3054557125
 31
0.0
  0
LINE
  5
CF
330
1F
100
AcDbEntity
  8
SLD-0
  6
Continuous
 62
     7
100
AcDbLine
 10
98.3025590541
 20
186.3054557125
 30
0.0
 11
98.0724028359
 21
186.3054557125
 31
0.0
  0
LINE
  5
D0
330
1F
100
AcDbEntity
  8
SLD-0
  6
Continuous
 62
     7
100
AcDbLine
 10
98.0724028359
 20
216.3054557125
 30
0.0
 11
98.3025590541
 21
216.3054557125
 31
0.0
  0
LINE
  5
D1
330
1F
100
AcDbEntity
  8
SLD-0
  6
Continuous
 62
     7
100
AcDbLine
 10
98.0724028359
 20
186.3054557125
 30
0.0
 11
88.5418988823
 21
186.3054557125
 31
0.0
  0
LINE
  5
D2
330
1F
100
AcDbEntity
  8
SLD-0
  6
Continuous
 62
     7
100
AcDbLine
 10
88.5418988823
 20
216.3054557125
 30
0.0
 11
98.0724028359
 21
216.3054557125
 31
0.0
  0
LINE
  5
D3
330
1F
100
AcDbEntity
  8
SLD-0
  6
Continuous
 62
     7
100
AcDbLine
 10
88.0447939338
 20
186.7822900974
 30
0.0
 11
88.0418988823
 21
186.8355851786
 31
0.0
  0
LINE
  5
D4
330
1F
100
AcDbEntity
  8
SLD-0
  6
Continuous
 62
     7
100
AcDbLine
 10
88.0418988823
 20
215.7753262463
 30
0.0
 11
88.0447939338
 21
215.8286213275
 31
0.0
  0
LINE
  5
D5
330
1F
100
AcDbEntity
  8
SLD-0
  6
Continuous
 62
     7
100
AcDbLine
 10
88.0418988823
 20
186.8355851786
 30
0.0
 11
88.0418988823
 21
215.7753262463
 31
0.0
  0
LINE
  5
D6
330
1F
100
AcDbEntity
  8
SLD-0
  6
Continuous
 62
     7
100
AcDbLine
 10
88.0418988823
 20
186.8054557125
 30
0.0
 11
88.0418988823
 21
186.8355851786
 31
0.0
  0
LINE
  5
D7
330
1F
100
AcDbEntity
  8
SLD-0
  6
Continuous
 62
     7
100
AcDbLine
 10
88.0418988823
 20
215.7753262463
 30
0.0
 11
88.0418988823
 21
215.8054557125
 31
0.0
  0
LINE
  5
D8
330
1F
100
AcDbEntity
  8
SLD-0
  6
Continuous
 62
     7
100
AcDbLine
 10
133.1841728128
 20
159.8380880424
 30
0.0
 11
133.1803348732
 21
160.1483043983
 31
0.0
  0
LINE
  5
D9
330
1F
100
AcDbEntity
  8
SLD-0
  6
Continuous
 62
     7
100
AcDbLine
 10
133.1803348732
 20
160.1483043983
 30
0.0
 11
136.1801053068
 21
160.185417005
 31
0.0
  0
LINE
  5
DA
330
1F
100
AcDbEntity
  8
SLD-0
  6
Continuous
 62
     7
100
AcDbLine
 10
136.1839432464
 20
159.8752006491
 30
0.0
 11
136.1801053068
 21
160.185417005
 31
0.0
  0
LINE
  5
DB
330
1F
100
AcDbEntity
  8
SLD-0
  6
Continuous
 62
     7
100
AcDbLine
 10
133.1803348732
 20
160.1483043983
 30
0.0
 11
133.174777804
 21
160.5974760815
 31
0.0
  0
LINE
  5
DC
330
1F
100
AcDbEntity
  8
SLD-0
  6
Continuous
 62
     7
100
AcDbLine
 10
136.1801053068
 20
160.185417005
 30
0.0
 11
136.1745482376
 21
160.6345886882
 31
0.0
  0
LINE
  5
DD
330
1F
100
AcDbEntity
  8
SLD-0
  6
Continuous
 62
     7
100
AcDbLine
 10
133.1653964376
 20
161.3557614173
 30
0.0
 11
133.1420612148
 21
163.2419213406
 31
0.0
  0
LINE
  5
DE
330
1F
100
AcDbEntity
  8
SLD-0
  6
Continuous
 62
     7
100
AcDbLine
 10
136.1651668712
 20
161.3928740241
 30
0.0
 11
136.1418316484
 21
163.2790339473
 31
0.0
  0
LINE
  5
DF
330
1F
100
AcDbEntity
  8
SLD-0
  6
Continuous
 62
     7
100
AcDbLine
 10
133.174777804
 20
160.5974760815
 30
0.0
 11
133.1653964376
 21
161.3557614173
 31
0.0
  0
LINE
  5
E0
330
1F
100
AcDbEntity
  8
SLD-0
  6
Continuous
 62
     7
100
AcDbLine
 10
136.1745482376
 20
160.6345886882
 30
0.0
 11
136.1651668712
 21
161.3928740241
 31
0.0
  0
LINE
  5
E1
330
1F
100
AcDbEntity
  8
SLD-0
  6
Continuous
 62
     7
100
AcDbLine
 10
133.1420612148
 20
163.2419213406
 30
0.0
 11
133.1261061007
 21
164.5315553453
 31
0.0
  0
LINE
  5
E2
330
1F
100
AcDbEntity
  8
SLD-0
  6
Continuous
 62
     7
100
AcDbLine
 10
136.1418316484
 20
163.2790339473
 30
0.0
 11
136.1258765343
 21
164.568667952
 31
0.0
  0
LINE
  5
E3
330
1F
100
AcDbEntity
  8
SLD-0
  6
Continuous
 62
     7
100
AcDbLine
 10
130.0485345115
 20
162.6995164346
 30
0.0
 11
129.9359596044
 21
171.7988200832
 31
0.0
  0
LINE
  5
E4
330
1F
100
AcDbEntity
  8
SLD-0
  6
Continuous
 62
     7
100
AcDbLine
 10
129.9359596044
 20
171.7988200832
 30
0.0
 11
130.4421067778
 21
171.3050437787
 31
0.0
  0
LINE
  5
E5
330
1F
100
AcDbEntity
  8
SLD-0
  6
Continuous
 62
     7
100
AcDbLine
 10
130.4421067778
 20
171.3050437787
 30
0.0
 11
130.542310816
 21
163.205663608
 31
0.0
  0
LINE
  5
E6
330
1F
100
AcDbEntity
  8
SLD-0
  6
Continuous
 62
     7
100
AcDbLine
 10
130.0485345115
 20
162.6995164346
 30
0.0
 11
130.542310816
 21
163.205663608
 31
0.0
  0
LINE
  5
E7
330
1F
100
AcDbEntity
  8
SLD-0
  6
Continuous
 62
     7
100
AcDbLine
 10
129.9359596044
 20
171.7988200832
 30
0.0
 11
139.0352632531
 21
171.9113949903
 31
0.0
  0
LINE
  5
E8
330
1F
100
AcDbEntity
  8
SLD-0
  6
Continuous
 62
     7
100
AcDbLine
 10
132.9483125974
 20
162.7353919544
 30
0.0
 11
130.0485345115
 21
162.6995164346
 31
0.0
  0
LINE
  5
E9
330
1F
100
AcDbEntity
  8
SLD-0
  6
Continuous
 62
     7
100
AcDbLine
 10
132.9841881172
 20
159.8356138686
 30
0.0
 11
132.9483125974
 21
162.7353919544
 31
0.0
  0
LINE
  5
EA
330
1F
100
AcDbEntity
  8
SLD-0
  6
Continuous
 62
     7
100
AcDbLine
 10
136.2839355942
 20
159.876437736
 30
0.0
 11
132.9841881172
 21
159.8356138686
 31
0.0
  0
LINE
  5
EB
330
1F
100
AcDbEntity
  8
SLD-0
  6
Continuous
 62
     7
100
AcDbLine
 10
136.2839355942
 20
159.876437736
 30
0.0
 11
136.2480600743
 21
162.7762158218
 31
0.0
  0
LINE
  5
EC
330
1F
100
AcDbEntity
  8
SLD-0
  6
Continuous
 62
     7
100
AcDbLine
 10
139.1478381602
 20
162.8120913417
 30
0.0
 11
136.2480600743
 21
162.7762158218
 31
0.0
  0
LINE
  5
ED
330
1F
100
AcDbEntity
  8
SLD-0
  6
Continuous
 62
     7
100
AcDbLine
 10
139.0352632531
 20
171.9113949903
 30
0.0
 11
139.1478381602
 21
162.8120913417
 31
0.0
  0
LINE
  5
EE
330
1F
100
AcDbEntity
  8
SLD-0
  6
Continuous
 62
     7
100
AcDbLine
 10
136.2418746399
 20
163.2761775608
 30
0.0
 11
138.6416909868
 21
163.3058676462
 31
0.0
  0
LINE
  5
EF
330
1F
100
AcDbEntity
  8
SLD-0
  6
Continuous
 62
     7
100
AcDbLine
 10
139.1478381602
 20
162.8120913417
 30
0.0
 11
138.6416909868
 21
163.3058676462
 31
0.0
  0
LINE
  5
F0
330
1F
100
AcDbEntity
  8
SLD-0
  6
Continuous
 62
     7
100
AcDbLine
 10
136.2480600743
 20
162.7762158218
 30
0.0
 11
136.2418746399
 21
163.2761775608
 31
0.0
  0
LINE
  5
F1
330
1F
100
AcDbEntity
  8
SLD-0
  6
Continuous
 62
     7
100
AcDbLine
 10
130.542310816
 20
163.205663608
 30
0.0
 11
132.9421271629
 21
163.2353536934
 31
0.0
  0
LINE
  5
F2
330
1F
100
AcDbEntity
  8
SLD-0
  6
Continuous
 62
     7
100
AcDbLine
 10
132.9421271629
 20
163.2353536934
 30
0.0
 11
132.9483125974
 21
162.7353919544
 31
0.0
  0
LINE
  5
F3
330
1F
100
AcDbEntity
  8
SLD-0
  6
Continuous
 62
     7
100
AcDbLine
 10
139.0352632531
 20
171.9113949903
 30
0.0
 11
138.5414869486
 21
171.4052478169
 31
0.0
  0
LINE
  5
F4
330
1F
100
AcDbEntity
  8
SLD-0
  6
Continuous
 62
     7
100
AcDbLine
 10
138.5414869486
 20
171.4052478169
 30
0.0
 11
130.4421067778
 21
171.3050437787
 31
0.0
  0
LINE
  5
F5
330
1F
100
AcDbEntity
  8
SLD-0
  6
Continuous
 62
     7
100
AcDbLine
 10
138.6416909868
 20
163.3058676462
 30
0.0
 11
138.5414869486
 21
171.4052478169
 31
0.0
  0
LINE
  5
F6
330
1F
100
AcDbEntity
  8
SLD-0
  6
Continuous
 62
     7
100
AcDbLine
 10
132.9532609449
 20
162.3354225633
 30
0.0
 11
133.1532456405
 21
162.3378967371
 31
0.0
  0
LINE
  5
F7
330
1F
100
AcDbEntity
  8
SLD-0
  6
Continuous
 62
     7
100
AcDbLine
 10
136.1530160741
 20
162.3750093438
 30
0.0
 11
136.2530084219
 21
162.3762464307
 31
0.0
  0
LINE
  5
F8
330
1F
100
AcDbEntity
  8
SLD-0
  6
Continuous
 62
     7
100
AcDbLine
 10
136.262905117
 20
161.5763076484
 30
0.0
 11
136.1629127693
 21
161.5750705615
 31
0.0
  0
LINE
  5
F9
330
1F
100
AcDbEntity
  8
SLD-0
  6
Continuous
 62
     7
100
AcDbLine
 10
133.1631423356
 20
161.5379579548
 30
0.0
 11
132.9631576401
 21
161.535483781
 31
0.0
  0
LINE
  5
FA
330
1F
100
AcDbEntity
  8
SLD-0
  6
Continuous
 62
     7
100
AcDbLine
 10
136.2678534646
 20
161.1763382572
 30
0.0
 11
136.1678611168
 21
161.1751011703
 31
0.0
  0
LINE
  5
FB
330
1F
100
AcDbEntity
  8
SLD-0
  6
Continuous
 62
     7
100
AcDbLine
 10
133.1680906832
 20
161.1379885636
 30
0.0
 11
132.9681059876
 21
161.1355143898
 31
0.0
  0
LINE
  5
FC
330
1F
100
AcDbEntity
  8
SLD-0
  6
Continuous
 62
     7
100
AcDbLine
 10
144.6902479157
 20
138.5554557125
 30
0.0
 11
144.6677676286
 21
138.3054557125
 31
0.0
  0
LINE
  5
FD
330
1F
100
AcDbEntity
  8
SLD-0
  6
Continuous
 62
     7
100
AcDbLine
 10
142.0418988823
 20
183.3054557125
 30
0.0
 11
142.0418988823
 21
181.3054557125
 31
0.0
  0
LINE
  5
FE
330
1F
100
AcDbEntity
  8
SLD-0
  6
Continuous
 62
     7
100
AcDbLine
 10
140.0418988823
 20
181.3054557125
 30
0.0
 11
142.0418988823
 21
181.3054557125
 31
0.0
  0
LINE
  5
FF
330
1F
100
AcDbEntity
  8
SLD-0
  6
Continuous
 62
     7
100
AcDbLine
 10
140.0418988823
 20
181.3054557125
 30
0.0
 11
140.0418988823
 21
180.3054557125
 31
0.0
  0
LINE
  5
100
330
1F
100
AcDbEntity
  8
SLD-0
  6
Continuous
 62
     7
100
AcDbLine
 10
140.0418988823
 20
180.3054557125
 30
0.0
 11
142.0418988823
 21
180.3054557125
 31
0.0
  0
LINE
  5
101
330
1F
100
AcDbEntity
  8
SLD-0
  6
Continuous
 62
     7
100
AcDbLine
 10
142.0418988823
 20
180.3054557125
 30
0.0
 11
142.0418988823
 21
178.3054557125
 31
0.0
  0
LINE
  5
102
330
1F
100
AcDbEntity
  8
SLD-0
  6
Continuous
 62
     7
100
AcDbLine
 10
142.0418988823
 20
178.3054557125
 30
0.0
 11
143.0418988823
 21
178.3054557125
 31
0.0
  0
LINE
  5
103
330
1F
100
AcDbEntity
  8
SLD-0
  6
Continuous
 62
     7
100
AcDbLine
 10
143.0418988823
 20
180.3054557125
 30
0.0
 11
143.0418988823
 21
178.3054557125
 31
0.0
  0
LINE
  5
104
330
1F
100
AcDbEntity
  8
SLD-0
  6
Continuous
 62
     7
100
AcDbLine
 10
143.0418988823
 20
180.3054557125
 30
0.0
 11
145.0418988823
 21
180.3054557125
 31
0.0
  0
LINE
  5
105
330
1F
100
AcDbEntity
  8
SLD-0
  6
Continuous
 62
     7
100
AcDbLine
 10
145.0418988823
 20
181.3054557125
 30
0.0
 11
145.0418988823
 21
180.3054557125
 31
0.0
  0
LINE
  5
106
330
1F
100
AcDbEntity
  8
SLD-0
  6
Continuous
 62
     7
100
AcDbLine
 10
143.0418988823
 20
181.3054557125
 30
0.0
 11
145.0418988823
 21
181.3054557125
 31
0.0
  0
LINE
  5
107
330
1F
100
AcDbEntity
  8
SLD-0
  6
Continuous
 62
     7
100
AcDbLine
 10
143.0418988823
 20
183.3054557125
 30
0.0
 11
143.0418988823
 21
181.3054557125
 31
0.0
  0
LINE
  5
108
330
1F
100
AcDbEntity
  8
SLD-0
  6
Continuous
 62
     7
100
AcDbLine
 10
142.0418988823
 20
183.3054557125
 30
0.0
 11
143.0418988823
 21
183.3054557125
 31
0.0
  0
LINE
  5
109
330
1F
100
AcDbEntity
  8
SLD-0
  6
Continuous
 62
     7
100
AcDbLine
 10
142.1639536994
 20
183.1834008954
 30
0.0
 11
142.0418988823
 21
183.3054557125
 31
0.0
  0
LINE
  5
10A
330
1F
100
AcDbEntity
  8
SLD-0
  6
Continuous
 62
     7
100
AcDbLine
 10
142.218225863
 20
183.0825669914
 30
0.0
 11
142.218225863
 21
181.1291287317
 31
0.0
  0
LINE
  5
10B
330
1F
100
AcDbEntity
  8
SLD-0
  6
Continuous
 62
     7
100
AcDbLine
 10
142.218225863
 20
181.1291287317
 30
0.0
 11
142.0418988823
 21
181.3054557125
 31
0.0
  0
LINE
  5
10C
330
1F
100
AcDbEntity
  8
SLD-0
  6
Continuous
 62
     7
100
AcDbLine
 10
140.2647876034
 20
181.1291287317
 30
0.0
 11
142.218225863
 21
181.1291287317
 31
0.0
  0
LINE
  5
10D
330
1F
100
AcDbEntity
  8
SLD-0
  6
Continuous
 62
     7
100
AcDbLine
 10
140.1639536994
 20
181.1834008954
 30
0.0
 11
140.0418988823
 21
181.3054557125
 31
0.0
  0
LINE
  5
10E
330
1F
100
AcDbEntity
  8
SLD-0
  6
Continuous
 62
     7
100
AcDbLine
 10
142.8655719016
 20
180.4817826932
 30
0.0
 11
143.0418988823
 21
180.3054557125
 31
0.0
  0
LINE
  5
10F
330
1F
100
AcDbEntity
  8
SLD-0
  6
Continuous
 62
     7
100
AcDbLine
 10
142.8655719016
 20
180.4817826932
 30
0.0
 11
144.8190101612
 21
180.4817826932
 31
0.0
  0
LINE
  5
110
330
1F
100
AcDbEntity
  8
SLD-0
  6
Continuous
 62
     7
100
AcDbLine
 10
144.9198440652
 20
180.4275105295
 30
0.0
 11
145.0418988823
 21
180.3054557125
 31
0.0
  0
LINE
  5
111
330
1F
100
AcDbEntity
  8
SLD-0
  6
Continuous
 62
     7
100
AcDbLine
 10
142.1639536994
 20
178.4275105295
 30
0.0
 11
142.0418988823
 21
178.3054557125
 31
0.0
  0
LINE
  5
112
330
1F
100
AcDbEntity
  8
SLD-0
  6
Continuous
 62
     7
100
AcDbLine
 10
142.9198440652
 20
178.4275105295
 30
0.0
 11
143.0418988823
 21
178.3054557125
 31
0.0
  0
LINE
  5
113
330
1F
100
AcDbEntity
  8
SLD-0
  6
Continuous
 62
     7
100
AcDbLine
 10
140.1639536994
 20
180.4275105295
 30
0.0
 11
140.0418988823
 21
180.3054557125
 31
0.0
  0
LINE
  5
114
330
1F
100
AcDbEntity
  8
SLD-0
  6
Continuous
 62
     7
100
AcDbLine
 10
140.2647876034
 20
180.4817826932
 30
0.0
 11
142.218225863
 21
180.4817826932
 31
0.0
  0
LINE
  5
115
330
1F
100
AcDbEntity
  8
SLD-0
  6
Continuous
 62
     7
100
AcDbLine
 10
142.218225863
 20
180.4817826932
 30
0.0
 11
142.0418988823
 21
180.3054557125
 31
0.0
  0
LINE
  5
116
330
1F
100
AcDbEntity
  8
SLD-0
  6
Continuous
 62
     7
100
AcDbLine
 10
144.9198440652
 20
181.1834008954
 30
0.0
 11
145.0418988823
 21
181.3054557125
 31
0.0
  0
LINE
  5
117
330
1F
100
AcDbEntity
  8
SLD-0
  6
Continuous
 62
     7
100
AcDbLine
 10
142.8655719016
 20
181.1291287317
 30
0.0
 11
144.8190101612
 21
181.1291287317
 31
0.0
  0
LINE
  5
118
330
1F
100
AcDbEntity
  8
SLD-0
  6
Continuous
 62
     7
100
AcDbLine
 10
142.8655719016
 20
181.1291287317
 30
0.0
 11
143.0418988823
 21
181.3054557125
 31
0.0
  0
LINE
  5
119
330
1F
100
AcDbEntity
  8
SLD-0
  6
Continuous
 62
     7
100
AcDbLine
 10
142.218225863
 20
180.4817826932
 30
0.0
 11
142.218225863
 21
178.5283444335
 31
0.0
  0
LINE
  5
11A
330
1F
100
AcDbEntity
  8
SLD-0
  6
Continuous
 62
     7
100
AcDbLine
 10
142.8655719016
 20
183.0825669914
 30
0.0
 11
142.8655719016
 21
181.1291287317
 31
0.0
  0
LINE
  5
11B
330
1F
100
AcDbEntity
  8
SLD-0
  6
Continuous
 62
     7
100
AcDbLine
 10
142.9198440652
 20
183.1834008954
 30
0.0
 11
143.0418988823
 21
183.3054557125
 31
0.0
  0
LINE
  5
11C
330
1F
100
AcDbEntity
  8
SLD-0
  6
Continuous
 62
     7
100
AcDbLine
 10
142.8655719016
 20
180.4817826932
 30
0.0
 11
142.8655719016
 21
178.5283444335
 31
0.0
  0
LINE
  5
11D
330
1F
100
AcDbEntity
  8
SLD-0
  6
Continuous
 62
     7
100
AcDbLine
 10
122.0418988823
 20
226.8054557125
 30
0.0
 11
122.0418988823
 21
224.8054557125
 31
0.0
  0
LINE
  5
11E
330
1F
100
AcDbEntity
  8
SLD-0
  6
Continuous
 62
     7
100
AcDbLine
 10
120.0418988823
 20
224.8054557125
 30
0.0
 11
122.0418988823
 21
224.8054557125
 31
0.0
  0
LINE
  5
11F
330
1F
100
AcDbEntity
  8
SLD-0
  6
Continuous
 62
     7
100
AcDbLine
 10
120.0418988823
 20
224.8054557125
 30
0.0
 11
120.0418988823
 21
223.8054557125
 31
0.0
  0
LINE
  5
120
330
1F
100
AcDbEntity
  8
SLD-0
  6
Continuous
 62
     7
100
AcDbLine
 10
120.0418988823
 20
223.8054557125
 30
0.0
 11
122.0418988823
 21
223.8054557125
 31
0.0
  0
LINE
  5
121
330
1F
100
AcDbEntity
  8
SLD-0
  6
Continuous
 62
     7
100
AcDbLine
 10
122.0418988823
 20
223.8054557125
 30
0.0
 11
122.0418988823
 21
221.8054557125
 31
0.0
  0
LINE
  5
122
330
1F
100
AcDbEntity
  8
SLD-0
  6
Continuous
 62
     7
100
AcDbLine
 10
122.0418988823
 20
221.8054557125
 30
0.0
 11
123.0418988823
 21
221.8054557125
 31
0.0
  0
LINE
  5
123
330
1F
100
AcDbEntity
  8
SLD-0
  6
Continuous
 62
     7
100
AcDbLine
 10
123.0418988823
 20
223.8054557125
 30
0.0
 11
123.0418988823
 21
221.8054557125
 31
0.0
  0
LINE
  5
124
330
1F
100
AcDbEntity
  8
SLD-0
  6
Continuous
 62
     7
100
AcDbLine
 10
123.0418988823
 20
223.8054557125
 30
0.0
 11
125.0418988823
 21
223.8054557125
 31
0.0
  0
LINE
  5
125
330
1F
100
AcDbEntity
  8
SLD-0
  6
Continuous
 62
     7
100
AcDbLine
 10
125.0418988823
 20
224.8054557125
 30
0.0
 11
125.0418988823
 21
223.8054557125
 31
0.0
  0
LINE
  5
126
330
1F
100
AcDbEntity
  8
SLD-0
  6
Continuous
 62
     7
100
AcDbLine
 10
123.0418988823
 20
224.8054557125
 30
0.0
 11
125.0418988823
 21
224.8054557125
 31
0.0
  0
LINE
  5
127
330
1F
100
AcDbEntity
  8
SLD-0
  6
Continuous
 62
     7
100
AcDbLine
 10
123.0418988823
 20
226.8054557125
 30
0.0
 11
123.0418988823
 21
224.8054557125
 31
0.0
  0
LINE
  5
128
330
1F
100
AcDbEntity
  8
SLD-0
  6
Continuous
 62
     7
100
AcDbLine
 10
122.0418988823
 20
226.8054557125
 30
0.0
 11
123.0418988823
 21
226.8054557125
 31
0.0
  0
LINE
  5
129
330
1F
100
AcDbEntity
  8
SLD-0
  6
Continuous
 62
     7
100
AcDbLine
 10
122.8655719016
 20
223.9817826932
 30
0.0
 11
123.0418988823
 21
223.8054557125
 31
0.0
  0
LINE
  5
12A
330
1F
100
AcDbEntity
  8
SLD-0
  6
Continuous
 62
     7
100
AcDbLine
 10
122.8655719016
 20
223.9817826932
 30
0.0
 11
124.8190101612
 21
223.9817826932
 31
0.0
  0
LINE
  5
12B
330
1F
100
AcDbEntity
  8
SLD-0
  6
Continuous
 62
     7
100
AcDbLine
 10
124.9198440652
 20
223.9275105295
 30
0.0
 11
125.0418988823
 21
223.8054557125
 31
0.0
  0
LINE
  5
12C
330
1F
100
AcDbEntity
  8
SLD-0
  6
Continuous
 62
     7
100
AcDbLine
 10
122.1639536994
 20
226.6834008954
 30
0.0
 11
122.0418988823
 21
226.8054557125
 31
0.0
  0
LINE
  5
12D
330
1F
100
AcDbEntity
  8
SLD-0
  6
Continuous
 62
     7
100
AcDbLine
 10
122.218225863
 20
226.5825669914
 30
0.0
 11
122.218225863
 21
224.6291287317
 31
0.0
  0
LINE
  5
12E
330
1F
100
AcDbEntity
  8
SLD-0
  6
Continuous
 62
     7
100
AcDbLine
 10
122.218225863
 20
224.6291287317
 30
0.0
 11
122.0418988823
 21
224.8054557125
 31
0.0
  0
LINE
  5
12F
330
1F
100
AcDbEntity
  8
SLD-0
  6
Continuous
 62
     7
100
AcDbLine
 10
122.8655719016
 20
224.6291287317
 30
0.0
 11
123.0418988823
 21
224.8054557125
 31
0.0
  0
LINE
  5
130
330
1F
100
AcDbEntity
  8
SLD-0
  6
Continuous
 62
     7
100
AcDbLine
 10
122.8655719016
 20
226.5825669914
 30
0.0
 11
122.8655719016
 21
224.6291287317
 31
0.0
  0
LINE
  5
131
330
1F
100
AcDbEntity
  8
SLD-0
  6
Continuous
 62
     7
100
AcDbLine
 10
122.9198440652
 20
226.6834008954
 30
0.0
 11
123.0418988823
 21
226.8054557125
 31
0.0
  0
LINE
  5
132
330
1F
100
AcDbEntity
  8
SLD-0
  6
Continuous
 62
     7
100
AcDbLine
 10
124.9198440652
 20
224.6834008954
 30
0.0
 11
125.0418988823
 21
224.8054557125
 31
0.0
  0
LINE
  5
133
330
1F
100
AcDbEntity
  8
SLD-0
  6
Continuous
 62
     7
100
AcDbLine
 10
122.8655719016
 20
224.6291287317
 30
0.0
 11
124.8190101612
 21
224.6291287317
 31
0.0
  0
LINE
  5
134
330
1F
100
AcDbEntity
  8
SLD-0
  6
Continuous
 62
     7
100
AcDbLine
 10
122.218225863
 20
223.9817826932
 30
0.0
 11
122.0418988823
 21
223.8054557125
 31
0.0
  0
LINE
  5
135
330
1F
100
AcDbEntity
  8
SLD-0
  6
Continuous
 62
     7
100
AcDbLine
 10
122.218225863
 20
223.9817826932
 30
0.0
 11
122.218225863
 21
222.0283444335
 31
0.0
  0
LINE
  5
136
330
1F
100
AcDbEntity
  8
SLD-0
  6
Continuous
 62
     7
100
AcDbLine
 10
122.1639536994
 20
221.9275105295
 30
0.0
 11
122.0418988823
 21
221.8054557125
 31
0.0
  0
LINE
  5
137
330
1F
100
AcDbEntity
  8
SLD-0
  6
Continuous
 62
     7
100
AcDbLine
 10
120.2647876034
 20
224.6291287317
 30
0.0
 11
122.218225863
 21
224.6291287317
 31
0.0
  0
LINE
  5
138
330
1F
100
AcDbEntity
  8
SLD-0
  6
Continuous
 62
     7
100
AcDbLine
 10
120.1639536994
 20
224.6834008954
 30
0.0
 11
120.0418988823
 21
224.8054557125
 31
0.0
  0
LINE
  5
139
330
1F
100
AcDbEntity
  8
SLD-0
  6
Continuous
 62
     7
100
AcDbLine
 10
122.9198440652
 20
221.9275105295
 30
0.0
 11
123.0418988823
 21
221.8054557125
 31
0.0
  0
LINE
  5
13A
330
1F
100
AcDbEntity
  8
SLD-0
  6
Continuous
 62
     7
100
AcDbLine
 10
122.8655719016
 20
223.9817826932
 30
0.0
 11
122.8655719016
 21
222.0283444335
 31
0.0
  0
LINE
  5
13B
330
1F
100
AcDbEntity
  8
SLD-0
  6
Continuous
 62
     7
100
AcDbLine
 10
120.1639536994
 20
223.9275105295
 30
0.0
 11
120.0418988823
 21
223.8054557125
 31
0.0
  0
LINE
  5
13C
330
1F
100
AcDbEntity
  8
SLD-0
  6
Continuous
 62
     7
100
AcDbLine
 10
120.2647876034
 20
223.9817826932
 30
0.0
 11
122.218225863
 21
223.9817826932
 31
0.0
  0
LINE
  5
13D
330
1F
100
AcDbEntity
  8
SLD-0
  6
Continuous
 62
     7
100
AcDbLine
 10
131.0418988823
 20
133.8054557125
 30
0.0
 11
131.0418988823
 21
131.8054557125
 31
0.0
  0
LINE
  5
13E
330
1F
100
AcDbEntity
  8
SLD-0
  6
Continuous
 62
     7
100
AcDbLine
 10
129.0418988823
 20
131.8054557125
 30
0.0
 11
131.0418988823
 21
131.8054557125
 31
0.0
  0
LINE
  5
13F
330
1F
100
AcDbEntity
  8
SLD-0
  6
Continuous
 62
     7
100
AcDbLine
 10
129.0418988823
 20
131.8054557125
 30
0.0
 11
129.0418988823
 21
130.8054557125
 31
0.0
  0
LINE
  5
140
330
1F
100
AcDbEntity
  8
SLD-0
  6
Continuous
 62
     7
100
AcDbLine
 10
129.0418988823
 20
130.8054557125
 30
0.0
 11
131.0418988823
 21
130.8054557125
 31
0.0
  0
LINE
  5
141
330
1F
100
AcDbEntity
  8
SLD-0
  6
Continuous
 62
     7
100
AcDbLine
 10
131.0418988823
 20
130.8054557125
 30
0.0
 11
131.0418988823
 21
128.8054557125
 31
0.0
  0
LINE
  5
142
330
1F
100
AcDbEntity
  8
SLD-0
  6
Continuous
 62
     7
100
AcDbLine
 10
131.0418988823
 20
128.8054557125
 30
0.0
 11
132.0418988823
 21
128.8054557125
 31
0.0
  0
LINE
  5
143
330
1F
100
AcDbEntity
  8
SLD-0
  6
Continuous
 62
     7
100
AcDbLine
 10
132.0418988823
 20
130.8054557125
 30
0.0
 11
132.0418988823
 21
128.8054557125
 31
0.0
  0
LINE
  5
144
330
1F
100
AcDbEntity
  8
SLD-0
  6
Continuous
 62
     7
100
AcDbLine
 10
132.0418988823
 20
130.8054557125
 30
0.0
 11
134.0418988823
 21
130.8054557125
 31
0.0
  0
LINE
  5
145
330
1F
100
AcDbEntity
  8
SLD-0
  6
Continuous
 62
     7
100
AcDbLine
 10
134.0418988823
 20
131.8054557125
 30
0.0
 11
134.0418988823
 21
130.8054557125
 31
0.0
  0
LINE
  5
146
330
1F
100
AcDbEntity
  8
SLD-0
  6
Continuous
 62
     7
100
AcDbLine
 10
132.0418988823
 20
131.8054557125
 30
0.0
 11
134.0418988823
 21
131.8054557125
 31
0.0
  0
LINE
  5
147
330
1F
100
AcDbEntity
  8
SLD-0
  6
Continuous
 62
     7
100
AcDbLine
 10
132.0418988823
 20
133.8054557125
 30
0.0
 11
132.0418988823
 21
131.8054557125
 31
0.0
  0
LINE
  5
148
330
1F
100
AcDbEntity
  8
SLD-0
  6
Continuous
 62
     7
100
AcDbLine
 10
131.0418988823
 20
133.8054557125
 30
0.0
 11
132.0418988823
 21
133.8054557125
 31
0.0
  0
LINE
  5
149
330
1F
100
AcDbEntity
  8
SLD-0
  6
Continuous
 62
     7
100
AcDbLine
 10
131.218225863
 20
131.6291287317
 30
0.0
 11
131.0418988823
 21
131.8054557125
 31
0.0
  0
LINE
  5
14A
330
1F
100
AcDbEntity
  8
SLD-0
  6
Continuous
 62
     7
100
AcDbLine
 10
129.2647876034
 20
131.6291287317
 30
0.0
 11
131.218225863
 21
131.6291287317
 31
0.0
  0
LINE
  5
14B
330
1F
100
AcDbEntity
  8
SLD-0
  6
Continuous
 62
     7
100
AcDbLine
 10
129.1639536994
 20
131.6834008954
 30
0.0
 11
129.0418988823
 21
131.8054557125
 31
0.0
  0
LINE
  5
14C
330
1F
100
AcDbEntity
  8
SLD-0
  6
Continuous
 62
     7
100
AcDbLine
 10
131.1639536994
 20
128.9275105295
 30
0.0
 11
131.0418988823
 21
128.8054557125
 31
0.0
  0
LINE
  5
14D
330
1F
100
AcDbEntity
  8
SLD-0
  6
Continuous
 62
     7
100
AcDbLine
 10
131.9198440652
 20
128.9275105295
 30
0.0
 11
132.0418988823
 21
128.8054557125
 31
0.0
  0
LINE
  5
14E
330
1F
100
AcDbEntity
  8
SLD-0
  6
Continuous
 62
     7
100
AcDbLine
 10
131.218225863
 20
130.9817826932
 30
0.0
 11
131.0418988823
 21
130.8054557125
 31
0.0
  0
LINE
  5
14F
330
1F
100
AcDbEntity
  8
SLD-0
  6
Continuous
 62
     7
100
AcDbLine
 10
131.218225863
 20
130.9817826932
 30
0.0
 11
131.218225863
 21
129.0283444335
 31
0.0
  0
LINE
  5
150
330
1F
100
AcDbEntity
  8
SLD-0
  6
Continuous
 62
     7
100
AcDbLine
 10
131.1639536994
 20
133.6834008954
 30
0.0
 11
131.0418988823
 21
133.8054557125
 31
0.0
  0
LINE
  5
151
330
1F
100
AcDbEntity
  8
SLD-0
  6
Continuous
 62
     7
100
AcDbLine
 10
131.218225863
 20
133.5825669914
 30
0.0
 11
131.218225863
 21
131.6291287317
 31
0.0
  0
LINE
  5
152
330
1F
100
AcDbEntity
  8
SLD-0
  6
Continuous
 62
     7
100
AcDbLine
 10
131.8655719016
 20
130.9817826932
 30
0.0
 11
131.8655719016
 21
129.0283444335
 31
0.0
  0
LINE
  5
153
330
1F
100
AcDbEntity
  8
SLD-0
  6
Continuous
 62
     7
100
AcDbLine
 10
131.8655719016
 20
130.9817826932
 30
0.0
 11
132.0418988823
 21
130.8054557125
 31
0.0
  0
LINE
  5
154
330
1F
100
AcDbEntity
  8
SLD-0
  6
Continuous
 62
     7
100
AcDbLine
 10
133.9198440652
 20
130.9275105295
 30
0.0
 11
134.0418988823
 21
130.8054557125
 31
0.0
  0
LINE
  5
155
330
1F
100
AcDbEntity
  8
SLD-0
  6
Continuous
 62
     7
100
AcDbLine
 10
133.9198440652
 20
131.6834008954
 30
0.0
 11
134.0418988823
 21
131.8054557125
 31
0.0
  0
LINE
  5
156
330
1F
100
AcDbEntity
  8
SLD-0
  6
Continuous
 62
     7
100
AcDbLine
 10
131.8655719016
 20
131.6291287317
 30
0.0
 11
133.8190101612
 21
131.6291287317
 31
0.0
  0
LINE
  5
157
330
1F
100
AcDbEntity
  8
SLD-0
  6
Continuous
 62
     7
100
AcDbLine
 10
131.8655719016
 20
131.6291287317
 30
0.0
 11
132.0418988823
 21
131.8054557125
 31
0.0
  0
LINE
  5
158
330
1F
100
AcDbEntity
  8
SLD-0
  6
Continuous
 62
     7
100
AcDbLine
 10
129.1639536994
 20
130.9275105295
 30
0.0
 11
129.0418988823
 21
130.8054557125
 31
0.0
  0
LINE
  5
159
330
1F
100
AcDbEntity
  8
SLD-0
  6
Continuous
 62
     7
100
AcDbLine
 10
129.2647876034
 20
130.9817826932
 30
0.0
 11
131.218225863
 21
130.9817826932
 31
0.0
  0
LINE
  5
15A
330
1F
100
AcDbEntity
  8
SLD-0
  6
Continuous
 62
     7
100
AcDbLine
 10
131.8655719016
 20
130.9817826932
 30
0.0
 11
133.8190101612
 21
130.9817826932
 31
0.0
  0
LINE
  5
15B
330
1F
100
AcDbEntity
  8
SLD-0
  6
Continuous
 62
     7
100
AcDbLine
 10
131.9198440652
 20
133.6834008954
 30
0.0
 11
132.0418988823
 21
133.8054557125
 31
0.0
  0
LINE
  5
15C
330
1F
100
AcDbEntity
  8
SLD-0
  6
Continuous
 62
     7
100
AcDbLine
 10
131.8655719016
 20
133.5825669914
 30
0.0
 11
131.8655719016
 21
131.6291287317
 31
0.0
  0
LINE
  5
15D
330
1F
100
AcDbEntity
  8
SLD-0
  6
Continuous
 62
     7
100
AcDbLine
 10
145.5418988823
 20
200.0054557125
 30
0.0
 11
145.5418988823
 21
202.6054557125
 31
0.0
  0
LINE
  5
15E
330
1F
100
AcDbEntity
  8
SLD-0
  6
Continuous
 62
     7
100
AcDbLine
 10
145.5418988823
 20
202.6054557125
 30
0.0
 11
129.1418988823
 21
202.6054557125
 31
0.0
  0
LINE
  5
15F
330
1F
100
AcDbEntity
  8
SLD-0
  6
Continuous
 62
     7
100
AcDbLine
 10
128.6418988823
 20
203.1054557125
 30
0.0
 11
129.1418988823
 21
202.6054557125
 31
0.0
  0
LINE
  5
160
330
1F
100
AcDbEntity
  8
SLD-0
  6
Continuous
 62
     7
100
AcDbLine
 10
128.6418988823
 20
203.1054557125
 30
0.0
 11
128.6418988823
 21
208.1054557125
 31
0.0
  0
LINE
  5
161
330
1F
100
AcDbEntity
  8
SLD-0
  6
Continuous
 62
     7
100
AcDbLine
 10
128.1418988823
 20
208.6054557125
 30
0.0
 11
126.8418988823
 21
208.6054557125
 31
0.0
  0
LINE
  5
162
330
1F
100
AcDbEntity
  8
SLD-0
  6
Continuous
 62
     7
100
AcDbLine
 10
126.3418988823
 20
208.1054557125
 30
0.0
 11
126.3418988823
 21
194.5054557125
 31
0.0
  0
LINE
  5
163
330
1F
100
AcDbEntity
  8
SLD-0
  6
Continuous
 62
     7
100
AcDbLine
 10
126.8418988823
 20
194.0054557125
 30
0.0
 11
128.1418988823
 21
194.0054557125
 31
0.0
  0
LINE
  5
164
330
1F
100
AcDbEntity
  8
SLD-0
  6
Continuous
 62
     7
100
AcDbLine
 10
128.6418988823
 20
194.5054557125
 30
0.0
 11
128.6418988823
 21
199.5054557125
 31
0.0
  0
LINE
  5
165
330
1F
100
AcDbEntity
  8
SLD-0
  6
Continuous
 62
     7
100
AcDbLine
 10
129.1418988823
 20
200.0054557125
 30
0.0
 11
128.6418988823
 21
199.5054557125
 31
0.0
  0
LINE
  5
166
330
1F
100
AcDbEntity
  8
SLD-0
  6
Continuous
 62
     7
100
AcDbLine
 10
129.1418988823
 20
200.0054557125
 30
0.0
 11
145.5418988823
 21
200.0054557125
 31
0.0
  0
LINE
  5
167
330
1F
100
AcDbEntity
  8
SLD-0
  6
Continuous
 62
     7
100
AcDbLine
 10
102.5418988823
 20
229.6054557125
 30
0.0
 11
105.0418988823
 21
229.6054557125
 31
0.0
  0
LINE
  5
168
330
1F
100
AcDbEntity
  8
SLD-0
  6
Continuous
 62
     7
100
AcDbLine
 10
149.5418988823
 20
121.0054557125
 30
0.0
 11
149.5418988823
 21
229.6054557125
 31
0.0
  0
LINE
  5
169
330
1F
100
AcDbEntity
  8
SLD-0
  6
Continuous
 62
     7
100
AcDbLine
 10
138.2918988823
 20
213.3054557125
 30
0.0
 11
139.9418988823
 21
213.3054557125
 31
0.0
  0
LINE
  5
16A
330
1F
100
AcDbEntity
  8
SLD-0
  6
Continuous
 62
     7
100
AcDbLine
 10
140.1418988823
 20
213.5054557125
 30
0.0
 11
140.1418988823
 21
222.1054557125
 31
0.0
  0
LINE
  5
16B
330
1F
100
AcDbEntity
  8
SLD-0
  6
Continuous
 62
     7
100
AcDbLine
 10
139.9418988823
 20
222.3054557125
 30
0.0
 11
138.2918988823
 21
222.3054557125
 31
0.0
  0
LINE
  5
16C
330
1F
100
AcDbEntity
  8
SLD-0
  6
Continuous
 62
     7
100
AcDbLine
 10
130.7918988823
 20
222.3054557125
 30
0.0
 11
129.1418988823
 21
222.3054557125
 31
0.0
  0
LINE
  5
16D
330
1F
100
AcDbEntity
  8
SLD-0
  6
Continuous
 62
     7
100
AcDbLine
 10
128.9418988823
 20
222.1054557125
 30
0.0
 11
128.9418988823
 21
213.5054557125
 31
0.0
  0
LINE
  5
16E
330
1F
100
AcDbEntity
  8
SLD-0
  6
Continuous
 62
     7
100
AcDbLine
 10
129.1418988823
 20
213.3054557125
 30
0.0
 11
130.7918988823
 21
213.3054557125
 31
0.0
  0
LINE
  5
16F
330
1F
100
AcDbEntity
  8
SLD-0
  6
Continuous
 62
     7
100
AcDbLine
 10
132.9918988823
 20
209.5825536187
 30
0.0
 11
132.9918988823
 21
208.6054557125
 31
0.0
  0
LINE
  5
170
330
1F
100
AcDbEntity
  8
SLD-0
  6
Continuous
 62
     7
100
AcDbLine
 10
133.1918988823
 20
208.4054557125
 30
0.0
 11
135.8918988823
 21
208.4054557125
 31
0.0
  0
LINE
  5
171
330
1F
100
AcDbEntity
  8
SLD-0
  6
Continuous
 62
     7
100
AcDbLine
 10
136.0918988823
 20
208.6054557125
 30
0.0
 11
136.0918988823
 21
209.5825536187
 31
0.0
  0
LINE
  5
172
330
1F
100
AcDbEntity
  8
SLD-0
  6
Continuous
 62
     7
100
AcDbLine
 10
138.2918988823
 20
142.3054557125
 30
0.0
 11
138.2918988823
 21
145.8054557125
 31
0.0
  0
LINE
  5
173
330
1F
100
AcDbEntity
  8
SLD-0
  6
Continuous
 62
     7
100
AcDbLine
 10
130.7918988823
 20
145.8054557125
 30
0.0
 11
130.7918988823
 21
142.3054557125
 31
0.0
  0
LINE
  5
174
330
1F
100
AcDbEntity
  8
SLD-0
  6
Continuous
 62
     7
100
AcDbLine
 10
130.7918988823
 20
192.3054557125
 30
0.0
 11
130.7918988823
 21
188.8054557125
 31
0.0
  0
LINE
  5
175
330
1F
100
AcDbEntity
  8
SLD-0
  6
Continuous
 62
     7
100
AcDbLine
 10
138.2918988823
 20
188.8054557125
 30
0.0
 11
138.2918988823
 21
192.3054557125
 31
0.0
  0
LINE
  5
176
330
1F
100
AcDbEntity
  8
SLD-0
  6
Continuous
 62
     7
100
AcDbLine
 10
140.2918988823
 20
136.5554557125
 30
0.0
 11
145.2918988823
 21
136.5554557125
 31
0.0
  0
LINE
  5
177
330
1F
100
AcDbEntity
  8
SLD-0
  6
Continuous
 62
     7
100
AcDbLine
 10
145.2918988823
 20
136.5554557125
 30
0.0
 11
145.2918988823
 21
138.5554557125
 31
0.0
  0
LINE
  5
178
330
1F
100
AcDbEntity
  8
SLD-0
  6
Continuous
 62
     7
100
AcDbLine
 10
145.2918988823
 20
138.5554557125
 30
0.0
 11
140.2918988823
 21
138.5554557125
 31
0.0
  0
LINE
  5
179
330
1F
100
AcDbEntity
  8
SLD-0
  6
Continuous
 62
     7
100
AcDbLine
 10
140.2918988823
 20
138.5554557125
 30
0.0
 11
140.2918988823
 21
136.5554557125
 31
0.0
  0
LINE
  5
17A
330
1F
100
AcDbEntity
  8
SLD-0
  6
Continuous
 62
     7
100
AcDbLine
 10
143.0918988823
 20
190.0554557125
 30
0.0
 11
146.7918988823
 21
190.0554557125
 31
0.0
  0
LINE
  5
17B
330
1F
100
AcDbEntity
  8
SLD-0
  6
Continuous
 62
     7
100
AcDbLine
 10
146.7918988823
 20
190.0554557125
 30
0.0
 11
146.7918988823
 21
192.5554557125
 31
0.0
  0
LINE
  5
17C
330
1F
100
AcDbEntity
  8
SLD-0
  6
Continuous
 62
     7
100
AcDbLine
 10
146.7918988823
 20
192.5554557125
 30
0.0
 11
143.0918988823
 21
192.5554557125
 31
0.0
  0
LINE
  5
17D
330
1F
100
AcDbEntity
  8
SLD-0
  6
Continuous
 62
     7
100
AcDbLine
 10
143.0918988823
 20
192.5554557125
 30
0.0
 11
143.0918988823
 21
190.0554557125
 31
0.0
  0
LINE
  5
17E
330
1F
100
AcDbEntity
  8
SLD-0
  6
Continuous
 62
     7
100
AcDbLine
 10
144.8418988823
 20
180.8054557125
 30
0.0
 11
144.8190101612
 21
181.1291287317
 31
0.0
  0
LINE
  5
17F
330
1F
100
AcDbEntity
  8
SLD-0
  6
Continuous
 62
     7
100
AcDbLine
 10
142.8655719016
 20
183.0825669914
 30
0.0
 11
142.3849413316
 21
183.1000938816
 31
0.0
  0
LINE
  5
180
330
1F
100
AcDbEntity
  8
SLD-0
  6
Continuous
 62
     7
100
AcDbLine
 10
142.3849413316
 20
183.1000938816
 30
0.0
 11
142.218225863
 21
183.0825669914
 31
0.0
  0
LINE
  5
181
330
1F
100
AcDbEntity
  8
SLD-0
  6
Continuous
 62
     7
100
AcDbLine
 10
142.218225863
 20
178.5283444335
 30
0.0
 11
142.3849413316
 21
178.5108175433
 31
0.0
  0
LINE
  5
182
330
1F
100
AcDbEntity
  8
SLD-0
  6
Continuous
 62
     7
100
AcDbLine
 10
142.3849413316
 20
178.5108175433
 30
0.0
 11
142.8655719016
 21
178.5283444335
 31
0.0
  0
LINE
  5
183
330
1F
100
AcDbEntity
  8
SLD-0
  6
Continuous
 62
     7
100
AcDbLine
 10
144.8190101612
 20
180.4817826932
 30
0.0
 11
144.8418988823
 21
180.8054557125
 31
0.0
  0
LINE
  5
184
330
1F
100
AcDbEntity
  8
SLD-0
  6
Continuous
 62
     7
100
AcDbLine
 10
133.8418988823
 20
131.3054557125
 30
0.0
 11
133.8190101612
 21
131.6291287317
 31
0.0
  0
LINE
  5
185
330
1F
100
AcDbEntity
  8
SLD-0
  6
Continuous
 62
     7
100
AcDbLine
 10
131.8655719016
 20
133.5825669914
 30
0.0
 11
131.3849413316
 21
133.6000938816
 31
0.0
  0
LINE
  5
186
330
1F
100
AcDbEntity
  8
SLD-0
  6
Continuous
 62
     7
100
AcDbLine
 10
131.3849413316
 20
133.6000938816
 30
0.0
 11
131.218225863
 21
133.5825669914
 31
0.0
  0
LINE
  5
187
330
1F
100
AcDbEntity
  8
SLD-0
  6
Continuous
 62
     7
100
AcDbLine
 10
131.218225863
 20
129.0283444335
 30
0.0
 11
131.3849413316
 21
129.0108175433
 31
0.0
  0
LINE
  5
188
330
1F
100
AcDbEntity
  8
SLD-0
  6
Continuous
 62
     7
100
AcDbLine
 10
131.3849413316
 20
129.0108175433
 30
0.0
 11
131.8655719016
 21
129.0283444335
 31
0.0
  0
LINE
  5
189
330
1F
100
AcDbEntity
  8
SLD-0
  6
Continuous
 62
     7
100
AcDbLine
 10
133.8190101612
 20
130.9817826932
 30
0.0
 11
133.8418988823
 21
131.3054557125
 31
0.0
  0
LINE
  5
18A
330
1F
100
AcDbEntity
  8
SLD-0
  6
Continuous
 62
     7
100
AcDbLine
 10
124.8418988823
 20
224.3054557125
 30
0.0
 11
124.8190101612
 21
224.6291287317
 31
0.0
  0
LINE
  5
18B
330
1F
100
AcDbEntity
  8
SLD-0
  6
Continuous
 62
     7
100
AcDbLine
 10
122.8655719016
 20
226.5825669914
 30
0.0
 11
122.3849413316
 21
226.6000938816
 31
0.0
  0
LINE
  5
18C
330
1F
100
AcDbEntity
  8
SLD-0
  6
Continuous
 62
     7
100
AcDbLine
 10
122.3849413316
 20
226.6000938816
 30
0.0
 11
122.218225863
 21
226.5825669914
 31
0.0
  0
LINE
  5
18D
330
1F
100
AcDbEntity
  8
SLD-0
  6
Continuous
 62
     7
100
AcDbLine
 10
122.218225863
 20
222.0283444335
 30
0.0
 11
122.3849413316
 21
222.0108175433
 31
0.0
  0
LINE
  5
18E
330
1F
100
AcDbEntity
  8
SLD-0
  6
Continuous
 62
     7
100
AcDbLine
 10
122.3849413316
 20
222.0108175433
 30
0.0
 11
122.8655719016
 21
222.0283444335
 31
0.0
  0
LINE
  5
18F
330
1F
100
AcDbEntity
  8
SLD-0
  6
Continuous
 62
     7
100
AcDbLine
 10
124.8190101612
 20
223.9817826932
 30
0.0
 11
124.8418988823
 21
224.3054557125
 31
0.0
  0
LINE
  5
190
330
1F
100
AcDbEntity
  8
SLD-0
  6
Continuous
 62
     7
100
AcDbLine
 10
105.0418988823
 20
231.3054557125
 30
0.0
 11
149.5418988823
 21
231.3054557125
 31
0.0
  0
LINE
  5
191
330
1F
100
AcDbEntity
  8
SLD-0
  6
Continuous
 62
     7
100
AcDbLine
 10
149.5418988823
 20
229.6054557125
 30
0.0
 11
149.5418988823
 21
231.3054557125
 31
0.0
  0
LINE
  5
192
330
1F
100
AcDbEntity
  8
SLD-0
  6
Continuous
 62
     7
100
AcDbLine
 10
105.0418988823
 20
231.3054557125
 30
0.0
 11
105.0418988823
 21
229.6054557125
 31
0.0
  0
LINE
  5
193
330
1F
100
AcDbEntity
  8
SLD-0
  6
Continuous
 62
     7
100
AcDbLine
 10
149.5418988823
 20
119.3054557125
 30
0.0
 11
102.5418988823
 21
119.3054557125
 31
0.0
  0
LINE
  5
194
330
1F
100
AcDbEntity
  8
SLD-0
  6
Continuous
 62
     7
100
AcDbLine
 10
149.5418988823
 20
119.3054557125
 30
0.0
 11
149.5418988823
 21
121.0054557125
 31
0.0
  0
LINE
  5
195
330
1F
100
AcDbEntity
  8
SLD-0
  6
Continuous
 62
     7
100
AcDbLine
 10
130.6418988823
 20
219.2554557125
 30
0.0
 11
130.6418988823
 21
219.6054557125
 31
0.0
  0
LINE
  5
196
330
1F
100
AcDbEntity
  8
SLD-0
  6
Continuous
 62
     7
100
AcDbLine
 10
130.6418988823
 20
219.2554557125
 30
0.0
 11
129.1418988823
 21
219.2554557125
 31
0.0
  0
LINE
  5
197
330
1F
100
AcDbEntity
  8
SLD-0
  6
Continuous
 62
     7
100
AcDbLine
 10
139.8418988823
 20
216.2554557125
 30
0.0
 11
138.3418988823
 21
216.2554557125
 31
0.0
  0
LINE
  5
198
330
1F
100
AcDbEntity
  8
SLD-0
  6
Continuous
 62
     7
100
AcDbLine
 10
138.3418988823
 20
216.8554557125
 30
0.0
 11
138.3418988823
 21
216.2554557125
 31
0.0
  0
LINE
  5
199
330
1F
100
AcDbEntity
  8
SLD-0
  6
Continuous
 62
     7
100
AcDbLine
 10
138.3418988823
 20
216.8554557125
 30
0.0
 11
139.8418988823
 21
216.8554557125
 31
0.0
  0
LINE
  5
19A
330
1F
100
AcDbEntity
  8
SLD-0
  6
Continuous
 62
     7
100
AcDbLine
 10
140.0418988823
 20
216.8554557125
 30
0.0
 11
140.0418988823
 21
216.2554557125
 31
0.0
  0
LINE
  5
19B
330
1F
100
AcDbEntity
  8
SLD-0
  6
Continuous
 62
     7
100
AcDbLine
 10
140.0418988823
 20
216.2554557125
 30
0.0
 11
139.8418988823
 21
216.2554557125
 31
0.0
  0
LINE
  5
19C
330
1F
100
AcDbEntity
  8
SLD-0
  6
Continuous
 62
     7
100
AcDbLine
 10
139.8418988823
 20
216.8554557125
 30
0.0
 11
140.0418988823
 21
216.8554557125
 31
0.0
  0
LINE
  5
19D
330
1F
100
AcDbEntity
  8
SLD-0
  6
Continuous
 62
     7
100
AcDbLine
 10
140.0418988823
 20
217.8554557125
 30
0.0
 11
140.0418988823
 21
217.2554557125
 31
0.0
  0
LINE
  5
19E
330
1F
100
AcDbEntity
  8
SLD-0
  6
Continuous
 62
     7
100
AcDbLine
 10
140.0418988823
 20
217.2554557125
 30
0.0
 11
139.8418988823
 21
217.2554557125
 31
0.0
  0
LINE
  5
19F
330
1F
100
AcDbEntity
  8
SLD-0
  6
Continuous
 62
     7
100
AcDbLine
 10
139.8418988823
 20
217.8554557125
 30
0.0
 11
140.0418988823
 21
217.8554557125
 31
0.0
  0
LINE
  5
1A0
330
1F
100
AcDbEntity
  8
SLD-0
  6
Continuous
 62
     7
100
AcDbLine
 10
129.1418988823
 20
218.8554557125
 30
0.0
 11
130.6418988823
 21
218.8554557125
 31
0.0
  0
LINE
  5
1A1
330
1F
100
AcDbEntity
  8
SLD-0
  6
Continuous
 62
     7
100
AcDbLine
 10
130.6418988823
 20
218.2554557125
 30
0.0
 11
130.6418988823
 21
218.8554557125
 31
0.0
  0
LINE
  5
1A2
330
1F
100
AcDbEntity
  8
SLD-0
  6
Continuous
 62
     7
100
AcDbLine
 10
130.6418988823
 20
218.2554557125
 30
0.0
 11
129.1418988823
 21
218.2554557125
 31
0.0
  0
LINE
  5
1A3
330
1F
100
AcDbEntity
  8
SLD-0
  6
Continuous
 62
     7
100
AcDbLine
 10
140.0418988823
 20
219.6054557125
 30
0.0
 11
140.0418988823
 21
219.2554557125
 31
0.0
  0
LINE
  5
1A4
330
1F
100
AcDbEntity
  8
SLD-0
  6
Continuous
 62
     7
100
AcDbLine
 10
140.0418988823
 20
219.2554557125
 30
0.0
 11
139.8418988823
 21
219.2554557125
 31
0.0
  0
LINE
  5
1A5
330
1F
100
AcDbEntity
  8
SLD-0
  6
Continuous
 62
     7
100
AcDbLine
 10
138.3418988823
 20
219.8054557125
 30
0.0
 11
139.8418988823
 21
219.8054557125
 31
0.0
  0
LINE
  5
1A6
330
1F
100
AcDbEntity
  8
SLD-0
  6
Continuous
 62
     7
100
AcDbLine
 10
138.3418988823
 20
219.6054557125
 30
0.0
 11
138.3418988823
 21
219.8054557125
 31
0.0
  0
LINE
  5
1A7
330
1F
100
AcDbEntity
  8
SLD-0
  6
Continuous
 62
     7
100
AcDbLine
 10
129.1418988823
 20
219.8054557125
 30
0.0
 11
130.6418988823
 21
219.8054557125
 31
0.0
  0
LINE
  5
1A8
330
1F
100
AcDbEntity
  8
SLD-0
  6
Continuous
 62
     7
100
AcDbLine
 10
130.6418988823
 20
219.8054557125
 30
0.0
 11
130.6418988823
 21
219.6054557125
 31
0.0
  0
LINE
  5
1A9
330
1F
100
AcDbEntity
  8
SLD-0
  6
Continuous
 62
     7
100
AcDbLine
 10
138.3418988823
 20
219.6054557125
 30
0.0
 11
138.3418988823
 21
219.2554557125
 31
0.0
  0
LINE
  5
1AA
330
1F
100
AcDbEntity
  8
SLD-0
  6
Continuous
 62
     7
100
AcDbLine
 10
139.8418988823
 20
219.2554557125
 30
0.0
 11
138.3418988823
 21
219.2554557125
 31
0.0
  0
LINE
  5
1AB
330
1F
100
AcDbEntity
  8
SLD-0
  6
Continuous
 62
     7
100
AcDbLine
 10
130.6418988823
 20
217.2554557125
 30
0.0
 11
130.6418988823
 21
217.8554557125
 31
0.0
  0
LINE
  5
1AC
330
1F
100
AcDbEntity
  8
SLD-0
  6
Continuous
 62
     7
100
AcDbLine
 10
130.6418988823
 20
217.2554557125
 30
0.0
 11
129.1418988823
 21
217.2554557125
 31
0.0
  0
LINE
  5
1AD
330
1F
100
AcDbEntity
  8
SLD-0
  6
Continuous
 62
     7
100
AcDbLine
 10
129.1418988823
 20
217.8554557125
 30
0.0
 11
130.6418988823
 21
217.8554557125
 31
0.0
  0
LINE
  5
1AE
330
1F
100
AcDbEntity
  8
SLD-0
  6
Continuous
 62
     7
100
AcDbLine
 10
140.0418988823
 20
218.8554557125
 30
0.0
 11
140.0418988823
 21
218.2554557125
 31
0.0
  0
LINE
  5
1AF
330
1F
100
AcDbEntity
  8
SLD-0
  6
Continuous
 62
     7
100
AcDbLine
 10
140.0418988823
 20
218.2554557125
 30
0.0
 11
139.8418988823
 21
218.2554557125
 31
0.0
  0
LINE
  5
1B0
330
1F
100
AcDbEntity
  8
SLD-0
  6
Continuous
 62
     7
100
AcDbLine
 10
139.8418988823
 20
218.8554557125
 30
0.0
 11
140.0418988823
 21
218.8554557125
 31
0.0
  0
LINE
  5
1B1
330
1F
100
AcDbEntity
  8
SLD-0
  6
Continuous
 62
     7
100
AcDbLine
 10
138.3418988823
 20
217.8554557125
 30
0.0
 11
138.3418988823
 21
217.2554557125
 31
0.0
  0
LINE
  5
1B2
330
1F
100
AcDbEntity
  8
SLD-0
  6
Continuous
 62
     7
100
AcDbLine
 10
139.8418988823
 20
217.2554557125
 30
0.0
 11
138.3418988823
 21
217.2554557125
 31
0.0
  0
LINE
  5
1B3
330
1F
100
AcDbEntity
  8
SLD-0
  6
Continuous
 62
     7
100
AcDbLine
 10
138.3418988823
 20
217.8554557125
 30
0.0
 11
139.8418988823
 21
217.8554557125
 31
0.0
  0
LINE
  5
1B4
330
1F
100
AcDbEntity
  8
SLD-0
  6
Continuous
 62
     7
100
AcDbLine
 10
138.3418988823
 20
218.8554557125
 30
0.0
 11
138.3418988823
 21
218.2554557125
 31
0.0
  0
LINE
  5
1B5
330
1F
100
AcDbEntity
  8
SLD-0
  6
Continuous
 62
     7
100
AcDbLine
 10
139.8418988823
 20
218.2554557125
 30
0.0
 11
138.3418988823
 21
218.2554557125
 31
0.0
  0
LINE
  5
1B6
330
1F
100
AcDbEntity
  8
SLD-0
  6
Continuous
 62
     7
100
AcDbLine
 10
138.3418988823
 20
218.8554557125
 30
0.0
 11
139.8418988823
 21
218.8554557125
 31
0.0
  0
LINE
  5
1B7
330
1F
100
AcDbEntity
  8
SLD-0
  6
Continuous
 62
     7
100
AcDbLine
 10
130.6418988823
 20
216.2554557125
 30
0.0
 11
130.6418988823
 21
216.8554557125
 31
0.0
  0
LINE
  5
1B8
330
1F
100
AcDbEntity
  8
SLD-0
  6
Continuous
 62
     7
100
AcDbLine
 10
130.6418988823
 20
216.2554557125
 30
0.0
 11
129.1418988823
 21
216.2554557125
 31
0.0
  0
LINE
  5
1B9
330
1F
100
AcDbEntity
  8
SLD-0
  6
Continuous
 62
     7
100
AcDbLine
 10
129.1418988823
 20
216.8554557125
 30
0.0
 11
130.6418988823
 21
216.8554557125
 31
0.0
  0
LINE
  5
1BA
330
1F
100
AcDbEntity
  8
SLD-0
  6
Continuous
 62
     7
100
AcDbLine
 10
129.1418988823
 20
218.2554557125
 30
0.0
 11
128.9418988823
 21
218.2554557125
 31
0.0
  0
LINE
  5
1BB
330
1F
100
AcDbEntity
  8
SLD-0
  6
Continuous
 62
     7
100
AcDbLine
 10
128.9418988823
 20
218.8554557125
 30
0.0
 11
129.1418988823
 21
218.8554557125
 31
0.0
  0
LINE
  5
1BC
330
1F
100
AcDbEntity
  8
SLD-0
  6
Continuous
 62
     7
100
AcDbLine
 10
129.1418988823
 20
219.2554557125
 30
0.0
 11
128.9418988823
 21
219.2554557125
 31
0.0
  0
LINE
  5
1BD
330
1F
100
AcDbEntity
  8
SLD-0
  6
Continuous
 62
     7
100
AcDbLine
 10
129.1418988823
 20
217.2554557125
 30
0.0
 11
128.9418988823
 21
217.2554557125
 31
0.0
  0
LINE
  5
1BE
330
1F
100
AcDbEntity
  8
SLD-0
  6
Continuous
 62
     7
100
AcDbLine
 10
128.9418988823
 20
217.8554557125
 30
0.0
 11
129.1418988823
 21
217.8554557125
 31
0.0
  0
LINE
  5
1BF
330
1F
100
AcDbEntity
  8
SLD-0
  6
Continuous
 62
     7
100
AcDbLine
 10
129.1418988823
 20
216.2554557125
 30
0.0
 11
128.9418988823
 21
216.2554557125
 31
0.0
  0
LINE
  5
1C0
330
1F
100
AcDbEntity
  8
SLD-0
  6
Continuous
 62
     7
100
AcDbLine
 10
128.9418988823
 20
216.8554557125
 30
0.0
 11
129.1418988823
 21
216.8554557125
 31
0.0
  0
LINE
  5
1C1
330
1F
100
AcDbEntity
  8
SLD-0
  6
Continuous
 62
     7
100
AcDbLine
 10
138.3418988823
 20
213.3054557125
 30
0.0
 11
138.3418988823
 21
213.5054557125
 31
0.0
  0
LINE
  5
1C2
330
1F
100
AcDbEntity
  8
SLD-0
  6
Continuous
 62
     7
100
AcDbLine
 10
140.0418988823
 20
213.8554557125
 30
0.0
 11
140.0418988823
 21
213.5054557125
 31
0.0
  0
LINE
  5
1C3
330
1F
100
AcDbEntity
  8
SLD-0
  6
Continuous
 62
     7
100
AcDbLine
 10
139.8418988823
 20
213.8554557125
 30
0.0
 11
140.0418988823
 21
213.8554557125
 31
0.0
  0
LINE
  5
1C4
330
1F
100
AcDbEntity
  8
SLD-0
  6
Continuous
 62
     7
100
AcDbLine
 10
140.0418988823
 20
214.8554557125
 30
0.0
 11
140.0418988823
 21
214.2554557125
 31
0.0
  0
LINE
  5
1C5
330
1F
100
AcDbEntity
  8
SLD-0
  6
Continuous
 62
     7
100
AcDbLine
 10
140.0418988823
 20
214.2554557125
 30
0.0
 11
139.8418988823
 21
214.2554557125
 31
0.0
  0
LINE
  5
1C6
330
1F
100
AcDbEntity
  8
SLD-0
  6
Continuous
 62
     7
100
AcDbLine
 10
139.8418988823
 20
214.8554557125
 30
0.0
 11
140.0418988823
 21
214.8554557125
 31
0.0
  0
LINE
  5
1C7
330
1F
100
AcDbEntity
  8
SLD-0
  6
Continuous
 62
     7
100
AcDbLine
 10
129.1418988823
 20
214.8554557125
 30
0.0
 11
130.6418988823
 21
214.8554557125
 31
0.0
  0
LINE
  5
1C8
330
1F
100
AcDbEntity
  8
SLD-0
  6
Continuous
 62
     7
100
AcDbLine
 10
130.6418988823
 20
214.2554557125
 30
0.0
 11
129.1418988823
 21
214.2554557125
 31
0.0
  0
LINE
  5
1C9
330
1F
100
AcDbEntity
  8
SLD-0
  6
Continuous
 62
     7
100
AcDbLine
 10
130.6418988823
 20
214.2554557125
 30
0.0
 11
130.6418988823
 21
214.8554557125
 31
0.0
  0
LINE
  5
1CA
330
1F
100
AcDbEntity
  8
SLD-0
  6
Continuous
 62
     7
100
AcDbLine
 10
139.8418988823
 20
214.2554557125
 30
0.0
 11
138.3418988823
 21
214.2554557125
 31
0.0
  0
LINE
  5
1CB
330
1F
100
AcDbEntity
  8
SLD-0
  6
Continuous
 62
     7
100
AcDbLine
 10
138.3418988823
 20
214.8554557125
 30
0.0
 11
139.8418988823
 21
214.8554557125
 31
0.0
  0
LINE
  5
1CC
330
1F
100
AcDbEntity
  8
SLD-0
  6
Continuous
 62
     7
100
AcDbLine
 10
138.3418988823
 20
214.8554557125
 30
0.0
 11
138.3418988823
 21
214.2554557125
 31
0.0
  0
LINE
  5
1CD
330
1F
100
AcDbEntity
  8
SLD-0
  6
Continuous
 62
     7
100
AcDbLine
 10
130.6418988823
 20
213.5054557125
 30
0.0
 11
130.6418988823
 21
213.3054557125
 31
0.0
  0
LINE
  5
1CE
330
1F
100
AcDbEntity
  8
SLD-0
  6
Continuous
 62
     7
100
AcDbLine
 10
129.1418988823
 20
213.8554557125
 30
0.0
 11
130.6418988823
 21
213.8554557125
 31
0.0
  0
LINE
  5
1CF
330
1F
100
AcDbEntity
  8
SLD-0
  6
Continuous
 62
     7
100
AcDbLine
 10
130.6418988823
 20
213.5054557125
 30
0.0
 11
130.6418988823
 21
213.8554557125
 31
0.0
  0
LINE
  5
1D0
330
1F
100
AcDbEntity
  8
SLD-0
  6
Continuous
 62
     7
100
AcDbLine
 10
128.9418988823
 20
213.8554557125
 30
0.0
 11
129.1418988823
 21
213.8554557125
 31
0.0
  0
LINE
  5
1D1
330
1F
100
AcDbEntity
  8
SLD-0
  6
Continuous
 62
     7
100
AcDbLine
 10
140.0418988823
 20
215.8554557125
 30
0.0
 11
140.0418988823
 21
215.2554557125
 31
0.0
  0
LINE
  5
1D2
330
1F
100
AcDbEntity
  8
SLD-0
  6
Continuous
 62
     7
100
AcDbLine
 10
139.8418988823
 20
215.8554557125
 30
0.0
 11
140.0418988823
 21
215.8554557125
 31
0.0
  0
LINE
  5
1D3
330
1F
100
AcDbEntity
  8
SLD-0
  6
Continuous
 62
     7
100
AcDbLine
 10
140.0418988823
 20
215.2554557125
 30
0.0
 11
139.8418988823
 21
215.2554557125
 31
0.0
  0
LINE
  5
1D4
330
1F
100
AcDbEntity
  8
SLD-0
  6
Continuous
 62
     7
100
AcDbLine
 10
138.3418988823
 20
213.8554557125
 30
0.0
 11
139.8418988823
 21
213.8554557125
 31
0.0
  0
LINE
  5
1D5
330
1F
100
AcDbEntity
  8
SLD-0
  6
Continuous
 62
     7
100
AcDbLine
 10
138.3418988823
 20
213.8554557125
 30
0.0
 11
138.3418988823
 21
213.5054557125
 31
0.0
  0
LINE
  5
1D6
330
1F
100
AcDbEntity
  8
SLD-0
  6
Continuous
 62
     7
100
AcDbLine
 10
138.3418988823
 20
215.8554557125
 30
0.0
 11
139.8418988823
 21
215.8554557125
 31
0.0
  0
LINE
  5
1D7
330
1F
100
AcDbEntity
  8
SLD-0
  6
Continuous
 62
     7
100
AcDbLine
 10
139.8418988823
 20
215.2554557125
 30
0.0
 11
138.3418988823
 21
215.2554557125
 31
0.0
  0
LINE
  5
1D8
330
1F
100
AcDbEntity
  8
SLD-0
  6
Continuous
 62
     7
100
AcDbLine
 10
138.3418988823
 20
215.8554557125
 30
0.0
 11
138.3418988823
 21
215.2554557125
 31
0.0
  0
LINE
  5
1D9
330
1F
100
AcDbEntity
  8
SLD-0
  6
Continuous
 62
     7
100
AcDbLine
 10
130.6418988823
 20
215.2554557125
 30
0.0
 11
129.1418988823
 21
215.2554557125
 31
0.0
  0
LINE
  5
1DA
330
1F
100
AcDbEntity
  8
SLD-0
  6
Continuous
 62
     7
100
AcDbLine
 10
129.1418988823
 20
215.8554557125
 30
0.0
 11
130.6418988823
 21
215.8554557125
 31
0.0
  0
LINE
  5
1DB
330
1F
100
AcDbEntity
  8
SLD-0
  6
Continuous
 62
     7
100
AcDbLine
 10
130.6418988823
 20
215.2554557125
 30
0.0
 11
130.6418988823
 21
215.8554557125
 31
0.0
  0
LINE
  5
1DC
330
1F
100
AcDbEntity
  8
SLD-0
  6
Continuous
 62
     7
100
AcDbLine
 10
129.1418988823
 20
215.2554557125
 30
0.0
 11
128.9418988823
 21
215.2554557125
 31
0.0
  0
LINE
  5
1DD
330
1F
100
AcDbEntity
  8
SLD-0
  6
Continuous
 62
     7
100
AcDbLine
 10
128.9418988823
 20
215.8554557125
 30
0.0
 11
129.1418988823
 21
215.8554557125
 31
0.0
  0
LINE
  5
1DE
330
1F
100
AcDbEntity
  8
SLD-0
  6
Continuous
 62
     7
100
AcDbLine
 10
129.1418988823
 20
214.2554557125
 30
0.0
 11
128.9418988823
 21
214.2554557125
 31
0.0
  0
LINE
  5
1DF
330
1F
100
AcDbEntity
  8
SLD-0
  6
Continuous
 62
     7
100
AcDbLine
 10
128.9418988823
 20
214.8554557125
 30
0.0
 11
129.1418988823
 21
214.8554557125
 31
0.0
  0
LINE
  5
1E0
330
1F
100
AcDbEntity
  8
SLD-0
  6
Continuous
 62
     7
100
AcDbLine
 10
140.0418988823
 20
215.8554557125
 30
0.0
 11
140.0418988823
 21
216.2554557125
 31
0.0
  0
LINE
  5
1E1
330
1F
100
AcDbEntity
  8
SLD-0
  6
Continuous
 62
     7
100
AcDbLine
 10
138.3418988823
 20
216.2554557125
 30
0.0
 11
138.3418988823
 21
215.8554557125
 31
0.0
  0
LINE
  5
1E2
330
1F
100
AcDbEntity
  8
SLD-0
  6
Continuous
 62
     7
100
AcDbLine
 10
140.0418988823
 20
218.8554557125
 30
0.0
 11
140.0418988823
 21
219.2554557125
 31
0.0
  0
LINE
  5
1E3
330
1F
100
AcDbEntity
  8
SLD-0
  6
Continuous
 62
     7
100
AcDbLine
 10
138.3418988823
 20
219.2554557125
 30
0.0
 11
138.3418988823
 21
218.8554557125
 31
0.0
  0
LINE
  5
1E4
330
1F
100
AcDbEntity
  8
SLD-0
  6
Continuous
 62
     7
100
AcDbLine
 10
140.0418988823
 20
216.8554557125
 30
0.0
 11
140.0418988823
 21
217.2554557125
 31
0.0
  0
LINE
  5
1E5
330
1F
100
AcDbEntity
  8
SLD-0
  6
Continuous
 62
     7
100
AcDbLine
 10
138.3418988823
 20
217.2554557125
 30
0.0
 11
138.3418988823
 21
216.8554557125
 31
0.0
  0
LINE
  5
1E6
330
1F
100
AcDbEntity
  8
SLD-0
  6
Continuous
 62
     7
100
AcDbLine
 10
140.0418988823
 20
217.8554557125
 30
0.0
 11
140.0418988823
 21
218.2554557125
 31
0.0
  0
LINE
  5
1E7
330
1F
100
AcDbEntity
  8
SLD-0
  6
Continuous
 62
     7
100
AcDbLine
 10
138.3418988823
 20
218.2554557125
 30
0.0
 11
138.3418988823
 21
217.8554557125
 31
0.0
  0
LINE
  5
1E8
330
1F
100
AcDbEntity
  8
SLD-0
  6
Continuous
 62
     7
100
AcDbLine
 10
130.6418988823
 20
217.8554557125
 30
0.0
 11
130.6418988823
 21
218.2554557125
 31
0.0
  0
LINE
  5
1E9
330
1F
100
AcDbEntity
  8
SLD-0
  6
Continuous
 62
     7
100
AcDbLine
 10
130.6418988823
 20
216.8554557125
 30
0.0
 11
130.6418988823
 21
217.2554557125
 31
0.0
  0
LINE
  5
1EA
330
1F
100
AcDbEntity
  8
SLD-0
  6
Continuous
 62
     7
100
AcDbLine
 10
130.6418988823
 20
215.8554557125
 30
0.0
 11
130.6418988823
 21
216.2554557125
 31
0.0
  0
LINE
  5
1EB
330
1F
100
AcDbEntity
  8
SLD-0
  6
Continuous
 62
     7
100
AcDbLine
 10
130.6418988823
 20
218.8554557125
 30
0.0
 11
130.6418988823
 21
219.2554557125
 31
0.0
  0
LINE
  5
1EC
330
1F
100
AcDbEntity
  8
SLD-0
  6
Continuous
 62
     7
100
AcDbLine
 10
135.7918988823
 20
208.5054557125
 30
0.0
 11
133.1918988823
 21
208.5054557125
 31
0.0
  0
LINE
  5
1ED
330
1F
100
AcDbEntity
  8
SLD-0
  6
Continuous
 62
     7
100
AcDbLine
 10
135.9918988823
 20
208.7054557125
 30
0.0
 11
135.9918988823
 21
209.7596835822
 31
0.0
  0
LINE
  5
1EE
330
1F
100
AcDbEntity
  8
SLD-0
  6
Continuous
 62
     7
100
AcDbLine
 10
132.9918988823
 20
209.7596835822
 30
0.0
 11
132.9918988823
 21
209.5825536187
 31
0.0
  0
LINE
  5
1EF
330
1F
100
AcDbEntity
  8
SLD-0
  6
Continuous
 62
     7
100
AcDbLine
 10
140.0418988823
 20
214.8554557125
 30
0.0
 11
140.0418988823
 21
215.2554557125
 31
0.0
  0
LINE
  5
1F0
330
1F
100
AcDbEntity
  8
SLD-0
  6
Continuous
 62
     7
100
AcDbLine
 10
138.3418988823
 20
215.2554557125
 30
0.0
 11
138.3418988823
 21
214.8554557125
 31
0.0
  0
LINE
  5
1F1
330
1F
100
AcDbEntity
  8
SLD-0
  6
Continuous
 62
     7
100
AcDbLine
 10
140.0418988823
 20
213.8554557125
 30
0.0
 11
140.0418988823
 21
214.2554557125
 31
0.0
  0
LINE
  5
1F2
330
1F
100
AcDbEntity
  8
SLD-0
  6
Continuous
 62
     7
100
AcDbLine
 10
138.3418988823
 20
214.2554557125
 30
0.0
 11
138.3418988823
 21
213.8554557125
 31
0.0
  0
LINE
  5
1F3
330
1F
100
AcDbEntity
  8
SLD-0
  6
Continuous
 62
     7
100
AcDbLine
 10
130.6418988823
 20
213.8554557125
 30
0.0
 11
130.6418988823
 21
214.2554557125
 31
0.0
  0
LINE
  5
1F4
330
1F
100
AcDbEntity
  8
SLD-0
  6
Continuous
 62
     7
100
AcDbLine
 10
130.6418988823
 20
214.8554557125
 30
0.0
 11
130.6418988823
 21
215.2554557125
 31
0.0
  0
LINE
  5
1F5
330
1F
100
AcDbEntity
  8
SLD-0
  6
Continuous
 62
     7
100
AcDbLine
 10
135.9918988823
 20
209.7596835822
 30
0.0
 11
136.1609142614
 21
209.836033907
 31
0.0
  0
LINE
  5
1F6
330
1F
100
AcDbEntity
  8
SLD-0
  6
Continuous
 62
     7
100
AcDbLine
 10
130.6418988823
 20
222.3054557125
 30
0.0
 11
130.6418988823
 21
219.8054557125
 31
0.0
  0
LINE
  5
1F7
330
1F
100
AcDbEntity
  8
SLD-0
  6
Continuous
 62
     7
100
AcDbLine
 10
138.3418988823
 20
219.8054557125
 30
0.0
 11
138.3418988823
 21
222.3054557125
 31
0.0
  0
LINE
  5
1F8
330
1F
100
AcDbEntity
  8
SLD-0
  6
Continuous
 62
     7
100
AcDbLine
 10
130.8418988823
 20
192.2554557125
 30
0.0
 11
130.8418988823
 21
188.7554557125
 31
0.0
  0
LINE
  5
1F9
330
1F
100
AcDbEntity
  8
SLD-0
  6
Continuous
 62
     7
100
AcDbLine
 10
130.8418988823
 20
145.8554557125
 30
0.0
 11
130.8418988823
 21
142.3554557125
 31
0.0
  0
LINE
  5
1FA
330
1F
100
AcDbEntity
  8
SLD-0
  6
Continuous
 62
     7
100
AcDbLine
 10
99.5418988823
 20
258.3054557125
 30
0.0
 11
102.5418988823
 21
258.3054557125
 31
0.0
  0
LINE
  5
1FB
330
1F
100
AcDbEntity
  8
SLD-0
  6
Continuous
 62
     7
100
AcDbLine
 10
99.5418988823
 20
103.3054557125
 30
0.0
 11
102.5418988823
 21
103.3054557125
 31
0.0
  0
LINE
  5
1FC
330
1F
100
AcDbEntity
  8
SLD-0
  6
Continuous
 62
     7
100
AcDbLine
 10
102.5418988823
 20
258.3054557125
 30
0.0
 11
102.5418988823
 21
103.3054557125
 31
0.0
  0
LINE
  5
1FD
330
1F
100
AcDbEntity
  8
SLD-0
  6
Continuous
 62
     7
100
AcDbLine
 10
99.5418988823
 20
258.3054557125
 30
0.0
 11
99.5418988823
 21
103.3054557125
 31
0.0
  0
LINE
  5
1FE
330
1F
100
AcDbEntity
  8
SLD-0
  6
Continuous
 62
     7
100
AcDbLine
 10
140.5418988823
 20
138.3054557125
 30
0.0
 11
140.5418988823
 21
136.8054557125
 31
0.0
  0
LINE
  5
1FF
330
1F
100
AcDbEntity
  8
SLD-0
  6
Continuous
 62
     7
100
AcDbLine
 10
145.0418988823
 20
138.3054557125
 30
0.0
 11
140.5418988823
 21
138.3054557125
 31
0.0
  0
LINE
  5
200
330
1F
100
AcDbEntity
  8
SLD-0
  6
Continuous
 62
     7
100
AcDbLine
 10
140.5418988823
 20
136.8054557125
 30
0.0
 11
145.0418988823
 21
136.8054557125
 31
0.0
  0
LINE
  5
201
330
1F
100
AcDbEntity
  8
SLD-0
  6
Continuous
 62
     7
100
AcDbLine
 10
145.0418988823
 20
136.8054557125
 30
0.0
 11
145.0418988823
 21
138.3054557125
 31
0.0
  0
LINE
  5
202
330
1F
100
AcDbEntity
  8
SLD-0
  6
Continuous
 62
     7
100
AcDbLine
 10
104.0418988823
 20
229.6054557125
 30
0.0
 11
104.0418988823
 21
231.3054557125
 31
0.0
  0
LINE
  5
203
330
1F
100
AcDbEntity
  8
SLD-0
  6
Continuous
 62
     7
100
AcDbLine
 10
104.0418988823
 20
231.3054557125
 30
0.0
 11
102.5418988823
 21
231.3054557125
 31
0.0
  0
LINE
  5
204
330
1F
100
AcDbEntity
  8
SLD-0
  6
Continuous
 62
     7
100
AcDbLine
 10
145.2918988823
 20
138.3054557125
 30
0.0
 11
145.0418988823
 21
138.3054557125
 31
0.0
  0
LINE
  5
205
330
1F
100
AcDbEntity
  8
SLD-0
  6
Continuous
 62
     7
100
AcDbLine
 10
145.0418988823
 20
136.8054557125
 30
0.0
 11
145.2918988823
 21
136.8054557125
 31
0.0
  0
LINE
  5
206
330
1F
100
AcDbEntity
  8
SLD-0
  6
Continuous
 62
     7
100
AcDbLine
 10
104.0418988823
 20
231.3054557125
 30
0.0
 11
104.2418988823
 21
231.3054557125
 31
0.0
  0
LINE
  5
207
330
1F
100
AcDbEntity
  8
SLD-0
  6
Continuous
 62
     7
100
AcDbLine
 10
140.5418988823
 20
138.3054557125
 30
0.0
 11
140.5418988823
 21
138.5054557125
 31
0.0
  0
LINE
  5
208
330
1F
100
AcDbEntity
  8
SLD-0
  6
Continuous
 62
     7
100
AcDbLine
 10
105.0418988823
 20
231.3054557125
 30
0.0
 11
104.2418988823
 21
231.3054557125
 31
0.0
  0
LINE
  5
209
330
1F
100
AcDbEntity
  8
SLD-0
  6
Continuous
 62
     7
100
AcDbLine
 10
140.5418988823
 20
136.8054557125
 30
0.0
 11
140.5418988823
 21
136.5554557125
 31
0.0
  0
LINE
  5
20A
330
1F
100
AcDbEntity
  8
SLD-0
  6
Continuous
 62
     7
100
AcDbLine
 10
143.1918988823
 20
190.2054557125
 30
0.0
 11
146.6918988823
 21
190.2054557125
 31
0.0
  0
LINE
  5
20B
330
1F
100
AcDbEntity
  8
SLD-0
  6
Continuous
 62
     7
100
AcDbLine
 10
146.6918988823
 20
190.2054557125
 30
0.0
 11
146.6918988823
 21
192.4054557125
 31
0.0
  0
LINE
  5
20C
330
1F
100
AcDbEntity
  8
SLD-0
  6
Continuous
 62
     7
100
AcDbLine
 10
146.6918988823
 20
192.4054557125
 30
0.0
 11
143.1918988823
 21
192.4054557125
 31
0.0
  0
LINE
  5
20D
330
1F
100
AcDbEntity
  8
SLD-0
  6
Continuous
 62
     7
100
AcDbLine
 10
143.1918988823
 20
192.4054557125
 30
0.0
 11
143.1918988823
 21
190.2054557125
 31
0.0
  0
LINE
  5
20E
330
1F
100
AcDbEntity
  8
SLD-0
  6
Continuous
 62
     7
100
AcDbLine
 10
243.097011614
 20
204.5571826063
 30
0.0
 11
242.997011614
 21
204.5571826063
 31
0.0
  0
LINE
  5
20F
330
1F
100
AcDbEntity
  8
SLD-0
  6
Continuous
 62
     7
100
AcDbLine
 10
232.2726362239
 20
216.3054557125
 30
0.0
 11
232.3736144416
 21
216.3054557125
 31
0.0
  0
LINE
  5
210
330
1F
100
AcDbEntity
  8
SLD-0
  6
Continuous
 62
     7
100
AcDbLine
 10
232.3736144416
 20
186.3054557125
 30
0.0
 11
232.2726362239
 21
186.3054557124
 31
0.0
  0
LINE
  5
211
330
1F
100
AcDbEntity
  8
SLD-0
  6
Continuous
 62
     7
100
AcDbLine
 10
231.497011614
 20
186.8054557125
 30
0.0
 11
231.497011614
 21
215.8054557125
 31
0.0
  0
LINE
  5
212
330
1F
100
AcDbEntity
  8
SLD-0
  6
Continuous
 62
     7
100
AcDbLine
 10
231.997011614
 20
216.3054557125
 30
0.0
 11
232.2726362239
 21
216.3054557125
 31
0.0
  0
LINE
  5
213
330
1F
100
AcDbEntity
  8
SLD-0
  6
Continuous
 62
     7
100
AcDbLine
 10
232.2726362239
 20
186.3054557124
 30
0.0
 11
231.997011614
 21
186.3054557125
 31
0.0
  0
LINE
  5
214
330
1F
100
AcDbEntity
  8
SLD-0
  6
Continuous
 62
     7
100
AcDbLine
 10
242.3505650046
 20
186.3054557125
 30
0.0
 11
242.1204087864
 21
186.3054557125
 31
0.0
  0
LINE
  5
215
330
1F
100
AcDbEntity
  8
SLD-0
  6
Continuous
 62
     7
100
AcDbLine
 10
242.1204087864
 20
216.3054557125
 30
0.0
 11
242.3505650046
 21
216.3054557125
 31
0.0
  0
LINE
  5
216
330
1F
100
AcDbEntity
  8
SLD-0
  6
Continuous
 62
     7
100
AcDbLine
 10
242.997011614
 20
215.8054557125
 30
0.0
 11
242.997011614
 21
186.8054557125
 31
0.0
  0
LINE
  5
217
330
1F
100
AcDbEntity
  8
SLD-0
  6
Continuous
 62
     7
100
AcDbLine
 10
242.497011614
 20
186.3054557125
 30
0.0
 11
242.3505650046
 21
186.3054557125
 31
0.0
  0
LINE
  5
218
330
1F
100
AcDbEntity
  8
SLD-0
  6
Continuous
 62
     7
100
AcDbLine
 10
242.3505650046
 20
216.3054557125
 30
0.0
 11
242.497011614
 21
216.3054557125
 31
0.0
  0
LINE
  5
219
330
1F
100
AcDbEntity
  8
SLD-0
  6
Continuous
 62
     7
100
AcDbLine
 10
242.997011614
 20
205.5554557125
 30
0.0
 11
243.097011614
 21
205.5554557125
 31
0.0
  0
LINE
  5
21A
330
1F
100
AcDbEntity
  8
SLD-0
  6
Continuous
 62
     7
100
AcDbLine
 10
231.497011614
 20
197.0554557125
 30
0.0
 11
231.397011614
 21
197.0554557125
 31
0.0
  0
LINE
  5
21B
330
1F
100
AcDbEntity
  8
SLD-0
  6
Continuous
 62
     7
100
AcDbLine
 10
243.097011614
 20
210.8054557125
 30
0.0
 11
242.997011614
 21
210.8054557125
 31
0.0
  0
LINE
  5
21C
330
1F
100
AcDbEntity
  8
SLD-0
  6
Continuous
 62
     7
100
AcDbLine
 10
231.497011614
 20
210.8054557125
 30
0.0
 11
231.397011614
 21
210.8054557125
 31
0.0
  0
LINE
  5
21D
330
1F
100
AcDbEntity
  8
SLD-0
  6
Continuous
 62
     7
100
AcDbLine
 10
231.497011614
 20
203.5054557125
 30
0.0
 11
231.397011614
 21
203.5054557125
 31
0.0
  0
LINE
  5
21E
330
1F
100
AcDbEntity
  8
SLD-0
  6
Continuous
 62
     7
100
AcDbLine
 10
243.097011614
 20
206.5054557125
 30
0.0
 11
242.997011614
 21
206.5054557125
 31
0.0
  0
LINE
  5
21F
330
1F
100
AcDbEntity
  8
SLD-0
  6
Continuous
 62
     7
100
AcDbLine
 10
240.947011614
 20
186.6858449333
 30
0.0
 11
240.947011614
 21
186.5858449333
 31
0.0
  0
LINE
  5
220
330
1F
100
AcDbEntity
  8
SLD-0
  6
Continuous
 62
     7
100
AcDbLine
 10
231.497011614
 20
196.5054557125
 30
0.0
 11
231.397011614
 21
196.5054557125
 31
0.0
  0
LINE
  5
221
330
1F
100
AcDbEntity
  8
SLD-0
  6
Continuous
 62
     7
100
AcDbLine
 10
249.247011614
 20
258.3054557125
 30
0.0
 11
249.247011614
 21
103.3054557125
 31
0.0
  0
LINE
  5
222
330
1F
100
AcDbEntity
  8
SLD-0
  6
Continuous
 62
     7
100
AcDbLine
 10
225.247011614
 20
103.3054557125
 30
0.0
 11
249.247011614
 21
103.3054557125
 31
0.0
  0
LINE
  5
223
330
1F
100
AcDbEntity
  8
SLD-0
  6
Continuous
 62
     7
100
AcDbLine
 10
231.397011614
 20
215.9054557125
 30
0.0
 11
231.397011614
 21
186.7054557125
 31
0.0
  0
LINE
  5
224
330
1F
100
AcDbEntity
  8
SLD-0
  6
Continuous
 62
     7
100
AcDbLine
 10
231.897011614
 20
186.2054557125
 30
0.0
 11
232.3736144416
 21
186.2054557125
 31
0.0
  0
LINE
  5
225
330
1F
100
AcDbEntity
  8
SLD-0
  6
Continuous
 62
     7
100
AcDbLine
 10
242.1204087864
 20
186.2054557125
 30
0.0
 11
242.597011614
 21
186.2054557125
 31
0.0
  0
LINE
  5
226
330
1F
100
AcDbEntity
  8
SLD-0
  6
Continuous
 62
     7
100
AcDbLine
 10
243.097011614
 20
186.7054557125
 30
0.0
 11
243.097011614
 21
215.9054557125
 31
0.0
  0
LINE
  5
227
330
1F
100
AcDbEntity
  8
SLD-0
  6
Continuous
 62
     7
100
AcDbLine
 10
242.597011614
 20
216.4054557125
 30
0.0
 11
242.1204087864
 21
216.4054557125
 31
0.0
  0
LINE
  5
228
330
1F
100
AcDbEntity
  8
SLD-0
  6
Continuous
 62
     7
100
AcDbLine
 10
232.3736144416
 20
216.4054557125
 30
0.0
 11
231.897011614
 21
216.4054557125
 31
0.0
  0
LINE
  5
229
330
1F
100
AcDbEntity
  8
SLD-0
  6
Continuous
 62
     7
100
AcDbLine
 10
225.247011614
 20
258.3054557125
 30
0.0
 11
225.247011614
 21
103.3054557125
 31
0.0
  0
LINE
  5
22A
330
1F
100
AcDbEntity
  8
SLD-0
  6
Continuous
 62
     7
100
AcDbLine
 10
225.247011614
 20
258.3054557125
 30
0.0
 11
249.247011614
 21
258.3054557125
 31
0.0
  0
LINE
  5
22B
330
1F
100
AcDbEntity
  8
SLD-0
 62
     7
100
AcDbLine
 10
244.818662211
 20
105.9957775635
 30
0.0
 11
246.8278969465
 21
103.3266496577
 31
0.0
  0
LINE
  5
22C
330
1F
100
AcDbEntity
  8
SLD-0
 62
     7
100
AcDbLine
 10
246.8278969465
 20
103.3266496577
 30
0.0
 11
247.5372655778
 21
104.0540093657
 31
0.0
  0
LINE
  5
22D
330
1F
100
AcDbEntity
  8
SLD-0
 62
     7
100
AcDbLine
 10
247.5372655778
 20
104.0540093657
 30
0.0
 11
244.818662211
 21
105.9957775635
 31
0.0
  0
LINE
  5
22E
330
1F
100
AcDbEntity
  8
SLD-0
  6
Continuous
 62
     7
100
AcDbLine
 10
104.0418988823
 20
44.0129000447
 30
0.0
 11
104.2418988823
 21
44.0247057431
 31
0.0
  0
LINE
  5
22F
330
1F
100
AcDbEntity
  8
SLD-0
  6
Continuous
 62
     7
100
AcDbLine
 10
104.2418988823
 20
51.5247057431
 30
0.0
 11
104.0418988823
 21
51.5365114415
 31
0.0
  0
LINE
  5
230
330
1F
100
AcDbEntity
  8
SLD-0
  6
Continuous
 62
     7
100
AcDbLine
 10
105.0418988823
 20
51.5247057431
 30
0.0
 11
104.2418988823
 21
51.5247057431
 31
0.0
  0
LINE
  5
231
330
1F
100
AcDbEntity
  8
SLD-0
  6
Continuous
 62
     7
100
AcDbLine
 10
104.2418988823
 20
44.0247057431
 30
0.0
 11
105.0418988823
 21
44.0247057431
 31
0.0
  0
LINE
  5
232
330
1F
100
AcDbEntity
  8
SLD-0
  6
Continuous
 62
     7
100
AcDbLine
 10
111.5418988823
 20
54.1747057431
 30
0.0
 11
111.5418988823
 21
53.9747057431
 31
0.0
  0
LINE
  5
233
330
1F
100
AcDbEntity
  8
SLD-0
  6
Continuous
 62
     7
100
AcDbLine
 10
133.4918988823
 20
55.7747057431
 30
0.0
 11
133.4918988823
 21
56.6747057431
 31
0.0
  0
LINE
  5
234
330
1F
100
AcDbEntity
  8
SLD-0
  6
Continuous
 62
     7
100
AcDbLine
 10
129.5918988823
 20
56.6747057431
 30
0.0
 11
129.5918988823
 21
55.8747057431
 31
0.0
  0
LINE
  5
235
330
1F
100
AcDbEntity
  8
SLD-0
  6
Continuous
 62
     7
100
AcDbLine
 10
140.5918988823
 20
56.6747057431
 30
0.0
 11
140.5918988823
 21
55.6747057431
 31
0.0
  0
LINE
  5
236
330
1F
100
AcDbEntity
  8
SLD-0
  6
Continuous
 62
     7
100
AcDbLine
 10
119.0418988823
 20
54.1747057431
 30
0.0
 11
119.0418988823
 21
53.9747057431
 31
0.0
  0
LINE
  5
237
330
1F
100
AcDbEntity
  8
SLD-0
  6
Continuous
 62
     7
100
AcDbLine
 10
124.4918988823
 20
55.6747057431
 30
0.0
 11
124.4918988823
 21
56.6747057431
 31
0.0
  0
LINE
  5
238
330
1F
100
AcDbEntity
  8
SLD-0
  6
Continuous
 62
     7
100
AcDbLine
 10
120.5918988823
 20
56.6747057431
 30
0.0
 11
120.5918988823
 21
55.6747057431
 31
0.0
  0
LINE
  5
239
330
1F
100
AcDbEntity
  8
SLD-0
  6
Continuous
 62
     7
100
AcDbLine
 10
147.0918988823
 20
55.6747057431
 30
0.0
 11
147.0918988823
 21
56.6747057431
 31
0.0
  0
LINE
  5
23A
330
1F
100
AcDbEntity
  8
SLD-0
  6
Continuous
 62
     7
100
AcDbLine
 10
143.1918988823
 20
56.6747057431
 30
0.0
 11
143.1918988823
 21
55.6747057431
 31
0.0
  0
LINE
  5
23B
330
1F
100
AcDbEntity
  8
SLD-0
  6
Continuous
 62
     7
100
AcDbLine
 10
89.1904043936
 20
51.0762002318
 30
0.0
 11
88.1309248685
 21
52.1356797569
 31
0.0
  0
LINE
  5
23C
330
1F
100
AcDbEntity
  8
SLD-0
  6
Continuous
 62
     7
100
AcDbLine
 10
88.0418988823
 20
52.3489698118
 30
0.0
 11
88.0418988823
 21
52.6481029155
 31
0.0
  0
LINE
  5
23D
330
1F
100
AcDbEntity
  8
SLD-0
  6
Continuous
 62
     7
100
AcDbLine
 10
88.3269175972
 20
53.2389566789
 30
0.0
 11
94.0418988823
 21
53.5247057431
 31
0.0
  0
LINE
  5
23E
330
1F
100
AcDbEntity
  8
SLD-0
  6
Continuous
 62
     7
100
AcDbLine
 10
94.0543910796
 20
53.0247057431
 30
0.0
 11
94.0418988823
 21
53.5247057431
 31
0.0
  0
LINE
  5
23F
330
1F
100
AcDbEntity
  8
SLD-0
  6
Continuous
 62
     7
100
AcDbLine
 10
94.0418988823
 20
53.5247057431
 30
0.0
 11
99.5418988823
 21
53.5247057431
 31
0.0
  0
LINE
  5
240
330
1F
100
AcDbEntity
  8
SLD-0
  6
Continuous
 62
     7
100
AcDbLine
 10
88.0418988823
 20
52.6481029155
 30
0.0
 11
88.0418988823
 21
52.9393309772
 31
0.0
  0
LINE
  5
241
330
1F
100
AcDbEntity
  8
SLD-0
  6
Continuous
 62
     7
100
AcDbLine
 10
97.9490056635
 20
42.3175989619
 30
0.0
 11
97.7188494453
 21
42.5477551801
 31
0.0
  0
LINE
  5
242
330
1F
100
AcDbEntity
  8
SLD-0
  6
Continuous
 62
     7
100
AcDbLine
 10
99.5418988823
 20
42.0247057431
 30
0.0
 11
98.6561124447
 21
42.0247057431
 31
0.0
  0
LINE
  5
243
330
1F
100
AcDbEntity
  8
SLD-0
  6
Continuous
 62
     7
100
AcDbLine
 10
97.7188494453
 20
42.5477551801
 30
0.0
 11
96.5005001522
 21
43.7661044732
 31
0.0
  0
LINE
  5
244
330
1F
100
AcDbEntity
  8
SLD-0
  6
Continuous
 62
     7
100
AcDbLine
 10
88.1309248685
 20
52.1356797569
 30
0.0
 11
88.129766848
 21
52.1368377775
 31
0.0
  0
LINE
  5
245
330
1F
100
AcDbEntity
  8
SLD-0
  6
Continuous
 62
     7
100
AcDbLine
 10
96.5005001522
 20
43.7661044732
 30
0.0
 11
89.1904043936
 21
51.0762002318
 31
0.0
  0
LINE
  5
246
330
1F
100
AcDbEntity
  8
SLD-0
  6
Continuous
 62
     7
100
AcDbLine
 10
122.5418988823
 20
53.9747057431
 30
0.0
 11
122.5418988823
 21
54.1747057431
 31
0.0
  0
LINE
  5
247
330
1F
100
AcDbEntity
  8
SLD-0
  6
Continuous
 62
     7
100
AcDbLine
 10
149.5418988823
 20
54.1747057431
 30
0.0
 11
149.5418988823
 21
53.9747057431
 31
0.0
  0
LINE
  5
248
330
1F
100
AcDbEntity
  8
SLD-0
  6
Continuous
 62
     7
100
AcDbLine
 10
105.0418988823
 20
53.9747057431
 30
0.0
 11
133.0418988823
 21
53.9747057431
 31
0.0
  0
LINE
  5
249
330
1F
100
AcDbEntity
  8
SLD-0
  6
Continuous
 62
     7
100
AcDbLine
 10
134.0418988823
 20
49.9747057431
 30
0.0
 11
142.0418988823
 21
49.9747057431
 31
0.0
  0
LINE
  5
24A
330
1F
100
AcDbEntity
  8
SLD-0
  6
Continuous
 62
     7
100
AcDbLine
 10
149.5418988823
 20
53.9747057431
 30
0.0
 11
149.5418988823
 21
41.6747057431
 31
0.0
  0
LINE
  5
24B
330
1F
100
AcDbEntity
  8
SLD-0
  6
Continuous
 62
     7
100
AcDbLine
 10
133.0418988823
 20
53.9747057431
 30
0.0
 11
133.0418988823
 21
50.9747057431
 31
0.0
  0
LINE
  5
24C
330
1F
100
AcDbEntity
  8
SLD-0
  6
Continuous
 62
     7
100
AcDbLine
 10
143.0418988823
 20
53.9747057431
 30
0.0
 11
149.5418988823
 21
53.9747057431
 31
0.0
  0
LINE
  5
24D
330
1F
100
AcDbEntity
  8
SLD-0
  6
Continuous
 62
     7
100
AcDbLine
 10
105.0418988823
 20
53.9747057431
 30
0.0
 11
105.0418988823
 21
41.6747057431
 31
0.0
  0
LINE
  5
24E
330
1F
100
AcDbEntity
  8
SLD-0
  6
Continuous
 62
     7
100
AcDbLine
 10
143.0418988823
 20
50.9747057431
 30
0.0
 11
143.0418988823
 21
53.9747057431
 31
0.0
  0
LINE
  5
24F
330
1F
100
AcDbEntity
  8
SLD-0
  6
Continuous
 62
     7
100
AcDbLine
 10
105.0418988823
 20
41.6747057431
 30
0.0
 11
105.0418988823
 21
39.9747057431
 31
0.0
  0
LINE
  5
250
330
1F
100
AcDbEntity
  8
SLD-0
  6
Continuous
 62
     7
100
AcDbLine
 10
149.5418988823
 20
39.9747057431
 30
0.0
 11
149.5418988823
 21
41.6747057431
 31
0.0
  0
LINE
  5
251
330
1F
100
AcDbEntity
  8
SLD-0
  6
Continuous
 62
     7
100
AcDbLine
 10
149.5418988823
 20
39.9747057431
 30
0.0
 11
105.0418988823
 21
39.9747057431
 31
0.0
  0
LINE
  5
252
330
1F
100
AcDbEntity
  8
SLD-0
  6
Continuous
 62
     7
100
AcDbLine
 10
102.5418988823
 20
41.4747057431
 30
0.0
 11
105.0418988823
 21
41.4747057431
 31
0.0
  0
LINE
  5
253
330
1F
100
AcDbEntity
  8
SLD-0
  6
Continuous
 62
     7
100
AcDbLine
 10
102.5418988823
 20
39.9747057431
 30
0.0
 11
105.0418988823
 21
39.9747057431
 31
0.0
  0
LINE
  5
254
330
1F
100
AcDbEntity
  8
SLD-0
  6
Continuous
 62
     7
100
AcDbLine
 10
105.0418988823
 20
53.9747057431
 30
0.0
 11
104.0418988823
 21
53.9747057431
 31
0.0
  0
LINE
  5
255
330
1F
100
AcDbEntity
  8
SLD-0
  6
Continuous
 62
     7
100
AcDbLine
 10
138.3418988823
 20
55.8747057431
 30
0.0
 11
139.8418988823
 21
55.8747057431
 31
0.0
  0
LINE
  5
256
330
1F
100
AcDbEntity
  8
SLD-0
  6
Continuous
 62
     7
100
AcDbLine
 10
138.3418988823
 20
55.6747057431
 30
0.0
 11
138.3418988823
 21
55.8747057431
 31
0.0
  0
LINE
  5
257
330
1F
100
AcDbEntity
  8
SLD-0
  6
Continuous
 62
     7
100
AcDbLine
 10
129.1418988823
 20
55.8747057431
 30
0.0
 11
130.6418988823
 21
55.8747057431
 31
0.0
  0
LINE
  5
258
330
1F
100
AcDbEntity
  8
SLD-0
  6
Continuous
 62
     7
100
AcDbLine
 10
130.6418988823
 20
55.8747057431
 30
0.0
 11
130.6418988823
 21
55.6747057431
 31
0.0
  0
LINE
  5
259
330
1F
100
AcDbEntity
  8
SLD-0
  6
Continuous
 62
     7
100
AcDbLine
 10
132.9918988823
 20
55.7747057431
 30
0.0
 11
132.9918988823
 21
55.6747057431
 31
0.0
  0
LINE
  5
25A
330
1F
100
AcDbEntity
  8
SLD-0
  6
Continuous
 62
     7
100
AcDbLine
 10
135.9918988823
 20
55.7747057431
 30
0.0
 11
132.9918988823
 21
55.7747057431
 31
0.0
  0
LINE
  5
25B
330
1F
100
AcDbEntity
  8
SLD-0
  6
Continuous
 62
     7
100
AcDbLine
 10
135.9918988823
 20
55.7747057431
 30
0.0
 11
135.9918988823
 21
55.6747057431
 31
0.0
  0
LINE
  5
25C
330
1F
100
AcDbEntity
  8
SLD-0
  6
Continuous
 62
     7
100
AcDbLine
 10
130.6418988823
 20
55.7715218721
 30
0.0
 11
130.8418988823
 21
55.7715218721
 31
0.0
  0
LINE
  5
25D
330
1F
100
AcDbEntity
  8
SLD-0
  6
Continuous
 62
     7
100
AcDbLine
 10
130.8418988823
 20
55.7715218721
 30
0.0
 11
130.8418988823
 21
55.6747057431
 31
0.0
  0
LINE
  5
25E
330
1F
100
AcDbEntity
  8
SLD-0
  6
Continuous
 62
     7
100
AcDbLine
 10
102.5418988823
 20
59.7747057431
 30
0.0
 11
99.5418988823
 21
59.7747057431
 31
0.0
  0
LINE
  5
25F
330
1F
100
AcDbEntity
  8
SLD-0
  6
Continuous
 62
     7
100
AcDbLine
 10
102.5418988823
 20
35.7747057431
 30
0.0
 11
102.5418988823
 21
59.7747057431
 31
0.0
  0
LINE
  5
260
330
1F
100
AcDbEntity
  8
SLD-0
  6
Continuous
 62
     7
100
AcDbLine
 10
99.5418988823
 20
35.7747057431
 30
0.0
 11
102.5418988823
 21
35.7747057431
 31
0.0
  0
LINE
  5
261
330
1F
100
AcDbEntity
  8
SLD-0
  6
Continuous
 62
     7
100
AcDbLine
 10
99.5418988823
 20
59.7747057431
 30
0.0
 11
99.5418988823
 21
35.7747057431
 31
0.0
  0
LINE
  5
262
330
1F
100
AcDbEntity
  8
SLD-0
  6
Continuous
 62
     7
100
AcDbLine
 10
133.4918988823
 20
56.6747057431
 30
0.0
 11
129.5918988823
 21
56.6747057431
 31
0.0
  0
LINE
  5
263
330
1F
100
AcDbEntity
  8
SLD-0
  6
Continuous
 62
     7
100
AcDbLine
 10
143.1918988823
 20
56.6747057431
 30
0.0
 11
140.5918988823
 21
56.6747057431
 31
0.0
  0
LINE
  5
264
330
1F
100
AcDbEntity
  8
SLD-0
  6
Continuous
 62
     7
100
AcDbLine
 10
124.4918988823
 20
56.6747057431
 30
0.0
 11
120.5918988823
 21
56.6747057431
 31
0.0
  0
LINE
  5
265
330
1F
100
AcDbEntity
  8
SLD-0
  6
Continuous
 62
     7
100
AcDbLine
 10
145.1418988823
 20
56.6747057431
 30
0.0
 11
147.0918988823
 21
56.6747057431
 31
0.0
  0
LINE
  5
266
330
1F
100
AcDbEntity
  8
SLD-0
  6
Continuous
 62
     7
100
AcDbLine
 10
143.1918988823
 20
56.6747057431
 30
0.0
 11
145.1418988823
 21
56.6747057431
 31
0.0
  0
LINE
  5
267
330
1F
100
AcDbEntity
  8
SLD-0
  6
Continuous
 62
     7
100
AcDbLine
 10
104.0418988823
 20
41.6747057431
 30
0.0
 11
104.0418988823
 21
53.9747057431
 31
0.0
  0
LINE
  5
268
330
1F
100
AcDbEntity
  8
SLD-0
  6
Continuous
 62
     7
100
AcDbLine
 10
104.0418988823
 20
41.6747057431
 30
0.0
 11
102.5418988823
 21
41.6747057431
 31
0.0
  0
LINE
  5
269
330
1F
100
AcDbEntity
  8
SLD-0
  6
Continuous
 62
     7
100
AcDbLine
 10
149.5418988823
 20
54.1747057431
 30
0.0
 11
104.2418988823
 21
54.1747057431
 31
0.0
  0
LINE
  5
26A
330
1F
100
AcDbEntity
  8
SLD-0
  6
Continuous
 62
     7
100
AcDbLine
 10
149.5418988823
 20
55.6747057431
 30
0.0
 11
104.2418988823
 21
55.6747057431
 31
0.0
  0
LINE
  5
26B
330
1F
100
AcDbEntity
  8
SLD-0
  6
Continuous
 62
     7
100
AcDbLine
 10
149.5418988823
 20
54.1747057431
 30
0.0
 11
149.5418988823
 21
55.6747057431
 31
0.0
  0
LINE
  5
26C
330
1F
100
AcDbEntity
  8
SLD-0
  6
Continuous
 62
     7
100
AcDbLine
 10
103.0418988823
 20
55.178865201
 30
0.0
 11
103.0418988823
 21
55.6747057431
 31
0.0
  0
LINE
  5
26D
330
1F
100
AcDbEntity
  8
SLD-0
  6
Continuous
 62
     7
100
AcDbLine
 10
103.0418988823
 20
55.6747057431
 30
0.0
 11
104.2418988823
 21
55.6747057431
 31
0.0
  0
LINE
  5
26E
330
1F
100
AcDbEntity
  8
SLD-0
  6
CENTERX2
 62
     7
100
AcDbLine
 10
151.5418988823
 20
47.8247057431
 30
0.0
 11
89.3747360646
 21
47.8247057431
 31
0.0
  0
ARC
  5
26F
330
1F
100
AcDbEntity
  8
SLD-0
  6
Continuous
 62
     7
100
AcDbCircle
 10
98.0724028359
 20
188.3054557125
 30
0.0
 40
2.000000000000234
100
AcDbArc
 50
215.6853347127
 51
270.0
  0
ARC
  5
270
330
1F
100
AcDbEntity
  8
SLD-0
  6
Continuous
 62
     7
100
AcDbCircle
 10
98.0724028359
 20
214.3054557125
 30
0.0
 40
2.000000000000218
100
AcDbArc
 50
90.0
 51
144.3146652873
  0
ARC
  5
271
330
1F
100
AcDbEntity
  8
SLD-0
  6
Continuous
 62
     7
100
AcDbCircle
 10
93.2263106747
 20
184.8396302228
 30
0.0
 40
3.957904520516794
100
AcDbArc
 50
35.5140837351
 51
90.704028075
  0
ARC
  5
272
330
1F
100
AcDbEntity
  8
SLD-0
  6
Continuous
 62
     7
100
AcDbCircle
 10
93.2317315136
 20
217.7614336399
 30
0.0
 40
3.947774626072996
100
AcDbArc
 50
269.8345624601
 51
324.5565483277
  0
ARC
  5
273
330
1F
100
AcDbEntity
  8
SLD-0
  6
Continuous
 62
     7
100
AcDbCircle
 10
149.2518705629
 20
153.8977738977
 30
0.0
 40
0.6085800471218982
100
AcDbArc
 50
298.461335559
 51
61.538664441
  0
ARC
  5
274
330
1F
100
AcDbEntity
  8
SLD-0
  6
Continuous
 62
     7
100
AcDbCircle
 10
160.0241519916
 20
225.5826759068
 30
0.0
 40
88.6238032875925
100
AcDbArc
 50
259.1078814281
 51
260.0212999003
  0
ARC
  5
275
330
1F
100
AcDbEntity
  8
SLD-0
  6
Continuous
 62
     7
100
AcDbCircle
 10
149.1911231942
 20
152.2353337441
 30
0.0
 40
0.5302583826113844
100
AcDbArc
 50
311.4157792883
 51
48.5842207117
  0
ARC
  5
276
330
1F
100
AcDbEntity
  8
SLD-0
  6
Continuous
 62
     7
100
AcDbCircle
 10
127.651895591
 20
210.507178282
 30
0.0
 40
10.41118417350573
100
AcDbArc
 50
306.0078125774
 51
310.6269760984
  0
ARC
  5
277
330
1F
100
AcDbEntity
  8
SLD-0
  6
Continuous
 62
     7
100
AcDbCircle
 10
136.792554006
 20
199.4827817671
 30
0.0
 40
4.006438842030304
100
AcDbArc
 50
128.7930601334
 51
141.4569043705
  0
ARC
  5
278
330
1F
100
AcDbEntity
  8
SLD-0
  6
Continuous
 62
     7
100
AcDbCircle
 10
118.1736658517
 20
222.5802434541
 30
0.0
 40
26.75568522121215
100
AcDbArc
 50
307.2203941764
 51
311.7065293269
  0
ARC
  5
279
330
1F
100
AcDbEntity
  8
SLD-0
  6
Continuous
 62
     7
100
AcDbCircle
 10
134.0551992719
 20
201.6723624811
 30
0.0
 40
0.5045146147687284
100
AcDbArc
 50
130.4019721101
 51
313.3342855783
  0
ARC
  5
27A
330
1F
100
AcDbEntity
  8
SLD-0
  6
Continuous
 62
     7
100
AcDbCircle
 10
136.4614249352
 20
221.5951324951
 30
0.0
 40
1.996102943105403
100
AcDbArc
 50
31.0115657369
 51
76.0407131396
  0
ARC
  5
27B
330
1F
100
AcDbEntity
  8
SLD-0
  6
Continuous
 62
     7
100
AcDbCircle
 10
131.8418988823
 20
200.3554557125
 30
0.0
 40
0.3000000000000398
100
AcDbArc
 50
180.0
 51
270.0
  0
ARC
  5
27C
330
1F
100
AcDbEntity
  8
SLD-0
  6
Continuous
 62
     7
100
AcDbCircle
 10
133.2418988823
 20
200.3554557125
 30
0.0
 40
0.3000000000000398
100
AcDbArc
 50
270.0
 51
0.0
  0
ARC
  5
27D
330
1F
100
AcDbEntity
  8
SLD-0
  6
Continuous
 62
     7
100
AcDbCircle
 10
133.2418988823
 20
202.2554557125
 30
0.0
 40
0.2999999999999829
100
AcDbArc
 50
0.0
 51
90.0
  0
ARC
  5
27E
330
1F
100
AcDbEntity
  8
SLD-0
  6
Continuous
 62
     7
100
AcDbCircle
 10
131.8418988823
 20
202.2554557125
 30
0.0
 40
0.3000000000000114
100
AcDbArc
 50
90.0
 51
180.0
  0
ARC
  5
27F
330
1F
100
AcDbEntity
  8
SLD-0
  6
Continuous
 62
     7
100
AcDbCircle
 10
88.5418988823
 20
186.8054557125
 30
0.0
 40
0.5
100
AcDbArc
 50
180.0
 51
270.0
  0
ARC
  5
280
330
1F
100
AcDbEntity
  8
SLD-0
  6
Continuous
 62
     7
100
AcDbCircle
 10
88.5418988823
 20
215.8054557125
 30
0.0
 40
0.5
100
AcDbArc
 50
90.0
 51
180.0
  0
CIRCLE
  5
281
330
1F
100
AcDbEntity
  8
SLD-0
  6
Continuous
 62
     7
100
AcDbCircle
 10
134.5418988823
 20
167.3054557125
 30
0.0
 40
8.44999999999996
  0
CIRCLE
  5
282
330
1F
100
AcDbEntity
  8
SLD-0
  6
Continuous
 62
     7
100
AcDbCircle
 10
142.5418988823
 20
180.8054557125
 30
0.0
 40
3.099999999999994
  0
CIRCLE
  5
283
330
1F
100
AcDbEntity
  8
SLD-0
  6
Continuous
 62
     7
100
AcDbCircle
 10
122.5418988823
 20
224.3054557125
 30
0.0
 40
3.100000000000037
  0
CIRCLE
  5
284
330
1F
100
AcDbEntity
  8
SLD-0
  6
Continuous
 62
     7
100
AcDbCircle
 10
131.5418988823
 20
131.3054557125
 30
0.0
 40
3.099999999999994
  0
CIRCLE
  5
285
330
1F
100
AcDbEntity
  8
SLD-0
  6
Continuous
 62
     7
100
AcDbCircle
 10
115.5418988823
 20
167.3054557125
 30
0.0
 40
3.299999999999983
  0
CIRCLE
  5
286
330
1F
100
AcDbEntity
  8
SLD-0
  6
Continuous
 62
     7
100
AcDbCircle
 10
115.5418988823
 20
167.3054557125
 30
0.0
 40
3.500000000000028
  0
CIRCLE
  5
287
330
1F
100
AcDbEntity
  8
SLD-0
  6
Continuous
 62
     7
100
AcDbCircle
 10
115.5418988823
 20
167.3054557125
 30
0.0
 40
3.699999999999989
  0
ARC
  5
288
330
1F
100
AcDbEntity
  8
SLD-0
  6
Continuous
 62
     7
100
AcDbCircle
 10
128.1418988823
 20
208.1054557125
 30
0.0
 40
0.5
100
AcDbArc
 50
0.0
 51
90.0
  0
ARC
  5
289
330
1F
100
AcDbEntity
  8
SLD-0
  6
Continuous
 62
     7
100
AcDbCircle
 10
126.8418988823
 20
208.1054557125
 30
0.0
 40
0.5
100
AcDbArc
 50
90.0
 51
180.0
  0
ARC
  5
28A
330
1F
100
AcDbEntity
  8
SLD-0
  6
Continuous
 62
     7
100
AcDbCircle
 10
126.8418988823
 20
194.5054557125
 30
0.0
 40
0.5
100
AcDbArc
 50
180.0
 51
270.0
  0
ARC
  5
28B
330
1F
100
AcDbEntity
  8
SLD-0
  6
Continuous
 62
     7
100
AcDbCircle
 10
128.1418988823
 20
194.5054557125
 30
0.0
 40
0.5
100
AcDbArc
 50
270.0
 51
0.0
  0
CIRCLE
  5
28C
330
1F
100
AcDbEntity
  8
SLD-0
  6
Continuous
 62
     7
100
AcDbCircle
 10
134.5418988823
 20
167.3054557125
 30
0.0
 40
8.5
  0
ARC
  5
28D
330
1F
100
AcDbEntity
  8
SLD-0
  6
Continuous
 62
     7
100
AcDbCircle
 10
139.9418988823
 20
213.5054557125
 30
0.0
 40
0.1999999999999886
100
AcDbArc
 50
270.0
 51
0.0
  0
ARC
  5
28E
330
1F
100
AcDbEntity
  8
SLD-0
  6
Continuous
 62
     7
100
AcDbCircle
 10
139.9418988823
 20
222.1054557125
 30
0.0
 40
0.2000000000000455
100
AcDbArc
 50
0.0
 51
90.0
  0
ARC
  5
28F
330
1F
100
AcDbEntity
  8
SLD-0
  6
Continuous
 62
     7
100
AcDbCircle
 10
134.5418988823
 20
222.3054557125
 30
0.0
 40
3.750000000000028
100
AcDbArc
 50
0.0
 51
180.0
  0
ARC
  5
290
330
1F
100
AcDbEntity
  8
SLD-0
  6
Continuous
 62
     7
100
AcDbCircle
 10
129.1418988823
 20
222.1054557125
 30
0.0
 40
0.2000000000000171
100
AcDbArc
 50
90.0
 51
180.0
  0
ARC
  5
291
330
1F
100
AcDbEntity
  8
SLD-0
  6
Continuous
 62
     7
100
AcDbCircle
 10
129.1418988823
 20
213.5054557125
 30
0.0
 40
0.1999999999999886
100
AcDbArc
 50
180.0
 51
270.0
  0
ARC
  5
292
330
1F
100
AcDbEntity
  8
SLD-0
  6
Continuous
 62
     7
100
AcDbCircle
 10
134.5418988823
 20
213.3054557125
 30
0.0
 40
3.750000000000035
100
AcDbArc
 50
180.0
 51
241.1608105994
  0
ARC
  5
293
330
1F
100
AcDbEntity
  8
SLD-0
  6
Continuous
 62
     7
100
AcDbCircle
 10
132.4918988823
 20
209.5825536187
 30
0.0
 40
0.5000000000024004
100
AcDbArc
 50
0.0
 51
61.1608105994
  0
ARC
  5
294
330
1F
100
AcDbEntity
  8
SLD-0
  6
Continuous
 62
     7
100
AcDbCircle
 10
133.1918988823
 20
208.6054557125
 30
0.0
 40
0.2000000000000171
100
AcDbArc
 50
180.0
 51
270.0
  0
ARC
  5
295
330
1F
100
AcDbEntity
  8
SLD-0
  6
Continuous
 62
     7
100
AcDbCircle
 10
135.8918988823
 20
208.6054557125
 30
0.0
 40
0.2000000000000171
100
AcDbArc
 50
270.0
 51
0.0
  0
ARC
  5
296
330
1F
100
AcDbEntity
  8
SLD-0
  6
Continuous
 62
     7
100
AcDbCircle
 10
136.5918988823
 20
209.5825536187
 30
0.0
 40
0.5
100
AcDbArc
 50
118.8391894006
 51
180.0
  0
ARC
  5
297
330
1F
100
AcDbEntity
  8
SLD-0
  6
Continuous
 62
     7
100
AcDbCircle
 10
134.5418988823
 20
213.3054557125
 30
0.0
 40
3.750000000002423
100
AcDbArc
 50
298.8391894006
 51
0.0
  0
ARC
  5
298
330
1F
100
AcDbEntity
  8
SLD-0
  6
Continuous
 62
     7
100
AcDbCircle
 10
134.5418988823
 20
145.8054557125
 30
0.0
 40
3.750000000000028
100
AcDbArc
 50
0.0
 51
180.0
  0
ARC
  5
299
330
1F
100
AcDbEntity
  8
SLD-0
  6
Continuous
 62
     7
100
AcDbCircle
 10
134.5418988823
 20
142.3054557125
 30
0.0
 40
3.750000000000028
100
AcDbArc
 50
180.0
 51
0.0
  0
ARC
  5
29A
330
1F
100
AcDbEntity
  8
SLD-0
  6
Continuous
 62
     7
100
AcDbCircle
 10
134.5418988823
 20
188.8054557125
 30
0.0
 40
3.750000000000028
100
AcDbArc
 50
180.0
 51
0.0
  0
ARC
  5
29B
330
1F
100
AcDbEntity
  8
SLD-0
  6
Continuous
 62
     7
100
AcDbCircle
 10
134.5418988823
 20
192.3054557125
 30
0.0
 40
3.750000000000028
100
AcDbArc
 50
0.0
 51
180.0
  0
CIRCLE
  5
29C
330
1F
100
AcDbEntity
  8
SLD-0
  6
Continuous
 62
     7
100
AcDbCircle
 10
115.5418988823
 20
167.3054557125
 30
0.0
 40
3.75
  0
CIRCLE
  5
29D
330
1F
100
AcDbEntity
  8
SLD-0
  6
Continuous
 62
     7
100
AcDbCircle
 10
145.1418988823
 20
218.3054557125
 30
0.0
 40
1.699999999999989
  0
CIRCLE
  5
29E
330
1F
100
AcDbEntity
  8
SLD-0
  6
Continuous
 62
     7
100
AcDbCircle
 10
131.5418988823
 20
131.3054557125
 30
0.0
 40
3.650000000000034
  0
CIRCLE
  5
29F
330
1F
100
AcDbEntity
  8
SLD-0
  6
Continuous
 62
     7
100
AcDbCircle
 10
142.5418988823
 20
180.8054557125
 30
0.0
 40
3.649999999999977
  0
CIRCLE
  5
2A0
330
1F
100
AcDbEntity
  8
SLD-0
  6
Continuous
 62
     7
100
AcDbCircle
 10
122.5418988823
 20
224.3054557125
 30
0.0
 40
3.650000000000006
  0
ARC
  5
2A1
330
1F
100
AcDbEntity
  8
SLD-0
  6
Continuous
 62
     7
100
AcDbCircle
 10
142.5418988823
 20
180.8054557125
 30
0.0
 40
2.299999999981801
100
AcDbArc
 50
171.9100600947
 51
188.0899399077
  0
ARC
  5
2A2
330
1F
100
AcDbEntity
  8
SLD-0
  6
Continuous
 62
     7
100
AcDbCircle
 10
131.5418988823
 20
131.3054557125
 30
0.0
 40
2.299999999981801
100
AcDbArc
 50
171.9100600947
 51
188.0899399077
  0
ARC
  5
2A3
330
1F
100
AcDbEntity
  8
SLD-0
  6
Continuous
 62
     7
100
AcDbCircle
 10
122.5418988823
 20
224.3054557125
 30
0.0
 40
2.299999999981829
100
AcDbArc
 50
171.9100600947
 51
188.0899399077
  0
ARC
  5
2A4
330
1F
100
AcDbEntity
  8
SLD-0
  6
Continuous
 62
     7
100
AcDbCircle
 10
139.8418988823
 20
219.6054557125
 30
0.0
 40
0.1999999999999886
100
AcDbArc
 50
0.0
 51
90.0
  0
ARC
  5
2A5
330
1F
100
AcDbEntity
  8
SLD-0
  6
Continuous
 62
     7
100
AcDbCircle
 10
129.1418988823
 20
219.6054557125
 30
0.0
 40
0.1999999999999886
100
AcDbArc
 50
90.0
 51
180.0
  0
ARC
  5
2A6
330
1F
100
AcDbEntity
  8
SLD-0
  6
Continuous
 62
     7
100
AcDbCircle
 10
139.8418988823
 20
213.5054557125
 30
0.0
 40
0.1999999999999886
100
AcDbArc
 50
270.0
 51
0.0
  0
ARC
  5
2A7
330
1F
100
AcDbEntity
  8
SLD-0
  6
Continuous
 62
     7
100
AcDbCircle
 10
133.1918988823
 20
208.7054557125
 30
0.0
 40
0.2000000000000171
100
AcDbArc
 50
180.0
 51
270.0
  0
ARC
  5
2A8
330
1F
100
AcDbEntity
  8
SLD-0
  6
Continuous
 62
     7
100
AcDbCircle
 10
135.7918988823
 20
208.7054557125
 30
0.0
 40
0.2000000000000171
100
AcDbArc
 50
270.0
 51
0.0
  0
ARC
  5
2A9
330
1F
100
AcDbEntity
  8
SLD-0
  6
Continuous
 62
     7
100
AcDbCircle
 10
134.4918988823
 20
213.3054557125
 30
0.0
 40
3.850000000001592
100
AcDbArc
 50
247.0697411195
 51
292.9302588805
  0
ARC
  5
2AA
330
1F
100
AcDbEntity
  8
SLD-0
  6
Continuous
 62
     7
100
AcDbCircle
 10
134.5918988823
 20
188.7554557125
 30
0.0
 40
3.75
100
AcDbArc
 50
180.0
 51
224.459802207
  0
ARC
  5
2AB
330
1F
100
AcDbEntity
  8
SLD-0
  6
Continuous
 62
     7
100
AcDbCircle
 10
134.5918988823
 20
192.2554557125
 30
0.0
 40
3.750000000000031
100
AcDbArc
 50
45.5401977928
 51
180.0
  0
ARC
  5
2AC
330
1F
100
AcDbEntity
  8
SLD-0
  6
Continuous
 62
     7
100
AcDbCircle
 10
134.5918988823
 20
142.3554557125
 30
0.0
 40
3.750000000000015
100
AcDbArc
 50
180.0
 51
314.4598024327
  0
ARC
  5
2AD
330
1F
100
AcDbEntity
  8
SLD-0
  6
Continuous
 62
     7
100
AcDbCircle
 10
134.5918988823
 20
145.8554557125
 30
0.0
 40
3.750000000000005
100
AcDbArc
 50
135.5401975993
 51
180.0
  0
CIRCLE
  5
2AE
330
1F
100
AcDbEntity
  8
SLD-0
  6
Continuous
 62
     7
100
AcDbCircle
 10
145.1418988823
 20
218.3054557125
 30
0.0
 40
1.300000000000011
  0
CIRCLE
  5
2AF
330
1F
100
AcDbEntity
  8
SLD-0
  6
Continuous
 62
     7
100
AcDbCircle
 10
145.1418988823
 20
218.3054557125
 30
0.0
 40
1.599999999999994
  0
ARC
  5
2B0
330
1F
100
AcDbEntity
  8
SLD-0
  6
Continuous
 62
     7
100
AcDbCircle
 10
232.3736144416
 20
188.3054557125
 30
0.0
 40
2.0
100
AcDbArc
 50
270.0
 51
278.2905848084
  0
ARC
  5
2B1
330
1F
100
AcDbEntity
  8
SLD-0
  6
Continuous
 62
     7
100
AcDbCircle
 10
232.3736144416
 20
214.3054557125
 30
0.0
 40
2.0
100
AcDbArc
 50
81.7094151916
 51
90.0
  0
ARC
  5
2B2
330
1F
100
AcDbEntity
  8
SLD-0
  6
Continuous
 62
     7
100
AcDbCircle
 10
232.2779608966
 20
215.8102608084
 30
0.0
 40
0.4952235305253316
100
AcDbArc
 50
90.6160594817
 51
180.5559429646
  0
ARC
  5
2B3
330
1F
100
AcDbEntity
  8
SLD-0
  6
Continuous
 62
     7
100
AcDbCircle
 10
232.2777507626
 20
186.8004447375
 30
0.0
 40
0.4950154477070595
100
AcDbArc
 50
179.4199926115
 51
269.4080049439
  0
ARC
  5
2B4
330
1F
100
AcDbEntity
  8
SLD-0
  6
Continuous
 62
     7
100
AcDbCircle
 10
232.3736144416
 20
188.3054557125
 30
0.0
 40
1.999999999999999
100
AcDbArc
 50
278.2905848084
 51
324.3146652874
  0
ARC
  5
2B5
330
1F
100
AcDbEntity
  8
SLD-0
  6
Continuous
 62
     7
100
AcDbCircle
 10
232.3736144416
 20
214.3054557125
 30
0.0
 40
2.000000000000036
100
AcDbArc
 50
35.6853347127
 51
81.7094151916
  0
ARC
  5
2B6
330
1F
100
AcDbEntity
  8
SLD-0
  6
Continuous
 62
     7
100
AcDbCircle
 10
231.997011614
 20
215.8054557125
 30
0.0
 40
0.5
100
AcDbArc
 50
90.0
 51
180.0
  0
ARC
  5
2B7
330
1F
100
AcDbEntity
  8
SLD-0
  6
Continuous
 62
     7
100
AcDbCircle
 10
231.997011614
 20
186.8054557125
 30
0.0
 40
0.5
100
AcDbArc
 50
180.0
 51
270.0
  0
ARC
  5
2B8
330
1F
100
AcDbEntity
  8
SLD-0
  6
Continuous
 62
     7
100
AcDbCircle
 10
237.247011614
 20
184.8054557125
 30
0.0
 40
4.000000000000059
100
AcDbArc
 50
35.6853347127
 51
144.3146652873
  0
ARC
  5
2B9
330
1F
100
AcDbEntity
  8
SLD-0
  6
Continuous
 62
     7
100
AcDbCircle
 10
237.247011614
 20
217.8054557125
 30
0.0
 40
4.000000000000026
100
AcDbArc
 50
215.6853347127
 51
324.3146652873
  0
ARC
  5
2BA
330
1F
100
AcDbEntity
  8
SLD-0
  6
Continuous
 62
     7
100
AcDbCircle
 10
242.1204087864
 20
214.3054557125
 30
0.0
 40
1.999999999999773
100
AcDbArc
 50
90.0
 51
144.3146652874
  0
ARC
  5
2BB
330
1F
100
AcDbEntity
  8
SLD-0
  6
Continuous
 62
     7
100
AcDbCircle
 10
242.1204087864
 20
188.3054557125
 30
0.0
 40
1.999999999999915
100
AcDbArc
 50
215.6853347126
 51
270.0
  0
ARC
  5
2BC
330
1F
100
AcDbEntity
  8
SLD-0
  6
Continuous
 62
     7
100
AcDbCircle
 10
242.497011614
 20
186.8054557125
 30
0.0
 40
0.5
100
AcDbArc
 50
270.0
 51
0.0
  0
ARC
  5
2BD
330
1F
100
AcDbEntity
  8
SLD-0
  6
Continuous
 62
     7
100
AcDbCircle
 10
242.497011614
 20
215.8054557125
 30
0.0
 40
0.5
100
AcDbArc
 50
0.0
 51
90.0
  0
ARC
  5
2BE
330
1F
100
AcDbEntity
  8
SLD-0
  6
Continuous
 62
     7
100
AcDbCircle
 10
231.897011614
 20
215.9054557125
 30
0.0
 40
0.5
100
AcDbArc
 50
90.0
 51
180.0
  0
ARC
  5
2BF
330
1F
100
AcDbEntity
  8
SLD-0
  6
Continuous
 62
     7
100
AcDbCircle
 10
231.897011614
 20
186.7054557125
 30
0.0
 40
0.5
100
AcDbArc
 50
180.0
 51
270.0
  0
ARC
  5
2C0
330
1F
100
AcDbEntity
  8
SLD-0
  6
Continuous
 62
     7
100
AcDbCircle
 10
232.3736144416
 20
188.2054557125
 30
0.0
 40
2.00000000000001
100
AcDbArc
 50
270.0
 51
324.3146652874
  0
ARC
  5
2C1
330
1F
100
AcDbEntity
  8
SLD-0
  6
Continuous
 62
     7
100
AcDbCircle
 10
237.247011614
 20
184.7054557125
 30
0.0
 40
4.000000000000004
100
AcDbArc
 50
35.6853347126
 51
144.3146652873
  0
ARC
  5
2C2
330
1F
100
AcDbEntity
  8
SLD-0
  6
Continuous
 62
     7
100
AcDbCircle
 10
242.1204087864
 20
188.2054557125
 30
0.0
 40
2.000000000000028
100
AcDbArc
 50
215.6853347128
 51
270.0
  0
ARC
  5
2C3
330
1F
100
AcDbEntity
  8
SLD-0
  6
Continuous
 62
     7
100
AcDbCircle
 10
242.597011614
 20
186.7054557125
 30
0.0
 40
0.5
100
AcDbArc
 50
270.0
 51
0.0
  0
ARC
  5
2C4
330
1F
100
AcDbEntity
  8
SLD-0
  6
Continuous
 62
     7
100
AcDbCircle
 10
242.597011614
 20
215.9054557125
 30
0.0
 40
0.5
100
AcDbArc
 50
0.0
 51
90.0
  0
ARC
  5
2C5
330
1F
100
AcDbEntity
  8
SLD-0
  6
Continuous
 62
     7
100
AcDbCircle
 10
242.1204087864
 20
214.4054557125
 30
0.0
 40
2.000000000000052
100
AcDbArc
 50
90.0
 51
144.3146652873
  0
ARC
  5
2C6
330
1F
100
AcDbEntity
  8
SLD-0
  6
Continuous
 62
     7
100
AcDbCircle
 10
237.247011614
 20
217.9054557125
 30
0.0
 40
3.999999999999996
100
AcDbArc
 50
215.6853347127
 51
324.3146652873
  0
ARC
  5
2C7
330
1F
100
AcDbEntity
  8
SLD-0
  6
Continuous
 62
     7
100
AcDbCircle
 10
232.3736144416
 20
214.4054557125
 30
0.0
 40
2.000000000000028
100
AcDbArc
 50
35.6853347126
 51
90.0
  0
CIRCLE
  5
2C8
330
1F
100
AcDbEntity
  8
SLD-0
  6
Continuous
 62
     7
100
AcDbCircle
 10
237.247011614
 20
248.3054557125
 30
0.0
 40
5.000000000000028
  0
CIRCLE
  5
2C9
330
1F
100
AcDbEntity
  8
SLD-0
  6
Continuous
 62
     7
100
AcDbCircle
 10
237.247011614
 20
113.3054557125
 30
0.0
 40
5.0
  0
CIRCLE
  5
2CA
330
1F
100
AcDbEntity
  8
SLD-0
  6
Continuous
 62
     7
100
AcDbCircle
 10
237.247011614
 20
248.3054557125
 30
0.0
 40
2.75
  0
CIRCLE
  5
2CB
330
1F
100
AcDbEntity
  8
SLD-0
  6
Continuous
 62
     7
100
AcDbCircle
 10
237.247011614
 20
113.3054557125
 30
0.0
 40
2.75
  0
ARC
  5
2CC
330
1F
100
AcDbEntity
  8
SLD-0
  6
CENTERX2
 62
     7
100
AcDbCircle
 10
237.247011614
 20
115.3054557125
 30
0.0
 40
12.00000000000003
100
AcDbArc
 50
180.0
 51
0.0
  0
ARC
  5
2CD
330
1F
100
AcDbEntity
  8
SLD-0
  6
CENTERX2
 62
     7
100
AcDbCircle
 10
237.247011614
 20
246.3054557125
 30
0.0
 40
12.00000000000003
100
AcDbArc
 50
0.0
 51
180.0
  0
ARC
  5
2CE
330
1F
100
AcDbEntity
  8
SLD-0
  6
Continuous
 62
     7
100
AcDbCircle
 10
146.8243012775
 20
48.0429195526
 30
0.0
 40
3.057750900231525
100
AcDbArc
 50
332.7174688805
 51
27.2825311195
  0
ARC
  5
2CF
330
1F
100
AcDbEntity
  8
SLD-0
  6
Continuous
 62
     7
100
AcDbCircle
 10
88.3395739672
 20
52.3439271122
 30
0.0
 40
0.2947904465510461
100
AcDbArc
 50
180.4815836291
 51
224.9447867836
  0
ARC
  5
2D0
330
1F
100
AcDbEntity
  8
SLD-0
  6
Continuous
 62
     7
100
AcDbCircle
 10
88.3418988823
 20
52.9393309772
 30
0.0
 40
0.300000000037443
100
AcDbArc
 50
92.862405229
 51
180.0
  0
ARC
  5
2D1
330
1F
100
AcDbEntity
  8
SLD-0
  6
Continuous
 62
     7
100
AcDbCircle
 10
98.6561124447
 20
43.0247057431
 30
0.0
 40
1.00000000001901
100
AcDbArc
 50
225.0
 51
270.0
  0
ARC
  5
2D2
330
1F
100
AcDbEntity
  8
SLD-0
  6
Continuous
 62
     7
100
AcDbCircle
 10
88.3418988823
 20
52.3489698118
 30
0.0
 40
0.2999999999999972
100
AcDbArc
 50
180.0
 51
225.0
  0
ARC
  5
2D3
330
1F
100
AcDbEntity
  8
SLD-0
  6
Continuous
 62
     7
100
AcDbCircle
 10
134.0418988823
 20
50.9747057431
 30
0.0
 40
1.000000000000028
100
AcDbArc
 50
180.0
 51
270.0
  0
ARC
  5
2D4
330
1F
100
AcDbEntity
  8
SLD-0
  6
Continuous
 62
     7
100
AcDbCircle
 10
142.0418988823
 20
50.9747057431
 30
0.0
 40
1.000000000000007
100
AcDbArc
 50
270.0
 51
0.0
  0
ARC
  5
2D5
330
1F
100
AcDbEntity
  8
SLD-0
  6
Continuous
 62
     7
100
AcDbCircle
 10
139.8418988823
 20
55.6747057431
 30
0.0
 40
0.1999999999999957
100
AcDbArc
 50
0.0
 51
90.0
  0
ARC
  5
2D6
330
1F
100
AcDbEntity
  8
SLD-0
  6
Continuous
 62
     7
100
AcDbCircle
 10
129.1418988823
 20
55.6747057431
 30
0.0
 40
0.1999999999999957
100
AcDbArc
 50
90.0
 51
180.0
  0
ARC
  5
2D7
330
1F
100
AcDbEntity
  8
SLD-0
  6
Continuous
 62
     7
100
AcDbCircle
 10
104.2418988823
 20
53.9747057431
 30
0.0
 40
1.700000000000003
100
AcDbArc
 50
90.0
 51
180.0
  0
ARC
  5
2D8
330
1F
100
AcDbEntity
  8
SLD-0
  6
Continuous
 62
     7
100
AcDbCircle
 10
104.2418988823
 20
53.9747057431
 30
0.0
 40
0.2000000000000028
100
AcDbArc
 50
90.0
 51
180.0
  0
INSERT
  5
2D9
330
1F
100
AcDbEntity
  8
0
  6
Continuous
 62
     7
100
AcDbBlockReference
  2
SW_CENTERMARKSYMBOL_1
 10
134.5418988823
 20
192.3054557125
 30
0.0
  0
INSERT
  5
2DA
330
1F
100
AcDbEntity
  8
0
  6
Continuous
 62
     7
100
AcDbBlockReference
  2
SW_CENTERMARKSYMBOL_2
 10
134.5418988823
 20
142.3054557125
 30
0.0
  0
INSERT
  5
2DB
330
1F
100
AcDbEntity
  8
0
  6
Continuous
 62
     7
100
AcDbBlockReference
  2
SW_NOTE_3
 10
244.818662211
 20
105.9957775635
 30
0.0
  0
INSERT
  5
2DC
330
1F
100
AcDbEntity
  8
0
  6
Continuous
 62
     7
100
AcDbBlockReference
  2
SW_CENTERMARKSYMBOL_4
 10
237.247011614
 20
113.3054557125
 30
0.0
  0
INSERT
  5
2DD
330
1F
100
AcDbEntity
  8
0
  6
Continuous
 62
     7
100
AcDbBlockReference
  2
SW_CENTERMARKSYMBOL_0
 10
134.5418988823
 20
167.3054557125
 30
0.0
  0
INSERT
  5
2DE
330
1F
100
AcDbEntity
  8
0
  6
Continuous
 62
     7
100
AcDbBlockReference
  2
SW_CENTERMARKSYMBOL_3
 10
237.247011614
 20
248.3054557125
 30
0.0
  0
HATCH
  5
2DF
330
1F
100
AcDbEntity
  8
0
  6
Continuous
 62
     7
100
AcDbHatch
 10
0.0
 20
0.0
 30
0.0
210
0.0
220
0.0
230
1.0
  2
ANSI31
 70
     0
 71
     0
 91
        1
 92
        0
 93
        3
 72
     1
 10
247.5372655778
 20
104.0540093657
 11
244.818662211
 21
105.9957775635
 72
     1
 10
244.818662211
 20
105.9957775635
 11
246.8278969465
 21
103.3266496577
 72
     1
 10
246.8278969465
 20
103.3266496577
 11
247.5372655778
 21
104.0540093657
 97
        0
 75
     0
 76
     1
 52
0.0
 41
1.0
 77
     0
 78
     1
 53
45.0
 43
0.0
 44
0.0
 45
-2.245064030267288
 46
2.245064030267288
 79
     0
 98
        1
 10
0.0
 20
0.0
  0
DIMENSION
  5
2E0
330
1F
100
AcDbEntity
  8
SLD-0
 62
     7
100
AcDbDimension
  2
_D
 10
134.5418988823
 20
94.7249322777
 30
0.0
 11
116.9169806708
 21
94.7249322777
 31
0.0
 70
   160
  1
<>
 71
     2
 42
-1.0
  3
SLDDIMSTYLE0
100
AcDbAlignedDimension
 13
99.5418988823
 23
103.3054557125
 33
0.0
 14
134.5418988823
 24
136.0554557125
 34
0.0
100
AcDbRotatedDimension
  0
DIMENSION
  5
2F0
330
1F
100
AcDbEntity
  8
SLD-0
 62
     7
100
AcDbDimension
  2
_D_1
 10
149.5418988823
 20
94.7249322777
 30
0.0
 11
141.773395657
 21
94.7249322777
 31
0.0
 70
   160
  1
<>
 71
     2
 42
-1.0
  3
SLDDIMSTYLE1
100
AcDbAlignedDimension
 13
134.5418988823
 23
136.0554557125
 33
0.0
 14
149.5418988823
 24
119.3054557125
 34
0.0
100
AcDbRotatedDimension
  0
DIMENSION
  5
2FD
330
1F
100
AcDbEntity
  8
SLD-0
 62
     7
100
AcDbDimension
  2
_D_2
 10
130.645406615
 20
154.8725456501
 30
0.0
 11
120.1899136424
 21
154.7431922187
 31
0.0
 70
   160
  1
{\fGDT;o}8/9
 71
     2
 42
-1.0
  3
SLDDIMSTYLE1
100
AcDbAlignedDimension
 13
138.6416909868
 23
163.3058676462
 33
0.0
 14
130.542310816
 24
163.205663608
 34
0.0
 50
0.7088166577
100
AcDbRotatedDimension
  0
DIMENSION
  5
30E
330
1F
100
AcDbEntity
  8
SLD-0
 62
     7
100
AcDbDimension
  2
_D_3
 10
161.1943510607
 20
167.3054557125
 30
0.0
 11
161.1943510607
 21
199.1498075666
 31
0.0
 70
   160
  1
<>
 71
     2
 42
-1.0
  3
SLDDIMSTYLE1
100
AcDbAlignedDimension
 13
149.5418988823
 23
231.3054557125
 33
0.0
 14
145.5418988823
 24
167.3054557125
 34
0.0
 50
90.0
100
AcDbRotatedDimension
  0
DIMENSION
  5
318
330
1F
100
AcDbEntity
  8
SLD-0
 62
     7
100
AcDbDimension
  2
_D_4
 10
173.1943510607
 20
192.3054557125
 30
0.0
 11
173.1943510607
 21
167.2968305748
 31
0.0
 70
   160
  1
<>
 71
     2
 42
-1.0
  3
SLDDIMSTYLE1
100
AcDbAlignedDimension
 13
140.7918988823
 23
142.3054557125
 33
0.0
 14
140.7918988823
 24
192.3054557125
 34
0.0
 50
90.0
100
AcDbRotatedDimension
  0
DIMENSION
  5
322
330
1F
100
AcDbEntity
  8
SLD-0
 62
     7
100
AcDbDimension
  2
_D_5
 10
182.3371885948
 20
119.3054557125
 30
0.0
 11
182.3371885948
 21
184.2940636004
 31
0.0
 70
   160
  1
<>
 71
     2
 42
-1.0
  3
SLDDIMSTYLE1
100
AcDbAlignedDimension
 13
149.5418988823
 23
231.3054557125
 33
0.0
 14
149.5418988823
 24
119.3054557125
 34
0.0
 50
90.0
100
AcDbRotatedDimension
  0
DIMENSION
  5
32C
330
1F
100
AcDbEntity
  8
SLD-0
 62
     7
100
AcDbDimension
  2
_D_6
 10
182.3371885948
 20
258.3054557125
 30
0.0
 11
182.3371885948
 21
244.5040852836
 31
0.0
 70
   160
  1
<>
 71
     2
 42
-1.0
  3
SLDDIMSTYLE1
100
AcDbAlignedDimension
 13
149.5418988823
 23
231.3054557125
 33
0.0
 14
102.5418988823
 24
258.3054557125
 34
0.0
 50
90.0
100
AcDbRotatedDimension
  0
DIMENSION
  5
336
330
1F
100
AcDbEntity
  8
SLD-0
 62
     7
100
AcDbDimension
  2
_D_7
 10
88.0418988823
 20
222.9922651283
 30
0.0
 11
81.5454394318
 21
222.9922651283
 31
0.0
 70
   160
  1
<>
 71
     2
 42
-1.0
  3
SLDDIMSTYLE2
100
AcDbAlignedDimension
 13
99.5418988823
 23
258.3054557125
 33
0.0
 14
88.0418988823
 24
215.7753262463
 34
0.0
100
AcDbRotatedDimension
  0
DIMENSION
  5
341
330
1F
100
AcDbEntity
  8
SLD-0
 62
     7
100
AcDbDimension
  2
_D_8
 10
72.0162466832
 20
258.3054557125
 30
0.0
 11
72.0162466832
 21
237.4638532327
 31
0.0
 70
   160
  1
<>
 71
     2
 42
-1.0
  3
SLDDIMSTYLE1
100
AcDbAlignedDimension
 13
88.5418988823
 23
216.3054557125
 33
0.0
 14
99.5418988823
 24
258.3054557125
 34
0.0
 50
90.0
100
AcDbRotatedDimension
  0
DIMENSION
  5
34B
330
1F
100
AcDbEntity
  8
SLD-0
 62
     7
100
AcDbDimension
  2
_D_9
 10
72.0162466832
 20
216.3054557125
 30
0.0
 11
72.0162466832
 21
201.2848829715
 31
0.0
 70
   160
  1
<>
 71
     2
 42
-1.0
  3
SLDDIMSTYLE1
100
AcDbAlignedDimension
 13
88.5418988823
 23
186.3054557125
 33
0.0
 14
88.5418988823
 24
216.3054557125
 34
0.0
 50
90.0
100
AcDbRotatedDimension
  0
DIMENSION
  5
355
330
1F
100
AcDbEntity
  8
SLD-0
 62
     7
100
AcDbDimension
  2
_D_10
 10
72.0162466832
 20
186.3054557125
 30
0.0
 11
72.0162466832
 21
177.0351947965
 31
0.0
 70
   160
  1
<>
 71
     2
 42
-1.0
  3
SLDDIMSTYLE1
100
AcDbAlignedDimension
 13
123.5418988823
 23
167.3054557125
 33
0.0
 14
88.5418988823
 24
186.3054557125
 34
0.0
 50
90.0
100
AcDbRotatedDimension
  0
DIMENSION
  5
35F
330
1F
100
AcDbEntity
  8
SLD-0
 62
     7
100
AcDbDimension
  2
_D_11
 10
225.247011614
 20
89.6005475716
 30
0.0
 11
237.6214877873
 21
89.6005475716
 31
0.0
 70
   160
  1
<>
 71
     2
 42
-1.0
  3
SLDDIMSTYLE1
100
AcDbAlignedDimension
 13
249.247011614
 23
103.3054557125
 33
0.0
 14
225.247011614
 24
103.3054557125
 34
0.0
100
AcDbRotatedDimension
  0
DIMENSION
  5
369
330
1F
100
AcDbEntity
  8
SLD-0
 62
     7
100
AcDbDimension
  2
_D_12
 10
231.497011614
 20
222.9266609756
 30
0.0
 11
237.3620113098
 21
222.9266609756
 31
0.0
 70
   160
  1
<>
 71
     2
 42
-1.0
  3
SLDDIMSTYLE2
100
AcDbAlignedDimension
 13
242.997011614
 23
215.8054557125
 33
0.0
 14
231.497011614
 24
215.8054557125
 34
0.0
100
AcDbRotatedDimension
  0
DIMENSION
  5
375
330
1F
100
AcDbEntity
  8
SLD-0
 62
     7
100
AcDbDimension
  2
_D_13
 10
217.096753645
 20
258.3054557125
 30
0.0
 11
217.096753645
 21
253.2267498501
 31
0.0
 70
   160
  1
<>
 71
     2
 42
-1.0
  3
SLDDIMSTYLE1
100
AcDbAlignedDimension
 13
237.247011614
 23
248.3054557125
 33
0.0
 14
225.247011614
 24
258.3054557125
 34
0.0
 50
90.0
100
AcDbRotatedDimension
  0
DIMENSION
  5
381
330
1F
100
AcDbEntity
  8
SLD-0
 62
     7
100
AcDbDimension
  2
_D_14
 10
207.3682818632
 20
258.3054557125
 30
0.0
 11
207.3682818632
 21
174.0990689747
 31
0.0
 70
   160
  1
<>
 71
     2
 42
-1.0
  3
SLDDIMSTYLE1
100
AcDbAlignedDimension
 13
225.247011614
 23
103.3054557125
 33
0.0
 14
225.247011614
 24
258.3054557125
 34
0.0
 50
90.0
100
AcDbRotatedDimension
  0
DIMENSION
  5
38B
330
1F
100
AcDbEntity
  8
SLD-0
 62
     7
100
AcDbDimension
  2
_D_15
 10
217.096753645
 20
113.3054557125
 30
0.0
 11
217.096753645
 21
108.3975020998
 31
0.0
 70
   160
  1
<>
 71
     2
 42
-1.0
  3
SLDDIMSTYLE1
100
AcDbAlignedDimension
 13
225.247011614
 23
103.3054557125
 33
0.0
 14
237.247011614
 24
113.3054557125
 34
0.0
 50
90.0
100
AcDbRotatedDimension
  0
DIMENSION
  5
397
330
1F
100
AcDbEntity
  8
SLD-0
 62
     7
100
AcDbDimension
  2
_D_16
 10
102.5418988823
 20
70.3765010738
 30
0.0
 11
108.0755301269
 21
70.3765010738
 31
0.0
 70
   160
  1
<>
 71
     2
 42
-1.0
  3
SLDDIMSTYLE1
100
AcDbAlignedDimension
 13
99.5418988823
 23
59.7747057431
 33
0.0
 14
102.5418988823
 24
59.7747057431
 34
0.0
100
AcDbRotatedDimension
  0
DIMENSION
  5
3A3
330
1F
100
AcDbEntity
  8
SLD-0
 62
     7
100
AcDbDimension
  2
_D_17
 10
166.285562001
 20
55.6747057431
 30
0.0
 11
166.285562001
 21
46.8130460953
 31
0.0
 70
   160
  1
<>
 71
     2
 42
-1.0
  3
SLDDIMSTYLE1
100
AcDbAlignedDimension
 13
149.5418988823
 23
39.9747057431
 33
0.0
 14
149.5418988823
 24
55.6747057431
 34
0.0
 50
90.0
100
AcDbRotatedDimension
  0
DIMENSION
  5
3AD
330
1F
100
AcDbEntity
  8
SLD-0
 62
     7
100
AcDbDimension
  2
_D_18
 10
151.5418988823
 20
47.8247057431
 30
0.0
 11
116.2787555662
 21
27.911986373
 31
0.0
 70
   162
  1
<>
 71
     1
 42
-1.0
  3
SLDDIMSTYLE3
100
AcDb2LineAngularDimension
 13
102.5418988823
 23
35.7747057431
 33
0.0
 14
102.5418988823
 24
59.7747057431
 34
0.0
 15
89.3747360646
 25
47.8247057431
 35
0.0
 16
120.3399893794
 26
30.026615246
 36
0.0
  0
DIMENSION
  5
3B7
330
1F
100
AcDbEntity
  8
SLD-0
 62
     7
100
AcDbDimension
  2
_D_19
 10
158.7120351878
 20
55.6747057431
 30
0.0
 11
158.7120351878
 21
62.4097413884
 31
0.0
 70
   160
  1
<>
 71
     2
 42
-1.0
  3
SLDDIMSTYLE2
100
AcDbAlignedDimension
 13
149.5418988823
 23
54.1747057431
 33
0.0
 14
149.5418988823
 24
55.6747057431
 34
0.0
 50
90.0
100
AcDbRotatedDimension
  0
ENDSEC
  0
SECTION
  2
OBJECTS
  0
DICTIONARY
  5
C
330
0
100
AcDbDictionary
281
     1
  3
ACAD_GROUP
350
D
  3
ACAD_LAYOUT
350
1A
  3
ACAD_MLINESTYLE
350
17
  3
ACAD_PLOTSETTINGS
350
19
  3
ACAD_PLOTSTYLENAME
350
E
  3
ACAD_SCALELIST
350
47
  0
DICTIONARY
  5
D
102
{ACAD_REACTORS
330
C
102
}
330
C
100
AcDbDictionary
281
     1
  0
DICTIONARY
  5
1A
102
{ACAD_REACTORS
330
C
102
}
330
C
100
AcDbDictionary
281
     1
  3
Layout1
350
1E
  3
Layout2
350
26
  3
Model
350
22
  0
DICTIONARY
  5
17
102
{ACAD_REACTORS
330
C
102
}
330
C
100
AcDbDictionary
281
     1
  3
Standard
350
18
  0
DICTIONARY
  5
19
102
{ACAD_REACTORS
330
C
102
}
330
C
100
AcDbDictionary
281
     1
  0
ACDBDICTIONARYWDFLT
  5
E
102
{ACAD_REACTORS
330
C
102
}
330
C
100
AcDbDictionary
281
     1
  3
Normal
350
F
100
AcDbDictionaryWithDefault
340
F
  0
DICTIONARY
  5
47
102
{ACAD_REACTORS
330
C
102
}
330
C
100
AcDbDictionary
281
     1
  3
A0
350
48
  3
A1
350
49
  3
A2
350
4A
  3
A3
350
4B
  3
A4
350
4C
  3
A5
350
4D
  3
A6
350
4E
  3
A7
350
4F
  3
A8
350
50
  3
A9
350
51
  3
B0
350
52
  3
B1
350
53
  3
B2
350
54
  3
B3
350
55
  3
B4
350
56
  3
B5
350
57
  3
B6
350
58
  3
B7
350
59
  3
B8
350
5A
  3
B9
350
5B
  3
C0
350
5C
  3
C1
350
5D
  3
C2
350
5E
  3
C3
350
5F
  3
C4
350
60
  3
C5
350
61
  3
C6
350
62
  3
C7
350
63
  3
C8
350
64
  3
C9
350
65
  3
D0
350
66
  3
D1
350
67
  3
D2
350
68
  0
LAYOUT
  5
1E
102
{ACAD_REACTORS
330
1A
102
}
330
1A
100
AcDbPlotSettings
  1

  2
none_device
  4

  6

 40
0.0
 41
0.0
 42
0.0
 43
0.0
 44
0.0
 45
0.0
 46
0.0
 47
0.0
 48
0.0
 49
0.0
140
0.0
141
0.0
142
1.0
143
1.0
 70
   688
 72
     1
 73
     0
 74
     5
  7

 75
    16
147
1.0
148
0.0
149
0.0
100
AcDbLayout
  1
Layout1
 70
     1
 71
     1
 10
0.0
 20
0.0
 11
420.0
 21
297.0
 12
0.0
 22
0.0
 32
0.0
 14
1.0000000000E+20
 24
1.0000000000E+20
 34
1.0000000000E+20
 15
-1.0000000000E+20
 25
-1.0000000000E+20
 35
-1.0000000000E+20
146
0.0
 13
0.0
 23
0.0
 33
0.0
 16
1.0
 26
0.0
 36
0.0
 17
0.0
 27
1.0
 37
0.0
 76
     0
330
1B
  0
LAYOUT
  5
26
102
{ACAD_REACTORS
330
1A
102
}
330
1A
100
AcDbPlotSettings
  1

  2
none_device
  4

  6

 40
0.0
 41
0.0
 42
0.0
 43
0.0
 44
0.0
 45
0.0
 46
0.0
 47
0.0
 48
0.0
 49
0.0
140
0.0
141
0.0
142
1.0
143
1.0
 70
   688
 72
     1
 73
     0
 74
     5
  7

 75
    16
147
1.0
148
0.0
149
0.0
100
AcDbLayout
  1
Layout2
 70
     1
 71
     2
 10
0.0
 20
0.0
 11
0.0
 21
0.0
 12
0.0
 22
0.0
 32
0.0
 14
0.0
 24
0.0
 34
0.0
 15
0.0
 25
0.0
 35
0.0
146
0.0
 13
0.0
 23
0.0
 33
0.0
 16
1.0
 26
0.0
 36
0.0
 17
0.0
 27
1.0
 37
0.0
 76
     0
330
23
  0
LAYOUT
  5
22
102
{ACAD_REACTORS
330
1A
102
}
330
1A
100
AcDbPlotSettings
  1

  2
none_device
  4
Letter_(8.50_x_11.00_Inches)
  6

 40
6.35
 41
6.35
 42
6.35000508
 43
6.35000508
 44
215.9
 45
279.4
 46
0.0
 47
0.0
 48
0.0
 49
0.0
140
0.0
141
0.0
142
1.0
143
1.0
 70
  1712
 72
     1
 73
     0
 74
     0
  7

 75
     0
147
1.0
148
0.0
149
0.0
100
AcDbLayout
  1
Model
 70
     1
 71
     0
 10
0.0
 20
0.0
 11
420.0
 21
297.0
 12
0.0
 22
0.0
 32
0.0
 14
0.0
 24
0.0
 34
0.0
 15
420.0
 25
297.0
 35
0.0
146
0.0
 13
0.0
 23
0.0
 33
0.0
 16
1.0
 26
0.0
 36
0.0
 17
0.0
 27
1.0
 37
0.0
 76
     0
330
1F
331
29
  0
MLINESTYLE
  5
18
102
{ACAD_REACTORS
330
17
102
}
330
17
100
AcDbMlineStyle
  2
Standard
 70
     0
  3

 62
   256
 51
90.0
 52
90.0
 71
     2
 49
0.5
 62
   256
  6
BYLAYER
 49
-0.5
 62
   256
  6
BYLAYER
  0
ACDBPLACEHOLDER
  5
F
102
{ACAD_REACTORS
330
E
102
}
330
E
  0
SCALE
  5
48
102
{ACAD_REACTORS
330
47
102
}
330
47
100
AcDbScale
 70
     0
300
1:1
140
1.0
141
1.0
290
     1
  0
SCALE
  5
49
102
{ACAD_REACTORS
330
47
102
}
330
47
100
AcDbScale
 70
     0
300
1:2
140
1.0
141
2.0
290
     0
  0
SCALE
  5
4A
102
{ACAD_REACTORS
330
47
102
}
330
47
100
AcDbScale
 70
     0
300
1:4
140
1.0
141
4.0
290
     0
  0
SCALE
  5
4B
102
{ACAD_REACTORS
330
47
102
}
330
47
100
AcDbScale
 70
     0
300
1:5
140
1.0
141
5.0
290
     0
  0
SCALE
  5
4C
102
{ACAD_REACTORS
330
47
102
}
330
47
100
AcDbScale
 70
     0
300
1:8
140
1.0
141
8.0
290
     0
  0
SCALE
  5
4D
102
{ACAD_REACTORS
330
47
102
}
330
47
100
AcDbScale
 70
     0
300
1:10
140
1.0
141
10.0
290
     0
  0
SCALE
  5
4E
102
{ACAD_REACTORS
330
47
102
}
330
47
100
AcDbScale
 70
     0
300
1:16
140
1.0
141
16.0
290
     0
  0
SCALE
  5
4F
102
{ACAD_REACTORS
330
47
102
}
330
47
100
AcDbScale
 70
     0
300
1:20
140
1.0
141
20.0
290
     0
  0
SCALE
  5
50
102
{ACAD_REACTORS
330
47
102
}
330
47
100
AcDbScale
 70
     0
300
1:30
140
1.0
141
30.0
290
     0
  0
SCALE
  5
51
102
{ACAD_REACTORS
330
47
102
}
330
47
100
AcDbScale
 70
     0
300
1:40
140
1.0
141
40.0
290
     0
  0
SCALE
  5
52
102
{ACAD_REACTORS
330
47
102
}
330
47
100
AcDbScale
 70
     0
300
1:50
140
1.0
141
50.0
290
     0
  0
SCALE
  5
53
102
{ACAD_REACTORS
330
47
102
}
330
47
100
AcDbScale
 70
     0
300
1:100
140
1.0
141
100.0
290
     0
  0
SCALE
  5
54
102
{ACAD_REACTORS
330
47
102
}
330
47
100
AcDbScale
 70
     0
300
2:1
140
2.0
141
1.0
290
     0
  0
SCALE
  5
55
102
{ACAD_REACTORS
330
47
102
}
330
47
100
AcDbScale
 70
     0
300
4:1
140
4.0
141
1.0
290
     0
  0
SCALE
  5
56
102
{ACAD_REACTORS
330
47
102
}
330
47
100
AcDbScale
 70
     0
300
8:1
140
8.0
141
1.0
290
     0
  0
SCALE
  5
57
102
{ACAD_REACTORS
330
47
102
}
330
47
100
AcDbScale
 70
     0
300
10:1
140
10.0
141
1.0
290
     0
  0
SCALE
  5
58
102
{ACAD_REACTORS
330
47
102
}
330
47
100
AcDbScale
 70
     0
300
100:1
140
100.0
141
1.0
290
     0
  0
SCALE
  5
59
102
{ACAD_REACTORS
330
47
102
}
330
47
100
AcDbScale
 70
     0
300
1/128" = 1'-0"
140
0.0078125
141
12.0
290
     0
  0
SCALE
  5
5A
102
{ACAD_REACTORS
330
47
102
}
330
47
100
AcDbScale
 70
     0
300
1/64" = 1'-0"
140
0.015625
141
12.0
290
     0
  0
SCALE
  5
5B
102
{ACAD_REACTORS
330
47
102
}
330
47
100
AcDbScale
 70
     0
300
1/32" = 1'-0"
140
0.03125
141
12.0
290
     0
  0
SCALE
  5
5C
102
{ACAD_REACTORS
330
47
102
}
330
47
100
AcDbScale
 70
     0
300
1/16" = 1'-0"
140
0.0625
141
12.0
290
     0
  0
SCALE
  5
5D
102
{ACAD_REACTORS
330
47
102
}
330
47
100
AcDbScale
 70
     0
300
3/32" = 1'-0"
140
0.09375
141
12.0
290
     0
  0
SCALE
  5
5E
102
{ACAD_REACTORS
330
47
102
}
330
47
100
AcDbScale
 70
     0
300
1/8" = 1'-0"
140
0.125
141
12.0
290
     0
  0
SCALE
  5
5F
102
{ACAD_REACTORS
330
47
102
}
330
47
100
AcDbScale
 70
     0
300
3/16" = 1'-0"
140
0.1875
141
12.0
290
     0
  0
SCALE
  5
60
102
{ACAD_REACTORS
330
47
102
}
330
47
100
AcDbScale
 70
     0
300
1/4" = 1'-0"
140
0.25
141
12.0
290
     0
  0
SCALE
  5
61
102
{ACAD_REACTORS
330
47
102
}
330
47
100
AcDbScale
 70
     0
300
3/8" = 1'-0"
140
0.375
141
12.0
290
     0
  0
SCALE
  5
62
102
{ACAD_REACTORS
330
47
102
}
330
47
100
AcDbScale
 70
     0
300
1/2" = 1'-0"
140
0.5
141
12.0
290
     0
  0
SCALE
  5
63
102
{ACAD_REACTORS
330
47
102
}
330
47
100
AcDbScale
 70
     0
300
3/4" = 1'-0"
140
0.75
141
12.0
290
     0
  0
SCALE
  5
64
102
{ACAD_REACTORS
330
47
102
}
330
47
100
AcDbScale
 70
     0
300
1" = 1'-0"
140
1.0
141
12.0
290
     0
  0
SCALE
  5
65
102
{ACAD_REACTORS
330
47
102
}
330
47
100
AcDbScale
 70
     0
300
1-1/2" = 1'-0"
140
1.5
141
12.0
290
     0
  0
SCALE
  5
66
102
{ACAD_REACTORS
330
47
102
}
330
47
100
AcDbScale
 70
     0
300
3" = 1'-0"
140
3.0
141
12.0
290
     0
  0
SCALE
  5
67
102
{ACAD_REACTORS
330
47
102
}
330
47
100
AcDbScale
 70
     0
300
6" = 1'-0"
140
6.0
141
12.0
290
     0
  0
SCALE
  5
68
102
{ACAD_REACTORS
330
47
102
}
330
47
100
AcDbScale
 70
     0
300
1'-0" = 1'-0"
140
12.0
141
12.0
290
     0
  0
ENDSEC
  0
EOF
