  0
SECTION
  2
HEADER
  9
$ACADVER
  1
AC1009
  9
$INSBASE
 10
0
 20
0
  9
$EXTMIN
 10
-45.75
 20
-126.5
  9
$EXTMAX
 10
155.75
 20
120.678033058675
  9
$LIMMIN
 10
-45.75
 20
-126.5
  9
$LIMMAX
 10
155.75
 20
120.678033058675
  9
$VIEWCTR
 10
10
 20
10
  9
$VIEWSIZE
 40
10
  9
$SNAPMODE
 70
0
  9
$SNAPUNIT
 10
1
 20
1
  9
$SNAPBASE
 10
0
 20
0
  9
$SNAPANG
 50
0
  9
$SNAPSTYLE
 70
0
  9
$SNAPISOPAIR
 70
0
  9
$GRIDMODE
 70
0
  9
$GRIDUNIT
 10
0
 20
0
  9
$ORTHOMODE
 70
0
  9
$REGENMODE
 70
1
  9
$FILLMODE
 70
1
  9
$QTEXTMODE
 70
0
  9
$DRAGMODE
 70
2
  9
$LTSCALE
 40
1
  9
$OSMODE
 70
0
  9
$ATTMODE
 70
1
  9
$TEXTSIZE
 40
3.5
  9
$TRACEWID
 40
0.5
  9
$TEXTSTYLE
  7
STANDARD
  9
$CLAYER
  8
0
  9
$CELTYPE
  6
BYLAYER
  9
$CECOLOR
 62
256
  9
$DIMSCALE
 40
1
  9
$DIMASZ
 40
0.18
  9
$DIMEXO
 40
0.0625
  9
$DIMDLI
 40
0.38
  9
$DIMRND
 40
0
  9
$DIMDLE
 40
0
  9
$DIMEXE
 40
0.18
  9
$DIMTP
 40
0
  9
$DIMTM
 40
0
  9
$DIMTXT
 40
0.18
  9
$DIMCEN
 40
0.09
  9
$DIMTSZ
 40
0
  9
$DIMTOL
 70
0
  9
$DIMLIM
 70
0
  9
$DIMTIH
 70
1
  9
$DIMTOH
 70
1
  9
$DIMSE1
 70
0
  9
$DIMSE2
 70
0
  9
$DIMTAD
 70
0
  9
$DIMZIN
 70
0
  9
$DIMBLK
  1

  9
$DIMASO
 70
1
  9
$DIMSHO
 70
1
  9
$DIMPOST
  1

  9
$DIMAPOST
  1

  9
$DIMALT
 70
0
  9
$DIMALTD
 70
2
  9
$DIMALTF
 40
25.4
  9
$DIMLFAC
 40
1
  9
$DIMTOFL
 70
0
  9
$DIMTVP
 40
0
  9
$DIMTIX
 70
0
  9
$DIMSOXD
 70
0
  9
$DIMSAH
 70
0
  9
$DIMBLK1
  1

  9
$DIMBLK2
  1

  9
$DIMSTYLE
  2
*UNNAMED
  9
$DIMCLRD
 70
0
  9
$DIMCLRE
 70
0
  9
$DIMCLRT
 70
0
  9
$DIMTFAC
 40
1
  9
$DIMGAP
 40
0.09
  9
$LUNITS
 70
2
  9
$LUPREC
 70
4
  9
$AXISMODE
 70
0
  9
$AXISUNIT
 10
0
 20
0
  9
$SKETCHINC
 40
0.1
  9
$FILLETRAD
 40
2
  9
$AUNITS
 70
0
  9
$AUPREC
 70
0
  9
$MENU
  1
ACAD
  9
$ELEVATION
 40
0
  9
$THICKNESS
 40
0
  9
$VIEWDIR
 10
0
 20
0
 30
1
  9
$LIMCHECK
 70
0
  9
$BLIPMODE
 70
1
  9
$CHAMFERA
 40
0
  9
$CHAMFERB
 40
0
  9
$FASTZOOM
 70
1
  9
$SKPOLY
 70
0
  9
$ANGBASE
 50
0
  9
$ANGDIR
 70
0
  9
$PDMODE
 70
0
  9
$PDSIZE
 40
0
  9
$PLINEWID
 40
0
  9
$COORDS
 70
2
  0
ENDSEC
  0
SECTION
  2
TABLES
  0
TABLE
  2
DIMSTYLE
 70
2
  0
DIMSTYLE
  2
DMST_1
 70
0
  3

  4

  5

  6

  7

 40
1
 41
5
 42
0
 43
7
 44
2
 45
0
 46
0
 47
0
 48
0
140
5
141
0
142
0
143
25.4
144
1
145
0
146
1
147
0.09
 71
0
 72
0
 73
0
 74
0
 75
0
 76
0
 77
1
 78
9
170
0
171
2
172
0
173
0
174
0
175
0
176
1
177
1
178
7
  0
DIMSTYLE
  2
DMST_2
 70
0
  3

  4

  5

  6

  7

 40
1
 41
5
 42
0
 43
7
 44
2
 45
0
 46
0
 47
0
 48
0
140
5
141
0
142
0
143
25.4
144
1
145
0
146
1
147
0.09
 71
0
 72
0
 73
0
 74
0
 75
0
 76
0
 77
1
 78
9
170
0
171
2
172
0
173
0
174
0
175
0
176
7
177
7
178
7
  0
ENDTAB
  0
TABLE
  2
LTYPE
 70
9
  0
LTYPE
  2
CONTINUOUS
 70
64
  3
Solid line
 72
65
 73
0
 40
0
  0
LTYPE
  2
BORDER
 70
64
  3
__ __ . __ __ .
 72
65
 73
6
 40
11.38319889086003
 49
3.252342540245724
 49
-1.626171270122862
 49
3.252342540245724
 49
-1.626171270122862
 49
0
 49
-1.626171270122862
  0
LTYPE
  2
CENTER
 70
64
  3
____ _ ____ _
 72
65
 73
4
 40
13.0093701609829
 49
8.130856350614309
 49
-1.626171270122862
 49
1.626171270122862
 49
-1.626171270122862
  0
LTYPE
  2
DASHDOT
 70
64
  3
__ . __ . __ .
 72
65
 73
4
 40
6.504685080491448
 49
3.252342540245724
 49
-1.626171270122862
 49
0
 49
-1.626171270122862
  0
LTYPE
  2
DASHED
 70
64
  3
__ __ __ __ __
 72
65
 73
2
 40
4.878513810368585
 49
3.252342540245724
 49
-1.626171270122862
  0
LTYPE
  2
DIVIDE
 70
64
  3
__ . . __ . . 
 72
65
 73
6
 40
8.130856350614309
 49
3.252342540245724
 49
-1.626171270122862
 49
0
 49
-1.626171270122862
 49
0
 49
-1.626171270122862
  0
LTYPE
  2
DOT
 70
64
  3
..............
 72
65
 73
4
 40
3.252342540245724
 49
0
 49
-1.626171270122862
 49
0
 49
-1.626171270122862
  0
LTYPE
  2
HIDDEN
 70
64
  3
_ _ _ _ _ _ _
 72
65
 73
2
 40
2.439256905184293
 49
1.626171270122862
 49
-0.8130856350614309
  0
LTYPE
  2
PHANTOM
 70
64
  3
_____ _ _ _____ _ _ 
 72
65
 73
6
 40
16.26171270122862
 49
8.130856350614309
 49
-1.626171270122862
 49
1.626171270122862
 49
-1.626171270122862
 49
1.626171270122862
 49
-1.626171270122862
  0
ENDTAB
  0
TABLE
  2
LAYER
 70
3
  0
LAYER
  2
1
 70
0
 62
7
  6
CONTINUOUS
  0
LAYER
  2
0
 70
0
 62
7
  6
CONTINUOUS
  0
ENDTAB
  0
TABLE
  2
STYLE
 70
4
  0
STYLE
  2
STANDARD
 70
0
 40
0
 41
1
 50
0
 71
0
 42
3.5
  3
txt
  4

  0
STYLE
  2
SIMPLEX
 70
0
 40
0
 41
1
 50
0
 71
0
 42
3.5
  3
simplex
  4

  0
STYLE
  2
COMPLEX
 70
0
 40
0
 41
1
 50
0
 71
0
 42
3.5
  3
complex
  4

  0
STYLE
  2
ITALIC
 70
0
 40
0
 41
1
 50
0
 71
0
 42
3.5
  3
italic
  4

  0
ENDTAB
  0
TABLE
  2
VIEW
 70
0
  0
ENDTAB
  0
ENDSEC
  0
SECTION
  2
BLOCKS
  0
BLOCK
  8
1
  2
*D0
 70
1
 10
0
 20
0
 30
0
  0
LINE
  8
1
 62
1
 10
45
 20
-14.75
 30
0
 11
115
 21
-14.75
 31
0
  0
LINE
  8
1
 62
1
 10
115
 20
0
 30
0
 11
115
 21
-16.75
 31
0
  0
LINE
  8
1
 62
1
 10
45
 20
25.5411790098334
 30
0
 11
45
 21
-16.75
 31
0
  0
SOLID
  8
1
 62
1
 10
115
 20
-14.75
 30
0
 11
110
 21
-15.4
 31
0
 12
110
 22
-14.1
 32
0
 13
110
 23
-14.1
 33
0
  0
SOLID
  8
1
 62
1
 10
45
 20
-14.75
 30
0
 11
50
 21
-14.1
 31
0
 12
50
 22
-15.4
 32
0
 13
50
 23
-15.4
 33
0
  0
TEXT
  8
1
 62
7
 10
76.25
 20
-13.75
 30
0
 40
5
  1
70
 41
0.9
  0
ENDBLK
  8
0
  0
BLOCK
  8
1
  2
*D1
 70
1
 10
0
 20
0
 30
0
  0
LINE
  8
1
 62
1
 10
0
 20
-26.75
 30
0
 11
115
 21
-26.75
 31
0
  0
LINE
  8
1
 62
1
 10
115
 20
0
 30
0
 11
115
 21
-28.75
 31
0
  0
LINE
  8
1
 62
1
 10
0
 20
0
 30
0
 11
0
 21
-28.75
 31
0
  0
SOLID
  8
1
 62
1
 10
115
 20
-26.75
 30
0
 11
110
 21
-27.4
 31
0
 12
110
 22
-26.1
 32
0
 13
110
 23
-26.1
 33
0
  0
SOLID
  8
1
 62
1
 10
0
 20
-26.75
 30
0
 11
5.000000000000001
 21
-26.1
 31
0
 12
5.000000000000001
 22
-27.4
 32
0
 13
5.000000000000001
 23
-27.4
 33
0
  0
TEXT
  8
1
 62
7
 10
53
 20
-25.75
 30
0
 40
5
  1
115
 41
0.9
  0
ENDBLK
  8
0
  0
BLOCK
  8
1
  2
*D2
 70
1
 10
0
 20
0
 30
0
  0
LINE
  8
1
 62
1
 10
88.75
 20
-113
 30
0
 11
88.75
 21
-70
 31
0
  0
LINE
  8
1
 62
1
 10
115
 20
-70
 30
0
 11
86.75
 21
-70
 31
0
  0
LINE
  8
1
 62
1
 10
107.8775010008008
 20
-113
 30
0
 11
86.75
 21
-113
 31
0
  0
SOLID
  8
1
 62
1
 10
88.75
 20
-70
 30
0
 11
89.40000000000001
 21
-75
 31
0
 12
88.09999999999999
 22
-75
 32
0
 13
88.09999999999999
 23
-75
 33
0
  0
SOLID
  8
1
 62
1
 10
88.75
 20
-113
 30
0
 11
88.09999999999999
 21
-108
 31
0
 12
89.39999999999999
 22
-108
 32
0
 13
89.39999999999999
 23
-108
 33
0
  0
TEXT
  8
1
 62
7
 10
87.75
 20
-101.4702622386852
 30
0
 40
5
  1
43
 50
90
 41
0.9
  0
ENDBLK
  8
0
  0
BLOCK
  8
1
  2
*D3
 70
1
 10
0
 20
0
 30
0
  0
LINE
  8
1
 62
1
 10
15.8592131123893
 20
-113
 30
0
 11
15.8592131123893
 21
-88
 31
0
  0
LINE
  8
1
 62
1
 10
0
 20
-88
 30
0
 11
17.8592131123893
 21
-88
 31
0
  0
LINE
  8
1
 62
1
 10
0
 20
-113
 30
0
 11
17.8592131123893
 21
-113
 31
0
  0
SOLID
  8
1
 62
1
 10
15.8592131123893
 20
-113
 30
0
 11
15.2092131123893
 21
-108
 31
0
 12
16.5092131123893
 22
-108
 32
0
 13
16.5092131123893
 23
-108
 33
0
  0
SOLID
  8
1
 62
1
 10
15.8592131123893
 20
-88
 30
0
 11
16.5092131123893
 21
-93
 31
0
 12
15.2092131123893
 22
-93
 32
0
 13
15.2092131123893
 23
-93
 33
0
  0
TEXT
  8
1
 62
7
 10
14.8592131123893
 20
-104.25
 30
0
 40
5
  1
25
 50
90
 41
0.9
  0
ENDBLK
  8
0
  0
BLOCK
  8
1
  2
*D4
 70
1
 10
0
 20
0
 30
0
  0
LINE
  8
1
 62
1
 10
-39.75
 20
0
 30
0
 11
-39.75
 21
90
 31
0
  0
LINE
  8
1
 62
1
 10
0
 20
90
 30
0
 11
-41.75
 21
90
 31
0
  0
LINE
  8
1
 62
1
 10
0
 20
0
 30
0
 11
-41.75
 21
0
 31
0
  0
SOLID
  8
1
 62
1
 10
-39.75
 20
0
 30
0
 11
-40.4
 21
5
 31
0
 12
-39.1
 22
5
 32
0
 13
-39.1
 23
5
 33
0
  0
SOLID
  8
1
 62
1
 10
-39.75
 20
90
 30
0
 11
-39.1
 21
85
 31
0
 12
-40.4
 22
85
 32
0
 13
-40.4
 23
85
 33
0
  0
TEXT
  8
1
 62
7
 10
-40.75
 20
41.25
 30
0
 40
5
  1
90
 50
90
 41
0.9
  0
ENDBLK
  8
0
  0
BLOCK
  8
1
  2
*D5
 70
1
 10
0
 20
0
 30
0
  0
LINE
  8
1
 62
1
 10
115
 20
22.0449885983924
 30
0
 11
130
 21
22.0449885983924
 31
0
  0
LINE
  8
1
 62
1
 10
130
 20
13
 30
0
 11
130
 21
24.0449885983924
 31
0
  0
LINE
  8
1
 62
1
 10
115
 20
0
 30
0
 11
115
 21
24.0449885983924
 31
0
  0
SOLID
  8
1
 62
1
 10
115
 20
22.0449885983924
 30
0
 11
120
 21
22.6949885983924
 31
0
 12
120
 22
21.3949885983924
 32
0
 13
120
 23
21.3949885983924
 33
0
  0
SOLID
  8
1
 62
1
 10
130
 20
22.0449885983924
 30
0
 11
125
 21
21.3949885983924
 31
0
 12
125
 22
22.6949885983924
 32
0
 13
125
 23
22.6949885983924
 33
0
  0
TEXT
  8
1
 62
7
 10
119.5
 20
23.0449885983924
 30
0
 40
5
  1
15
 41
0.9
  0
ENDBLK
  8
0
  0
BLOCK
  8
1
  2
*D6
 70
1
 10
0
 20
0
 30
0
  0
LINE
  8
1
 62
1
 10
115
 20
99.25
 30
0
 11
139
 21
99.25
 31
0
  0
LINE
  8
1
 62
1
 10
139
 20
45
 30
0
 11
139
 21
101.25
 31
0
  0
LINE
  8
1
 62
1
 10
115
 20
90
 30
0
 11
115
 21
101.25
 31
0
  0
SOLID
  8
1
 62
1
 10
115
 20
99.25
 30
0
 11
120
 21
99.90000000000001
 31
0
 12
120
 22
98.59999999999999
 32
0
 13
120
 23
98.59999999999999
 33
0
  0
SOLID
  8
1
 62
1
 10
139
 20
99.25
 30
0
 11
134
 21
98.59999999999999
 31
0
 12
134
 22
99.90000000000001
 32
0
 13
134
 23
99.90000000000001
 33
0
  0
TEXT
  8
1
 62
7
 10
119.5
 20
100.25
 30
0
 40
5
  1
2x12
 41
0.9
  0
ENDBLK
  8
0
  0
BLOCK
  8
1
  2
*D7
 70
1
 10
0
 20
0
 30
0
  0
LINE
  8
1
 62
1
 10
153.75
 20
90
 30
0
 11
153.75
 21
100
 31
0
  0
LINE
  8
1
 62
1
 10
153.75
 20
78
 30
0
 11
153.75
 21
68
 31
0
  0
LINE
  8
1
 62
1
 10
153.75
 20
78
 30
0
 11
153.75
 21
90
 31
0
  0
LINE
  8
1
 62
1
 10
141.2592398234028
 20
90
 30
0
 11
155.75
 21
90
 31
0
  0
LINE
  8
1
 62
1
 10
115
 20
90
 30
0
 11
136.5563591615773
 21
90
 31
0
  0
LINE
  8
1
 62
1
 10
139
 20
78
 30
0
 11
155.75
 21
78
 31
0
  0
SOLID
  8
1
 62
1
 10
153.75
 20
90
 30
0
 11
153.1
 21
95
 31
0
 12
154.4
 22
95
 32
0
 13
154.4
 23
95
 33
0
  0
SOLID
  8
1
 62
1
 10
153.75
 20
78
 30
0
 11
154.4
 21
73
 31
0
 12
153.1
 22
73
 32
0
 13
153.1
 23
73
 33
0
  0
TEXT
  8
1
 62
7
 10
152.75
 20
81
 30
0
 40
5
  1
12
 50
90
 41
0.9
  0
ENDBLK
  8
0
  0
BLOCK
  8
1
  2
*D8
 70
1
 10
0
 20
0
 30
0
  0
LINE
  8
1
 62
1
 10
153.75
 20
13
 30
0
 11
153.75
 21
23
 31
0
  0
LINE
  8
1
 62
1
 10
153.75
 20
0
 30
0
 11
153.75
 21
-10
 31
0
  0
LINE
  8
1
 62
1
 10
153.75
 20
0
 30
0
 11
153.75
 21
13
 31
0
  0
LINE
  8
1
 62
1
 10
130
 20
13
 30
0
 11
155.75
 21
13
 31
0
  0
LINE
  8
1
 62
1
 10
115
 20
0
 30
0
 11
155.75
 21
0
 31
0
  0
SOLID
  8
1
 62
1
 10
153.75
 20
13
 30
0
 11
153.1
 21
18
 31
0
 12
154.4
 22
18
 32
0
 13
154.4
 23
18
 33
0
  0
SOLID
  8
1
 62
1
 10
153.75
 20
0
 30
0
 11
154.4
 21
-5
 31
0
 12
153.1
 22
-5
 32
0
 13
153.1
 23
-5
 33
0
  0
TEXT
  8
1
 62
7
 10
152.75
 20
3.5
 30
0
 40
5
  1
13
 50
90
 41
0.9
  0
ENDBLK
  8
0
  0
BLOCK
  8
1
  2
*D9
 70
1
 10
0
 20
0
 30
0
  0
LINE
  8
1
 62
1
 10
153.75
 20
13
 30
0
 11
153.75
 21
33
 31
0
  0
LINE
  8
1
 62
1
 10
130
 20
33
 30
0
 11
155.75
 21
33
 31
0
  0
LINE
  8
1
 62
1
 10
130
 20
13
 30
0
 11
155.75
 21
13
 31
0
  0
SOLID
  8
1
 62
1
 10
153.75
 20
33
 30
0
 11
154.4
 21
28
 31
0
 12
153.1
 22
28
 32
0
 13
153.1
 23
28
 33
0
  0
SOLID
  8
1
 62
1
 10
153.75
 20
13
 30
0
 11
153.1
 21
18
 31
0
 12
154.4
 22
18
 32
0
 13
154.4
 23
18
 33
0
  0
TEXT
  8
1
 62
7
 10
152.75
 20
19.25
 30
0
 40
5
  1
20
 50
90
 41
0.9
  0
ENDBLK
  8
0
  0
BLOCK
  8
1
  2
*D10
 70
1
 10
0
 20
0
 30
0
  0
LINE
  8
1
 62
1
 10
153.75
 20
45
 30
0
 11
153.75
 21
55
 31
0
  0
LINE
  8
1
 62
1
 10
153.75
 20
33
 30
0
 11
153.75
 21
23
 31
0
  0
LINE
  8
1
 62
1
 10
153.75
 20
33
 30
0
 11
153.75
 21
45
 31
0
  0
LINE
  8
1
 62
1
 10
139
 20
45
 30
0
 11
155.75
 21
45
 31
0
  0
LINE
  8
1
 62
1
 10
130
 20
33
 30
0
 11
155.75
 21
33
 31
0
  0
SOLID
  8
1
 62
1
 10
153.75
 20
45
 30
0
 11
153.1
 21
50
 31
0
 12
154.4
 22
50
 32
0
 13
154.4
 23
50
 33
0
  0
SOLID
  8
1
 62
1
 10
153.75
 20
33
 30
0
 11
154.4
 21
28
 31
0
 12
153.1
 22
28
 32
0
 13
153.1
 23
28
 33
0
  0
TEXT
  8
1
 62
7
 10
152.75
 20
36
 30
0
 40
5
  1
12
 50
90
 41
0.9
  0
ENDBLK
  8
0
  0
BLOCK
  8
1
  2
*D11
 70
1
 10
0
 20
0
 30
0
  0
LINE
  8
1
 62
1
 10
153.75
 20
45
 30
0
 11
153.75
 21
78
 31
0
  0
LINE
  8
1
 62
1
 10
139
 20
78
 30
0
 11
155.75
 21
78
 31
0
  0
LINE
  8
1
 62
1
 10
139
 20
45
 30
0
 11
155.75
 21
45
 31
0
  0
SOLID
  8
1
 62
1
 10
153.75
 20
78
 30
0
 11
154.4
 21
73
 31
0
 12
153.1
 22
73
 32
0
 13
153.1
 23
73
 33
0
  0
SOLID
  8
1
 62
1
 10
153.75
 20
45
 30
0
 11
153.1
 21
50
 31
0
 12
154.4
 22
50
 32
0
 13
154.4
 23
50
 33
0
  0
TEXT
  8
1
 62
7
 10
152.75
 20
57.75
 30
0
 40
5
  1
33
 50
90
 41
0.9
  0
ENDBLK
  8
0
  0
BLOCK
  8
1
  2
*D12
 70
1
 10
0
 20
0
 30
0
  0
LINE
  8
1
 62
1
 10
100.75
 20
-113
 30
0
 11
100.75
 21
-123.022433125458
 31
0
  0
LINE
  8
1
 62
1
 10
100.75
 20
-113
 30
0
 11
100.75
 21
-110
 31
0
  0
LINE
  8
1
 62
1
 10
100.75
 20
-100
 30
0
 11
100.75
 21
-110
 31
0
  0
LINE
  8
1
 62
1
 10
115
 20
-110
 30
0
 11
98.75
 21
-110
 31
0
  0
LINE
  8
1
 62
1
 10
107.8775010008008
 20
-113
 30
0
 11
98.75
 21
-113
 31
0
  0
SOLID
  8
1
 62
1
 10
100.75
 20
-113
 30
0
 11
101.4
 21
-118
 31
0
 12
100.1
 22
-118
 32
0
 13
100.1
 23
-118
 33
0
  0
SOLID
  8
1
 62
1
 10
100.75
 20
-110
 30
0
 11
100.1
 21
-105
 31
0
 12
101.4
 22
-105
 32
0
 13
101.4
 23
-105
 33
0
  0
TEXT
  8
1
 62
7
 10
99.75
 20
-123.022433125458
 30
0
 40
5
  1
3
 50
90
 41
0.9
  0
ENDBLK
  8
0
  0
BLOCK
  8
1
  2
*D13
 70
1
 10
0
 20
0
 30
0
  0
LINE
  8
1
 62
1
 10
100.75
 20
-110
 30
0
 11
100.75
 21
-85
 31
0
  0
LINE
  8
1
 62
1
 10
110
 20
-85
 30
0
 11
98.75
 21
-85
 31
0
  0
LINE
  8
1
 62
1
 10
115
 20
-110
 30
0
 11
98.75
 21
-110
 31
0
  0
SOLID
  8
1
 62
1
 10
100.75
 20
-110
 30
0
 11
100.1
 21
-105
 31
0
 12
101.4
 22
-105
 32
0
 13
101.4
 23
-105
 33
0
  0
SOLID
  8
1
 62
1
 10
100.75
 20
-85
 30
0
 11
101.4
 21
-90
 31
0
 12
100.1
 22
-90
 32
0
 13
100.1
 23
-90
 33
0
  0
TEXT
  8
1
 62
7
 10
99.75
 20
-101.25
 30
0
 40
5
  1
25
 50
90
 41
0.9
  0
ENDBLK
  8
0
  0
BLOCK
  8
1
  2
*D14
 70
1
 10
0
 20
0
 30
0
  0
LINE
  8
1
 62
7
 10
67.70204191523089
 20
0
 30
0
 11
67.70204191523089
 21
51
 31
0
  0
LINE
  8
1
 62
7
 10
56.95204191523089
 20
51
 30
0
 11
69.70204191523089
 21
51
 31
0
  0
LINE
  8
1
 62
7
 10
115
 20
0
 30
0
 11
65.70204191523089
 21
0
 31
0
  0
SOLID
  8
1
 62
7
 10
67.70204191523089
 20
0
 30
0
 11
67.05204191523089
 21
5
 31
0
 12
68.35204191523088
 22
5
 32
0
 13
68.35204191523088
 23
5
 33
0
  0
SOLID
  8
1
 62
7
 10
67.70204191523089
 20
51
 30
0
 11
68.3520419152309
 21
46
 31
0
 12
67.05204191523089
 22
46
 32
0
 13
67.05204191523089
 23
46
 33
0
  0
TEXT
  8
1
 62
7
 10
66.70204191523089
 20
18.25
 30
0
 40
5
  1
2=51
 50
90
 41
0.9
  0
ENDBLK
  8
0
  0
BLOCK
  8
1
  2
*D15
 70
1
 10
0
 20
0
 30
0
  0
LINE
  8
1
 62
7
 10
67.70204191523089
 20
51
 30
0
 11
67.70204191523089
 21
90
 31
0
  0
LINE
  8
1
 62
7
 10
115
 20
90
 30
0
 11
65.70204191523089
 21
90
 31
0
  0
LINE
  8
1
 62
7
 10
56.95204191523089
 20
51
 30
0
 11
69.70204191523089
 21
51
 31
0
  0
SOLID
  8
1
 62
7
 10
67.70204191523089
 20
51
 30
0
 11
67.05204191523089
 21
56
 31
0
 12
68.35204191523088
 22
56
 32
0
 13
68.35204191523088
 23
56
 33
0
  0
SOLID
  8
1
 62
7
 10
67.70204191523089
 20
90
 30
0
 11
68.3520419152309
 21
85
 31
0
 12
67.05204191523089
 22
85
 32
0
 13
67.05204191523089
 23
85
 33
0
  0
TEXT
  8
1
 62
7
 10
66.70204191523089
 20
66.75
 30
0
 40
5
  1
39
 50
90
 41
0.9
  0
ENDBLK
  8
0
  0
BLOCK
  8
1
  2
*D16
 70
1
 10
0
 20
0
 30
0
  0
LINE
  8
1
 62
1
 10
75.70204191523089
 20
0
 30
0
 11
75.70204191523089
 21
51
 31
0
  0
LINE
  8
1
 62
1
 10
56.95204191523089
 20
51
 30
0
 11
77.70204191523089
 21
51
 31
0
  0
LINE
  8
1
 62
1
 10
115
 20
0
 30
0
 11
73.70204191523089
 21
0
 31
0
  0
SOLID
  8
1
 62
1
 10
75.70204191523089
 20
0
 30
0
 11
75.05204191523089
 21
5
 31
0
 12
76.35204191523088
 22
5
 32
0
 13
76.35204191523088
 23
5
 33
0
  0
SOLID
  8
1
 62
1
 10
75.70204191523089
 20
51
 30
0
 11
76.3520419152309
 21
46
 31
0
 12
75.05204191523089
 22
46
 32
0
 13
75.05204191523089
 23
46
 33
0
  0
TEXT
  8
1
 62
7
 10
74.70204191523089
 20
17.5
 30
0
 40
5
  1
3=53
 50
90
 41
0.9
  0
ENDBLK
  8
0
  0
BLOCK
  8
1
  2
*D17
 70
1
 10
0
 20
0
 30
0
  0
LINE
  8
1
 62
1
 10
75.70204191523089
 20
51
 30
0
 11
75.70204191523089
 21
90
 31
0
  0
LINE
  8
1
 62
1
 10
115
 20
90
 30
0
 11
73.70204191523089
 21
90
 31
0
  0
LINE
  8
1
 62
1
 10
56.95204191523089
 20
51
 30
0
 11
77.70204191523089
 21
51
 31
0
  0
SOLID
  8
1
 62
1
 10
75.70204191523089
 20
51
 30
0
 11
75.05204191523089
 21
56
 31
0
 12
76.35204191523088
 22
56
 32
0
 13
76.35204191523088
 23
56
 33
0
  0
SOLID
  8
1
 62
1
 10
75.70204191523089
 20
90
 30
0
 11
76.3520419152309
 21
85
 31
0
 12
75.05204191523089
 22
85
 32
0
 13
75.05204191523089
 23
85
 33
0
  0
TEXT
  8
1
 62
7
 10
74.70204191523089
 20
66.75
 30
0
 40
5
  1
37
 50
90
 41
0.9
  0
ENDBLK
  8
0
  0
BLOCK
  8
1
  2
*D18
 70
1
 10
0
 20
0
 30
0
  0
LINE
  8
1
 62
1
 10
153.75
 20
-110
 30
0
 11
153.75
 21
-97
 31
0
  0
LINE
  8
1
 62
1
 10
139
 20
-97
 30
0
 11
155.75
 21
-97
 31
0
  0
LINE
  8
1
 62
1
 10
139
 20
-110
 30
0
 11
155.75
 21
-110
 31
0
  0
SOLID
  8
1
 62
1
 10
153.75
 20
-110
 30
0
 11
153.1
 21
-105
 31
0
 12
154.4
 22
-105
 32
0
 13
154.4
 23
-105
 33
0
  0
TEXT
  8
1
 62
7
 10
152.75
 20
-106.5
 30
0
 40
5
  1
13
 50
90
 41
0.9
  0
ENDBLK
  8
0
  0
BLOCK
  8
1
  2
*D19
 70
1
 10
0
 20
0
 30
0
  0
LINE
  8
1
 62
1
 10
153.75
 20
-88
 30
0
 11
153.75
 21
-78
 31
0
  0
LINE
  8
1
 62
1
 10
153.75
 20
-97
 30
0
 11
153.75
 21
-107
 31
0
  0
LINE
  8
1
 62
1
 10
153.75
 20
-97
 30
0
 11
153.75
 21
-88
 31
0
  0
LINE
  8
1
 62
1
 10
113
 20
-88
 30
0
 11
155.75
 21
-88
 31
0
  0
LINE
  8
1
 62
1
 10
139
 20
-97
 30
0
 11
155.75
 21
-97
 31
0
  0
SOLID
  8
1
 62
1
 10
153.75
 20
-97
 30
0
 11
154.4
 21
-102
 31
0
 12
153.1
 22
-102
 32
0
 13
153.1
 23
-102
 33
0
  0
SOLID
  8
1
 62
1
 10
153.75
 20
-88
 30
0
 11
153.1
 21
-83
 31
0
 12
154.4
 22
-83
 32
0
 13
154.4
 23
-83
 33
0
  0
TEXT
  8
1
 62
7
 10
152.75
 20
-94
 30
0
 40
5
  1
9
 50
90
 41
0.9
  0
ENDBLK
  8
0
  0
ENDSEC
  0
SECTION
  2
ENTITIES
  0
LINE
  8
1
 62
7
 10
0
 20
0
 30
0
 11
115
 21
0
 31
0
  0
LINE
  8
1
 62
7
 10
115
 20
0
 30
0
 11
115
 21
90
 31
0
  0
LINE
  8
1
 62
7
 10
115
 20
90
 30
0
 11
0
 21
90
 31
0
  0
LINE
  8
1
 62
7
 10
0
 20
90
 30
0
 11
0
 21
0
 31
0
  0
LINE
  8
1
 62
7
 10
39.8875
 20
31.95
 30
0
 11
39.8875
 21
41.1333896398003
 31
0
  0
LINE
  8
1
 62
7
 10
50.1125
 20
31.95
 30
0
 11
50.1125
 21
41.1333896398003
 31
0
  0
LINE
  8
1
 62
2
  6
PHANTOM
 10
45
 20
63.5026779926264
 30
0
 11
45
 21
25.5411790098334
 31
0
  0
LINE
  8
1
 62
2
  6
PHANTOM
 10
39.00778386363771
 20
31.95
 30
0
 11
50.79787399139929
 21
31.95
 31
0
  0
LINE
  8
1
 62
2
  6
PHANTOM
 10
32.9183966547937
 20
51
 30
0
 11
56.95204191523089
 21
51
 31
0
  0
LINE
  8
1
 62
2
  6
PHANTOM
 10
5.380000000000003
 20
82
 30
0
 11
11.62
 21
82
 31
0
  0
LINE
  8
1
 62
2
  6
PHANTOM
 10
8.5
 20
85.12
 30
0
 11
8.5
 21
78.88
 31
0
  0
LINE
  8
1
 62
2
  6
PHANTOM
 10
5.380000000000003
 20
7.5
 30
0
 11
11.62
 21
7.5
 31
0
  0
LINE
  8
1
 62
2
  6
PHANTOM
 10
8.5
 20
10.62
 30
0
 11
8.5
 21
4.38
 31
0
  0
LINE
  8
1
 62
2
  6
PHANTOM
 10
91.38
 20
82
 30
0
 11
97.62
 21
82
 31
0
  0
LINE
  8
1
 62
2
  6
PHANTOM
 10
94.5
 20
85.12
 30
0
 11
94.5
 21
78.88
 31
0
  0
LINE
  8
1
 62
2
  6
PHANTOM
 10
91.38
 20
7.5
 30
0
 11
97.62
 21
7.5
 31
0
  0
LINE
  8
1
 62
2
  6
PHANTOM
 10
94.5
 20
10.62
 30
0
 11
94.5
 21
4.38
 31
0
  0
LINE
  8
1
 62
3
  6
PHANTOM
 10
115
 20
78
 30
0
 11
139
 21
78
 31
0
  0
LINE
  8
1
 62
3
  6
PHANTOM
 10
139
 20
78
 30
0
 11
139
 21
45
 31
0
  0
LINE
  8
1
 62
3
  6
PHANTOM
 10
139
 20
45
 30
0
 11
115
 21
45
 31
0
  0
LINE
  8
1
 62
3
  6
PHANTOM
 10
127
 20
45
 30
0
 11
127
 21
78
 31
0
  0
LINE
  8
1
 62
7
 10
115
 20
33
 30
0
 11
130
 21
33
 31
0
  0
LINE
  8
1
 62
7
 10
130
 20
33
 30
0
 11
130
 21
13
 31
0
  0
LINE
  8
1
 62
7
 10
130
 20
13
 30
0
 11
115
 21
13
 31
0
  0
LINE
  8
1
 62
7
 10
-30.5
 20
16
 30
0
 11
-26.69258240356726
 21
16
 31
0
  0
LINE
  8
1
 62
7
 10
0
 20
16
 30
0
 11
0
 21
30
 31
0
  0
LINE
  8
1
 62
7
 10
0
 20
30
 30
0
 11
-3
 21
30
 31
0
  0
LINE
  8
1
 62
7
 10
-30.5
 20
30
 30
0
 11
-30.5
 21
26.74165738677394
 31
0
  0
LINE
  8
1
 62
7
 10
-3
 20
16
 30
0
 11
-3
 21
30
 31
0
  0
LINE
  8
1
 62
7
 10
-10.59934207678533
 20
30
 30
0
 11
-10.59934207678533
 21
16
 31
0
  0
LINE
  8
1
 62
7
 10
-10.59934207678533
 20
30
 30
0
 11
-21.30741759643273
 21
30
 31
0
  0
LINE
  8
1
 62
7
 10
-3
 20
16
 30
0
 11
0
 21
16
 31
0
  0
LINE
  8
1
 62
7
 10
0
 20
-113
 30
0
 11
0
 21
-88
 31
0
  0
LINE
  8
1
 62
7
 10
0
 20
-88
 30
0
 11
113
 21
-88
 31
0
  0
LINE
  8
1
 62
7
 10
113
 20
-88
 30
0
 11
113
 21
-70
 31
0
  0
LINE
  8
1
 62
7
 10
113
 20
-70
 30
0
 11
115
 21
-70
 31
0
  0
LINE
  8
1
 62
7
 10
115
 20
-70
 30
0
 11
115
 21
-110.5
 31
0
  0
LINE
  8
1
 62
7
 10
113
 20
-88
 30
0
 11
113
 21
-111
 31
0
  0
LINE
  8
1
 62
7
 10
-30.5
 20
-107.5
 30
0
 11
-10.59934207678533
 21
-107.5
 31
0
  0
LINE
  8
1
 62
7
 10
0
 20
-107.5
 30
0
 11
0
 21
-93.5
 31
0
  0
LINE
  8
1
 62
7
 10
0
 20
-93.5
 30
0
 11
-3
 21
-93.5
 31
0
  0
LINE
  8
1
 62
7
 10
-30.5
 20
-93.5
 30
0
 11
-30.5
 21
-107.5
 31
0
  0
LINE
  8
1
 62
7
 10
-3
 20
-107.5
 30
0
 11
-3
 21
-93.5
 31
0
  0
LINE
  8
1
 62
7
 10
-10.59934207678533
 20
-93.5
 30
0
 11
-10.59934207678533
 21
-107.5
 31
0
  0
LINE
  8
1
 62
7
 10
-10.59934207678533
 20
-93.5
 30
0
 11
-30.5
 21
-93.5
 31
0
  0
LINE
  8
1
 62
7
 10
-3
 20
-107.5
 30
0
 11
0
 21
-107.5
 31
0
  0
LINE
  8
1
 62
2
  6
PHANTOM
 10
-33.5
 20
23
 30
0
 11
3
 21
23
 31
0
  0
LINE
  8
1
 62
7
 10
-21.30741759643274
 20
16
 30
0
 11
-10.59934207678533
 21
16
 31
0
  0
LINE
  8
1
 62
7
 10
-26.69258240356724
 20
30
 30
0
 11
-30.5
 21
30
 31
0
  0
LINE
  8
1
 62
2
  6
PHANTOM
 10
-24
 20
32.0044845570022
 30
0
 11
-24
 21
14.1316512648751
 31
0
  0
LINE
  8
1
 62
7
 10
-30.5
 20
19.25834261322606
 30
0
 11
-30.5
 21
16
 31
0
  0
LINE
  8
1
 62
7
 10
-28
 20
-121.9
 30
0
 11
-20
 21
-121.9
 31
0
  0
LINE
  8
1
 62
7
 10
-20
 20
-120.0489541772998
 30
0
 11
-20
 21
-107.5
 31
0
  0
LINE
  8
1
 62
7
 10
-20
 20
-107.5
 30
0
 11
-28
 21
-107.5
 31
0
  0
LINE
  8
1
 62
7
 10
-28
 20
-107.5
 30
0
 11
-28
 21
-120.0489541772998
 31
0
  0
LINE
  8
1
 62
7
 10
-29.5
 20
-121.9
 30
0
 11
-30.2
 21
-121.9
 31
0
  0
LINE
  8
1
 62
7
 10
-18.5
 20
-121.9
 30
0
 11
-29.5
 21
-121.9
 31
0
  0
LINE
  8
1
 62
7
 10
-30.2
 20
-124.5
 30
0
 11
-17.79999999999999
 21
-124.5
 31
0
  0
LINE
  8
1
 62
7
 10
-17.79999999999999
 20
-121.9
 30
0
 11
-18.5
 21
-121.9
 31
0
  0
LINE
  8
1
 62
7
 10
-19.01303021498849
 20
-121.4584931084787
 30
0
 11
-17.79999999999999
 21
-121.9
 31
0
  0
LINE
  8
1
 62
7
 10
-29.5
 20
-121.9
 30
0
 11
-30.2
 21
-121.9
 31
0
  0
LINE
  8
1
 62
7
 10
-30.2
 20
-121.9
 30
0
 11
-28.98696978501151
 21
-121.4584931084787
 31
0
  0
LINE
  8
1
 62
2
  6
PHANTOM
 10
-24
 20
-105.5
 30
0
 11
-24
 21
-126.5
 31
0
  0
LINE
  8
1
 62
7
 10
115
 20
-110
 30
0
 11
130
 21
-110
 31
0
  0
LINE
  8
1
 62
7
 10
130
 20
-110
 30
0
 11
130
 21
-106.5
 31
0
  0
LINE
  8
1
 62
7
 10
130
 20
-106.5
 30
0
 11
115
 21
-85
 31
0
  0
LINE
  8
1
 62
7
 10
113
 20
-85
 30
0
 11
110
 21
-85
 31
0
  0
LINE
  8
1
 62
7
 10
110
 20
-85
 30
0
 11
110
 21
-88
 31
0
  0
LINE
  8
1
 62
7
 10
130
 20
-106.5
 30
0
 11
115
 21
-106.5
 31
0
  0
LINE
  8
1
 62
7
 10
107.8775010008008
 20
-113
 30
0
 11
0
 21
-113
 31
0
  0
LINE
  8
1
 62
1
 10
56.95204191523089
 20
51
 30
0
 11
70.3259700517464
 21
51
 31
0
  0
LINE
  8
1
 62
3
  6
PHANTOM
 10
130
 20
-110
 30
0
 11
139
 21
-110
 31
0
  0
LINE
  8
1
 62
3
  6
PHANTOM
 10
139
 20
-110
 30
0
 11
139
 21
-97
 31
0
  0
LINE
  8
1
 62
3
  6
PHANTOM
 10
139
 20
-97
 30
0
 11
115
 21
-97
 31
0
  0
LINE
  8
1
 62
3
  6
PHANTOM
 10
127
 20
-97
 30
0
 11
127
 21
-110
 31
0
  0
LINE
  8
1
 62
2
  6
PHANTOM
 10
-33.5
 20
-100.5
 30
0
 11
3
 21
-100.5
 31
0
  0
ARC
  8
1
 62
7
 10
45
 20
31.95
 30
0
 40
5.112499999999997
 50
180
 51
0
  0
ARC
  8
1
 62
7
 10
45
 20
51
 30
0
 40
11.1125
 50
297.3914626952543
 51
242.6085373047457
  0
ARC
  8
1
 62
7
 10
-6.799671038392667
 20
12.75
 30
0
 40
5.000000000000001
 50
40.54160187350452
 51
139.4583981264954
  0
ARC
  8
1
 62
7
 10
-6.799671038392667
 20
33.25
 30
0
 40
4.999999999999997
 50
220.5416018735046
 51
319.4583981264955
  0
ARC
  8
1
 62
7
 10
-6.799671038392667
 20
-110.75
 30
0
 40
5.000000000000001
 50
40.54160187350452
 51
139.4583981264954
  0
ARC
  8
1
 62
7
 10
-6.799671038392667
 20
-90.25
 30
0
 40
4.999999999999997
 50
220.5416018735046
 51
319.4583981264955
  0
ARC
  8
1
 62
7
 10
-17.79999999999999
 20
-123.2
 30
0
 40
1.299999999999997
 50
270
 51
90
  0
ARC
  8
1
 62
7
 10
-30.2
 20
-123.2
 30
0
 40
1.299999999999997
 50
90
 51
270
  0
ARC
  8
1
 62
7
 10
-18.49999999999999
 20
-120.0489541772998
 30
0
 40
1.500000000000011
 50
180
 51
250.0000000000006
  0
ARC
  8
1
 62
7
 10
-29.5
 20
-120.0489541772998
 30
0
 40
1.500000000000031
 50
289.999999999999
 51
0
  0
ARC
  8
1
 62
7
 10
111
 20
-110.5
 30
0
 40
3.999999999999996
 50
218.6821874534895
 51
0
  0
CIRCLE
  8
1
 62
7
 10
8.5
 20
82
 30
0
 40
2.600000000000001
  0
CIRCLE
  8
1
 62
7
 10
8.5
 20
7.5
 30
0
 40
2.600000000000001
  0
CIRCLE
  8
1
 62
7
 10
94.5
 20
82
 30
0
 40
2.599999999999994
  0
CIRCLE
  8
1
 62
7
 10
94.5
 20
7.5
 30
0
 40
2.599999999999994
  0
CIRCLE
  8
1
 62
7
 10
-24
 20
23
 30
0
 40
7.5
  0
TEXT
  8
1
 62
7
 10
34.66111378799141
 20
115.678033058675
 30
0
 40
5
  1
2106.RZ_PZ.DM70
 41
0.9
  0
DIMENSION
  8
1
  6
CONTINUOUS
 62
1
  2
*D0
  3
DMST_1
 10
115
 20
-14.75
 30
0
 11
80
 21
-11.25
 31
0
 12
0
 22
0
 32
0
 70
0
 13
45
 23
25.5411790098334
 33
0
 14
115
 24
0
 34
0
 53
0
  0
DIMENSION
  8
1
  6
CONTINUOUS
 62
1
  2
*D1
  3
DMST_1
 10
115
 20
-26.75
 30
0
 11
57.5
 21
-23.25
 31
0
 12
0
 22
0
 32
0
 70
0
 13
0
 23
0
 33
0
 14
115
 24
0
 34
0
 53
0
  0
DIMENSION
  8
1
  6
CONTINUOUS
 62
1
  2
*D2
  3
DMST_1
 10
88.75
 20
-113
 30
0
 11
85.25
 21
-97.72026223868519
 31
0
 12
0
 22
0
 32
0
 70
0
 13
115
 23
-70
 33
0
 14
107.8775010008008
 24
-113
 34
0
 50
90
 53
0
  0
DIMENSION
  8
1
  6
CONTINUOUS
 62
1
  2
*D3
  3
DMST_1
 10
15.8592131123893
 20
-88
 30
0
 11
12.3592131123893
 21
-100.5
 31
0
 12
0
 22
0
 32
0
 70
0
 13
0
 23
-113
 33
0
 14
0
 24
-88
 34
0
 50
90
 53
0
  0
DIMENSION
  8
1
  6
CONTINUOUS
 62
1
  2
*D4
  3
DMST_1
 10
-39.75
 20
90
 30
0
 11
-43.25
 21
45
 31
0
 12
0
 22
0
 32
0
 70
0
 13
0
 23
0
 33
0
 14
0
 24
90
 34
0
 50
90
 53
0
  0
DIMENSION
  8
1
  6
CONTINUOUS
 62
1
  2
*D5
  3
DMST_1
 10
130
 20
22.0449885983924
 30
0
 11
122.5
 21
25.5449885983924
 31
0
 12
0
 22
0
 32
0
 70
0
 13
115
 23
0
 33
0
 14
130
 24
13
 34
0
 53
0
  0
DIMENSION
  8
1
  6
CONTINUOUS
 62
1
  2
*D6
  3
DMST_1
 10
139
 20
99.25
 30
0
 11
127
 21
102.75
 31
0
 12
0
 22
0
 32
0
 70
0
  1
2x12
 13
115
 23
90
 33
0
 14
139
 24
45
 34
0
 53
0
  0
DIMENSION
  8
1
  6
CONTINUOUS
 62
1
  2
*D7
  3
DMST_1
 10
153.75
 20
90
 30
0
 11
150.25
 21
84
 31
0
 12
0
 22
0
 32
0
 70
0
 13
139
 23
78
 33
0
 14
115
 24
90
 34
0
 50
90
 53
0
  0
DIMENSION
  8
1
  6
CONTINUOUS
 62
1
  2
*D8
  3
DMST_1
 10
153.75
 20
13
 30
0
 11
150.25
 21
6.5
 31
0
 12
0
 22
0
 32
0
 70
0
 13
115
 23
0
 33
0
 14
130
 24
13
 34
0
 50
90
 53
0
  0
DIMENSION
  8
1
  6
CONTINUOUS
 62
1
  2
*D9
  3
DMST_1
 10
153.75
 20
33
 30
0
 11
150.25
 21
23
 31
0
 12
0
 22
0
 32
0
 70
0
 13
130
 23
13
 33
0
 14
130
 24
33
 34
0
 50
90
 53
0
  0
DIMENSION
  8
1
  6
CONTINUOUS
 62
1
  2
*D10
  3
DMST_1
 10
153.75
 20
45
 30
0
 11
150.25
 21
39
 31
0
 12
0
 22
0
 32
0
 70
0
 13
130
 23
33
 33
0
 14
139
 24
45
 34
0
 50
90
 53
0
  0
DIMENSION
  8
1
  6
CONTINUOUS
 62
1
  2
*D11
  3
DMST_1
 10
153.75
 20
78
 30
0
 11
150.25
 21
61.5
 31
0
 12
0
 22
0
 32
0
 70
0
 13
139
 23
45
 33
0
 14
139
 24
78
 34
0
 50
90
 53
0
  0
DIMENSION
  8
1
  6
CONTINUOUS
 62
1
  2
*D12
  3
DMST_1
 10
100.75
 20
-113
 30
0
 11
97.25
 21
-121.522433125458
 31
0
 12
0
 22
0
 32
0
 70
0
 13
115
 23
-110
 33
0
 14
107.8775010008008
 24
-113
 34
0
 50
90
 53
0
  0
DIMENSION
  8
1
  6
CONTINUOUS
 62
1
  2
*D13
  3
DMST_1
 10
100.75
 20
-85
 30
0
 11
97.25
 21
-97.5
 31
0
 12
0
 22
0
 32
0
 70
0
 13
115
 23
-110
 33
0
 14
110
 24
-85
 34
0
 50
90
 53
0
  0
DIMENSION
  8
1
  6
CONTINUOUS
 62
7
  2
*D14
  3
DMST_2
 10
67.70204191523089
 20
51
 30
0
 11
64.20204191523089
 21
25.5
 31
0
 12
0
 22
0
 32
0
 70
0
  1
2=51
 13
115
 23
0
 33
0
 14
56.95204191523089
 24
51
 34
0
 50
90
 53
0
  0
DIMENSION
  8
1
  6
CONTINUOUS
 62
7
  2
*D15
  3
DMST_2
 10
67.70204191523089
 20
90
 30
0
 11
64.20204191523089
 21
70.5
 31
0
 12
0
 22
0
 32
0
 70
0
 13
56.95204191523089
 23
51
 33
0
 14
115
 24
90
 34
0
 50
90
 53
0
  0
DIMENSION
  8
1
  6
CONTINUOUS
 62
1
  2
*D16
  3
DMST_1
 10
75.70204191523089
 20
51
 30
0
 11
72.20204191523089
 21
25.5
 31
0
 12
0
 22
0
 32
0
 70
0
  1
3=53
 13
115
 23
0
 33
0
 14
56.95204191523089
 24
51
 34
0
 50
90
 53
0
  0
DIMENSION
  8
1
  6
CONTINUOUS
 62
1
  2
*D17
  3
DMST_1
 10
75.70204191523089
 20
90
 30
0
 11
72.20204191523089
 21
70.5
 31
0
 12
0
 22
0
 32
0
 70
0
  1
37
 13
56.95204191523089
 23
51
 33
0
 14
115
 24
90
 34
0
 50
90
 53
0
  0
DIMENSION
  8
1
  6
CONTINUOUS
 62
1
  2
*D19
  3
DMST_1
 10
153.75
 20
-88
 30
0
 11
150.25
 21
-92.5
 31
0
 12
0
 22
0
 32
0
 70
0
 13
139
 23
-97
 33
0
 14
113
 24
-88
 34
0
 50
90
 53
0
  0
INSERT
  8
1
  2
*D18
 10
0
 20
0
 30
0
  0
ENDSEC
  0
EOF
