  0
SECTION
  2
HEADER
  9
$ACADVER
  1
AC1009
  9
$INSBASE
 10
0
 20
0
  9
$EXTMIN
 10
-84.99647807583295
 20
-184.0000000000001
  9
$EXTMAX
 10
110.91852979415
 20
222.825779779894
  9
$LIMMIN
 10
-84.99647807583295
 20
-184.0000000000001
  9
$LIMMAX
 10
110.91852979415
 20
222.825779779894
  9
$VIEWCTR
 10
10
 20
10
  9
$VIEWSIZE
 40
10
  9
$SNAPMODE
 70
0
  9
$SNAPUNIT
 10
1
 20
1
  9
$SNAPBASE
 10
0
 20
0
  9
$SNAPANG
 50
0
  9
$SNAPSTYLE
 70
0
  9
$SNAPISOPAIR
 70
0
  9
$GRIDMODE
 70
0
  9
$GRIDUNIT
 10
0
 20
0
  9
$ORTHOMODE
 70
0
  9
$REGENMODE
 70
1
  9
$FILLMODE
 70
1
  9
$QTEXTMODE
 70
0
  9
$DRAGMODE
 70
2
  9
$LTSCALE
 40
1
  9
$OSMODE
 70
0
  9
$ATTMODE
 70
1
  9
$TEXTSIZE
 40
3.5
  9
$TRACEWID
 40
0.5
  9
$TEXTSTYLE
  7
STANDARD
  9
$CLAYER
  8
0
  9
$CELTYPE
  6
BYLAYER
  9
$CECOLOR
 62
256
  9
$DIMSCALE
 40
1
  9
$DIMASZ
 40
0.18
  9
$DIMEXO
 40
0.0625
  9
$DIMDLI
 40
0.38
  9
$DIMRND
 40
0
  9
$DIMDLE
 40
0
  9
$DIMEXE
 40
0.18
  9
$DIMTP
 40
0
  9
$DIMTM
 40
0
  9
$DIMTXT
 40
0.18
  9
$DIMCEN
 40
0.09
  9
$DIMTSZ
 40
0
  9
$DIMTOL
 70
0
  9
$DIMLIM
 70
0
  9
$DIMTIH
 70
1
  9
$DIMTOH
 70
1
  9
$DIMSE1
 70
0
  9
$DIMSE2
 70
0
  9
$DIMTAD
 70
0
  9
$DIMZIN
 70
0
  9
$DIMBLK
  1

  9
$DIMASO
 70
1
  9
$DIMSHO
 70
1
  9
$DIMPOST
  1

  9
$DIMAPOST
  1

  9
$DIMALT
 70
0
  9
$DIMALTD
 70
2
  9
$DIMALTF
 40
25.4
  9
$DIMLFAC
 40
1
  9
$DIMTOFL
 70
0
  9
$DIMTVP
 40
0
  9
$DIMTIX
 70
0
  9
$DIMSOXD
 70
0
  9
$DIMSAH
 70
0
  9
$DIMBLK1
  1

  9
$DIMBLK2
  1

  9
$DIMSTYLE
  2
*UNNAMED
  9
$DIMCLRD
 70
0
  9
$DIMCLRE
 70
0
  9
$DIMCLRT
 70
0
  9
$DIMTFAC
 40
1
  9
$DIMGAP
 40
0.09
  9
$LUNITS
 70
2
  9
$LUPREC
 70
4
  9
$AXISMODE
 70
0
  9
$AXISUNIT
 10
0
 20
0
  9
$SKETCHINC
 40
0.1
  9
$FILLETRAD
 40
2
  9
$AUNITS
 70
0
  9
$AUPREC
 70
0
  9
$MENU
  1
ACAD
  9
$ELEVATION
 40
0
  9
$THICKNESS
 40
0
  9
$VIEWDIR
 10
0
 20
0
 30
1
  9
$LIMCHECK
 70
0
  9
$BLIPMODE
 70
1
  9
$CHAMFERA
 40
0
  9
$CHAMFERB
 40
0
  9
$FASTZOOM
 70
1
  9
$SKPOLY
 70
0
  9
$ANGBASE
 50
0
  9
$ANGDIR
 70
0
  9
$PDMODE
 70
0
  9
$PDSIZE
 40
0
  9
$PLINEWID
 40
0
  9
$COORDS
 70
2
  0
ENDSEC
  0
SECTION
  2
TABLES
  0
TABLE
  2
DIMSTYLE
 70
3
  0
DIMSTYLE
  2
DMST_1
 70
0
  3

  4

  5

  6

  7

 40
1
 41
5
 42
0
 43
7
 44
1.5
 45
0
 46
0
 47
0
 48
0
140
5
141
0
142
0
143
25.4
144
1
145
0
146
1
147
0.09
 71
0
 72
0
 73
0
 74
0
 75
0
 76
0
 77
1
 78
1
170
0
171
2
172
0
173
0
174
0
175
0
176
1
177
1
178
7
  0
DIMSTYLE
  2
DMST_2
 70
0
  3

  4

  5

  6

  7

 40
1
 41
5
 42
0
 43
7
 44
1.5
 45
0
 46
0
 47
0
 48
0
140
5
141
0
142
5
143
25.4
144
1
145
0
146
1
147
0.09
 71
0
 72
0
 73
0
 74
0
 75
0
 76
0
 77
1
 78
1
170
0
171
2
172
0
173
0
174
0
175
0
176
1
177
1
178
7
  0
DIMSTYLE
  2
DMST_3
 70
0
  3

  4

  5

  6

  7

 40
1
 41
5
 42
0
 43
7
 44
1.5
 45
0
 46
0
 47
0
 48
0
140
5
141
-1.5
142
0
143
25.4
144
1
145
0
146
1
147
0.09
 71
0
 72
0
 73
0
 74
0
 75
0
 76
0
 77
1
 78
1
170
0
171
2
172
1
173
0
174
0
175
0
176
1
177
1
178
7
  0
ENDTAB
  0
TABLE
  2
LTYPE
 70
9
  0
LTYPE
  2
CONTINUOUS
 70
64
  3
Solid line
 72
65
 73
0
 40
0
  0
LTYPE
  2
BORDER
 70
64
  3
__ __ . __ __ .
 72
65
 73
6
 40
18.73539775302144
 49
5.352970786577554
 49
-2.676485393288777
 49
5.352970786577554
 49
-2.676485393288777
 49
0
 49
-2.676485393288777
  0
LTYPE
  2
CENTER
 70
64
  3
____ _ ____ _
 72
65
 73
4
 40
21.41188314631022
 49
13.38242696644389
 49
-2.676485393288777
 49
2.676485393288777
 49
-2.676485393288777
  0
LTYPE
  2
DASHDOT
 70
64
  3
__ . __ . __ .
 72
65
 73
4
 40
10.70594157315511
 49
5.352970786577554
 49
-2.676485393288777
 49
0
 49
-2.676485393288777
  0
LTYPE
  2
DASHED
 70
64
  3
__ __ __ __ __
 72
65
 73
2
 40
8.029456179866331
 49
5.352970786577554
 49
-2.676485393288777
  0
LTYPE
  2
DIVIDE
 70
64
  3
__ . . __ . . 
 72
65
 73
6
 40
13.38242696644389
 49
5.352970786577554
 49
-2.676485393288777
 49
0
 49
-2.676485393288777
 49
0
 49
-2.676485393288777
  0
LTYPE
  2
DOT
 70
64
  3
..............
 72
65
 73
4
 40
5.352970786577554
 49
0
 49
-2.676485393288777
 49
0
 49
-2.676485393288777
  0
LTYPE
  2
HIDDEN
 70
64
  3
_ _ _ _ _ _ _
 72
65
 73
2
 40
4.014728089933166
 49
2.676485393288777
 49
-1.338242696644389
  0
LTYPE
  2
PHANTOM
 70
64
  3
_____ _ _ _____ _ _ 
 72
65
 73
6
 40
26.76485393288777
 49
13.38242696644389
 49
-2.676485393288777
 49
2.676485393288777
 49
-2.676485393288777
 49
2.676485393288777
 49
-2.676485393288777
  0
ENDTAB
  0
TABLE
  2
LAYER
 70
3
  0
LAYER
  2
1
 70
0
 62
7
  6
CONTINUOUS
  0
LAYER
  2
0
 70
0
 62
7
  6
CONTINUOUS
  0
ENDTAB
  0
TABLE
  2
STYLE
 70
4
  0
STYLE
  2
STANDARD
 70
0
 40
0
 41
1
 50
0
 71
0
 42
3.5
  3
txt
  4

  0
STYLE
  2
SIMPLEX
 70
0
 40
0
 41
1
 50
0
 71
0
 42
3.5
  3
simplex
  4

  0
STYLE
  2
COMPLEX
 70
0
 40
0
 41
1
 50
0
 71
0
 42
3.5
  3
complex
  4

  0
STYLE
  2
ITALIC
 70
0
 40
0
 41
1
 50
0
 71
0
 42
3.5
  3
italic
  4

  0
ENDTAB
  0
TABLE
  2
VIEW
 70
0
  0
ENDTAB
  0
ENDSEC
  0
SECTION
  2
BLOCKS
  0
BLOCK
  8
1
  2
*X0
 70
1
 10
0
 20
0
 30
0
  0
LINE
  8
1
 62
1
 10
-48.46845785154098
 20
-179.0000000000001
 30
0
 11
-48.46845785154097
 21
-178.6153846154001
 31
0
  0
LINE
  8
1
 62
1
 10
-48.36845785154097
 20
-179.0000000000001
 30
0
 11
-48.36845785154097
 21
-177.8461538461693
 31
0
  0
LINE
  8
1
 62
1
 10
-48.26845785154097
 20
-179.0000000000001
 30
0
 11
-48.26845785154097
 21
-177.0769230769386
 31
0
  0
LINE
  8
1
 62
1
 10
-48.16845785154097
 20
-179.0000000000001
 30
0
 11
-48.16845785154096
 21
-176.3076923077078
 31
0
  0
LINE
  8
1
 62
1
 10
-48.06845785154097
 20
-179.0000000000001
 30
0
 11
-48.06845785154096
 21
-175.538461538477
 31
0
  0
LINE
  8
1
 62
1
 10
-47.96845785154097
 20
-179.0000000000001
 30
0
 11
-47.96845785154096
 21
-174.7692307692462
 31
0
  0
LINE
  8
1
 62
1
 10
-47.86845785154097
 20
-179.0000000000001
 30
0
 11
-47.86845785154096
 21
-174.0000000000155
 31
0
  0
LINE
  8
1
 62
1
 10
-47.76845785154097
 20
-179.0000000000001
 30
0
 11
-47.76845785154097
 21
-174.7692307692155
 31
0
  0
LINE
  8
1
 62
1
 10
-47.66845785154096
 20
-179.0000000000001
 30
0
 11
-47.66845785154096
 21
-175.5384615384463
 31
0
  0
LINE
  8
1
 62
1
 10
-47.56845785154096
 20
-179.0000000000001
 30
0
 11
-47.56845785154096
 21
-176.307692307677
 31
0
  0
LINE
  8
1
 62
1
 10
-47.46845785154096
 20
-179.0000000000001
 30
0
 11
-47.46845785154096
 21
-177.0769230769078
 31
0
  0
LINE
  8
1
 62
1
 10
-47.36845785154096
 20
-179.0000000000001
 30
0
 11
-47.36845785154096
 21
-177.8461538461386
 31
0
  0
LINE
  8
1
 62
1
 10
-47.26845785154096
 20
-179.0000000000001
 30
0
 11
-47.26845785154096
 21
-178.6153846153694
 31
0
  0
ENDBLK
  8
0
  0
BLOCK
  8
0
  2
_D2
 70
0
 10
0
 20
0
 30
0
  0
INSERT
  8
1
  2
*X0
 10
0
 20
0
 30
0
  0
LINE
  8
1
 62
1
 10
-49.63622480450533
 20
-163.2322330470337
 30
0
 11
-46.10069089857259
 21
-166.7677669529664
 31
0
  0
LINE
  8
1
 62
1
 10
30.99999999999994
 20
-174.0000000000001
 30
0
 11
-49.36845785153896
 21
-174.0000000000001
 31
0
  0
LINE
  8
1
 62
1
 10
12.50000000000001
 20
-165.0000000000001
 30
0
 11
-49.36845785153896
 21
-165.0000000000001
 31
0
  0
LINE
  8
1
 62
1
 10
-47.86845785153896
 20
-174.0000000000001
 30
0
 11
-47.86845785153896
 21
-165.0000000000001
 31
0
  0
LINE
  8
1
 62
1
 10
-47.86845785153896
 20
-174.0000000000001
 30
0
 11
-47.86845785153896
 21
-184.0000000000001
 31
0
  0
TEXT
  8
1
 62
7
 10
-50.88400857837536
 20
-171.7801877565174
 30
0
 40
5
  1
9
 50
90
 41
0.891
  0
ENDBLK
  8
0
  0
BLOCK
  8
1
  2
*X1
 70
1
 10
0
 20
0
 30
0
  0
LINE
  8
1
 62
1
 10
-48.44710051217516
 20
-153.3846153846001
 30
0
 11
-48.44710051217517
 21
-153.0000000000001
 31
0
  0
LINE
  8
1
 62
1
 10
-48.34710051217516
 20
-154.1538461538309
 30
0
 11
-48.34710051217517
 21
-153.0000000000001
 31
0
  0
LINE
  8
1
 62
1
 10
-48.24710051217516
 20
-154.9230769230617
 30
0
 11
-48.24710051217517
 21
-153.0000000000001
 31
0
  0
LINE
  8
1
 62
1
 10
-48.14710051217516
 20
-155.6923076922924
 30
0
 11
-48.14710051217516
 21
-153.0000000000001
 31
0
  0
LINE
  8
1
 62
1
 10
-48.04710051217516
 20
-156.4615384615232
 30
0
 11
-48.04710051217516
 21
-153.0000000000001
 31
0
  0
LINE
  8
1
 62
1
 10
-47.94710051217515
 20
-157.230769230754
 30
0
 11
-47.94710051217516
 21
-153.0000000000001
 31
0
  0
LINE
  8
1
 62
1
 10
-47.84710051217515
 20
-157.9999999999848
 30
0
 11
-47.84710051217516
 21
-153.0000000000001
 31
0
  0
LINE
  8
1
 62
1
 10
-47.74710051217516
 20
-157.2307692307847
 30
0
 11
-47.74710051217516
 21
-153.0000000000001
 31
0
  0
LINE
  8
1
 62
1
 10
-47.64710051217516
 20
-156.4615384615539
 30
0
 11
-47.64710051217516
 21
-153.0000000000001
 31
0
  0
LINE
  8
1
 62
1
 10
-47.54710051217516
 20
-155.6923076923231
 30
0
 11
-47.54710051217516
 21
-153.0000000000001
 31
0
  0
LINE
  8
1
 62
1
 10
-47.44710051217515
 20
-154.9230769230924
 30
0
 11
-47.44710051217515
 21
-153.0000000000001
 31
0
  0
LINE
  8
1
 62
1
 10
-47.34710051217515
 20
-154.1538461538616
 30
0
 11
-47.34710051217515
 21
-153.0000000000001
 31
0
  0
LINE
  8
1
 62
1
 10
-47.24710051217515
 20
-153.3846153846308
 30
0
 11
-47.24710051217515
 21
-153.0000000000001
 31
0
  0
ENDBLK
  8
0
  0
BLOCK
  8
0
  2
_D0
 70
0
 10
0
 20
0
 30
0
  0
INSERT
  8
1
  2
*X1
 10
0
 20
0
 30
0
  0
LINE
  8
1
 62
1
 10
-46.07933355920679
 20
-161.7677669529664
 30
0
 11
-49.61486746513953
 21
-158.2322330470337
 31
0
  0
LINE
  8
1
 62
1
 10
-12.49999999999999
 20
-160.0000000000001
 30
0
 11
-49.34710051217316
 21
-160.0000000000001
 31
0
  0
LINE
  8
1
 62
1
 10
-30.99999999999998
 20
-158.0000000000001
 30
0
 11
-49.34710051217316
 21
-158.0000000000001
 31
0
  0
LINE
  8
1
 62
1
 10
-47.84710051217316
 20
-160.0000000000001
 30
0
 11
-47.84710051217316
 21
-158.0000000000001
 31
0
  0
LINE
  8
1
 62
1
 10
-47.84710051217316
 20
-158.0000000000001
 30
0
 11
-47.84710051217316
 21
-148.0000000000001
 31
0
  0
TEXT
  8
1
 62
7
 10
-51.57558207551205
 20
-155.3162042056788
 30
0
 40
5
  1
2
 50
90
 41
0.891
  0
ENDBLK
  8
0
  0
BLOCK
  8
1
  2
*D0
 70
1
 10
0
 20
0
 30
0
  0
LINE
  8
1
 62
1
 10
4.5
 20
19.85757341393
 30
0
 11
14.5
 21
19.85757341393
 31
0
  0
LINE
  8
1
 62
1
 10
-4.5
 20
19.85757341393
 30
0
 11
4.5
 21
19.85757341393
 31
0
  0
LINE
  8
1
 62
1
 10
-4.5
 20
19.85757341393
 30
0
 11
-14.5
 21
19.85757341393
 31
0
  0
LINE
  8
1
 62
1
 10
-4.5
 20
19.85757341393
 30
0
 11
4.5
 21
19.85757341393
 31
0
  0
LINE
  8
1
 62
1
 10
4.5
 20
4.499999999999972
 30
0
 11
4.5
 21
21.35757341393
 31
0
  0
LINE
  8
1
 62
1
 10
-4.5
 20
4.499999999999972
 30
0
 11
-4.5
 21
21.35757341393
 31
0
  0
SOLID
  8
1
 62
1
 10
4.5
 20
19.85757341393
 30
0
 11
9.5
 21
20.50757341393
 31
0
 12
9.5
 22
19.20757341393
 32
0
 13
9.5
 23
19.20757341393
 33
0
  0
SOLID
  8
1
 62
1
 10
-4.5
 20
19.85757341393
 30
0
 11
-9.5
 21
19.20757341393
 31
0
 12
-9.5
 22
20.50757341393
 32
0
 13
-9.5
 23
20.50757341393
 33
0
  0
TEXT
  8
1
 62
7
 10
-1.800803199875276
 20
21.85757341393
 30
0
 40
5
  1
9
 41
0.891
  0
ENDBLK
  8
0
  0
BLOCK
  8
1
  2
*D1
 70
1
 10
0
 20
0
 30
0
  0
LINE
  8
1
 62
1
 10
-12.50000000000001
 20
-86.821013308399
 30
0
 11
12.49999999999999
 21
-86.821013308399
 31
0
  0
LINE
  8
1
 62
1
 10
-12.50000000000001
 20
-86.821013308399
 30
0
 11
12.49999999999999
 21
-86.821013308399
 31
0
  0
LINE
  8
1
 62
1
 10
-12.50000000000001
 20
-78.00000000000007
 30
0
 11
-12.50000000000001
 21
-88.321013308399
 31
0
  0
LINE
  8
1
 62
1
 10
12.49999999999999
 20
-78.00000000000007
 30
0
 11
12.49999999999999
 21
-88.321013308399
 31
0
  0
SOLID
  8
1
 62
1
 10
12.49999999999999
 20
-86.821013308399
 30
0
 11
7.499999999999986
 21
-87.47101330839901
 31
0
 12
7.499999999999986
 22
-86.171013308399
 32
0
 13
7.499999999999986
 23
-86.171013308399
 33
0
  0
SOLID
  8
1
 62
1
 10
-12.50000000000001
 20
-86.821013308399
 30
0
 11
-7.500000000000013
 21
-86.171013308399
 31
0
 12
-7.500000000000013
 22
-87.47101330839901
 32
0
 13
-7.500000000000013
 23
-87.47101330839901
 33
0
  0
TEXT
  8
1
 62
7
 10
-3.001716960475875
 20
-84.821013308399
 30
0
 40
5
  1
25
 41
0.891
  0
ENDBLK
  8
0
  0
BLOCK
  8
1
  2
*D2
 70
1
 10
0
 20
0
 30
0
  0
LINE
  8
1
 62
1
 10
-33
 20
215.825779779894
 30
0
 11
32.99999999999989
 21
215.825779779894
 31
0
  0
LINE
  8
1
 62
1
 10
-33
 20
215.825779779894
 30
0
 11
32.99999999999989
 21
215.825779779894
 31
0
  0
LINE
  8
1
 62
1
 10
-33
 20
147
 30
0
 11
-33
 21
217.325779779894
 31
0
  0
LINE
  8
1
 62
1
 10
32.99999999999989
 20
147
 30
0
 11
32.99999999999989
 21
217.325779779894
 31
0
  0
SOLID
  8
1
 62
1
 10
32.99999999999989
 20
215.825779779894
 30
0
 11
27.99999999999989
 21
215.175779779894
 31
0
 12
27.99999999999989
 22
216.475779779894
 32
0
 13
27.99999999999989
 23
216.475779779894
 33
0
  0
SOLID
  8
1
 62
1
 10
-33
 20
215.825779779894
 30
0
 11
-28
 21
216.475779779894
 31
0
 12
-28
 22
215.175779779894
 32
0
 13
-28
 23
215.175779779894
 33
0
  0
TEXT
  8
1
 62
7
 10
-3.032506871639271
 20
217.825779779894
 30
0
 40
5
  1
66
 41
0.891
  0
ENDBLK
  8
0
  0
BLOCK
  8
1
  2
*D3
 70
1
 10
0
 20
0
 30
0
  0
LINE
  8
1
 62
1
 10
32.99999999999989
 20
120.783109732997
 30
0
 11
42.99999999999989
 21
120.783109732997
 31
0
  0
LINE
  8
1
 62
1
 10
24.99999999999989
 20
120.783109732997
 30
0
 11
32.99999999999989
 21
120.783109732997
 31
0
  0
LINE
  8
1
 62
1
 10
24.99999999999989
 20
120.783109732997
 30
0
 11
14.99999999999989
 21
120.783109732997
 31
0
  0
LINE
  8
1
 62
1
 10
24.99999999999989
 20
120.783109732997
 30
0
 11
32.99999999999989
 21
120.783109732997
 31
0
  0
LINE
  8
1
 62
1
 10
32.99999999999989
 20
147.0000000000001
 30
0
 11
32.99999999999989
 21
119.283109732997
 31
0
  0
LINE
  8
1
 62
1
 10
24.99999999999989
 20
135.15
 30
0
 11
24.99999999999989
 21
119.283109732997
 31
0
  0
SOLID
  8
1
 62
1
 10
32.99999999999989
 20
120.783109732997
 30
0
 11
37.99999999999989
 21
121.433109732997
 31
0
 12
37.99999999999989
 22
120.133109732997
 32
0
 13
37.99999999999989
 23
120.133109732997
 33
0
  0
SOLID
  8
1
 62
1
 10
24.99999999999989
 20
120.783109732997
 30
0
 11
19.99999999999989
 21
120.133109732997
 31
0
 12
19.99999999999989
 22
121.433109732997
 32
0
 13
19.99999999999989
 23
121.433109732997
 33
0
  0
TEXT
  8
1
 62
7
 10
26.24910579145703
 20
122.518325300466
 30
0
 40
5
  1
8
 41
0.891
  0
ENDBLK
  8
0
  0
BLOCK
  8
1
  2
*D4
 70
1
 10
0
 20
0
 30
0
  0
LINE
  8
1
 62
1
 10
-25
 20
120.784253863261
 30
0
 11
24.99999999999988
 21
120.784253863261
 31
0
  0
LINE
  8
1
 62
1
 10
-25
 20
120.784253863261
 30
0
 11
24.99999999999988
 21
120.784253863261
 31
0
  0
LINE
  8
1
 62
1
 10
24.99999999999988
 20
135.15
 30
0
 11
24.99999999999988
 21
119.284253863261
 31
0
  0
LINE
  8
1
 62
1
 10
-25
 20
135.15
 30
0
 11
-25
 21
119.284253863261
 31
0
  0
SOLID
  8
1
 62
1
 10
24.99999999999988
 20
120.784253863261
 30
0
 11
19.99999999999988
 21
120.134253863261
 31
0
 12
19.99999999999988
 22
121.434253863261
 32
0
 13
19.99999999999988
 23
121.434253863261
 33
0
  0
SOLID
  8
1
 62
1
 10
-25
 20
120.784253863261
 30
0
 11
-20
 21
121.434253863261
 31
0
 12
-20
 22
120.134253863261
 32
0
 13
-20
 23
120.134253863261
 33
0
  0
TEXT
  8
1
 62
7
 10
-3.750000000000057
 20
122.784253863261
 30
0
 40
5
  1
50
 41
0.891
  0
ENDBLK
  8
0
  0
BLOCK
  8
1
  2
*D5
 70
1
 10
0
 20
0
 30
0
  0
LINE
  8
1
 62
1
 10
-25
 20
120.784253863261
 30
0
 11
-15
 21
120.784253863261
 31
0
  0
LINE
  8
1
 62
1
 10
-33
 20
120.784253863261
 30
0
 11
-25
 21
120.784253863261
 31
0
  0
LINE
  8
1
 62
1
 10
-33
 20
120.784253863261
 30
0
 11
-43
 21
120.784253863261
 31
0
  0
LINE
  8
1
 62
1
 10
-33
 20
120.784253863261
 30
0
 11
-25
 21
120.784253863261
 31
0
  0
LINE
  8
1
 62
1
 10
-33
 20
147.0000000000001
 30
0
 11
-33
 21
119.284253863261
 31
0
  0
LINE
  8
1
 62
1
 10
-25
 20
135.15
 30
0
 11
-25
 21
119.284253863261
 31
0
  0
SOLID
  8
1
 62
1
 10
-25
 20
120.784253863261
 30
0
 11
-30
 21
120.134253863261
 31
0
 12
-30
 22
121.434253863261
 32
0
 13
-30
 23
121.434253863261
 33
0
  0
SOLID
  8
1
 62
1
 10
-33
 20
120.784253863261
 30
0
 11
-28
 21
121.434253863261
 31
0
 12
-28
 22
120.134253863261
 32
0
 13
-28
 23
120.134253863261
 33
0
  0
TEXT
  8
1
 62
7
 10
-29.58371346341677
 20
122.579158350915
 30
0
 40
5
  1
8
 41
0.891
  0
ENDBLK
  8
0
  0
BLOCK
  8
1
  2
*D6
 70
1
 10
0
 20
0
 30
0
  0
LINE
  8
1
 62
1
 10
47.76294731094603
 20
-106.5000000000001
 30
0
 11
47.76294731094603
 21
-78.0000000000001
 31
0
  0
LINE
  8
1
 62
1
 10
32.99999999999986
 20
-78.0000000000001
 30
0
 11
49.26294731094603
 21
-78.0000000000001
 31
0
  0
LINE
  8
1
 62
1
 10
8.499999999999972
 20
-106.5000000000001
 30
0
 11
49.26294731094603
 21
-106.5000000000001
 31
0
  0
SOLID
  8
1
 62
1
 10
47.76294731094603
 20
-106.5000000000001
 30
0
 11
47.11294731094603
 21
-101.5000000000001
 31
0
 12
48.41294731094603
 22
-101.5000000000001
 32
0
 13
48.41294731094603
 23
-101.5000000000001
 33
0
  0
SOLID
  8
1
 62
1
 10
47.76294731094603
 20
-78.0000000000001
 30
0
 11
48.41294731094603
 21
-83.0000000000001
 31
0
 12
47.11294731094603
 22
-83.0000000000001
 32
0
 13
47.11294731094603
 23
-83.0000000000001
 33
0
  0
TEXT
  8
1
 62
7
 10
45.26294731094603
 20
-99.1250000000001
 30
0
 40
5
  1
28,5
 50
90
 41
0.891
  0
ENDBLK
  8
0
  0
BLOCK
  8
1
  2
*D7
 70
1
 10
0
 20
0
 30
0
  0
LINE
  8
1
 62
1
 10
63.28001123294001
 20
-78.00000000000011
 30
0
 11
63.28001123294001
 21
147
 31
0
  0
LINE
  8
1
 62
1
 10
32.99999999999983
 20
-78.00000000000011
 30
0
 11
64.78001123294001
 21
-78.00000000000011
 31
0
  0
LINE
  8
1
 62
1
 10
32.99999999999983
 20
147
 30
0
 11
64.78001123294001
 21
147
 31
0
  0
SOLID
  8
1
 62
1
 10
63.28001123294001
 20
-78.00000000000011
 30
0
 11
62.63001123294001
 21
-73.00000000000011
 31
0
 12
63.93001123294001
 22
-73.00000000000011
 32
0
 13
63.93001123294001
 23
-73.00000000000011
 33
0
  0
SOLID
  8
1
 62
1
 10
63.28001123294001
 20
147
 30
0
 11
63.93001123294001
 21
142
 31
0
 12
62.63001123294001
 22
142
 32
0
 13
62.63001123294001
 23
142
 33
0
  0
TEXT
  8
1
 62
7
 10
61.28001123294001
 20
37.60595882990199
 30
0
 40
5
  1
225
 50
90
 41
0.891
  0
ENDBLK
  8
0
  0
BLOCK
  8
1
  2
*D8
 70
1
 10
0
 20
0
 30
0
  0
LINE
  8
1
 62
1
 10
48.03370228614114
 20
147
 30
0
 11
48.03370228614114
 21
157
 31
0
  0
LINE
  8
1
 62
1
 10
48.03370228614114
 20
139
 30
0
 11
48.03370228614114
 21
129
 31
0
  0
LINE
  8
1
 62
1
 10
48.03370228614114
 20
139
 30
0
 11
48.03370228614114
 21
147
 31
0
  0
LINE
  8
1
 62
1
 10
32.99999999999995
 20
147
 30
0
 11
49.53370228614114
 21
147
 31
0
  0
LINE
  8
1
 62
1
 10
28.84999999999997
 20
139
 30
0
 11
49.53370228614114
 21
139
 31
0
  0
SOLID
  8
1
 62
1
 10
48.03370228614114
 20
139
 30
0
 11
48.68370228614114
 21
134
 31
0
 12
47.38370228614114
 22
134
 32
0
 13
47.38370228614114
 23
134
 33
0
  0
SOLID
  8
1
 62
1
 10
48.03370228614114
 20
147
 30
0
 11
47.38370228614114
 21
152
 31
0
 12
48.68370228614114
 22
152
 32
0
 13
48.68370228614114
 23
152
 33
0
  0
TEXT
  8
1
 62
7
 10
46.03370228614114
 20
141.5
 30
0
 40
5
  1
8
 50
90
 41
0.891
  0
ENDBLK
  8
0
  0
BLOCK
  8
1
  2
*D9
 70
1
 10
0
 20
0
 30
0
  0
LINE
  8
1
 62
1
 10
48.12108108735302
 20
-70.0000000000001
 30
0
 11
48.12108108735302
 21
-60.0000000000001
 31
0
  0
LINE
  8
1
 62
1
 10
48.12108108735302
 20
-78.0000000000001
 30
0
 11
48.12108108735302
 21
-88.0000000000001
 31
0
  0
LINE
  8
1
 62
1
 10
48.12108108735302
 20
-78.0000000000001
 30
0
 11
48.12108108735302
 21
-70.0000000000001
 31
0
  0
LINE
  8
1
 62
1
 10
28.84999999999994
 20
-70.0000000000001
 30
0
 11
49.62108108735302
 21
-70.0000000000001
 31
0
  0
LINE
  8
1
 62
1
 10
32.99999999999992
 20
-78.0000000000001
 30
0
 11
49.62108108735302
 21
-78.0000000000001
 31
0
  0
SOLID
  8
1
 62
1
 10
48.12108108735302
 20
-78.0000000000001
 30
0
 11
48.77108108735302
 21
-83.0000000000001
 31
0
 12
47.47108108735302
 22
-83.0000000000001
 32
0
 13
47.47108108735302
 23
-83.0000000000001
 33
0
  0
SOLID
  8
1
 62
1
 10
48.12108108735302
 20
-70.0000000000001
 30
0
 11
47.47108108735302
 21
-65.0000000000001
 31
0
 12
48.77108108735302
 22
-65.0000000000001
 32
0
 13
48.77108108735302
 23
-65.0000000000001
 33
0
  0
TEXT
  8
1
 62
7
 10
46.12108108735302
 20
-75.5000000000001
 30
0
 40
5
  1
8
 50
90
 41
0.891
  0
ENDBLK
  8
0
  0
BLOCK
  8
1
  2
*D10
 70
1
 10
0
 20
0
 30
0
  0
LINE
  8
1
 62
1
 10
48.12108108735302
 20
-70.00000000000009
 30
0
 11
48.12108108735302
 21
139.0000000000001
 31
0
  0
LINE
  8
1
 62
1
 10
28.84999999999994
 20
-70.00000000000009
 30
0
 11
49.62108108735302
 21
-70.00000000000009
 31
0
  0
LINE
  8
1
 62
1
 10
28.84999999999994
 20
139.0000000000001
 30
0
 11
49.62108108735302
 21
139.0000000000001
 31
0
  0
SOLID
  8
1
 62
1
 10
48.12108108735302
 20
-70.00000000000009
 30
0
 11
47.47108108735302
 21
-65.00000000000009
 31
0
 12
48.77108108735302
 22
-65.00000000000009
 32
0
 13
48.77108108735302
 23
-65.00000000000009
 33
0
  0
SOLID
  8
1
 62
1
 10
48.12108108735302
 20
139.0000000000001
 30
0
 11
48.77108108735302
 21
134.0000000000001
 31
0
 12
47.47108108735302
 22
134.0000000000001
 32
0
 13
47.47108108735302
 23
134.0000000000001
 33
0
  0
TEXT
  8
1
 62
7
 10
46.12108108735302
 20
38.26192335276801
 30
0
 40
5
  1
209
 50
90
 41
0.891
  0
ENDBLK
  8
0
  0
BLOCK
  8
1
  2
*D11
 70
1
 10
0
 20
0
 30
0
  0
LINE
  8
1
 62
1
 10
-77.99647807583295
 20
-122.5000000000001
 30
0
 11
-77.99647807583295
 21
191.5000000000001
 31
0
  0
LINE
  8
1
 62
1
 10
-4.950000000000045
 20
191.5000000000001
 30
0
 11
-79.49647807583295
 21
191.5000000000001
 31
0
  0
LINE
  8
1
 62
1
 10
-4.950000000000045
 20
-122.5000000000001
 30
0
 11
-79.49647807583295
 21
-122.5000000000001
 31
0
  0
SOLID
  8
1
 62
1
 10
-77.99647807583295
 20
-122.5000000000001
 30
0
 11
-78.64647807583296
 21
-117.5000000000001
 31
0
 12
-77.34647807583296
 22
-117.5000000000001
 32
0
 13
-77.34647807583296
 23
-117.5000000000001
 33
0
  0
SOLID
  8
1
 62
1
 10
-77.99647807583295
 20
191.5000000000001
 30
0
 11
-77.34647807583295
 21
186.5000000000001
 31
0
 12
-78.64647807583296
 22
186.5000000000001
 32
0
 13
-78.64647807583296
 23
186.5000000000001
 33
0
  0
TEXT
  8
1
 62
7
 10
-79.99647807583295
 20
29.25
 30
0
 40
5
  1
314
 50
90
 41
0.891
  0
ENDBLK
  8
0
  0
BLOCK
  8
1
  2
*D12
 70
1
 10
0
 20
0
 30
0
  0
LINE
  8
1
 62
1
 10
-62.85422423257694
 20
-94.00000000000011
 30
0
 11
-62.85422423257694
 21
163.0000000000001
 31
0
  0
LINE
  8
1
 62
1
 10
-4.950000000000053
 20
163.0000000000001
 30
0
 11
-64.35422423257694
 21
163.0000000000001
 31
0
  0
LINE
  8
1
 62
1
 10
-4.950000000000053
 20
-94.00000000000011
 30
0
 11
-64.35422423257694
 21
-94.00000000000011
 31
0
  0
SOLID
  8
1
 62
1
 10
-62.85422423257694
 20
-94.00000000000011
 30
0
 11
-63.50422423257694
 21
-89.00000000000011
 31
0
 12
-62.20422423257694
 22
-89.00000000000011
 32
0
 13
-62.20422423257694
 23
-89.00000000000011
 33
0
  0
SOLID
  8
1
 62
1
 10
-62.85422423257694
 20
163.0000000000001
 30
0
 11
-62.20422423257694
 21
158.0000000000001
 31
0
 12
-63.50422423257694
 22
158.0000000000001
 32
0
 13
-63.50422423257694
 23
158.0000000000001
 33
0
  0
TEXT
  8
1
 62
7
 10
-64.85422423257694
 20
28.5
 30
0
 40
5
  1
257
 50
90
 41
0.891
  0
ENDBLK
  8
0
  0
BLOCK
  8
1
  2
*D13
 70
1
 10
0
 20
0
 30
0
  0
LINE
  8
1
 62
1
 10
-62.91271493868595
 20
-122.5000000000001
 30
0
 11
-62.91271493868595
 21
-94.0000000000001
 31
0
  0
LINE
  8
1
 62
1
 10
-4.950000000000038
 20
-94.0000000000001
 30
0
 11
-64.41271493868595
 21
-94.0000000000001
 31
0
  0
LINE
  8
1
 62
1
 10
-4.950000000000038
 20
-122.5000000000001
 30
0
 11
-64.41271493868595
 21
-122.5000000000001
 31
0
  0
SOLID
  8
1
 62
1
 10
-62.91271493868595
 20
-122.5000000000001
 30
0
 11
-63.56271493868595
 21
-117.5000000000001
 31
0
 12
-62.26271493868595
 22
-117.5000000000001
 32
0
 13
-62.26271493868595
 23
-117.5000000000001
 33
0
  0
SOLID
  8
1
 62
1
 10
-62.91271493868595
 20
-94.0000000000001
 30
0
 11
-62.26271493868595
 21
-99.0000000000001
 31
0
 12
-63.56271493868595
 22
-99.0000000000001
 32
0
 13
-63.56271493868595
 23
-99.0000000000001
 33
0
  0
TEXT
  8
1
 62
7
 10
-65.41271493868595
 20
-115.1250000000001
 30
0
 40
5
  1
28,5
 50
90
 41
0.891
  0
ENDBLK
  8
0
  0
BLOCK
  8
1
  2
*D14
 70
1
 10
0
 20
0
 30
0
  0
LINE
  8
1
 62
1
 10
-47.98268907972396
 20
-94.00000000000007
 30
0
 11
-47.98268907972396
 21
-84.00000000000007
 31
0
  0
LINE
  8
1
 62
1
 10
-47.98268907972396
 20
-106.5000000000001
 30
0
 11
-47.98268907972396
 21
-116.5000000000001
 31
0
  0
LINE
  8
1
 62
1
 10
-47.98268907972396
 20
-106.5000000000001
 30
0
 11
-47.98268907972396
 21
-94.00000000000007
 31
0
  0
LINE
  8
1
 62
1
 10
-4.950000000000038
 20
-94.00000000000007
 30
0
 11
-49.48268907972396
 21
-94.00000000000007
 31
0
  0
LINE
  8
1
 62
1
 10
-8.5
 20
-106.5000000000001
 30
0
 11
-49.48268907972396
 21
-106.5000000000001
 31
0
  0
SOLID
  8
1
 62
1
 10
-47.98268907972396
 20
-106.5000000000001
 30
0
 11
-47.33268907972396
 21
-111.5000000000001
 31
0
 12
-48.63268907972396
 22
-111.5000000000001
 32
0
 13
-48.63268907972396
 23
-111.5000000000001
 33
0
  0
SOLID
  8
1
 62
1
 10
-47.98268907972396
 20
-94.00000000000007
 30
0
 11
-48.63268907972396
 21
-89.00000000000007
 31
0
 12
-47.33268907972396
 22
-89.00000000000007
 32
0
 13
-47.33268907972396
 23
-89.00000000000007
 33
0
  0
TEXT
  8
1
 62
7
 10
-50.92571529131467
 20
-108.8860326258244
 30
0
 40
5
  1
12,5
 50
90
 41
0.891
  0
ENDBLK
  8
0
  0
BLOCK
  8
1
  2
*D15
 70
1
 10
0
 20
0
 30
0
  0
LINE
  8
1
 62
1
 10
-48.00817741267196
 20
-94.0000000000001
 30
0
 11
-48.00817741267196
 21
-78.0000000000001
 31
0
  0
LINE
  8
1
 62
1
 10
-33.00000000000012
 20
-78.0000000000001
 30
0
 11
-49.50817741267196
 21
-78.0000000000001
 31
0
  0
LINE
  8
1
 62
1
 10
-4.950000000000053
 20
-94.0000000000001
 30
0
 11
-49.50817741267196
 21
-94.0000000000001
 31
0
  0
SOLID
  8
1
 62
1
 10
-48.00817741267196
 20
-94.0000000000001
 30
0
 11
-48.65817741267196
 21
-89.0000000000001
 31
0
 12
-47.35817741267196
 22
-89.0000000000001
 32
0
 13
-47.35817741267196
 23
-89.0000000000001
 33
0
  0
SOLID
  8
1
 62
1
 10
-48.00817741267196
 20
-78.0000000000001
 30
0
 11
-47.35817741267196
 21
-83.0000000000001
 31
0
 12
-48.65817741267196
 22
-83.0000000000001
 32
0
 13
-48.65817741267196
 23
-83.0000000000001
 33
0
  0
TEXT
  8
1
 62
7
 10
-50.00817741267196
 20
-89.0000000000001
 30
0
 40
5
  1
16
 50
90
 41
0.891
  0
ENDBLK
  8
0
  0
BLOCK
  8
1
  2
*D16
 70
1
 10
0
 20
0
 30
0
  0
LINE
  8
1
 62
1
 10
-48.00817741267196
 20
-78.00000000000003
 30
0
 11
-48.00817741267196
 21
2.842170943040401e-14
 31
0
  0
LINE
  8
1
 62
1
 10
-10.44999999999994
 20
2.842170943040401e-14
 30
0
 11
-49.50817741267196
 21
2.842170943040401e-14
 31
0
  0
LINE
  8
1
 62
1
 10
-33.00000000000012
 20
-78.00000000000003
 30
0
 11
-49.50817741267196
 21
-78.00000000000003
 31
0
  0
SOLID
  8
1
 62
1
 10
-48.00817741267196
 20
-78.00000000000003
 30
0
 11
-48.65817741267196
 21
-73.00000000000003
 31
0
 12
-47.35817741267196
 22
-73.00000000000003
 32
0
 13
-47.35817741267196
 23
-73.00000000000003
 33
0
  0
SOLID
  8
1
 62
1
 10
-48.00817741267196
 20
2.842170943040401e-14
 30
0
 11
-47.35817741267196
 21
-4.999999999999972
 31
0
 12
-48.65817741267195
 22
-4.999999999999972
 32
0
 13
-48.65817741267195
 23
-4.999999999999972
 33
0
  0
TEXT
  8
1
 62
7
 10
-50.00817741267196
 20
-42.75
 30
0
 40
5
  1
78
 50
90
 41
0.891
  0
ENDBLK
  8
0
  0
BLOCK
  8
1
  2
*D17
 70
1
 10
0
 20
0
 30
0
  0
LINE
  8
1
 62
1
 10
-47.91378449416897
 20
-5.684341886080801e-14
 30
0
 11
-47.91378449416897
 21
93.00000000000006
 31
0
  0
LINE
  8
1
 62
1
 10
-7.700000000000053
 20
93.00000000000006
 30
0
 11
-49.41378449416897
 21
93.00000000000006
 31
0
  0
LINE
  8
1
 62
1
 10
-10.44999999999994
 20
-5.684341886080801e-14
 30
0
 11
-49.41378449416897
 21
-5.684341886080801e-14
 31
0
  0
SOLID
  8
1
 62
1
 10
-47.91378449416897
 20
-5.684341886080801e-14
 30
0
 11
-48.56378449416897
 21
4.999999999999943
 31
0
 12
-47.26378449416897
 22
4.999999999999943
 32
0
 13
-47.26378449416897
 23
4.999999999999943
 33
0
  0
SOLID
  8
1
 62
1
 10
-47.91378449416897
 20
93.00000000000006
 30
0
 11
-47.26378449416897
 21
88.00000000000006
 31
0
 12
-48.56378449416897
 22
88.00000000000006
 32
0
 13
-48.56378449416897
 23
88.00000000000006
 33
0
  0
TEXT
  8
1
 62
7
 10
-49.91378449416897
 20
42.75
 30
0
 40
5
  1
93
 50
90
 41
0.891
  0
ENDBLK
  8
0
  0
BLOCK
  8
1
  2
*D18
 70
1
 10
0
 20
0
 30
0
  0
LINE
  8
1
 62
1
 10
-47.91378449416897
 20
93.00000000000006
 30
0
 11
-47.91378449416897
 21
147
 31
0
  0
LINE
  8
1
 62
1
 10
-33
 20
147
 30
0
 11
-49.41378449416897
 21
147
 31
0
  0
LINE
  8
1
 62
1
 10
-7.700000000000053
 20
93.00000000000006
 30
0
 11
-49.41378449416897
 21
93.00000000000006
 31
0
  0
SOLID
  8
1
 62
1
 10
-47.91378449416897
 20
93.00000000000006
 30
0
 11
-48.56378449416897
 21
98.00000000000006
 31
0
 12
-47.26378449416897
 22
98.00000000000006
 32
0
 13
-47.26378449416897
 23
98.00000000000006
 33
0
  0
SOLID
  8
1
 62
1
 10
-47.91378449416897
 20
147
 30
0
 11
-47.26378449416897
 21
142
 31
0
 12
-48.56378449416897
 22
142
 32
0
 13
-48.56378449416897
 23
142
 33
0
  0
TEXT
  8
1
 62
7
 10
-49.91378449416897
 20
116.25
 30
0
 40
5
  1
54
 50
90
 41
0.891
  0
ENDBLK
  8
0
  0
BLOCK
  8
1
  2
*D19
 70
1
 10
0
 20
0
 30
0
  0
LINE
  8
1
 62
1
 10
-62.84464520772895
 20
-174.0000000000001
 30
0
 11
-62.84464520772895
 21
-158.0000000000001
 31
0
  0
LINE
  8
1
 62
1
 10
-25.00000000000011
 20
-158.0000000000001
 30
0
 11
-64.34464520772895
 21
-158.0000000000001
 31
0
  0
LINE
  8
1
 62
1
 10
-31.00000000000011
 20
-174.0000000000001
 30
0
 11
-64.34464520772895
 21
-174.0000000000001
 31
0
  0
SOLID
  8
1
 62
1
 10
-62.84464520772895
 20
-174.0000000000001
 30
0
 11
-63.49464520772895
 21
-169.0000000000001
 31
0
 12
-62.19464520772895
 22
-169.0000000000001
 32
0
 13
-62.19464520772895
 23
-169.0000000000001
 33
0
  0
SOLID
  8
1
 62
1
 10
-62.84464520772896
 20
-158.0000000000001
 30
0
 11
-62.19464520772896
 21
-163.0000000000001
 31
0
 12
-63.49464520772896
 22
-163.0000000000001
 32
0
 13
-63.49464520772896
 23
-163.0000000000001
 33
0
  0
TEXT
  8
1
 62
7
 10
-64.84464520772895
 20
-169.0000000000001
 30
0
 40
5
  1
16
 50
90
 41
0.891
  0
ENDBLK
  8
0
  0
BLOCK
  8
1
  2
*D20
 70
1
 10
0
 20
0
 30
0
  0
LINE
  8
1
 62
1
 10
-47.86374884619647
 20
-165.0000000000001
 30
0
 11
-47.86374884619647
 21
-160.0000000000001
 31
0
  0
LINE
  8
1
 62
1
 10
-12.5
 20
-165.0000000000001
 30
0
 11
-49.36374884619647
 21
-165.0000000000001
 31
0
  0
LINE
  8
1
 62
1
 10
-12.5
 20
-160.0000000000001
 30
0
 11
-49.36374884619647
 21
-160.0000000000001
 31
0
  0
LINE
  8
1
 62
1
 10
-49.63151579916284
 20
-163.2322330470338
 30
0
 11
-46.0959818932301
 21
-166.7677669529665
 31
0
  0
LINE
  8
1
 62
1
 10
-46.0959818932301
 20
-161.7677669529665
 30
0
 11
-49.63151579916284
 21
-158.2322330470337
 31
0
  0
TEXT
  8
1
 62
7
 10
-51.51872778264818
 20
-163.8461977031075
 30
0
 40
5
  1
5
 50
90
 41
0.891
  0
ENDBLK
  8
0
  0
BLOCK
  8
1
  2
*D21
 70
1
 10
0
 20
0
 30
0
  0
LINE
  8
1
 62
1
 10
19.99999999999989
 20
139
 30
0
 11
29.99999999999989
 21
139
 31
0
  0
LINE
  8
1
 62
1
 10
24.99999999999989
 20
134
 30
0
 11
24.99999999999989
 21
144
 31
0
  0
LINE
  8
1
 62
1
 10
31.62543163213185
 20
147.7808687319619
 30
0
 11
16.90511868059205
 21
128.2716287461474
 31
0
  0
SOLID
  8
1
 62
1
 10
27.10809188295097
 20
141.7939127783515
 30
0
 11
24.61540156614329
 21
137.4111060310156
 31
0
 12
23.57766253418416
 22
138.1941115875403
 32
0
 13
23.57766253418416
 23
138.1941115875403
 33
0
  0
SOLID
  8
1
 62
1
 10
22.89190811704881
 20
136.2060872216485
 30
0
 11
25.38459843385649
 21
140.5888939689844
 31
0
 12
26.42233746581562
 22
139.8058884124597
 32
0
 13
26.42233746581562
 23
139.8058884124597
 33
0
  0
TEXT
  8
1
 62
7
 10
15.30859709296263
 20
129.4762526792623
 30
0
 40
5
  1
7
 50
52.96433987755064
 41
0.891
  0
ENDBLK
  8
0
  0
BLOCK
  8
1
  2
*D22
 70
1
 10
0
 20
0
 30
0
  0
LINE
  8
1
 62
1
 10
-6.000000000000004
 20
-94.00000000000007
 30
0
 11
5.999999999999996
 21
-94.00000000000007
 31
0
  0
LINE
  8
1
 62
1
 10
-3.552713678800501e-15
 20
-100.0000000000001
 30
0
 11
-3.552713678800501e-15
 21
-88.00000000000007
 31
0
  0
LINE
  8
1
 62
1
 10
-10.90363338569438
 20
-88.98893434583317
 30
0
 11
18.78947355166424
 21
-102.635221145472
 31
0
  0
SOLID
  8
1
 62
1
 10
4.088862519635379
 20
-95.87914962031266
 30
0
 11
-0.7257507806713148
 21
-94.38181907280156
 31
0
 12
-0.1828853348032347
 22
-93.20059212268467
 32
0
 13
-0.1828853348032347
 23
-93.20059212268467
 33
0
  0
SOLID
  8
1
 62
1
 10
-4.088862519635391
 20
-92.12085037968748
 30
0
 11
0.7257507806713006
 21
-93.61818092719859
 31
0
 12
0.1828853348032178
 22
-94.79940787731547
 32
0
 13
0.1828853348032178
 23
-94.79940787731547
 33
0
  0
TEXT
  8
1
 62
7
 10
16.89874281426846
 20
-99.56518250098125
 30
0
 40
5
  1
9
 50
335.3175480347484
 41
0.891
  0
ENDBLK
  8
0
  0
ENDSEC
  0
SECTION
  2
ENTITIES
  0
POINT
  8
0
 62
7
  6
DASHED
 10
24.99999999999993
 20
135.15
 30
0
  0
POINT
  8
0
 62
7
  6
DASHED
 10
28.84999999999992
 20
139
 30
0
  0
POINT
  8
0
 62
7
  6
DASHED
 10
-4.950000000000045
 20
-94.00000000000007
 30
0
  0
LINE
  8
1
 62
2
  6
DIVIDE
 10
-25.00000000000001
 20
142.85
 30
0
 11
-25.00000000000001
 21
135.15
 31
0
  0
LINE
  8
1
 62
2
  6
DIVIDE
 10
-21.14999999999998
 20
139
 30
0
 11
-28.85000000000002
 21
139
 31
0
  0
LINE
  8
1
 62
2
  6
DIVIDE
 10
-25.00000000000011
 20
-66.15000000000009
 30
0
 11
-25.00000000000011
 21
-73.85000000000009
 31
0
  0
LINE
  8
1
 62
2
  6
DIVIDE
 10
-21.15000000000009
 20
-70.0000000000001
 30
0
 11
-28.85000000000014
 21
-70.0000000000001
 31
0
  0
LINE
  8
1
 62
2
  6
DIVIDE
 10
24.99999999999993
 20
-66.15000000000009
 30
0
 11
24.99999999999993
 21
-73.85000000000009
 31
0
  0
LINE
  8
1
 62
2
  6
DIVIDE
 10
28.84999999999992
 20
-70.0000000000001
 30
0
 11
21.14999999999982
 21
-70.0000000000001
 31
0
  0
LINE
  8
1
 62
3
  6
DASHED
 10
-12.5
 20
171.5000000000001
 30
0
 11
-12.5
 21
200
 31
0
  0
LINE
  8
1
 62
3
  6
DASHED
 10
12.5
 20
171.5000000000001
 30
0
 11
12.5
 21
200
 31
0
  0
LINE
  8
1
 62
2
  6
DIVIDE
 10
0
 20
196.45
 30
0
 11
0
 21
186.55
 31
0
  0
LINE
  8
1
 62
2
  6
DIVIDE
 10
-4.950000000000045
 20
191.5
 30
0
 11
4.950000000000045
 21
191.5
 31
0
  0
LINE
  8
1
 62
3
  6
DASHED
 10
8.5
 20
204
 30
0
 11
-8.5
 21
204
 31
0
  0
LINE
  8
1
 62
3
  6
DASHED
 10
-12.5
 20
-131.0000000000001
 30
0
 11
-12.5
 21
-102.5000000000001
 31
0
  0
LINE
  8
1
 62
3
  6
DASHED
 10
12.5
 20
-131.0000000000001
 30
0
 11
12.5
 21
-102.5000000000001
 31
0
  0
LINE
  8
1
 62
2
  6
DIVIDE
 10
0
 20
-117.5500000000001
 30
0
 11
0
 21
-127.4500000000001
 31
0
  0
LINE
  8
1
 62
2
  6
DIVIDE
 10
4.950000000000045
 20
-122.5000000000001
 30
0
 11
-4.950000000000045
 21
-122.5000000000001
 31
0
  0
LINE
  8
1
 62
3
  6
DASHED
 10
-8.5
 20
-135.0000000000001
 30
0
 11
8.5
 21
-135.0000000000001
 31
0
  0
LINE
  8
1
 62
2
  6
DIVIDE
 10
0
 20
100.7000000000001
 30
0
 11
0
 21
85.3000000000001
 31
0
  0
LINE
  8
1
 62
2
  6
DIVIDE
 10
7.700000000000045
 20
93.00000000000009
 30
0
 11
-7.700000000000045
 21
93.00000000000009
 31
0
  0
LINE
  8
1
 62
2
  6
DIVIDE
 10
0
 20
167.9500000000001
 30
0
 11
0
 21
158.0500000000002
 31
0
  0
LINE
  8
1
 62
2
  6
DIVIDE
 10
4.950000000000045
 20
163.0000000000001
 30
0
 11
-4.950000000000045
 21
163.0000000000001
 31
0
  0
LINE
  8
1
 62
7
 10
8.5
 20
175.5000000000001
 30
0
 11
-8.5
 21
175.5000000000001
 31
0
  0
LINE
  8
1
 62
7
 10
-12.5
 20
147.0000000000001
 30
0
 11
12.5
 21
147.0000000000001
 31
0
  0
LINE
  8
1
 62
7
 10
12.5
 20
171.5000000000001
 30
0
 11
12.5
 21
147.0000000000001
 31
0
  0
LINE
  8
1
 62
7
 10
-12.5
 20
171.5000000000001
 30
0
 11
-12.5
 21
147.0000000000001
 31
0
  0
LINE
  8
1
 62
7
 10
-8.5
 20
-106.5000000000001
 30
0
 11
8.5
 21
-106.5000000000001
 31
0
  0
LINE
  8
1
 62
7
 10
12.5
 20
-78.0000000000001
 30
0
 11
-12.5
 21
-78.0000000000001
 31
0
  0
LINE
  8
1
 62
7
 10
12.5
 20
-78.0000000000001
 30
0
 11
12.5
 21
-102.5000000000001
 31
0
  0
LINE
  8
1
 62
7
 10
-12.5
 20
-78.0000000000001
 30
0
 11
-33.00000000000011
 21
-78.0000000000001
 31
0
  0
LINE
  8
1
 62
7
 10
-12.5
 20
-78.0000000000001
 30
0
 11
-12.5
 21
-102.5000000000001
 31
0
  0
LINE
  8
1
 62
7
 10
21.90000000000002
 20
-46
 30
0
 11
30.90000000000002
 21
-45.99999999999989
 31
0
  0
LINE
  8
1
 62
7
 10
-30.90000000000003
 20
46
 30
0
 11
-21.89999999999998
 21
46
 31
0
  0
LINE
  8
1
 62
7
 10
-4.5
 20
4.5
 30
0
 11
-4.5
 21
-4.5
 31
0
  0
LINE
  8
1
 62
7
 10
4.5
 20
-4.5
 30
0
 11
4.5
 21
4.5
 31
0
  0
LINE
  8
1
 62
7
 10
4.5
 20
-4.5
 30
0
 11
-4.5
 21
-4.5
 31
0
  0
LINE
  8
1
 62
7
 10
-4.5
 20
4.5
 30
0
 11
4.5
 21
4.5
 31
0
  0
LINE
  8
1
 62
2
  6
DIVIDE
 10
0
 20
10.4499999999999
 30
0
 11
0
 21
-10.44999999999999
 31
0
  0
LINE
  8
1
 62
2
  6
DIVIDE
 10
10.44999999999993
 20
0
 30
0
 11
-10.44999999999993
 21
0
 31
0
  0
LINE
  8
1
 62
7
 10
15.00000000000003
 20
145
 30
0
 11
30.99999999999993
 21
145
 31
0
  0
LINE
  8
1
 62
7
 10
-15
 20
-76.0000000000001
 30
0
 11
-31.00000000000011
 21
-76.0000000000001
 31
0
  0
LINE
  8
1
 62
7
 10
32.99999999999993
 20
147
 30
0
 11
32.99999999999993
 21
-78.0000000000001
 31
0
  0
LINE
  8
1
 62
7
 10
32.99999999999993
 20
-78.0000000000001
 30
0
 11
12.5
 21
-78.0000000000001
 31
0
  0
LINE
  8
1
 62
7
 10
-33.00000000000011
 20
-78.0000000000001
 30
0
 11
-33.00000000000001
 21
147
 31
0
  0
LINE
  8
1
 62
7
 10
-33.00000000000001
 20
147
 30
0
 11
32.99999999999993
 21
147
 31
0
  0
LINE
  8
1
 62
7
 10
30.99999999999993
 20
147
 30
0
 11
30.99999999999993
 21
-78.0000000000001
 31
0
  0
LINE
  8
1
 62
7
 10
30.99999999999993
 20
-76.0000000000001
 30
0
 11
15.00000000000003
 21
-76.0000000000001
 31
0
  0
LINE
  8
1
 62
7
 10
-31.00000000000011
 20
-78.0000000000001
 30
0
 11
-31.00000000000001
 21
147
 31
0
  0
LINE
  8
1
 62
7
 10
-31.00000000000001
 20
145
 30
0
 11
-15
 21
145
 31
0
  0
LINE
  8
1
 62
7
 10
15.00000000000003
 20
-76.0000000000001
 30
0
 11
15.00000000000003
 21
-78.0000000000001
 31
0
  0
LINE
  8
1
 62
7
 10
-15
 20
-76.0000000000001
 30
0
 11
-15
 21
-78.0000000000001
 31
0
  0
LINE
  8
1
 62
7
 10
15.00000000000003
 20
145
 30
0
 11
15.00000000000003
 21
147
 31
0
  0
LINE
  8
1
 62
7
 10
-15
 20
147
 30
0
 11
-15
 21
145
 31
0
  0
LINE
  8
1
 62
7
 10
20.56937388698692
 20
-58.00981964915991
 30
0
 11
16.15732616636232
 21
-62.67713524925941
 31
0
  0
LINE
  8
1
 62
7
 10
19.84267383363772
 20
-57.32286475074059
 30
0
 11
15.43062611301312
 21
-61.99018035084001
 31
0
  0
LINE
  8
1
 62
7
 10
-20.43062611301309
 20
84.99018035084012
 30
0
 11
-24.84267383363771
 21
80.32286475074059
 31
0
  0
LINE
  8
1
 62
7
 10
-21.15732616636228
 20
85.67713524925941
 30
0
 11
-25.5693738869869
 21
81.00981964915999
 31
0
  0
LINE
  8
1
 62
7
 10
-1.200000000000045
 20
91.79999999999998
 30
0
 11
-4.200000000000045
 21
91.79999999999998
 31
0
  0
LINE
  8
1
 62
7
 10
-4.200000000000045
 20
91.79999999999998
 30
0
 11
-4.200000000000045
 21
94.20000000000002
 31
0
  0
LINE
  8
1
 62
7
 10
-4.200000000000045
 20
94.20000000000002
 30
0
 11
-1.200000000000045
 21
94.20000000000002
 31
0
  0
LINE
  8
1
 62
7
 10
-1.200000000000045
 20
94.20000000000002
 30
0
 11
-1.200000000000045
 21
97.20000000000002
 31
0
  0
LINE
  8
1
 62
7
 10
-1.200000000000045
 20
97.20000000000002
 30
0
 11
1.200000000000045
 21
97.20000000000002
 31
0
  0
LINE
  8
1
 62
7
 10
1.200000000000045
 20
97.20000000000002
 30
0
 11
1.200000000000045
 21
94.20000000000002
 31
0
  0
LINE
  8
1
 62
7
 10
1.200000000000045
 20
94.20000000000002
 30
0
 11
4.200000000000045
 21
94.20000000000002
 31
0
  0
LINE
  8
1
 62
7
 10
4.200000000000045
 20
91.79999999999998
 30
0
 11
1.200000000000045
 21
91.79999999999998
 31
0
  0
LINE
  8
1
 62
7
 10
1.200000000000045
 20
91.79999999999998
 30
0
 11
1.200000000000045
 21
88.79999999999998
 31
0
  0
LINE
  8
1
 62
7
 10
-1.200000000000045
 20
88.79999999999998
 30
0
 11
-1.200000000000045
 21
91.79999999999998
 31
0
  0
LINE
  8
1
 62
7
 10
1.200000000000045
 20
88.79999999999998
 30
0
 11
-1.200000000000045
 21
88.79999999999998
 31
0
  0
LINE
  8
1
 62
7
 10
4.200000000000045
 20
94.20000000000002
 30
0
 11
4.200000000000045
 21
91.79999999999998
 31
0
  0
LINE
  8
1
 62
7
 10
21.90000000000002
 20
-18
 30
0
 11
21.90000000000002
 21
-51
 31
0
  0
LINE
  8
1
 62
7
 10
21.90000000000002
 20
-51
 30
0
 11
30.90000000000002
 21
-50.99999999999989
 31
0
  0
LINE
  8
1
 62
7
 10
30.90000000000002
 20
-17.99999999999989
 30
0
 11
21.90000000000002
 21
-18
 31
0
  0
LINE
  8
1
 62
7
 10
-21.89999999999998
 20
18
 30
0
 11
-30.90000000000003
 21
18
 31
0
  0
LINE
  8
1
 62
7
 10
-21.89999999999998
 20
51
 30
0
 11
-21.89999999999998
 21
18
 31
0
  0
LINE
  8
1
 62
7
 10
-30.90000000000003
 20
51
 30
0
 11
-21.89999999999998
 21
51
 31
0
  0
LINE
  8
1
 62
7
 10
14.90000000000002
 20
144.9
 30
0
 11
14.90000000000002
 21
146.9000000000001
 31
0
  0
LINE
  8
1
 62
7
 10
19.90000000000002
 20
144.9000000000001
 30
0
 11
19.90000000000002
 21
138.9000000000001
 31
0
  0
LINE
  8
1
 62
7
 10
19.90000000000002
 20
144.9000000000001
 30
0
 11
14.90000000000002
 21
144.9
 31
0
  0
LINE
  8
1
 62
7
 10
-19.89999999999998
 20
144.9000000000001
 30
0
 11
-19.89999999999998
 21
138.9000000000001
 31
0
  0
LINE
  8
1
 62
7
 10
-14.89999999999998
 20
144.9000000000001
 30
0
 11
-19.89999999999998
 21
144.9000000000001
 31
0
  0
LINE
  8
1
 62
7
 10
-14.89999999999998
 20
146.9000000000001
 30
0
 11
-14.89999999999998
 21
144.9000000000001
 31
0
  0
LINE
  8
1
 62
7
 10
-19.89999999999998
 20
-75.89999999999989
 30
0
 11
-19.89999999999998
 21
-69.89999999999989
 31
0
  0
LINE
  8
1
 62
7
 10
-19.89999999999998
 20
-75.89999999999989
 30
0
 11
-14.89999999999998
 21
-75.89999999999999
 31
0
  0
LINE
  8
1
 62
7
 10
-14.89999999999998
 20
-77.89999999999989
 30
0
 11
-14.89999999999998
 21
-75.89999999999999
 31
0
  0
LINE
  8
1
 62
7
 10
14.90000000000002
 20
-75.89999999999989
 30
0
 11
14.90000000000002
 21
-77.89999999999989
 31
0
  0
LINE
  8
1
 62
7
 10
19.90000000000002
 20
-75.89999999999999
 30
0
 11
14.90000000000002
 21
-75.89999999999989
 31
0
  0
LINE
  8
1
 62
7
 10
-24.89999999999998
 20
133.9000000000001
 30
0
 11
-30.90000000000003
 21
133.9000000000001
 31
0
  0
LINE
  8
1
 62
7
 10
-30.89999999999998
 20
-64.89999999999989
 30
0
 11
-24.89999999999998
 21
-64.89999999999989
 31
0
  0
LINE
  8
1
 62
7
 10
19.90000000000002
 20
-69.89999999999989
 30
0
 11
19.90000000000002
 21
-75.89999999999999
 31
0
  0
LINE
  8
1
 62
7
 10
30.90000000000002
 20
-64.89999999999989
 30
0
 11
24.90000000000002
 21
-64.89999999999989
 31
0
  0
LINE
  8
1
 62
7
 10
30.90000000000002
 20
133.9000000000001
 30
0
 11
24.90000000000002
 21
133.9
 31
0
  0
LINE
  8
1
 62
7
 10
-26.50000000000011
 20
-147.5000000000001
 30
0
 11
-24.00000000000011
 21
-147.5000000000001
 31
0
  0
LINE
  8
1
 62
7
 10
-27.50000000000011
 20
-158.0000000000001
 30
0
 11
-31.00000000000001
 21
-158.0000000000001
 31
0
  0
LINE
  8
1
 62
7
 10
-26.50000000000011
 20
-158.0000000000001
 30
0
 11
-26.50000000000011
 21
-147.5000000000001
 31
0
  0
LINE
  8
1
 62
7
 10
-24.00000000000011
 20
-158.0000000000001
 30
0
 11
-27.50000000000011
 21
-158.0000000000001
 31
0
  0
LINE
  8
1
 62
7
 10
-24.00000000000011
 20
-158.0000000000001
 30
0
 11
-24.00000000000011
 21
-147.5000000000001
 31
0
  0
LINE
  8
1
 62
7
 10
33.00000000000003
 20
-174.0000000000001
 30
0
 11
32.99999999999993
 21
-160.0000000000001
 31
0
  0
LINE
  8
1
 62
7
 10
30.99999999999993
 20
-158.0000000000001
 30
0
 11
-25.00000000000011
 21
-158.0000000000001
 31
0
  0
LINE
  8
1
 62
7
 10
-33.00000000000011
 20
-160.0000000000001
 30
0
 11
-33.00000000000011
 21
-174.0000000000001
 31
0
  0
LINE
  8
1
 62
7
 10
-33.00000000000011
 20
-174.0000000000001
 30
0
 11
-31.00000000000011
 21
-174.0000000000001
 31
0
  0
LINE
  8
1
 62
7
 10
-31.00000000000011
 20
-174.0000000000001
 30
0
 11
-31.00000000000011
 21
-160.0000000000001
 31
0
  0
LINE
  8
1
 62
7
 10
30.99999999999993
 20
-174.0000000000001
 30
0
 11
33.00000000000003
 21
-174.0000000000001
 31
0
  0
LINE
  8
1
 62
7
 10
30.99999999999993
 20
-160.0000000000001
 30
0
 11
30.99999999999993
 21
-174.0000000000001
 31
0
  0
LINE
  8
1
 62
7
 10
12.50000000000003
 20
-160.0000000000001
 30
0
 11
12.50000000000003
 21
-165.0000000000001
 31
0
  0
LINE
  8
1
 62
7
 10
-12.49999999999997
 20
-165.0000000000001
 30
0
 11
-12.49999999999997
 21
-160.0000000000001
 31
0
  0
LINE
  8
1
 62
7
 10
-31.00000000000011
 20
-174.0000000000001
 30
0
 11
15.00000000000003
 21
-174.0000000000001
 31
0
  0
LINE
  8
1
 62
7
 10
-14.99999999999997
 20
-171.3
 30
0
 11
-14.99999999999997
 21
-174.0000000000001
 31
0
  0
LINE
  8
1
 62
7
 10
-14.99999999999997
 20
-171.3
 30
0
 11
15.00000000000003
 21
-171.3
 31
0
  0
LINE
  8
1
 62
7
 10
15.00000000000003
 20
-171.3
 30
0
 11
15.00000000000003
 21
-174.0000000000001
 31
0
  0
LINE
  8
1
 62
7
 10
15.00000000000003
 20
-174.0000000000001
 30
0
 11
30.99999999999993
 21
-174.0000000000001
 31
0
  0
LINE
  8
1
 62
7
 10
-12.49999999999997
 20
-160.0000000000001
 30
0
 11
12.50000000000003
 21
-160.0000000000001
 31
0
  0
LINE
  8
1
 62
7
 10
12.50000000000003
 20
-165.0000000000001
 30
0
 11
-12.49999999999997
 21
-165.0000000000001
 31
0
  0
ARC
  8
1
 62
3
  6
DASHED
 10
-8.5
 20
200
 30
0
 40
4
 50
90
 51
180
  0
ARC
  8
1
 62
3
  6
DASHED
 10
8.5
 20
200
 30
0
 40
4
 50
0
 51
90
  0
ARC
  8
1
 62
3
  6
DASHED
 10
-8.5
 20
-131.0000000000001
 30
0
 40
4
 50
180
 51
270
  0
ARC
  8
1
 62
3
  6
DASHED
 10
8.5
 20
-131.0000000000001
 30
0
 40
4
 50
270
 51
0
  0
ARC
  8
1
 62
7
 10
-8.5
 20
171.5000000000001
 30
0
 40
4
 50
90
 51
180
  0
ARC
  8
1
 62
7
 10
8.5
 20
171.5000000000001
 30
0
 40
4
 50
0
 51
90
  0
ARC
  8
1
 62
7
 10
-8.5
 20
-102.5000000000001
 30
0
 40
4
 50
180
 51
270
  0
ARC
  8
1
 62
7
 10
8.5
 20
-102.5000000000001
 30
0
 40
4
 50
270
 51
0
  0
ARC
  8
1
 62
7
 10
24.90000000000002
 20
138.9000000000001
 30
0
 40
5
 50
180
 51
270
  0
ARC
  8
1
 62
7
 10
-24.89999999999998
 20
138.9000000000001
 30
0
 40
5
 50
270
 51
0
  0
ARC
  8
1
 62
7
 10
-24.89999999999998
 20
-69.89999999999999
 30
0
 40
5
 50
0
 51
90
  0
ARC
  8
1
 62
7
 10
24.90000000000002
 20
-69.89999999999989
 30
0
 40
5
 50
90
 51
180
  0
ARC
  8
1
 62
7
 10
30.99999999999993
 20
-160.0000000000001
 30
0
 40
2
 50
0
 51
90
  0
ARC
  8
1
 62
7
 10
-31.00000000000011
 20
-160.0000000000001
 30
0
 40
2
 50
90
 51
180
  0
ARC
  8
1
 62
7
 10
18.00000000000003
 20
-60
 30
0
 40
3.24999999999998
 50
226.6104565638276
 51
235.460339662258
  0
ARC
  8
1
 62
7
 10
18.00000000000003
 20
-60
 30
0
 40
3.250000000000048
 50
235.460339662258
 51
37.76057346540004
  0
ARC
  8
1
 62
7
 10
18.00000000000003
 20
-60
 30
0
 40
3.250000000000039
 50
55.46033966225819
 51
217.7605734653988
  0
ARC
  8
1
 62
7
 10
18.00000000000003
 20
-60
 30
0
 40
3.249999999999983
 50
217.7605734653988
 51
226.6104565638276
  0
ARC
  8
1
 62
7
 10
18.00000000000003
 20
-60
 30
0
 40
3.250000000000018
 50
37.76057346540004
 51
55.46033966225819
  0
ARC
  8
1
 62
7
 10
-23
 20
83.00000000000009
 30
0
 40
3.250000000000018
 50
226.6104565638275
 51
235.4603396622587
  0
ARC
  8
1
 62
7
 10
-23
 20
83.00000000000009
 30
0
 40
3.250000000000121
 50
235.4603396622587
 51
37.76057346539906
  0
ARC
  8
1
 62
7
 10
-23
 20
83.00000000000009
 30
0
 40
3.249999999999984
 50
55.46033966225693
 51
217.7605734654
  0
ARC
  8
1
 62
7
 10
-23
 20
83.00000000000009
 30
0
 40
3.250000000000024
 50
217.7605734654
 51
226.6104565638275
  0
ARC
  8
1
 62
7
 10
-23
 20
83.00000000000009
 30
0
 40
3.249999999999997
 50
37.76057346539906
 51
55.46033966225693
  0
ARC
  8
1
 62
7
 10
-7.990306627408017
 20
85.00969337259212
 30
0
 40
2.500000000000095
 50
190.6693243396783
 51
259.3306756603271
  0
ARC
  8
1
 62
7
 10
-5.762920266670449
 20
82.7823070118545
 30
0
 40
2.699999999999925
 50
184.8737628248141
 51
85.12623717518709
  0
ARC
  8
1
 62
7
 10
-7.990306627408017
 20
85.00969337259212
 30
0
 40
2.500000000000018
 50
10.66932433967199
 51
79.33067566032395
  0
ARC
  8
1
 62
7
 10
-10.21769298814559
 20
87.23707973332958
 30
0
 40
2.700000000000042
 50
4.873762824813905
 51
265.1262371751869
  0
ARC
  8
1
 62
7
 10
-7.990306627408017
 20
100.990306627408
 30
0
 40
2.500000000000026
 50
100.6693243396762
 51
169.3306756603248
  0
ARC
  8
1
 62
7
 10
-10.21769298814559
 20
98.76292026667042
 30
0
 40
2.70000000000002
 50
94.87376282481273
 51
355.1262371751909
  0
ARC
  8
1
 62
7
 10
-7.990306627408017
 20
100.990306627408
 30
0
 40
2.499999999999897
 50
280.6693243396765
 51
349.330675660327
  0
ARC
  8
1
 62
7
 10
-5.762920266670449
 20
103.2176929881457
 30
0
 40
2.700000000000033
 50
274.8737628248126
 51
175.1262371751906
  0
ARC
  8
1
 62
7
 10
7.990306627407904
 20
100.990306627408
 30
0
 40
2.500000000000042
 50
10.6693243396752
 51
79.33067566032405
  0
ARC
  8
1
 62
7
 10
5.762920266670335
 20
103.2176929881457
 30
0
 40
2.700000000000021
 50
4.873762824809406
 51
265.1262371751897
  0
ARC
  8
1
 62
7
 10
7.990306627407904
 20
100.990306627408
 30
0
 40
2.499999999999917
 50
190.6693243396734
 51
259.3306756603261
  0
ARC
  8
1
 62
7
 10
10.21769298814559
 20
98.76292026667042
 30
0
 40
2.700000000000023
 50
184.8737628248091
 51
85.12623717518981
  0
ARC
  8
1
 62
7
 10
7.990306627407904
 20
85.00969337259212
 30
0
 40
2.500000000000162
 50
314.9999999999991
 51
349.3306756603267
  0
ARC
  8
1
 62
7
 10
10.21769298814559
 20
87.23707973332958
 30
0
 40
2.699999999999797
 50
274.8737628248106
 51
175.1262371751861
  0
ARC
  8
1
 62
7
 10
7.990306627407904
 20
85.00969337259212
 30
0
 40
2.499999999999977
 50
134.999999999999
 51
169.330675660325
  0
ARC
  8
1
 62
7
 10
5.762920266670335
 20
82.7823070118545
 30
0
 40
2.699999999999908
 50
314.9999999999991
 51
355.1262371751861
  0
ARC
  8
1
 62
7
 10
5.762920266670335
 20
82.7823070118545
 30
0
 40
2.700000000000027
 50
134.9999999999999
 51
314.9999999999991
  0
ARC
  8
1
 62
7
 10
7.990306627407904
 20
85.00969337259212
 30
0
 40
2.500000000000162
 50
280.6693243396753
 51
314.9999999999991
  0
ARC
  8
1
 62
7
 10
7.990306627407904
 20
85.00969337259212
 30
0
 40
2.499999999999974
 50
100.6693243396735
 51
134.999999999999
  0
ARC
  8
1
 62
7
 10
5.762920266670335
 20
82.7823070118545
 30
0
 40
2.700000000000024
 50
94.8737628248103
 51
134.9999999999999
  0
CIRCLE
  8
1
 62
3
  6
DASHED
 10
0
 20
191.5
 30
0
 40
4.5
  0
CIRCLE
  8
1
 62
3
  6
DASHED
 10
0
 20
-122.5000000000001
 30
0
 40
4.5
  0
CIRCLE
  8
1
 62
7
 10
0
 20
163.0000000000001
 30
0
 40
4.5
  0
CIRCLE
  8
1
 62
7
 10
0
 20
-94.00000000000007
 30
0
 40
4.5
  0
CIRCLE
  8
1
 62
7
 10
0
 20
0
 30
0
 40
9.5
  0
CIRCLE
  8
1
 62
7
 10
24.99999999999993
 20
139
 30
0
 40
3.5
  0
CIRCLE
  8
1
 62
7
 10
24.99999999999993
 20
-70.0000000000001
 30
0
 40
3.5
  0
CIRCLE
  8
1
 62
7
 10
-25.00000000000011
 20
-70.0000000000001
 30
0
 40
3.5
  0
CIRCLE
  8
1
 62
7
 10
-25.00000000000001
 20
139
 30
0
 40
3.5
  0
CIRCLE
  8
1
 62
7
 10
0
 20
93.00000000000009
 30
0
 40
7
  0
TEXT
  8
1
 62
7
 10
92.20752979415002
 20
-165.858450704225
 30
0
 40
7
  1
4101
 41
0.8910000000000001
 73
2
 11
92.20752979415002
 21
-162.358450704225
 31
0
  0
DIMENSION
  8
1
  6
CONTINUOUS
 62
1
  2
*D0
  3
DMST_1
 10
-4.5
 20
19.85757341393
 30
0
 11
-0.3008031998752756
 21
24.35757341393
 31
0
 12
0
 22
0
 32
0
 70
128
 13
4.5
 23
4.5
 33
0
 14
-4.5
 24
4.5
 34
0
 53
0
  0
DIMENSION
  8
1
  6
CONTINUOUS
 62
1
  2
*D1
  3
DMST_1
 10
12.49999999999999
 20
-86.821013308399
 30
0
 11
0.7482830395241251
 21
-82.321013308399
 31
0
 12
0
 22
0
 32
0
 70
128
 13
-12.5
 23
-78.0000000000001
 33
0
 14
12.5
 24
-78.0000000000001
 34
0
 53
0
  0
DIMENSION
  8
1
  6
CONTINUOUS
 62
1
  2
*D2
  3
DMST_1
 10
32.99999999999989
 20
215.825779779894
 30
0
 11
0.7174931283607293
 21
220.325779779894
 31
0
 12
0
 22
0
 32
0
 70
128
 13
-33.00000000000001
 23
147
 33
0
 14
32.99999999999993
 24
147
 34
0
 53
0
  0
DIMENSION
  8
1
  6
CONTINUOUS
 62
1
  2
*D3
  3
DMST_1
 10
24.99999999999989
 20
120.783109732997
 30
0
 11
27.74910579145703
 21
125.018325300466
 31
0
 12
0
 22
0
 32
0
 70
128
 13
32.99999999999993
 23
147
 33
0
 14
24.99999999999993
 24
135.15
 34
0
 53
0
  0
DIMENSION
  8
1
  6
CONTINUOUS
 62
1
  2
*D4
  3
DMST_1
 10
24.99999999999988
 20
120.784253863261
 30
0
 11
-5.684341886080801e-14
 21
125.284253863261
 31
0
 12
0
 22
0
 32
0
 70
128
 13
-25.00000000000001
 23
135.15
 33
0
 14
24.99999999999993
 24
135.15
 34
0
 53
0
  0
DIMENSION
  8
1
  6
CONTINUOUS
 62
1
  2
*D5
  3
DMST_1
 10
-25
 20
120.784253863261
 30
0
 11
-28.08371346341677
 21
125.079158350915
 31
0
 12
0
 22
0
 32
0
 70
128
 13
-33.00000000000001
 23
147
 33
0
 14
-25.00000000000001
 24
135.15
 34
0
 53
0
  0
DIMENSION
  8
1
  6
CONTINUOUS
 62
1
  2
*D6
  3
DMST_1
 10
47.76294731094603
 20
-78.0000000000001
 30
0
 11
43.01294731094603
 21
-92.2500000000001
 31
0
 12
0
 22
0
 32
0
 70
128
 13
8.5
 23
-106.5000000000001
 33
0
 14
32.99999999999993
 24
-78.0000000000001
 34
0
 50
90
 53
0
  0
DIMENSION
  8
1
  6
CONTINUOUS
 62
1
  2
*D7
  3
DMST_1
 10
63.28001123294001
 20
147
 30
0
 11
58.78001123294001
 21
43.60595882990199
 31
0
 12
0
 22
0
 32
0
 70
128
 13
32.99999999999993
 23
-78.0000000000001
 33
0
 14
32.99999999999993
 24
147
 34
0
 50
90
 53
0
  0
DIMENSION
  8
1
  6
CONTINUOUS
 62
1
  2
*D8
  3
DMST_1
 10
48.03370228614114
 20
147
 30
0
 11
43.53370228614114
 21
143
 31
0
 12
0
 22
0
 32
0
 70
128
 13
28.84999999999992
 23
139
 33
0
 14
32.99999999999993
 24
147
 34
0
 50
90
 53
0
  0
DIMENSION
  8
1
  6
CONTINUOUS
 62
1
  2
*D9
  3
DMST_1
 10
48.12108108735302
 20
-78.0000000000001
 30
0
 11
43.62108108735302
 21
-74.0000000000001
 31
0
 12
0
 22
0
 32
0
 70
128
 13
28.84999999999992
 23
-70.0000000000001
 33
0
 14
32.99999999999993
 24
-78.0000000000001
 34
0
 50
90
 53
0
  0
DIMENSION
  8
1
  6
CONTINUOUS
 62
1
  2
*D10
  3
DMST_1
 10
48.12108108735302
 20
139.0000000000001
 30
0
 11
43.62108108735302
 21
44.26192335276801
 31
0
 12
0
 22
0
 32
0
 70
128
 13
28.84999999999992
 23
-70.0000000000001
 33
0
 14
28.84999999999992
 24
139
 34
0
 50
90
 53
0
  0
DIMENSION
  8
1
  6
CONTINUOUS
 62
1
  2
*D11
  3
DMST_1
 10
-77.99647807583295
 20
191.5000000000001
 30
0
 11
-82.49647807583295
 21
34.5
 31
0
 12
0
 22
0
 32
0
 70
128
 13
-4.950000000000045
 23
-122.5000000000001
 33
0
 14
-4.950000000000045
 24
191.5
 34
0
 50
90
 53
0
  0
DIMENSION
  8
1
  6
CONTINUOUS
 62
1
  2
*D12
  3
DMST_1
 10
-62.85422423257694
 20
163.0000000000001
 30
0
 11
-67.35422423257694
 21
34.5
 31
0
 12
0
 22
0
 32
0
 70
128
 13
-4.950000000000045
 23
-94.00000000000007
 33
0
 14
-4.950000000000045
 24
163.0000000000001
 34
0
 50
90
 53
0
  0
DIMENSION
  8
1
  6
CONTINUOUS
 62
1
  2
*D13
  3
DMST_1
 10
-62.91271493868595
 20
-94.0000000000001
 30
0
 11
-67.66271493868595
 21
-108.2500000000001
 31
0
 12
0
 22
0
 32
0
 70
128
 13
-4.950000000000045
 23
-122.5000000000001
 33
0
 14
-4.950000000000045
 24
-94.00000000000007
 34
0
 50
90
 53
0
  0
DIMENSION
  8
1
  6
CONTINUOUS
 62
1
  2
*D14
  3
DMST_1
 10
-47.98268907972396
 20
-106.5000000000001
 30
0
 11
-53.17571529131467
 21
-102.7610326258244
 31
0
 12
0
 22
0
 32
0
 70
128
 13
-4.950000000000045
 23
-94.00000000000007
 33
0
 14
-8.5
 24
-106.5000000000001
 34
0
 50
90
 53
0
  0
DIMENSION
  8
1
  6
CONTINUOUS
 62
1
  2
*D15
  3
DMST_1
 10
-48.00817741267196
 20
-78.0000000000001
 30
0
 11
-52.50817741267196
 21
-86.0000000000001
 31
0
 12
0
 22
0
 32
0
 70
128
 13
-4.950000000000045
 23
-94.00000000000007
 33
0
 14
-33.00000000000011
 24
-78.0000000000001
 34
0
 50
90
 53
0
  0
DIMENSION
  8
1
  6
CONTINUOUS
 62
1
  2
*D16
  3
DMST_1
 10
-48.00817741267196
 20
2.842170943040401e-14
 30
0
 11
-52.50817741267196
 21
-39
 31
0
 12
0
 22
0
 32
0
 70
128
 13
-33.00000000000011
 23
-78.0000000000001
 33
0
 14
-10.44999999999993
 24
0
 34
0
 50
90
 53
0
  0
DIMENSION
  8
1
  6
CONTINUOUS
 62
1
  2
*D17
  3
DMST_1
 10
-47.91378449416897
 20
93.00000000000006
 30
0
 11
-52.41378449416897
 21
46.5
 31
0
 12
0
 22
0
 32
0
 70
128
 13
-10.44999999999993
 23
0
 33
0
 14
-7.700000000000045
 24
93.00000000000009
 34
0
 50
90
 53
0
  0
DIMENSION
  8
1
  6
CONTINUOUS
 62
1
  2
*D18
  3
DMST_1
 10
-47.91378449416897
 20
93.00000000000006
 30
0
 11
-52.41378449416897
 21
120
 31
0
 12
0
 22
0
 32
0
 70
128
 13
-33.00000000000001
 23
147
 33
0
 14
-7.700000000000045
 24
93.00000000000009
 34
0
 50
90
 53
0
  0
DIMENSION
  8
1
  6
CONTINUOUS
 62
1
  2
*D19
  3
DMST_1
 10
-62.84464520772895
 20
-158.0000000000001
 30
0
 11
-67.34464520772895
 21
-166.0000000000001
 31
0
 12
0
 22
0
 32
0
 70
128
 13
-31.00000000000011
 23
-174.0000000000001
 33
0
 14
-25.00000000000011
 24
-158.0000000000001
 34
0
 50
90
 53
0
  0
DIMENSION
  8
1
  6
CONTINUOUS
 62
1
  2
*D20
  3
DMST_2
 10
-47.86374884619647
 20
-160.0000000000001
 30
0
 11
-54.01872778264818
 21
-162.3461977031075
 31
0
 12
0
 22
0
 32
0
 70
128
 13
-12.49999999999997
 23
-165.0000000000001
 33
0
 14
-12.49999999999997
 24
-160.0000000000001
 34
0
 50
90
 53
0
  0
DIMENSION
  8
1
  6
CONTINUOUS
 62
1
  2
*D21
  3
DMST_3
 10
27.10809188295096
 20
141.7939127783515
 30
0
 11
14.21641305826202
 21
132.179423786378
 31
0
 12
0
 22
0
 32
0
 70
131
 15
22.89190811704881
 25
136.2060872216485
 35
0
 40
7.50000000000002
 53
0
  0
DIMENSION
  8
1
  6
CONTINUOUS
 62
1
  2
*D22
  3
DMST_3
 10
-4.08886251963539
 20
-92.12085037968748
 30
0
 11
19.30566899876503
 21
-97.91997541906579
 31
0
 12
0
 22
0
 32
0
 70
131
 15
4.088862519635395
 25
-95.87914962031265
 35
0
 40
7.500000000000004
 53
0
  0
INSERT
  8
1
  2
_D2
 10
0
 20
0
 30
0
  0
INSERT
  8
1
  2
_D0
 10
0
 20
0
 30
0
  0
ENDSEC
  0
EOF
