  0
SECTION
  2
HEADER
  9
$ACADVER
  1
AC1015
  9
$ACADMAINTVER
 70
     6
  9
$DWGCODEPAGE
  3
ANSI_1252
  9
$INSBASE
 10
0.0
 20
0.0
 30
0.0
  9
$EXTMIN
 10
0.0
 20
0.0
 30
0.0
  9
$EXTMAX
 10
841.0
 20
594.0
 30
0.0
  9
$LIMMIN
 10
0.0
 20
0.0
  9
$LIMMAX
 10
841.0
 20
594.0
  9
$ORTHOMODE
 70
     0
  9
$REGENMODE
 70
     1
  9
$FILLMODE
 70
     1
  9
$QTEXTMODE
 70
     0
  9
$MIRRTEXT
 70
     1
  9
$LTSCALE
 40
1.0
  9
$ATTMODE
 70
     1
  9
$TEXTSIZE
 40
5.0
  9
$TRACEWID
 40
1.0
  9
$TEXTSTYLE
  7
Standard
  9
$CLAYER
  8
0
  9
$CELTYPE
  6
ByLayer
  9
$CECOLOR
 62
   256
  9
$CELTSCALE
 40
1.0
  9
$DISPSILH
 70
     0
  9
$DIMSCALE
 40
1.0
  9
$DIMASZ
 40
3.0
  9
$DIMEXO
 40
0.2
  9
$DIMDLI
 40
3.75
  9
$DIMRND
 40
0.0
  9
$DIMDLE
 40
0.0
  9
$DIMEXE
 40
0.5
  9
$DIMTP
 40
0.0
  9
$DIMTM
 40
0.0
  9
$DIMTXT
 40
5.0
  9
$DIMCEN
 40
2.5
  9
$DIMTSZ
 40
0.0
  9
$DIMTOL
 70
     0
  9
$DIMLIM
 70
     0
  9
$DIMTIH
 70
     1
  9
$DIMTOH
 70
     1
  9
$DIMSE1
 70
     0
  9
$DIMSE2
 70
     0
  9
$DIMTAD
 70
     1
  9
$DIMZIN
 70
     0
  9
$DIMBLK
  1

  9
$DIMASO
 70
     1
  9
$DIMSHO
 70
     1
  9
$DIMPOST
  1

  9
$DIMAPOST
  1

  9
$DIMALT
 70
     0
  9
$DIMALTD
 70
     3
  9
$DIMALTF
 40
0.0393700787
  9
$DIMLFAC
 40
2.0
  9
$DIMTOFL
 70
     1
  9
$DIMTVP
 40
0.0
  9
$DIMTIX
 70
     0
  9
$DIMSOXD
 70
     0
  9
$DIMSAH
 70
     0
  9
$DIMBLK1
  1

  9
$DIMBLK2
  1

  9
$DIMSTYLE
  2
ISO-25
  9
$DIMCLRD
 70
     0
  9
$DIMCLRE
 70
     0
  9
$DIMCLRT
 70
     0
  9
$DIMTFAC
 40
1.0
  9
$DIMGAP
 40
1.524
  9
$DIMJUST
 70
     0
  9
$DIMSD1
 70
     0
  9
$DIMSD2
 70
     0
  9
$DIMTOLJ
 70
     0
  9
$DIMTZIN
 70
     0
  9
$DIMALTZ
 70
     0
  9
$DIMALTTZ
 70
     0
  9
$DIMUPT
 70
     0
  9
$DIMDEC
 70
     2
  9
$DIMTDEC
 70
     2
  9
$DIMALTU
 70
     2
  9
$DIMALTTD
 70
     3
  9
$DIMTXSTY
  7
Standard
  9
$DIMAUNIT
 70
     0
  9
$DIMADEC
 70
     1
  9
$DIMALTRND
 40
0.0
  9
$DIMAZIN
 70
     0
  9
$DIMDSEP
 70
    44
  9
$DIMATFIT
 70
     3
  9
$DIMFRAC
 70
     0
  9
$DIMLDRBLK
  1

  9
$DIMLUNIT
 70
     2
  9
$DIMLWD
 70
    -2
  9
$DIMLWE
 70
    -2
  9
$DIMTMOVE
 70
     0
  9
$LUNITS
 70
     2
  9
$LUPREC
 70
     2
  9
$SKETCHINC
 40
1.0
  9
$FILLETRAD
 40
10.0
  9
$AUNITS
 70
     0
  9
$AUPREC
 70
     1
  9
$MENU
  1
.
  9
$ELEVATION
 40
0.0
  9
$PELEVATION
 40
0.0
  9
$THICKNESS
 40
0.0
  9
$LIMCHECK
 70
     0
  9
$CHAMFERA
 40
0.0
  9
$CHAMFERB
 40
0.0
  9
$CHAMFERC
 40
0.0
  9
$CHAMFERD
 40
0.0
  9
$SKPOLY
 70
     0
  9
$TDCREATE
 40
2459158.565027465
  9
$TDUCREATE
 40
2459158.523360799
  9
$TDUPDATE
 40
2459158.56503103
  9
$TDUUPDATE
 40
2459158.523364363
  9
$TDINDWG
 40
0.0000000116
  9
$TDUSRTIMER
 40
0.0000000116
  9
$USRTIMER
 70
     1
  9
$ANGBASE
 50
0.0
  9
$ANGDIR
 70
     0
  9
$PDMODE
 70
     0
  9
$PDSIZE
 40
-1.0
  9
$PLINEWID
 40
0.0
  9
$SPLFRAME
 70
     0
  9
$SPLINETYPE
 70
     6
  9
$SPLINESEGS
 70
     8
  9
$HANDSEED
  5
5F7
  9
$SURFTAB1
 70
     6
  9
$SURFTAB2
 70
     6
  9
$SURFTYPE
 70
     6
  9
$SURFU
 70
     6
  9
$SURFV
 70
     6
  9
$UCSBASE
  2

  9
$UCSNAME
  2

  9
$UCSORG
 10
0.0
 20
0.0
 30
0.0
  9
$UCSXDIR
 10
1.0
 20
0.0
 30
0.0
  9
$UCSYDIR
 10
0.0
 20
1.0
 30
0.0
  9
$UCSORTHOREF
  2

  9
$UCSORTHOVIEW
 70
     0
  9
$UCSORGTOP
 10
0.0
 20
0.0
 30
0.0
  9
$UCSORGBOTTOM
 10
0.0
 20
0.0
 30
0.0
  9
$UCSORGLEFT
 10
0.0
 20
0.0
 30
0.0
  9
$UCSORGRIGHT
 10
0.0
 20
0.0
 30
0.0
  9
$UCSORGFRONT
 10
0.0
 20
0.0
 30
0.0
  9
$UCSORGBACK
 10
0.0
 20
0.0
 30
0.0
  9
$PUCSBASE
  2

  9
$PUCSNAME
  2

  9
$PUCSORG
 10
0.0
 20
0.0
 30
0.0
  9
$PUCSXDIR
 10
1.0
 20
0.0
 30
0.0
  9
$PUCSYDIR
 10
0.0
 20
1.0
 30
0.0
  9
$PUCSORTHOREF
  2

  9
$PUCSORTHOVIEW
 70
     0
  9
$PUCSORGTOP
 10
0.0
 20
0.0
 30
0.0
  9
$PUCSORGBOTTOM
 10
0.0
 20
0.0
 30
0.0
  9
$PUCSORGLEFT
 10
0.0
 20
0.0
 30
0.0
  9
$PUCSORGRIGHT
 10
0.0
 20
0.0
 30
0.0
  9
$PUCSORGFRONT
 10
0.0
 20
0.0
 30
0.0
  9
$PUCSORGBACK
 10
0.0
 20
0.0
 30
0.0
  9
$USERI1
 70
     0
  9
$USERI2
 70
     0
  9
$USERI3
 70
     0
  9
$USERI4
 70
     0
  9
$USERI5
 70
     0
  9
$USERR1
 40
0.0
  9
$USERR2
 40
0.0
  9
$USERR3
 40
0.0
  9
$USERR4
 40
0.0
  9
$USERR5
 40
0.0
  9
$WORLDVIEW
 70
     1
  9
$SHADEDGE
 70
     3
  9
$SHADEDIF
 70
    70
  9
$TILEMODE
 70
     1
  9
$MAXACTVP
 70
    64
  9
$PINSBASE
 10
0.0
 20
0.0
 30
0.0
  9
$PLIMCHECK
 70
     0
  9
$PEXTMIN
 10
1.0000000000E+20
 20
1.0000000000E+20
 30
1.0000000000E+20
  9
$PEXTMAX
 10
-1.0000000000E+20
 20
-1.0000000000E+20
 30
-1.0000000000E+20
  9
$PLIMMIN
 10
0.0
 20
0.0
  9
$PLIMMAX
 10
420.0
 20
297.0
  9
$UNITMODE
 70
     0
  9
$VISRETAIN
 70
     1
  9
$PLINEGEN
 70
     0
  9
$PSLTSCALE
 70
     1
  9
$TREEDEPTH
 70
  3020
  9
$CMLSTYLE
  2
Standard
  9
$CMLJUST
 70
     0
  9
$CMLSCALE
 40
20.0
  9
$PROXYGRAPHICS
 70
     1
  9
$MEASUREMENT
 70
     1
  9
$CELWEIGHT
370
    -1
  9
$ENDCAPS
280
     0
  9
$JOINSTYLE
280
     0
  9
$LWDISPLAY
290
     1
  9
$INSUNITS
 70
     4
  9
$HYPERLINKBASE
  1

  9
$STYLESHEET
  1

  9
$XEDIT
290
     1
  9
$CEPSNTYPE
380
     0
  9
$PSTYLEMODE
290
     1
  9
$FINGERPRINTGUID
  2
{7cdeb75a-240d-427d-adb3-34d7a94b1f7f}
  9
$VERSIONGUID
  2
{FAEB1C32-E019-11D5-929B-00C0DF256EC4}
  9
$EXTNAMES
290
     1
  9
$PSVPSCALE
 40
0.0
  9
$OLESTARTUP
290
     0
  0
ENDSEC
  0
SECTION
  2
CLASSES
  0
CLASS
  1
ACDBDICTIONARYWDFLT
  2
AcDbDictionaryWithDefault
  3
ObjectDBX Classes
 90
        0
280
     0
281
     0
  0
CLASS
  1
VISUALSTYLE
  2
AcDbVisualStyle
  3
ObjectDBX Classes
 90
     4095
280
     0
281
     0
  0
CLASS
  1
MATERIAL
  2
AcDbMaterial
  3
ObjectDBX Classes
 90
     1153
280
     0
281
     0
  0
CLASS
  1
SCALE
  2
AcDbScale
  3
ObjectDBX Classes
 90
     1153
280
     0
281
     0
  0
CLASS
  1
TABLESTYLE
  2
AcDbTableStyle
  3
ObjectDBX Classes
 90
     4095
280
     0
281
     0
  0
CLASS
  1
MLEADERSTYLE
  2
AcDbMLeaderStyle
  3
ACDB_MLEADERSTYLE_CLASS
 90
     4095
280
     0
281
     0
  0
CLASS
  1
SUN
  2
AcDbSun
  3
SCENEOE
 90
     1153
280
     0
281
     0
  0
CLASS
  1
ACDBPLACEHOLDER
  2
AcDbPlaceHolder
  3
ObjectDBX Classes
 90
        0
280
     0
281
     0
  0
CLASS
  1
LAYOUT
  2
AcDbLayout
  3
ObjectDBX Classes
 90
        0
280
     0
281
     0
  0
ENDSEC
  0
SECTION
  2
TABLES
  0
TABLE
  2
VPORT
  5
8
330
0
100
AcDbSymbolTable
 70
     1
  0
VPORT
  5
29
330
8
100
AcDbSymbolTableRecord
100
AcDbViewportTableRecord
  2
*Active
 70
     0
 10
0.0
 20
0.0
 11
1.0
 21
1.0
 12
420.5
 22
297.0
 13
0.0
 23
0.0
 14
10.0
 24
10.0
 15
10.0
 25
10.0
 16
0.0
 26
0.0
 36
1.0
 17
0.0
 27
0.0
 37
0.0
 40
594.0
 41
1.4158249158
 42
50.0
 43
0.0
 44
0.0
 50
0.0
 51
0.0
 71
     0
 72
  2000
 73
     1
 74
     3
 75
     0
 76
     0
 77
     0
 78
     0
281
     0
 65
     1
110
0.0
120
0.0
130
0.0
111
1.0
121
0.0
131
0.0
112
0.0
122
1.0
132
0.0
 79
     0
146
0.0
  0
ENDTAB
  0
TABLE
  2
LTYPE
  5
5
330
0
100
AcDbSymbolTable
 70
     6
  0
LTYPE
  5
14
330
5
100
AcDbSymbolTableRecord
100
AcDbLinetypeTableRecord
  2
ByBlock
 70
     0
  3

 72
    65
 73
     0
 40
0.0
  0
LTYPE
  5
15
330
5
100
AcDbSymbolTableRecord
100
AcDbLinetypeTableRecord
  2
ByLayer
 70
     0
  3

 72
    65
 73
     0
 40
0.0
  0
LTYPE
  5
16
330
5
100
AcDbSymbolTableRecord
100
AcDbLinetypeTableRecord
  2
Continuous
 70
     0
  3
Solid line
 72
    65
 73
     0
 40
0.0
  0
LTYPE
  5
6E
330
5
100
AcDbSymbolTableRecord
100
AcDbLinetypeTableRecord
  2
HIDDEN
 70
     0
  3
Hidden __ __ __ __ __ __ __ __ __ __ __ __ __ __
 72
    65
 73
     2
 40
1.905
 49
1.27
 74
     0
 49
-0.635
 74
     0
  0
LTYPE
  5
6F
330
5
100
AcDbSymbolTableRecord
100
AcDbLinetypeTableRecord
  2
PHANTOM
 70
     0
  3
Phantom ______  __  __  ______  __  __  ______
 72
    65
 73
     6
 40
12.7
 49
6.35
 74
     0
 49
-1.27
 74
     0
 49
1.27
 74
     0
 49
-1.27
 74
     0
 49
1.27
 74
     0
 49
-1.27
 74
     0
  0
LTYPE
  5
70
330
5
100
AcDbSymbolTableRecord
100
AcDbLinetypeTableRecord
  2
CENTER
 70
     0
  3
Center ____ _ ____ _ ____ _ ____ _ ____ _ ____
 72
    65
 73
     4
 40
10.16
 49
6.35
 74
     0
 49
-1.27
 74
     0
 49
1.27
 74
     0
 49
-1.27
 74
     0
  0
LTYPE
  5
71
330
5
100
AcDbSymbolTableRecord
100
AcDbLinetypeTableRecord
  2
CENTERX2
 70
     0
  3
Center (2x) ________  __  ________  __  _____
 72
    65
 73
     4
 40
20.32
 49
12.7
 74
     0
 49
-2.54
 74
     0
 49
2.54
 74
     0
 49
-2.54
 74
     0
  0
LTYPE
  5
72
330
5
100
AcDbSymbolTableRecord
100
AcDbLinetypeTableRecord
  2
DOT2
 70
     0
  3
Dot (.5x) ........................................
 72
    65
 73
     2
 40
0.635
 49
0.0
 74
     0
 49
-0.635
 74
     0
  0
ENDTAB
  0
TABLE
  2
LAYER
  5
2
330
0
100
AcDbSymbolTable
 70
     4
  0
LAYER
  5
10
330
2
100
AcDbSymbolTableRecord
100
AcDbLayerTableRecord
  2
0
 70
     0
 62
     7
  6
Continuous
370
    -3
390
F
  0
LAYER
  5
73
330
2
100
AcDbSymbolTableRecord
100
AcDbLayerTableRecord
  2
VORLAGE_TEXT
 70
     0
 62
     7
  6
Continuous
370
    -3
390
F
  0
LAYER
  5
74
330
2
100
AcDbSymbolTableRecord
100
AcDbLayerTableRecord
  2
LINIEN-NORMAL
 70
     0
 62
     7
  6
Continuous
370
    25
390
F
  0
LAYER
  5
75
330
2
100
AcDbSymbolTableRecord
100
AcDbLayerTableRecord
  2
LINIEN-DÜNN
 70
     0
 62
     7
  6
Continuous
370
    -3
390
F
  0
ENDTAB
  0
TABLE
  2
STYLE
  5
3
330
0
100
AcDbSymbolTable
 70
     7
  0
STYLE
  5
11
330
3
100
AcDbSymbolTableRecord
100
AcDbTextStyleTableRecord
  2
Standard
 70
     0
 40
0.0
 41
1.0
 50
0.0
 71
     0
 42
5.0
  3
txt
  4

  0
STYLE
  5
8A
330
3
100
AcDbSymbolTableRecord
100
AcDbTextStyleTableRecord
  2
SLDTEXTSTYLE0
 70
     0
 40
0.0
 41
0.5460273973
 50
0.0
 71
     0
 42
5.0
  3
TXT
  4

  0
STYLE
  5
90
330
3
100
AcDbSymbolTableRecord
100
AcDbTextStyleTableRecord
  2
SLDTEXTSTYLE1
 70
     0
 40
0.0
 41
0.605
 50
0.0
 71
     0
 42
5.0
  3
TXT
  4

  0
STYLE
  5
9B
330
3
100
AcDbSymbolTableRecord
100
AcDbTextStyleTableRecord
  2
SLDTEXTSTYLE2
 70
     0
 40
0.0
 41
0.57
 50
0.0
 71
     0
 42
5.0
  3
TXT
  4

  0
STYLE
  5
CC
330
3
100
AcDbSymbolTableRecord
100
AcDbTextStyleTableRecord
  2
SLDTEXTSTYLE3
 70
     0
 40
0.0
 41
0.563
 50
0.0
 71
     0
 42
5.0
  3
TXT
  4

  0
STYLE
  5
D3
330
3
100
AcDbSymbolTableRecord
100
AcDbTextStyleTableRecord
  2
SLDTEXTSTYLE4
 70
     0
 40
0.0
 41
0.5525
 50
0.0
 71
     0
 42
5.0
  3
TXT
  4

  0
STYLE
  5
E6
330
3
100
AcDbSymbolTableRecord
100
AcDbTextStyleTableRecord
  2
SLDTEXTSTYLE5
 70
     0
 40
0.0
 41
0.575
 50
0.0
 71
     0
 42
5.0
  3
TXT
  4

  0
ENDTAB
  0
TABLE
  2
VIEW
  5
6
330
0
100
AcDbSymbolTable
 70
     0
  0
ENDTAB
  0
TABLE
  2
UCS
  5
7
330
0
100
AcDbSymbolTable
 70
     0
  0
ENDTAB
  0
TABLE
  2
APPID
  5
9
330
0
100
AcDbSymbolTable
 70
     1
  0
APPID
  5
12
330
9
100
AcDbSymbolTableRecord
100
AcDbRegAppTableRecord
  2
ACAD
 70
     0
  0
ENDTAB
  0
TABLE
  2
DIMSTYLE
  5
A
330
0
100
AcDbSymbolTable
 70
     6
100
AcDbDimStyleTable
  0
DIMSTYLE
105
27
330
A
100
AcDbSymbolTableRecord
100
AcDbDimStyleTableRecord
  2
ISO-25
 70
     0
 41
2.5
 42
0.625
 43
3.75
 44
1.25
 73
     0
 74
     0
 77
     1
 78
     8
140
2.5
141
2.5
143
0.0393700787
147
0.625
171
     3
172
     1
178
     0
271
     2
272
     2
274
     3
278
    44
283
     0
284
     8
340
11
  0
DIMSTYLE
105
263
102
{ACAD_REACTORS
330
262
330
28F
330
299
330
2A3
330
2B9
330
2C3
330
2D7
330
2E1
330
2EC
330
305
330
31A
330
338
330
34D
330
357
330
4A7
330
4B1
330
55A
330
5EC
102
}
330
A
100
AcDbSymbolTableRecord
100
AcDbDimStyleTableRecord
  2
SLDDIMSTYLE0
 70
     0
 41
3.0
 44
0.0
 45
0.000000001
 73
     0
 74
     0
 77
     1
 78
    12
 79
     3
140
5.0
147
1.25
173
     1
178
     0
271
     2
272
     2
276
     2
284
    12
340
90
  0
DIMSTYLE
105
26E
102
{ACAD_REACTORS
330
26D
330
285
330
2CD
330
360
330
4C7
330
4DD
330
5D6
330
5E1
102
}
330
A
100
AcDbSymbolTableRecord
100
AcDbDimStyleTableRecord
  2
SLDDIMSTYLE1
 70
     0
 41
3.0
 44
0.0
 45
0.000000001
 73
     0
 74
     0
 77
     1
 78
    12
 79
     3
140
5.0
147
1.25
173
     1
178
     0
271
     1
272
     2
276
     2
284
    12
340
90
  0
DIMSTYLE
105
279
102
{ACAD_REACTORS
330
278
330
2AD
330
324
330
48F
330
49B
102
}
330
A
100
AcDbSymbolTableRecord
100
AcDbDimStyleTableRecord
  2
SLDDIMSTYLE2
 70
     0
 41
3.0
 44
0.0
 45
0.000000001
 73
     0
 74
     0
 77
     1
 78
    12
 79
     3
140
5.0
147
1.25
172
     1
173
     1
178
     0
271
     2
272
     2
276
     2
284
    12
289
     0
340
90
  0
DIMSTYLE
105
2FA
102
{ACAD_REACTORS
330
2F9
330
30F
330
342
102
}
330
A
100
AcDbSymbolTableRecord
100
AcDbDimStyleTableRecord
  2
SLDDIMSTYLE3
 70
     0
 41
3.0
 44
0.0
 45
0.000000001
 73
     0
 74
     0
 77
     1
 78
    12
 79
     3
140
5.0
141
0.0
147
1.25
172
     1
173
     1
178
     0
271
     1
272
     2
276
     2
284
    12
340
90
  0
DIMSTYLE
105
4BC
102
{ACAD_REACTORS
330
4BB
330
4D2
330
54E
102
}
330
A
100
AcDbSymbolTableRecord
100
AcDbDimStyleTableRecord
  2
SLDDIMSTYLE4
 70
     0
 41
3.0
 44
0.0
 45
0.000000001
 73
     0
 74
     0
 77
     1
 78
    12
 79
     3
140
5.0
147
1.25
172
     1
173
     1
178
     0
271
     1
272
     2
276
     2
284
    12
289
     0
340
90
  0
ENDTAB
  0
TABLE
  2
BLOCK_RECORD
  5
1
330
0
100
AcDbSymbolTable
 70
    70
  0
BLOCK_RECORD
  5
1F
330
1
100
AcDbSymbolTableRecord
100
AcDbBlockTableRecord
  2
*Model_Space
340
22
  0
BLOCK_RECORD
  5
1B
330
1
100
AcDbSymbolTableRecord
100
AcDbBlockTableRecord
  2
*Paper_Space
340
1E
  0
BLOCK_RECORD
  5
23
330
1
100
AcDbSymbolTableRecord
100
AcDbBlockTableRecord
  2
*Paper_Space0
340
26
  0
BLOCK_RECORD
  5
76
330
1
100
AcDbSymbolTableRecord
100
AcDbBlockTableRecord
  2
Allg-Toleranz-mittel
340
0
  0
BLOCK_RECORD
  5
87
330
1
100
AcDbSymbolTableRecord
100
AcDbBlockTableRecord
  2
SW_NOTE_0
340
0
102
{BLKREFS
331
8C
102
}
  0
BLOCK_RECORD
  5
8D
330
1
100
AcDbSymbolTableRecord
100
AcDbBlockTableRecord
  2
SW_NOTE_0_1
340
0
102
{BLKREFS
331
92
102
}
  0
BLOCK_RECORD
  5
93
330
1
100
AcDbSymbolTableRecord
100
AcDbBlockTableRecord
  2
SW_NOTE_0_2
340
0
102
{BLKREFS
331
97
102
}
  0
BLOCK_RECORD
  5
98
330
1
100
AcDbSymbolTableRecord
100
AcDbBlockTableRecord
  2
SW_NOTE_0_3
340
0
102
{BLKREFS
331
9E
102
}
  0
BLOCK_RECORD
  5
9F
330
1
100
AcDbSymbolTableRecord
100
AcDbBlockTableRecord
  2
SW_NOTE_0_4
340
0
102
{BLKREFS
331
A3
102
}
  0
BLOCK_RECORD
  5
A4
330
1
100
AcDbSymbolTableRecord
100
AcDbBlockTableRecord
  2
SW_NOTE_0_5
340
0
102
{BLKREFS
331
A8
102
}
  0
BLOCK_RECORD
  5
A9
330
1
100
AcDbSymbolTableRecord
100
AcDbBlockTableRecord
  2
SW_NOTE_0_6
340
0
102
{BLKREFS
331
AD
102
}
  0
BLOCK_RECORD
  5
AE
330
1
100
AcDbSymbolTableRecord
100
AcDbBlockTableRecord
  2
SW_NOTE_0_7
340
0
102
{BLKREFS
331
B2
102
}
  0
BLOCK_RECORD
  5
B3
330
1
100
AcDbSymbolTableRecord
100
AcDbBlockTableRecord
  2
SW_NOTE_0_8
340
0
102
{BLKREFS
331
B7
102
}
  0
BLOCK_RECORD
  5
B8
330
1
100
AcDbSymbolTableRecord
100
AcDbBlockTableRecord
  2
SW_NOTE_0_9
340
0
102
{BLKREFS
331
BC
102
}
  0
BLOCK_RECORD
  5
BD
330
1
100
AcDbSymbolTableRecord
100
AcDbBlockTableRecord
  2
SW_NOTE_0_10
340
0
102
{BLKREFS
331
C2
102
}
  0
BLOCK_RECORD
  5
C3
330
1
100
AcDbSymbolTableRecord
100
AcDbBlockTableRecord
  2
SW_NOTE_0_11
340
0
102
{BLKREFS
331
C8
102
}
  0
BLOCK_RECORD
  5
C9
330
1
100
AcDbSymbolTableRecord
100
AcDbBlockTableRecord
  2
SW_NOTE_0_12
340
0
102
{BLKREFS
331
CF
102
}
  0
BLOCK_RECORD
  5
D0
330
1
100
AcDbSymbolTableRecord
100
AcDbBlockTableRecord
  2
SW_NOTE_0_13
340
0
102
{BLKREFS
331
D6
102
}
  0
BLOCK_RECORD
  5
D7
330
1
100
AcDbSymbolTableRecord
100
AcDbBlockTableRecord
  2
SW_NOTE_0_14
340
0
102
{BLKREFS
331
DC
102
}
  0
BLOCK_RECORD
  5
DD
330
1
100
AcDbSymbolTableRecord
100
AcDbBlockTableRecord
  2
SW_NOTE_0_15
340
0
102
{BLKREFS
331
E2
102
}
  0
BLOCK_RECORD
  5
E3
330
1
100
AcDbSymbolTableRecord
100
AcDbBlockTableRecord
  2
SW_NOTE_0_16
340
0
102
{BLKREFS
331
E9
102
}
  0
BLOCK_RECORD
  5
EA
330
1
100
AcDbSymbolTableRecord
100
AcDbBlockTableRecord
  2
SW_NOTE_0_17
340
0
102
{BLKREFS
331
EE
102
}
  0
BLOCK_RECORD
  5
264
330
1
100
AcDbSymbolTableRecord
100
AcDbBlockTableRecord
  2
_D
340
0
  0
BLOCK_RECORD
  5
26F
330
1
100
AcDbSymbolTableRecord
100
AcDbBlockTableRecord
  2
_D_1
340
0
  0
BLOCK_RECORD
  5
27A
330
1
100
AcDbSymbolTableRecord
100
AcDbBlockTableRecord
  2
_D_2
340
0
  0
BLOCK_RECORD
  5
286
330
1
100
AcDbSymbolTableRecord
100
AcDbBlockTableRecord
  2
_D_3
340
0
  0
BLOCK_RECORD
  5
290
330
1
100
AcDbSymbolTableRecord
100
AcDbBlockTableRecord
  2
_D_4
340
0
  0
BLOCK_RECORD
  5
29A
330
1
100
AcDbSymbolTableRecord
100
AcDbBlockTableRecord
  2
_D_5
340
0
  0
BLOCK_RECORD
  5
2A4
330
1
100
AcDbSymbolTableRecord
100
AcDbBlockTableRecord
  2
_D_6
340
0
  0
BLOCK_RECORD
  5
2AE
330
1
100
AcDbSymbolTableRecord
100
AcDbBlockTableRecord
  2
_D_7
340
0
  0
BLOCK_RECORD
  5
2BA
330
1
100
AcDbSymbolTableRecord
100
AcDbBlockTableRecord
  2
_D_8
340
0
  0
BLOCK_RECORD
  5
2C4
330
1
100
AcDbSymbolTableRecord
100
AcDbBlockTableRecord
  2
_D_9
340
0
  0
BLOCK_RECORD
  5
2CE
330
1
100
AcDbSymbolTableRecord
100
AcDbBlockTableRecord
  2
_D_10
340
0
  0
BLOCK_RECORD
  5
2D8
330
1
100
AcDbSymbolTableRecord
100
AcDbBlockTableRecord
  2
_D_11
340
0
  0
BLOCK_RECORD
  5
2E2
330
1
100
AcDbSymbolTableRecord
100
AcDbBlockTableRecord
  2
_D_12
340
0
  0
BLOCK_RECORD
  5
2ED
330
1
100
AcDbSymbolTableRecord
100
AcDbBlockTableRecord
  2
_D_13
340
0
  0
BLOCK_RECORD
  5
2FB
330
1
100
AcDbSymbolTableRecord
100
AcDbBlockTableRecord
  2
_D_14
340
0
  0
BLOCK_RECORD
  5
306
330
1
100
AcDbSymbolTableRecord
100
AcDbBlockTableRecord
  2
_D_15
340
0
  0
BLOCK_RECORD
  5
310
330
1
100
AcDbSymbolTableRecord
100
AcDbBlockTableRecord
  2
_D_16
340
0
  0
BLOCK_RECORD
  5
31B
330
1
100
AcDbSymbolTableRecord
100
AcDbBlockTableRecord
  2
_D_17
340
0
  0
BLOCK_RECORD
  5
325
330
1
100
AcDbSymbolTableRecord
100
AcDbBlockTableRecord
  2
_D_18
340
0
  0
BLOCK_RECORD
  5
32F
330
1
100
AcDbSymbolTableRecord
100
AcDbBlockTableRecord
  2
SW_SYMBOL_MOD_BOX
340
0
102
{BLKREFS
331
336
102
}
  0
BLOCK_RECORD
  5
339
330
1
100
AcDbSymbolTableRecord
100
AcDbBlockTableRecord
  2
_D_19
340
0
  0
BLOCK_RECORD
  5
343
330
1
100
AcDbSymbolTableRecord
100
AcDbBlockTableRecord
  2
_D_20
340
0
  0
BLOCK_RECORD
  5
34E
330
1
100
AcDbSymbolTableRecord
100
AcDbBlockTableRecord
  2
_D_21
340
0
  0
BLOCK_RECORD
  5
358
330
1
100
AcDbSymbolTableRecord
100
AcDbBlockTableRecord
  2
_D_22
340
0
  0
BLOCK_RECORD
  5
361
330
1
100
AcDbSymbolTableRecord
100
AcDbBlockTableRecord
  2
_D_23
340
0
  0
BLOCK_RECORD
  5
36A
330
1
100
AcDbSymbolTableRecord
100
AcDbBlockTableRecord
  2
SW_CENTERMARKSYMBOL_0
340
0
102
{BLKREFS
331
375
102
}
  0
BLOCK_RECORD
  5
376
330
1
100
AcDbSymbolTableRecord
100
AcDbBlockTableRecord
  2
SW_CENTERMARKSYMBOL_1
340
0
102
{BLKREFS
331
381
102
}
  0
BLOCK_RECORD
  5
382
330
1
100
AcDbSymbolTableRecord
100
AcDbBlockTableRecord
  2
SW_CENTERMARKSYMBOL_2
340
0
102
{BLKREFS
331
38D
102
}
  0
BLOCK_RECORD
  5
38E
330
1
100
AcDbSymbolTableRecord
100
AcDbBlockTableRecord
  2
SW_CENTERMARKSYMBOL_3
340
0
102
{BLKREFS
331
399
102
}
  0
BLOCK_RECORD
  5
39A
330
1
100
AcDbSymbolTableRecord
100
AcDbBlockTableRecord
  2
SW_CENTERMARKSYMBOL_4
340
0
102
{BLKREFS
331
3A5
102
}
  0
BLOCK_RECORD
  5
3A6
330
1
100
AcDbSymbolTableRecord
100
AcDbBlockTableRecord
  2
SW_CENTERMARKSYMBOL_5
340
0
102
{BLKREFS
331
3B1
102
}
  0
BLOCK_RECORD
  5
3B2
330
1
100
AcDbSymbolTableRecord
100
AcDbBlockTableRecord
  2
SW_CENTERMARKSYMBOL_6
340
0
102
{BLKREFS
331
3BD
102
}
  0
BLOCK_RECORD
  5
3BE
330
1
100
AcDbSymbolTableRecord
100
AcDbBlockTableRecord
  2
SW_CENTERMARKSYMBOL_7
340
0
102
{BLKREFS
331
3C9
102
}
  0
BLOCK_RECORD
  5
3CA
330
1
100
AcDbSymbolTableRecord
100
AcDbBlockTableRecord
  2
SW_CENTERMARKSYMBOL_8
340
0
102
{BLKREFS
331
3D5
102
}
  0
BLOCK_RECORD
  5
3D6
330
1
100
AcDbSymbolTableRecord
100
AcDbBlockTableRecord
  2
SW_CENTERMARKSYMBOL_9
340
0
102
{BLKREFS
331
3E1
102
}
  0
BLOCK_RECORD
  5
3E2
330
1
100
AcDbSymbolTableRecord
100
AcDbBlockTableRecord
  2
SW_CENTERMARKSYMBOL_10
340
0
102
{BLKREFS
331
3ED
102
}
  0
BLOCK_RECORD
  5
3EE
330
1
100
AcDbSymbolTableRecord
100
AcDbBlockTableRecord
  2
SW_CENTERMARKSYMBOL_11
340
0
102
{BLKREFS
331
3F9
102
}
  0
BLOCK_RECORD
  5
490
330
1
100
AcDbSymbolTableRecord
100
AcDbBlockTableRecord
  2
_D_24
340
0
  0
BLOCK_RECORD
  5
49C
330
1
100
AcDbSymbolTableRecord
100
AcDbBlockTableRecord
  2
_D_25
340
0
  0
BLOCK_RECORD
  5
4A8
330
1
100
AcDbSymbolTableRecord
100
AcDbBlockTableRecord
  2
_D_26
340
0
  0
BLOCK_RECORD
  5
4B2
330
1
100
AcDbSymbolTableRecord
100
AcDbBlockTableRecord
  2
_D_27
340
0
  0
BLOCK_RECORD
  5
4BD
330
1
100
AcDbSymbolTableRecord
100
AcDbBlockTableRecord
  2
_D_28
340
0
  0
BLOCK_RECORD
  5
4C8
330
1
100
AcDbSymbolTableRecord
100
AcDbBlockTableRecord
  2
_D_29
340
0
  0
BLOCK_RECORD
  5
4D3
330
1
100
AcDbSymbolTableRecord
100
AcDbBlockTableRecord
  2
_D_30
340
0
  0
BLOCK_RECORD
  5
4DE
330
1
100
AcDbSymbolTableRecord
100
AcDbBlockTableRecord
  2
_D_31
340
0
  0
BLOCK_RECORD
  5
54F
330
1
100
AcDbSymbolTableRecord
100
AcDbBlockTableRecord
  2
_D_32
340
0
  0
BLOCK_RECORD
  5
55B
330
1
100
AcDbSymbolTableRecord
100
AcDbBlockTableRecord
  2
_D_33
340
0
  0
BLOCK_RECORD
  5
5D7
330
1
100
AcDbSymbolTableRecord
100
AcDbBlockTableRecord
  2
_D_34
340
0
  0
BLOCK_RECORD
  5
5E2
330
1
100
AcDbSymbolTableRecord
100
AcDbBlockTableRecord
  2
_D_35
340
0
  0
BLOCK_RECORD
  5
5ED
330
1
100
AcDbSymbolTableRecord
100
AcDbBlockTableRecord
  2
_D_36
340
0
  0
ENDTAB
  0
ENDSEC
  0
SECTION
  2
BLOCKS
  0
BLOCK
  5
20
330
1F
100
AcDbEntity
  8
0
100
AcDbBlockBegin
  2
*Model_Space
 70
     0
 10
0.0
 20
0.0
 30
0.0
  3
*Model_Space
  1

  0
ENDBLK
  5
21
330
1F
100
AcDbEntity
  8
0
100
AcDbBlockEnd
  0
BLOCK
  5
1C
330
1B
100
AcDbEntity
 67
     1
  8
0
100
AcDbBlockBegin
  2
*Paper_Space
 70
     0
 10
0.0
 20
0.0
 30
0.0
  3
*Paper_Space
  1

  0
ENDBLK
  5
1D
330
1B
100
AcDbEntity
 67
     1
  8
0
100
AcDbBlockEnd
  0
BLOCK
  5
24
330
23
100
AcDbEntity
  8
0
100
AcDbBlockBegin
  2
*Paper_Space0
 70
     0
 10
0.0
 20
0.0
 30
0.0
  3
*Paper_Space0
  1

  0
ENDBLK
  5
25
330
23
100
AcDbEntity
  8
0
100
AcDbBlockEnd
  0
BLOCK
  5
77
330
76
100
AcDbEntity
  8
0
100
AcDbBlockBegin
  2
Allg-Toleranz-mittel
 70
     0
 10
0.0
 20
0.0
 30
0.0
  3
Allg-Toleranz-mittel
  1

  0
LINE
  5
79
330
76
100
AcDbEntity
  8
LINIEN-NORMAL
 62
     7
100
AcDbLine
 10
0.0
 20
18.0
 30
0.0
 11
0.0
 21
0.0
 31
0.0
  0
LINE
  5
7A
330
76
100
AcDbEntity
  8
LINIEN-NORMAL
 62
     7
100
AcDbLine
 10
0.0
 20
18.0
 30
0.0
 11
70.0
 21
18.0
 31
0.0
  0
LINE
  5
7B
330
76
100
AcDbEntity
  8
LINIEN-DÜNN
 62
     7
100
AcDbLine
 10
0.0
 20
14.0
 30
0.0
 11
70.0
 21
14.0
 31
0.0
  0
LINE
  5
7C
330
76
100
AcDbEntity
  8
LINIEN-DÜNN
 62
     7
100
AcDbLine
 10
12.0
 20
14.0
 30
0.0
 11
12.0
 21
0.0
 31
0.0
  0
LINE
  5
7D
330
76
100
AcDbEntity
  8
LINIEN-DÜNN
 62
     7
100
AcDbLine
 10
20.0
 20
10.0
 30
0.0
 11
20.0
 21
0.0
 31
0.0
  0
LINE
  5
7E
330
76
100
AcDbEntity
  8
LINIEN-DÜNN
 62
     7
100
AcDbLine
 10
28.0
 20
10.0
 30
0.0
 11
28.0
 21
0.0
 31
0.0
  0
LINE
  5
7F
330
76
100
AcDbEntity
  8
LINIEN-DÜNN
 62
     7
100
AcDbLine
 10
36.0
 20
10.0
 30
0.0
 11
36.0
 21
0.0
 31
0.0
  0
LINE
  5
80
330
76
100
AcDbEntity
  8
LINIEN-DÜNN
 62
     7
100
AcDbLine
 10
44.0
 20
10.0
 30
0.0
 11
44.0
 21
0.0
 31
0.0
  0
LINE
  5
81
330
76
100
AcDbEntity
  8
LINIEN-DÜNN
 62
     7
100
AcDbLine
 10
52.0
 20
10.0
 30
0.0
 11
52.0
 21
0.0
 31
0.0
  0
LINE
  5
82
330
76
100
AcDbEntity
  8
LINIEN-DÜNN
 62
     7
100
AcDbLine
 10
70.0
 20
10.0
 30
0.0
 11
12.0
 21
10.0
 31
0.0
  0
LINE
  5
83
330
76
100
AcDbEntity
  8
LINIEN-DÜNN
 62
     7
100
AcDbLine
 10
70.0
 20
4.0
 30
0.0
 11
0.0
 21
4.0
 31
0.0
  0
LINE
  5
84
330
76
100
AcDbEntity
  8
LINIEN-NORMAL
 62
     7
100
AcDbLine
 10
70.0
 20
18.0
 30
0.0
 11
70.0
 21
0.0
 31
0.0
  0
LINE
  5
85
330
76
100
AcDbEntity
  8
LINIEN-NORMAL
 62
     7
100
AcDbLine
 10
70.0
 20
0.0
 30
0.0
 11
0.0
 21
0.0
 31
0.0
  0
LINE
  5
86
330
76
100
AcDbEntity
  8
LINIEN-DÜNN
100
AcDbLine
 10
61.0
 20
10.0
 30
0.0
 11
61.0
 21
0.0
 31
0.0
  0
INSERT
  5
8C
330
76
100
AcDbEntity
  8
VORLAGE_TEXT
 62
     7
100
AcDbBlockReference
  2
SW_NOTE_0
 10
1.3715701559
 20
14.7823959776
 30
0.0
  0
INSERT
  5
92
330
76
100
AcDbEntity
  8
VORLAGE_TEXT
 62
     7
100
AcDbBlockReference
  2
SW_NOTE_0_1
 10
19.4858329865
 20
10.8011997857
 30
0.0
  0
INSERT
  5
97
330
76
100
AcDbEntity
  8
VORLAGE_TEXT
 62
     7
100
AcDbBlockReference
  2
SW_NOTE_0_2
 10
0.7059049832
 20
0.7957779732
 30
0.0
  0
INSERT
  5
9E
330
76
100
AcDbEntity
  8
VORLAGE_TEXT
 62
     7
100
AcDbBlockReference
  2
SW_NOTE_0_3
 10
44.6572377212
 20
6.9417037808
 30
0.0
  0
INSERT
  5
A3
330
76
100
AcDbEntity
  8
VORLAGE_TEXT
 62
     7
100
AcDbBlockReference
  2
SW_NOTE_0_4
 10
21.3963023843
 20
0.8030156928
 30
0.0
  0
INSERT
  5
A8
330
76
100
AcDbEntity
  8
VORLAGE_TEXT
 62
     7
100
AcDbBlockReference
  2
SW_NOTE_0_5
 10
29.3441244219
 20
0.8024484104
 30
0.0
  0
INSERT
  5
AD
330
76
100
AcDbEntity
  8
VORLAGE_TEXT
 62
     7
100
AcDbBlockReference
  2
SW_NOTE_0_6
 10
37.3487166127
 20
0.7888202699
 30
0.0
  0
INSERT
  5
B2
330
76
100
AcDbEntity
  8
VORLAGE_TEXT
 62
     7
100
AcDbBlockReference
  2
SW_NOTE_0_7
 10
45.3470367789
 20
0.8005698793
 30
0.0
  0
INSERT
  5
B7
330
76
100
AcDbEntity
  8
VORLAGE_TEXT
 62
     7
100
AcDbBlockReference
  2
SW_NOTE_0_8
 10
53.8527888204
 20
0.8016543168
 30
0.0
  0
INSERT
  5
BC
330
76
100
AcDbEntity
  8
VORLAGE_TEXT
 62
     7
100
AcDbBlockReference
  2
SW_NOTE_0_9
 10
13.3728379186
 20
0.8021647692
 30
0.0
  0
INSERT
  5
C2
330
76
100
AcDbEntity
  8
VORLAGE_TEXT
 62
     7
100
AcDbBlockReference
  2
SW_NOTE_0_10
 10
0.7480385575
 20
8.9918758938
 30
0.0
  0
INSERT
  5
C8
330
76
100
AcDbEntity
  8
VORLAGE_TEXT
 62
     7
100
AcDbBlockReference
  2
SW_NOTE_0_11
 10
53.6385910634
 20
6.9252111133
 30
0.0
  0
INSERT
  5
CF
330
76
100
AcDbEntity
  8
VORLAGE_TEXT
 62
     7
100
AcDbBlockReference
  2
SW_NOTE_0_12
 10
37.834189587
 20
6.9615036443
 30
0.0
  0
INSERT
  5
D6
330
76
100
AcDbEntity
  8
VORLAGE_TEXT
 62
     7
100
AcDbBlockReference
  2
SW_NOTE_0_13
 10
21.9401680118
 20
6.9455377904
 30
0.0
  0
INSERT
  5
DC
330
76
100
AcDbEntity
  8
VORLAGE_TEXT
 62
     7
100
AcDbBlockReference
  2
SW_NOTE_0_14
 10
14.6500264887
 20
6.9584413
 30
0.0
  0
INSERT
  5
E2
330
76
100
AcDbEntity
  8
VORLAGE_TEXT
 62
     7
100
AcDbBlockReference
  2
SW_NOTE_0_15
 10
30.5247714712
 20
6.9591233511
 30
0.0
  0
INSERT
  5
E9
330
76
100
AcDbEntity
  8
VORLAGE_TEXT
 62
     7
100
AcDbBlockReference
  2
SW_NOTE_0_16
 10
61.480287246
 20
6.9546837425
 30
0.0
  0
INSERT
  5
EE
330
76
100
AcDbEntity
  8
VORLAGE_TEXT
 62
     7
100
AcDbBlockReference
  2
SW_NOTE_0_17
 10
62.8737574935
 20
0.7955033114
 30
0.0
  0
ENDBLK
  5
78
330
76
100
AcDbEntity
  8
0
100
AcDbBlockEnd
  0
BLOCK
  5
88
330
87
100
AcDbEntity
  8
0
100
AcDbBlockBegin
  2
SW_NOTE_0
 70
     0
 10
0.0
 20
0.0
 30
0.0
  3
SW_NOTE_0
  1

  0
MTEXT
  5
8B
330
87
100
AcDbEntity
  8
VORLAGE_TEXT
 62
     0
100
AcDbMText
 10
0.0
 20
2.3203219316
 30
0.0
 40
1.8
 41
0.0
 71
     1
 72
     1
  1
Allgemeintoleranzen                                      DIN  ISO 2768-mK
  7
SLDTEXTSTYLE0
 73
     1
 44
1.0
  0
ENDBLK
  5
89
330
87
100
AcDbEntity
  8
0
100
AcDbBlockEnd
  0
BLOCK
  5
8E
330
8D
100
AcDbEntity
  8
0
100
AcDbBlockBegin
  2
SW_NOTE_0_1
 70
     0
 10
0.0
 20
0.0
 30
0.0
  3
SW_NOTE_0_1
  1

  0
MTEXT
  5
91
330
8D
100
AcDbEntity
  8
VORLAGE_TEXT
 62
     0
100
AcDbMText
 10
0.675
 20
2.3203219316
 30
0.0
 40
1.8
 41
0.0
 71
     1
 72
     1
  1
Abmasse in mm für Nennmassbereiche
  7
SLDTEXTSTYLE1
 73
     1
 44
1.0
  0
ENDBLK
  5
8F
330
8D
100
AcDbEntity
  8
0
100
AcDbBlockEnd
  0
BLOCK
  5
94
330
93
100
AcDbEntity
  8
0
100
AcDbBlockBegin
  2
SW_NOTE_0_2
 70
     0
 10
0.0
 20
0.0
 30
0.0
  3
SW_NOTE_0_2
  1

  0
MTEXT
  5
96
330
93
100
AcDbEntity
  8
VORLAGE_TEXT
 62
     0
100
AcDbMText
 10
0.0
 20
2.3203219316
 30
0.0
 40
1.8
 41
0.0
 71
     1
 72
     1
  1
m  (mittel)
  7
SLDTEXTSTYLE1
 73
     1
 44
1.0
  0
ENDBLK
  5
95
330
93
100
AcDbEntity
  8
0
100
AcDbBlockEnd
  0
BLOCK
  5
99
330
98
100
AcDbEntity
  8
0
100
AcDbBlockBegin
  2
SW_NOTE_0_3
 70
     0
 10
0.0
 20
0.0
 30
0.0
  3
SW_NOTE_0_3
  1

  0
MTEXT
  5
9C
330
98
100
AcDbEntity
  8
VORLAGE_TEXT
 62
     0
100
AcDbMText
 10
6.80625
 20
2.3203219316
 30
0.0
 40
1.8
 41
0.0
 71
     3
 72
     1
  1
>  120
  7
SLDTEXTSTYLE2
 73
     1
 44
1.0
  0
MTEXT
  5
9D
330
98
100
AcDbEntity
  8
VORLAGE_TEXT
 62
     0
100
AcDbMText
 10
6.8815628178
 20
0.0003219611
 30
0.0
 40
1.8
 41
0.0
 71
     3
 72
     1
  1
... 400
  7
SLDTEXTSTYLE1
 73
     1
 44
1.0
  0
ENDBLK
  5
9A
330
98
100
AcDbEntity
  8
0
100
AcDbBlockEnd
  0
BLOCK
  5
A0
330
9F
100
AcDbEntity
  8
0
100
AcDbBlockBegin
  2
SW_NOTE_0_4
 70
     0
 10
0.0
 20
0.0
 30
0.0
  3
SW_NOTE_0_4
  1

  0
MTEXT
  5
A2
330
9F
100
AcDbEntity
  8
VORLAGE_TEXT
 62
     0
100
AcDbMText
 10
0.0
 20
2.3203219316
 30
0.0
 40
1.8
 41
0.0
 71
     1
 72
     1
  1
± 0.1
  7
SLDTEXTSTYLE1
 73
     1
 44
1.0
  0
ENDBLK
  5
A1
330
9F
100
AcDbEntity
  8
0
100
AcDbBlockEnd
  0
BLOCK
  5
A5
330
A4
100
AcDbEntity
  8
0
100
AcDbBlockBegin
  2
SW_NOTE_0_5
 70
     0
 10
0.0
 20
0.0
 30
0.0
  3
SW_NOTE_0_5
  1

  0
MTEXT
  5
A7
330
A4
100
AcDbEntity
  8
VORLAGE_TEXT
 62
     0
100
AcDbMText
 10
0.0
 20
2.3203219316
 30
0.0
 40
1.8
 41
0.0
 71
     1
 72
     1
  1
± 0.2
  7
SLDTEXTSTYLE1
 73
     1
 44
1.0
  0
ENDBLK
  5
A6
330
A4
100
AcDbEntity
  8
0
100
AcDbBlockEnd
  0
BLOCK
  5
AA
330
A9
100
AcDbEntity
  8
0
100
AcDbBlockBegin
  2
SW_NOTE_0_6
 70
     0
 10
0.0
 20
0.0
 30
0.0
  3
SW_NOTE_0_6
  1

  0
MTEXT
  5
AC
330
A9
100
AcDbEntity
  8
VORLAGE_TEXT
 62
     0
100
AcDbMText
 10
0.0
 20
2.3203219316
 30
0.0
 40
1.8
 41
0.0
 71
     1
 72
     1
  1
± 0.3
  7
SLDTEXTSTYLE1
 73
     1
 44
1.0
  0
ENDBLK
  5
AB
330
A9
100
AcDbEntity
  8
0
100
AcDbBlockEnd
  0
BLOCK
  5
AF
330
AE
100
AcDbEntity
  8
0
100
AcDbBlockBegin
  2
SW_NOTE_0_7
 70
     0
 10
0.0
 20
0.0
 30
0.0
  3
SW_NOTE_0_7
  1

  0
MTEXT
  5
B1
330
AE
100
AcDbEntity
  8
VORLAGE_TEXT
 62
     0
100
AcDbMText
 10
0.0
 20
2.3203219316
 30
0.0
 40
1.8
 41
0.0
 71
     1
 72
     1
  1
± 0.5
  7
SLDTEXTSTYLE1
 73
     1
 44
1.0
  0
ENDBLK
  5
B0
330
AE
100
AcDbEntity
  8
0
100
AcDbBlockEnd
  0
BLOCK
  5
B4
330
B3
100
AcDbEntity
  8
0
100
AcDbBlockBegin
  2
SW_NOTE_0_8
 70
     0
 10
0.0
 20
0.0
 30
0.0
  3
SW_NOTE_0_8
  1

  0
MTEXT
  5
B6
330
B3
100
AcDbEntity
  8
VORLAGE_TEXT
 62
     0
100
AcDbMText
 10
0.0
 20
2.3203219316
 30
0.0
 40
1.8
 41
0.0
 71
     1
 72
     1
  1
± 0.8
  7
SLDTEXTSTYLE1
 73
     1
 44
1.0
  0
ENDBLK
  5
B5
330
B3
100
AcDbEntity
  8
0
100
AcDbBlockEnd
  0
BLOCK
  5
B9
330
B8
100
AcDbEntity
  8
0
100
AcDbBlockBegin
  2
SW_NOTE_0_9
 70
     0
 10
0.0
 20
0.0
 30
0.0
  3
SW_NOTE_0_9
  1

  0
MTEXT
  5
BB
330
B8
100
AcDbEntity
  8
VORLAGE_TEXT
 62
     0
100
AcDbMText
 10
0.0
 20
2.3203219316
 30
0.0
 40
1.8
 41
0.0
 71
     1
 72
     1
  1
± 0.1
  7
SLDTEXTSTYLE1
 73
     1
 44
1.0
  0
ENDBLK
  5
BA
330
B8
100
AcDbEntity
  8
0
100
AcDbBlockEnd
  0
BLOCK
  5
BE
330
BD
100
AcDbEntity
  8
0
100
AcDbBlockBegin
  2
SW_NOTE_0_10
 70
     0
 10
0.0
 20
0.0
 30
0.0
  3
SW_NOTE_0_10
  1

  0
MTEXT
  5
C0
330
BD
100
AcDbEntity
  8
VORLAGE_TEXT
 62
     0
100
AcDbMText
 10
0.0
 20
2.3203219316
 30
0.0
 40
1.8
 41
0.0
 71
     1
 72
     1
  1
Genauig -
  7
SLDTEXTSTYLE1
 73
     1
 44
1.0
  0
MTEXT
  5
C1
330
BD
100
AcDbEntity
  8
VORLAGE_TEXT
 62
     0
100
AcDbMText
 10
0.0
 20
0.0003219611
 30
0.0
 40
1.8
 41
0.0
 71
     1
 72
     1
  1
keitsgrad
  7
SLDTEXTSTYLE1
 73
     1
 44
1.0
  0
ENDBLK
  5
BF
330
BD
100
AcDbEntity
  8
0
100
AcDbBlockEnd
  0
BLOCK
  5
C4
330
C3
100
AcDbEntity
  8
0
100
AcDbBlockBegin
  2
SW_NOTE_0_11
 70
     0
 10
0.0
 20
0.0
 30
0.0
  3
SW_NOTE_0_11
  1

  0
MTEXT
  5
C6
330
C3
100
AcDbEntity
  8
VORLAGE_TEXT
 62
     0
100
AcDbMText
 10
6.80625
 20
2.3203219316
 30
0.0
 40
1.8
 41
0.0
 71
     3
 72
     1
  1
>  400
  7
SLDTEXTSTYLE2
 73
     1
 44
1.0
  0
MTEXT
  5
C7
330
C3
100
AcDbEntity
  8
VORLAGE_TEXT
 62
     0
100
AcDbMText
 10
7.0246870391
 20
0.0003219611
 30
0.0
 40
1.8
 41
0.0
 71
     3
 72
     1
  1
... 1000
  7
SLDTEXTSTYLE1
 73
     1
 44
1.0
  0
ENDBLK
  5
C5
330
C3
100
AcDbEntity
  8
0
100
AcDbBlockEnd
  0
BLOCK
  5
CA
330
C9
100
AcDbEntity
  8
0
100
AcDbBlockBegin
  2
SW_NOTE_0_12
 70
     0
 10
0.0
 20
0.0
 30
0.0
  3
SW_NOTE_0_12
  1

  0
MTEXT
  5
CD
330
C9
100
AcDbEntity
  8
VORLAGE_TEXT
 62
     0
100
AcDbMText
 10
5.45625
 20
2.3203219316
 30
0.0
 40
1.8
 41
0.0
 71
     3
 72
     1
  1
>  30
  7
SLDTEXTSTYLE3
 73
     1
 44
1.0
  0
MTEXT
  5
CE
330
C9
100
AcDbEntity
  8
VORLAGE_TEXT
 62
     0
100
AcDbMText
 10
5.6637495868
 20
0.0003219611
 30
0.0
 40
1.8
 41
0.0
 71
     3
 72
     1
  1
... 120
  7
SLDTEXTSTYLE1
 73
     1
 44
1.0
  0
ENDBLK
  5
CB
330
C9
100
AcDbEntity
  8
0
100
AcDbBlockEnd
  0
BLOCK
  5
D1
330
D0
100
AcDbEntity
  8
0
100
AcDbBlockBegin
  2
SW_NOTE_0_13
 70
     0
 10
0.0
 20
0.0
 30
0.0
  3
SW_NOTE_0_13
  1

  0
MTEXT
  5
D4
330
D0
100
AcDbEntity
  8
VORLAGE_TEXT
 62
     0
100
AcDbMText
 10
4.10625
 20
2.3203219316
 30
0.0
 40
1.8
 41
0.0
 71
     3
 72
     1
  1
>  3
  7
SLDTEXTSTYLE4
 73
     1
 44
1.0
  0
MTEXT
  5
D5
330
D0
100
AcDbEntity
  8
VORLAGE_TEXT
 62
     0
100
AcDbMText
 10
4.2490622841
 20
0.0003219611
 30
0.0
 40
1.8
 41
0.0
 71
     3
 72
     1
  1
... 6
  7
SLDTEXTSTYLE1
 73
     1
 44
1.0
  0
ENDBLK
  5
D2
330
D0
100
AcDbEntity
  8
0
100
AcDbBlockEnd
  0
BLOCK
  5
D8
330
D7
100
AcDbEntity
  8
0
100
AcDbBlockBegin
  2
SW_NOTE_0_14
 70
     0
 10
0.0
 20
0.0
 30
0.0
  3
SW_NOTE_0_14
  1

  0
MTEXT
  5
DA
330
D7
100
AcDbEntity
  8
VORLAGE_TEXT
 62
     0
100
AcDbMText
 10
3.375
 20
2.3203219316
 30
0.0
 40
1.8
 41
0.0
 71
     3
 72
     1
  1
0.5
  7
SLDTEXTSTYLE1
 73
     1
 44
1.0
  0
MTEXT
  5
DB
330
D7
100
AcDbEntity
  8
VORLAGE_TEXT
 62
     0
100
AcDbMText
 10
3.446875035
 20
0.0003219611
 30
0.0
 40
1.8
 41
0.0
 71
     3
 72
     1
  1
... 3
  7
SLDTEXTSTYLE1
 73
     1
 44
1.0
  0
ENDBLK
  5
D9
330
D7
100
AcDbEntity
  8
0
100
AcDbBlockEnd
  0
BLOCK
  5
DE
330
DD
100
AcDbEntity
  8
0
100
AcDbBlockBegin
  2
SW_NOTE_0_15
 70
     0
 10
0.0
 20
0.0
 30
0.0
  3
SW_NOTE_0_15
  1

  0
MTEXT
  5
E0
330
DD
100
AcDbEntity
  8
VORLAGE_TEXT
 62
     0
100
AcDbMText
 10
4.10625
 20
2.3203219316
 30
0.0
 40
1.8
 41
0.0
 71
     3
 72
     1
  1
>  6
  7
SLDTEXTSTYLE4
 73
     1
 44
1.0
  0
MTEXT
  5
E1
330
DD
100
AcDbEntity
  8
VORLAGE_TEXT
 62
     0
100
AcDbMText
 10
4.2546879031
 20
0.0003219611
 30
0.0
 40
1.8
 41
0.0
 71
     3
 72
     1
  1
... 30
  7
SLDTEXTSTYLE1
 73
     1
 44
1.0
  0
ENDBLK
  5
DF
330
DD
100
AcDbEntity
  8
0
100
AcDbBlockEnd
  0
BLOCK
  5
E4
330
E3
100
AcDbEntity
  8
0
100
AcDbBlockBegin
  2
SW_NOTE_0_16
 70
     0
 10
0.0
 20
0.0
 30
0.0
  3
SW_NOTE_0_16
  1

  0
MTEXT
  5
E7
330
E3
100
AcDbEntity
  8
VORLAGE_TEXT
 62
     0
100
AcDbMText
 10
8.15625
 20
2.3203219316
 30
0.0
 40
1.8
 41
0.0
 71
     3
 72
     1
  1
>  1000
  7
SLDTEXTSTYLE5
 73
     1
 44
1.0
  0
MTEXT
  5
E8
330
E3
100
AcDbEntity
  8
VORLAGE_TEXT
 62
     0
100
AcDbMText
 10
8.2353127882
 20
0.0003219611
 30
0.0
 40
1.8
 41
0.0
 71
     3
 72
     1
  1
... 2000
  7
SLDTEXTSTYLE1
 73
     1
 44
1.0
  0
ENDBLK
  5
E5
330
E3
100
AcDbEntity
  8
0
100
AcDbBlockEnd
  0
BLOCK
  5
EB
330
EA
100
AcDbEntity
  8
0
100
AcDbBlockBegin
  2
SW_NOTE_0_17
 70
     0
 10
0.0
 20
0.0
 30
0.0
  3
SW_NOTE_0_17
  1

  0
MTEXT
  5
ED
330
EA
100
AcDbEntity
  8
VORLAGE_TEXT
 62
     0
100
AcDbMText
 10
0.0
 20
2.3203219316
 30
0.0
 40
1.8
 41
0.0
 71
     1
 72
     1
  1
± 1.2
  7
SLDTEXTSTYLE1
 73
     1
 44
1.0
  0
ENDBLK
  5
EC
330
EA
100
AcDbEntity
  8
0
100
AcDbBlockEnd
  0
BLOCK
  5
265
330
264
100
AcDbEntity
  8
0
100
AcDbBlockBegin
  2
_D
 70
     0
 10
0.0
 20
0.0
 30
0.0
  3
_D
  1

  0
SOLID
  5
267
330
264
100
AcDbEntity
  8
0
  6
Continuous
 62
     7
370
    18
100
AcDbTrace
 10
277.2751961923
 20
233.660956124
 30
0.0
 11
277.7751961923
 21
236.660956124
 31
0.0
 12
276.7751961923
 22
236.660956124
 32
0.0
 13
276.7751961923
 23
236.660956124
 33
0.0
  0
SOLID
  5
268
330
264
100
AcDbEntity
  8
0
  6
Continuous
 62
     7
370
    18
100
AcDbTrace
 10
277.2751961923
 20
268.660956124
 30
0.0
 11
276.7751961923
 21
265.660956124
 31
0.0
 12
277.7751961923
 22
265.660956124
 32
0.0
 13
277.7751961923
 23
265.660956124
 33
0.0
  0
LINE
  5
269
330
264
100
AcDbEntity
  8
0
  6
Continuous
 62
     7
370
     0
100
AcDbLine
 10
305.0752211923
 20
233.660956124
 30
0.0
 11
276.7751961923
 21
233.660956124
 31
0.0
  0
LINE
  5
26A
330
264
100
AcDbEntity
  8
0
  6
Continuous
 62
     7
370
     0
100
AcDbLine
 10
308.0752211923
 20
268.660956124
 30
0.0
 11
276.7751961923
 21
268.660956124
 31
0.0
  0
LINE
  5
26B
330
264
100
AcDbEntity
  8
0
  6
Continuous
 62
     7
370
     0
100
AcDbLine
 10
277.2751961923
 20
233.660956124
 30
0.0
 11
277.2751961923
 21
268.660956124
 31
0.0
  0
MTEXT
  5
26C
330
264
100
AcDbEntity
  8
0
  6
Continuous
 62
     7
370
    18
100
AcDbMText
 10
270.8298578427
 20
247.3415116744
 30
0.0
 40
5.0
 41
0.0
 71
     1
 72
     1
  1
35
  7
SLDTEXTSTYLE1
 11
6.123233995736766E-17
 21
1.0
 31
0.0
 73
     1
 44
1.0
  0
ENDBLK
  5
266
330
264
100
AcDbEntity
  8
0
100
AcDbBlockEnd
  0
BLOCK
  5
270
330
26F
100
AcDbEntity
  8
0
100
AcDbBlockBegin
  2
_D_1
 70
     0
 10
0.0
 20
0.0
 30
0.0
  3
_D_1
  1

  0
SOLID
  5
272
330
26F
100
AcDbEntity
  8
0
  6
Continuous
 62
     7
370
    18
100
AcDbTrace
 10
277.2751961923
 20
354.010956124
 30
0.0
 11
276.7751961923
 21
351.010956124
 31
0.0
 12
277.7751961923
 22
351.010956124
 32
0.0
 13
277.7751961923
 23
351.010956124
 33
0.0
  0
SOLID
  5
273
330
26F
100
AcDbEntity
  8
0
  6
Continuous
 62
     7
370
    18
100
AcDbTrace
 10
277.2751961923
 20
268.660956124
 30
0.0
 11
277.7751961923
 21
271.660956124
 31
0.0
 12
276.7751961923
 22
271.660956124
 32
0.0
 13
276.7751961923
 23
271.660956124
 33
0.0
  0
LINE
  5
274
330
26F
100
AcDbEntity
  8
0
  6
Continuous
 62
     7
370
     0
100
AcDbLine
 10
295.4252211923
 20
354.010956124
 30
0.0
 11
276.7751961923
 21
354.010956124
 31
0.0
  0
LINE
  5
275
330
26F
100
AcDbEntity
  8
0
  6
Continuous
 62
     7
370
     0
100
AcDbLine
 10
308.0752211923
 20
268.660956124
 30
0.0
 11
276.7751961923
 21
268.660956124
 31
0.0
  0
LINE
  5
276
330
26F
100
AcDbEntity
  8
0
  6
Continuous
 62
     7
370
     0
100
AcDbLine
 10
277.2751961923
 20
354.010956124
 30
0.0
 11
277.2751961923
 21
268.660956124
 31
0.0
  0
MTEXT
  5
277
330
26F
100
AcDbEntity
  8
0
  6
Continuous
 62
     7
370
    18
100
AcDbMText
 10
270.8298578427
 20
304.6519285118
 30
0.0
 40
5.0
 41
0.0
 71
     1
 72
     1
  1
85.3
  7
SLDTEXTSTYLE1
 11
-7.044195017643634E-15
 21
1.0
 31
0.0
 73
     1
 44
1.0
  0
ENDBLK
  5
271
330
26F
100
AcDbEntity
  8
0
100
AcDbBlockEnd
  0
BLOCK
  5
27B
330
27A
100
AcDbEntity
  8
0
100
AcDbBlockBegin
  2
_D_2
 70
     0
 10
0.0
 20
0.0
 30
0.0
  3
_D_2
  1

  0
SOLID
  5
27D
330
27A
100
AcDbEntity
  8
0
  6
Continuous
 62
     7
370
    18
100
AcDbTrace
 10
277.2751961923
 20
357.010956124
 30
0.0
 11
277.7751961923
 21
360.010956124
 31
0.0
 12
276.7751961923
 22
360.010956124
 32
0.0
 13
276.7751961923
 23
360.010956124
 33
0.0
  0
SOLID
  5
27E
330
27A
100
AcDbEntity
  8
0
  6
Continuous
 62
     7
370
    18
100
AcDbTrace
 10
277.2751961923
 20
354.010956124
 30
0.0
 11
276.7751961923
 21
351.010956124
 31
0.0
 12
277.7751961923
 22
351.010956124
 32
0.0
 13
277.7751961923
 23
351.010956124
 33
0.0
  0
LINE
  5
27F
330
27A
100
AcDbEntity
  8
0
  6
Continuous
 62
     7
370
     0
100
AcDbLine
 10
295.4252211923
 20
357.010956124
 30
0.0
 11
276.7751961923
 21
357.010956124
 31
0.0
  0
LINE
  5
280
330
27A
100
AcDbEntity
  8
0
  6
Continuous
 62
     7
370
     0
100
AcDbLine
 10
295.4252211923
 20
354.010956124
 30
0.0
 11
276.7751961923
 21
354.010956124
 31
0.0
  0
LINE
  5
281
330
27A
100
AcDbEntity
  8
0
  6
Continuous
 62
     7
370
     0
100
AcDbLine
 10
277.2751961923
 20
357.010956124
 30
0.0
 11
277.2751961923
 21
362.510956124
 31
0.0
  0
LINE
  5
282
330
27A
100
AcDbEntity
  8
0
  6
Continuous
 62
     7
370
     0
100
AcDbLine
 10
277.2751961923
 20
357.010956124
 30
0.0
 11
277.2751961923
 21
354.010956124
 31
0.0
  0
LINE
  5
283
330
27A
100
AcDbEntity
  8
0
  6
Continuous
 62
     7
370
     0
100
AcDbLine
 10
277.2751961923
 20
354.010956124
 30
0.0
 11
277.2751961923
 21
348.510956124
 31
0.0
  0
MTEXT
  5
284
330
27A
100
AcDbEntity
  8
0
  6
Continuous
 62
     7
370
    18
100
AcDbMText
 10
270.8298578427
 20
353.6012338992
 30
0.0
 40
5.0
 41
0.0
 71
     1
 72
     1
  1
3
  7
SLDTEXTSTYLE1
 11
-7.044195017643634E-15
 21
1.0
 31
0.0
 73
     1
 44
1.0
  0
ENDBLK
  5
27C
330
27A
100
AcDbEntity
  8
0
100
AcDbBlockEnd
  0
BLOCK
  5
287
330
286
100
AcDbEntity
  8
0
100
AcDbBlockBegin
  2
_D_3
 70
     0
 10
0.0
 20
0.0
 30
0.0
  3
_D_3
  1

  0
SOLID
  5
289
330
286
100
AcDbEntity
  8
0
  6
Continuous
 62
     7
370
    18
100
AcDbTrace
 10
277.2751961923
 20
357.010956124
 30
0.0
 11
277.7751961923
 21
360.010956124
 31
0.0
 12
276.7751961923
 22
360.010956124
 32
0.0
 13
276.7751961923
 23
360.010956124
 33
0.0
  0
SOLID
  5
28A
330
286
100
AcDbEntity
  8
0
  6
Continuous
 62
     7
370
    18
100
AcDbTrace
 10
277.2751961923
 20
381.710956124
 30
0.0
 11
276.7751961923
 21
378.710956124
 31
0.0
 12
277.7751961923
 22
378.710956124
 32
0.0
 13
277.7751961923
 23
378.710956124
 33
0.0
  0
LINE
  5
28B
330
286
100
AcDbEntity
  8
0
  6
Continuous
 62
     7
370
     0
100
AcDbLine
 10
295.4252211923
 20
357.010956124
 30
0.0
 11
276.7751961923
 21
357.010956124
 31
0.0
  0
LINE
  5
28C
330
286
100
AcDbEntity
  8
0
  6
Continuous
 62
     7
370
     0
100
AcDbLine
 10
297.5752211923
 20
381.710956124
 30
0.0
 11
276.7751961923
 21
381.710956124
 31
0.0
  0
LINE
  5
28D
330
286
100
AcDbEntity
  8
0
  6
Continuous
 62
     7
370
     0
100
AcDbLine
 10
277.2751961923
 20
357.010956124
 30
0.0
 11
277.2751961923
 21
381.710956124
 31
0.0
  0
MTEXT
  5
28E
330
286
100
AcDbEntity
  8
0
  6
Continuous
 62
     7
370
    18
100
AcDbMText
 10
270.8298578427
 20
362.6769285118
 30
0.0
 40
5.0
 41
0.0
 71
     1
 72
     1
  1
24.7
  7
SLDTEXTSTYLE1
 11
-4.379659758543259E-15
 21
1.0
 31
0.0
 73
     1
 44
1.0
  0
ENDBLK
  5
288
330
286
100
AcDbEntity
  8
0
100
AcDbBlockEnd
  0
BLOCK
  5
291
330
290
100
AcDbEntity
  8
0
100
AcDbBlockBegin
  2
_D_4
 70
     0
 10
0.0
 20
0.0
 30
0.0
  3
_D_4
  1

  0
SOLID
  5
293
330
290
100
AcDbEntity
  8
0
  6
Continuous
 62
     7
370
    18
100
AcDbTrace
 10
277.2751961923
 20
381.710956124
 30
0.0
 11
277.7751961923
 21
384.710956124
 31
0.0
 12
276.7751961923
 22
384.710956124
 32
0.0
 13
276.7751961923
 23
384.710956124
 33
0.0
  0
SOLID
  5
294
330
290
100
AcDbEntity
  8
0
  6
Continuous
 62
     7
370
    18
100
AcDbTrace
 10
277.2751961923
 20
411.610956124
 30
0.0
 11
276.7751961923
 21
408.610956124
 31
0.0
 12
277.7751961923
 22
408.610956124
 32
0.0
 13
277.7751961923
 23
408.610956124
 33
0.0
  0
LINE
  5
295
330
290
100
AcDbEntity
  8
0
  6
Continuous
 62
     7
370
     0
100
AcDbLine
 10
297.5752211923
 20
381.710956124
 30
0.0
 11
276.7751961923
 21
381.710956124
 31
0.0
  0
LINE
  5
296
330
290
100
AcDbEntity
  8
0
  6
Continuous
 62
     7
370
     0
100
AcDbLine
 10
297.5752211923
 20
411.610956124
 30
0.0
 11
276.7751961923
 21
411.610956124
 31
0.0
  0
LINE
  5
297
330
290
100
AcDbEntity
  8
0
  6
Continuous
 62
     7
370
     0
100
AcDbLine
 10
277.2751961923
 20
381.710956124
 30
0.0
 11
277.2751961923
 21
411.610956124
 31
0.0
  0
MTEXT
  5
298
330
290
100
AcDbEntity
  8
0
  6
Continuous
 62
     7
370
    18
100
AcDbMText
 10
270.8298578427
 20
392.8415116744
 30
0.0
 40
5.0
 41
0.0
 71
     1
 72
     1
  1
30
  7
SLDTEXTSTYLE1
 11
-3.047392128993071E-15
 21
1.0
 31
0.0
 73
     1
 44
1.0
  0
ENDBLK
  5
292
330
290
100
AcDbEntity
  8
0
100
AcDbBlockEnd
  0
BLOCK
  5
29B
330
29A
100
AcDbEntity
  8
0
100
AcDbBlockBegin
  2
_D_5
 70
     0
 10
0.0
 20
0.0
 30
0.0
  3
_D_5
  1

  0
SOLID
  5
29D
330
29A
100
AcDbEntity
  8
0
  6
Continuous
 62
     7
370
    18
100
AcDbTrace
 10
277.2751961923
 20
428.660956124
 30
0.0
 11
276.7751961923
 21
425.660956124
 31
0.0
 12
277.7751961923
 22
425.660956124
 32
0.0
 13
277.7751961923
 23
425.660956124
 33
0.0
  0
SOLID
  5
29E
330
29A
100
AcDbEntity
  8
0
  6
Continuous
 62
     7
370
    18
100
AcDbTrace
 10
277.2751961923
 20
411.610956124
 30
0.0
 11
277.7751961923
 21
414.610956124
 31
0.0
 12
276.7751961923
 22
414.610956124
 32
0.0
 13
276.7751961923
 23
414.610956124
 33
0.0
  0
LINE
  5
29F
330
29A
100
AcDbEntity
  8
0
  6
Continuous
 62
     7
370
     0
100
AcDbLine
 10
308.0752211923
 20
428.660956124
 30
0.0
 11
276.7751961923
 21
428.660956124
 31
0.0
  0
LINE
  5
2A0
330
29A
100
AcDbEntity
  8
0
  6
Continuous
 62
     7
370
     0
100
AcDbLine
 10
297.5752211923
 20
411.610956124
 30
0.0
 11
276.7751961923
 21
411.610956124
 31
0.0
  0
LINE
  5
2A1
330
29A
100
AcDbEntity
  8
0
  6
Continuous
 62
     7
370
     0
100
AcDbLine
 10
277.2751961923
 20
428.660956124
 30
0.0
 11
277.2751961923
 21
411.610956124
 31
0.0
  0
MTEXT
  5
2A2
330
29A
100
AcDbEntity
  8
0
  6
Continuous
 62
     7
370
    18
100
AcDbMText
 10
270.8298578427
 20
416.3165116744
 30
0.0
 40
5.0
 41
0.0
 71
     1
 72
     1
  1
17
  7
SLDTEXTSTYLE1
 11
-9.708730276744010E-15
 21
1.0
 31
0.0
 73
     1
 44
1.0
  0
ENDBLK
  5
29C
330
29A
100
AcDbEntity
  8
0
100
AcDbBlockEnd
  0
BLOCK
  5
2A5
330
2A4
100
AcDbEntity
  8
0
100
AcDbBlockBegin
  2
_D_6
 70
     0
 10
0.0
 20
0.0
 30
0.0
  3
_D_6
  1

  0
SOLID
  5
2A7
330
2A4
100
AcDbEntity
  8
0
  6
Continuous
 62
     7
370
    18
100
AcDbTrace
 10
277.2751961923
 20
463.660956124
 30
0.0
 11
276.7751961923
 21
460.660956124
 31
0.0
 12
277.7751961923
 22
460.660956124
 32
0.0
 13
277.7751961923
 23
460.660956124
 33
0.0
  0
SOLID
  5
2A8
330
2A4
100
AcDbEntity
  8
0
  6
Continuous
 62
     7
370
    18
100
AcDbTrace
 10
277.2751961923
 20
428.660956124
 30
0.0
 11
277.7751961923
 21
431.660956124
 31
0.0
 12
276.7751961923
 22
431.660956124
 32
0.0
 13
276.7751961923
 23
431.660956124
 33
0.0
  0
LINE
  5
2A9
330
2A4
100
AcDbEntity
  8
0
  6
Continuous
 62
     7
370
     0
100
AcDbLine
 10
305.0752211923
 20
463.660956124
 30
0.0
 11
276.7751961923
 21
463.660956124
 31
0.0
  0
LINE
  5
2AA
330
2A4
100
AcDbEntity
  8
0
  6
Continuous
 62
     7
370
     0
100
AcDbLine
 10
308.0752211923
 20
428.660956124
 30
0.0
 11
276.7751961923
 21
428.660956124
 31
0.0
  0
LINE
  5
2AB
330
2A4
100
AcDbEntity
  8
0
  6
Continuous
 62
     7
370
     0
100
AcDbLine
 10
277.2751961923
 20
463.660956124
 30
0.0
 11
277.2751961923
 21
428.660956124
 31
0.0
  0
MTEXT
  5
2AC
330
2A4
100
AcDbEntity
  8
0
  6
Continuous
 62
     7
370
    18
100
AcDbMText
 10
270.8298578427
 20
442.3415116744
 30
0.0
 40
5.0
 41
0.0
 71
     1
 72
     1
  1
35
  7
SLDTEXTSTYLE1
 11
-7.044195017643634E-15
 21
1.0
 31
0.0
 73
     1
 44
1.0
  0
ENDBLK
  5
2A6
330
2A4
100
AcDbEntity
  8
0
100
AcDbBlockEnd
  0
BLOCK
  5
2AF
330
2AE
100
AcDbEntity
  8
0
100
AcDbBlockBegin
  2
_D_7
 70
     0
 10
0.0
 20
0.0
 30
0.0
  3
_D_7
  1

  0
SOLID
  5
2B1
330
2AE
100
AcDbEntity
  8
0
  6
Continuous
 62
     7
370
    18
100
AcDbTrace
 10
305.2752211923
 20
473.660956124
 30
0.0
 11
302.2752211923
 21
474.160956124
 31
0.0
 12
302.2752211923
 22
473.160956124
 32
0.0
 13
302.2752211923
 23
473.160956124
 33
0.0
  0
SOLID
  5
2B2
330
2AE
100
AcDbEntity
  8
0
  6
Continuous
 62
     7
370
    18
100
AcDbTrace
 10
308.2752211923
 20
473.660956124
 30
0.0
 11
311.2752211923
 21
473.160956124
 31
0.0
 12
311.2752211923
 22
474.160956124
 32
0.0
 13
311.2752211923
 23
474.160956124
 33
0.0
  0
LINE
  5
2B3
330
2AE
100
AcDbEntity
  8
0
  6
Continuous
 62
     7
370
     0
100
AcDbLine
 10
305.2752211923
 20
459.360956124
 30
0.0
 11
305.2752211923
 21
474.160956124
 31
0.0
  0
LINE
  5
2B4
330
2AE
100
AcDbEntity
  8
0
  6
Continuous
 62
     7
370
     0
100
AcDbLine
 10
308.2752211923
 20
457.9072860304
 30
0.0
 11
308.2752211923
 21
474.160956124
 31
0.0
  0
LINE
  5
2B5
330
2AE
100
AcDbEntity
  8
0
  6
Continuous
 62
     7
370
     0
100
AcDbLine
 10
305.2752211923
 20
473.660956124
 30
0.0
 11
299.7752211923
 21
473.660956124
 31
0.0
  0
LINE
  5
2B6
330
2AE
100
AcDbEntity
  8
0
  6
Continuous
 62
     7
370
     0
100
AcDbLine
 10
305.2752211923
 20
473.660956124
 30
0.0
 11
308.2752211923
 21
473.660956124
 31
0.0
  0
LINE
  5
2B7
330
2AE
100
AcDbEntity
  8
0
  6
Continuous
 62
     7
370
     0
100
AcDbLine
 10
308.2752211923
 20
473.660956124
 30
0.0
 11
316.2756813069
 21
473.660956124
 31
0.0
  0
MTEXT
  5
2B8
330
2AE
100
AcDbEntity
  8
0
  6
Continuous
 62
     7
370
    18
100
AcDbMText
 10
312.4562368572
 20
480.1062944736
 30
0.0
 40
5.0
 41
0.0
 71
     1
 72
     1
  1
3
  7
SLDTEXTSTYLE1
 73
     1
 44
1.0
  0
ENDBLK
  5
2B0
330
2AE
100
AcDbEntity
  8
0
100
AcDbBlockEnd
  0
BLOCK
  5
2BB
330
2BA
100
AcDbEntity
  8
0
100
AcDbBlockBegin
  2
_D_8
 70
     0
 10
0.0
 20
0.0
 30
0.0
  3
_D_8
  1

  0
SOLID
  5
2BD
330
2BA
100
AcDbEntity
  8
0
  6
Continuous
 62
     7
370
    18
100
AcDbTrace
 10
413.2796211923
 20
428.660956124
 30
0.0
 11
412.7796211923
 21
425.660956124
 31
0.0
 12
413.7796211923
 22
425.660956124
 32
0.0
 13
413.7796211923
 23
425.660956124
 33
0.0
  0
SOLID
  5
2BE
330
2BA
100
AcDbEntity
  8
0
  6
Continuous
 62
     7
370
    18
100
AcDbTrace
 10
413.2796211923
 20
376.660956124
 30
0.0
 11
413.7796211923
 21
379.660956124
 31
0.0
 12
412.7796211923
 22
379.660956124
 32
0.0
 13
412.7796211923
 23
379.660956124
 33
0.0
  0
LINE
  5
2BF
330
2BA
100
AcDbEntity
  8
0
  6
Continuous
 62
     7
370
     0
100
AcDbLine
 10
373.7403474582
 20
428.660956124
 30
0.0
 11
413.7796211923
 21
428.660956124
 31
0.0
  0
LINE
  5
2C0
330
2BA
100
AcDbEntity
  8
0
  6
Continuous
 62
     7
370
     0
100
AcDbLine
 10
365.4752211923
 20
376.660956124
 30
0.0
 11
413.7796211923
 21
376.660956124
 31
0.0
  0
LINE
  5
2C1
330
2BA
100
AcDbEntity
  8
0
  6
Continuous
 62
     7
370
     0
100
AcDbLine
 10
413.2796211923
 20
428.660956124
 30
0.0
 11
413.2796211923
 21
376.660956124
 31
0.0
  0
MTEXT
  5
2C2
330
2BA
100
AcDbEntity
  8
0
  6
Continuous
 62
     7
370
    18
100
AcDbMText
 10
406.8342828427
 20
398.8415116744
 30
0.0
 40
5.0
 41
0.0
 71
     1
 72
     1
  1
52
  7
SLDTEXTSTYLE1
 11
-7.044195017643634E-15
 21
1.0
 31
0.0
 73
     1
 44
1.0
  0
ENDBLK
  5
2BC
330
2BA
100
AcDbEntity
  8
0
100
AcDbBlockEnd
  0
BLOCK
  5
2C5
330
2C4
100
AcDbEntity
  8
0
100
AcDbBlockBegin
  2
_D_9
 70
     0
 10
0.0
 20
0.0
 30
0.0
  3
_D_9
  1

  0
SOLID
  5
2C7
330
2C4
100
AcDbEntity
  8
0
  6
Continuous
 62
     7
370
    18
100
AcDbTrace
 10
413.2796211923
 20
298.660956124
 30
0.0
 11
413.7796211923
 21
301.660956124
 31
0.0
 12
412.7796211923
 22
301.660956124
 32
0.0
 13
412.7796211923
 23
301.660956124
 33
0.0
  0
SOLID
  5
2C8
330
2C4
100
AcDbEntity
  8
0
  6
Continuous
 62
     7
370
    18
100
AcDbTrace
 10
413.2796211923
 20
376.660956124
 30
0.0
 11
412.7796211923
 21
373.660956124
 31
0.0
 12
413.7796211923
 22
373.660956124
 32
0.0
 13
413.7796211923
 23
373.660956124
 33
0.0
  0
LINE
  5
2C9
330
2C4
100
AcDbEntity
  8
0
  6
Continuous
 62
     7
370
     0
100
AcDbLine
 10
365.4752211923
 20
298.660956124
 30
0.0
 11
413.7796211923
 21
298.660956124
 31
0.0
  0
LINE
  5
2CA
330
2C4
100
AcDbEntity
  8
0
  6
Continuous
 62
     7
370
     0
100
AcDbLine
 10
365.4752211923
 20
376.660956124
 30
0.0
 11
413.7796211923
 21
376.660956124
 31
0.0
  0
LINE
  5
2CB
330
2C4
100
AcDbEntity
  8
0
  6
Continuous
 62
     7
370
     0
100
AcDbLine
 10
413.2796211923
 20
298.660956124
 30
0.0
 11
413.2796211923
 21
376.660956124
 31
0.0
  0
MTEXT
  5
2CC
330
2C4
100
AcDbEntity
  8
0
  6
Continuous
 62
     7
370
    18
100
AcDbMText
 10
406.8342828427
 20
333.8415116744
 30
0.0
 40
5.0
 41
0.0
 71
     1
 72
     1
  1
78
  7
SLDTEXTSTYLE1
 11
6.123233995736766E-17
 21
1.0
 31
0.0
 73
     1
 44
1.0
  0
ENDBLK
  5
2C6
330
2C4
100
AcDbEntity
  8
0
100
AcDbBlockEnd
  0
BLOCK
  5
2CF
330
2CE
100
AcDbEntity
  8
0
100
AcDbBlockBegin
  2
_D_10
 70
     0
 10
0.0
 20
0.0
 30
0.0
  3
_D_10
  1

  0
SOLID
  5
2D1
330
2CE
100
AcDbEntity
  8
0
  6
Continuous
 62
     7
370
    18
100
AcDbTrace
 10
405.2796211923
 20
355.160956124
 30
0.0
 11
405.7796211923
 21
358.160956124
 31
0.0
 12
404.7796211923
 22
358.160956124
 32
0.0
 13
404.7796211923
 23
358.160956124
 33
0.0
  0
SOLID
  5
2D2
330
2CE
100
AcDbEntity
  8
0
  6
Continuous
 62
     7
370
    18
100
AcDbTrace
 10
405.2796211923
 20
376.660956124
 30
0.0
 11
404.7796211923
 21
373.660956124
 31
0.0
 12
405.7796211923
 22
373.660956124
 32
0.0
 13
405.7796211923
 23
373.660956124
 33
0.0
  0
LINE
  5
2D3
330
2CE
100
AcDbEntity
  8
0
  6
Continuous
 62
     7
370
     0
100
AcDbLine
 10
371.7252211923
 20
355.160956124
 30
0.0
 11
405.7796211923
 21
355.160956124
 31
0.0
  0
LINE
  5
2D4
330
2CE
100
AcDbEntity
  8
0
  6
Continuous
 62
     7
370
     0
100
AcDbLine
 10
365.4752211923
 20
376.660956124
 30
0.0
 11
405.7796211923
 21
376.660956124
 31
0.0
  0
LINE
  5
2D5
330
2CE
100
AcDbEntity
  8
0
  6
Continuous
 62
     7
370
     0
100
AcDbLine
 10
405.2796211923
 20
355.160956124
 30
0.0
 11
405.2796211923
 21
376.660956124
 31
0.0
  0
MTEXT
  5
2D6
330
2CE
100
AcDbEntity
  8
0
  6
Continuous
 62
     7
370
    18
100
AcDbMText
 10
398.8342828427
 20
359.2269285118
 30
0.0
 40
5.0
 41
0.0
 71
     1
 72
     1
  1
21.5
  7
SLDTEXTSTYLE1
 11
6.123233995736766E-17
 21
1.0
 31
0.0
 73
     1
 44
1.0
  0
ENDBLK
  5
2D0
330
2CE
100
AcDbEntity
  8
0
100
AcDbBlockEnd
  0
BLOCK
  5
2D9
330
2D8
100
AcDbEntity
  8
0
100
AcDbBlockBegin
  2
_D_11
 70
     0
 10
0.0
 20
0.0
 30
0.0
  3
_D_11
  1

  0
SOLID
  5
2DB
330
2D8
100
AcDbEntity
  8
0
  6
Continuous
 62
     7
370
    18
100
AcDbTrace
 10
413.2796211923
 20
268.660956124
 30
0.0
 11
413.7796211923
 21
271.660956124
 31
0.0
 12
412.7796211923
 22
271.660956124
 32
0.0
 13
412.7796211923
 23
271.660956124
 33
0.0
  0
SOLID
  5
2DC
330
2D8
100
AcDbEntity
  8
0
  6
Continuous
 62
     7
370
    18
100
AcDbTrace
 10
413.2796211923
 20
298.660956124
 30
0.0
 11
412.7796211923
 21
295.660956124
 31
0.0
 12
413.7796211923
 22
295.660956124
 32
0.0
 13
413.7796211923
 23
295.660956124
 33
0.0
  0
LINE
  5
2DD
330
2D8
100
AcDbEntity
  8
0
  6
Continuous
 62
     7
370
     0
100
AcDbLine
 10
373.7403474582
 20
268.660956124
 30
0.0
 11
413.7796211923
 21
268.660956124
 31
0.0
  0
LINE
  5
2DE
330
2D8
100
AcDbEntity
  8
0
  6
Continuous
 62
     7
370
     0
100
AcDbLine
 10
365.4752211923
 20
298.660956124
 30
0.0
 11
413.7796211923
 21
298.660956124
 31
0.0
  0
LINE
  5
2DF
330
2D8
100
AcDbEntity
  8
0
  6
Continuous
 62
     7
370
     0
100
AcDbLine
 10
413.2796211923
 20
268.660956124
 30
0.0
 11
413.2796211923
 21
298.660956124
 31
0.0
  0
MTEXT
  5
2E0
330
2D8
100
AcDbEntity
  8
0
  6
Continuous
 62
     7
370
    18
100
AcDbMText
 10
406.8342828427
 20
279.8415116744
 30
0.0
 40
5.0
 41
0.0
 71
     1
 72
     1
  1
30
  7
SLDTEXTSTYLE1
 11
6.123233995736766E-17
 21
1.0
 31
0.0
 73
     1
 44
1.0
  0
ENDBLK
  5
2DA
330
2D8
100
AcDbEntity
  8
0
100
AcDbBlockEnd
  0
BLOCK
  5
2E3
330
2E2
100
AcDbEntity
  8
0
100
AcDbBlockBegin
  2
_D_12
 70
     0
 10
0.0
 20
0.0
 30
0.0
  3
_D_12
  1

  0
SOLID
  5
2E5
330
2E2
100
AcDbEntity
  8
0
  6
Continuous
 62
     7
370
    18
100
AcDbTrace
 10
365.2752211923
 20
223.660956124
 30
0.0
 11
362.2752211923
 21
224.160956124
 31
0.0
 12
362.2752211923
 22
223.160956124
 32
0.0
 13
362.2752211923
 23
223.160956124
 33
0.0
  0
SOLID
  5
2E6
330
2E2
100
AcDbEntity
  8
0
  6
Continuous
 62
     7
370
    18
100
AcDbTrace
 10
305.2752211923
 20
223.660956124
 30
0.0
 11
308.2752211923
 21
223.160956124
 31
0.0
 12
308.2752211923
 22
224.160956124
 32
0.0
 13
308.2752211923
 23
224.160956124
 33
0.0
  0
LINE
  5
2E7
330
2E2
100
AcDbEntity
  8
0
  6
Continuous
 62
     7
370
     0
100
AcDbLine
 10
365.2752211923
 20
279.410956124
 30
0.0
 11
365.2752211923
 21
223.160956124
 31
0.0
  0
LINE
  5
2E8
330
2E2
100
AcDbEntity
  8
0
  6
Continuous
 62
     7
370
     0
100
AcDbLine
 10
305.2752211923
 20
238.8203796494
 30
0.0
 11
305.2752211923
 21
223.160956124
 31
0.0
  0
LINE
  5
2E9
330
2E2
100
AcDbEntity
  8
0
  6
Continuous
 62
     7
370
     0
100
AcDbLine
 10
365.2752211923
 20
223.660956124
 30
0.0
 11
305.2752211923
 21
223.660956124
 31
0.0
  0
MTEXT
  5
2EA
330
2E2
100
AcDbEntity
  8
0
  6
Continuous
 62
     7
370
    18
100
AcDbMText
 10
324.771748432
 20
230.1062944737
 30
0.0
 40
5.0
 41
0.0
 71
     1
 72
     1
  1
60
  7
SLDTEXTSTYLE1
 73
     1
 44
1.0
  0
MTEXT
  5
2EB
330
2E2
100
AcDbEntity
  8
0
  6
Continuous
 62
     7
370
    18
100
AcDbMText
 10
334.2856373312
 20
230.1062944737
 30
0.0
 40
5.0
 41
0.0
 71
     1
 72
     1
  1
/ 70
  7
SLDTEXTSTYLE1
 73
     1
 44
1.0
  0
ENDBLK
  5
2E4
330
2E2
100
AcDbEntity
  8
0
100
AcDbBlockEnd
  0
BLOCK
  5
2EE
330
2ED
100
AcDbEntity
  8
0
100
AcDbBlockBegin
  2
_D_13
 70
     0
 10
0.0
 20
0.0
 30
0.0
  3
_D_13
  1

  0
ARC
  5
2F0
330
2ED
100
AcDbEntity
  8
0
  6
Continuous
 62
     7
370
    18
100
AcDbCircle
 10
345.5356370821
 20
211.4977615906
 30
0.0
 40
8.579357839676568
100
AcDbArc
 50
153.4349488229
 51
206.5650511771
  0
ARC
  5
2F1
330
2ED
100
AcDbEntity
  8
0
  6
Continuous
 62
     7
370
    18
100
AcDbCircle
 10
355.0148058846
 20
211.4977615906
 30
0.0
 40
8.579357839676568
100
AcDbArc
 50
333.4349488229
 51
26.5650511771
  0
SOLID
  5
2F2
330
2ED
100
AcDbEntity
  8
0
  6
Continuous
 62
     7
370
    18
100
AcDbTrace
 10
305.2752211923
 20
207.660956124
 30
0.0
 11
308.2752211923
 21
207.160956124
 31
0.0
 12
308.2752211923
 22
208.160956124
 32
0.0
 13
308.2752211923
 23
208.160956124
 33
0.0
  0
SOLID
  5
2F3
330
2ED
100
AcDbEntity
  8
0
  6
Continuous
 62
     7
370
    18
100
AcDbTrace
 10
395.2752211923
 20
207.660956124
 30
0.0
 11
392.2752211923
 21
208.160956124
 31
0.0
 12
392.2752211923
 22
207.160956124
 32
0.0
 13
392.2752211923
 23
207.160956124
 33
0.0
  0
LINE
  5
2F4
330
2ED
100
AcDbEntity
  8
0
  6
Continuous
 62
     7
370
     0
100
AcDbLine
 10
305.2752211923
 20
238.8203796494
 30
0.0
 11
305.2752211923
 21
207.160956124
 31
0.0
  0
LINE
  5
2F5
330
2ED
100
AcDbEntity
  8
0
  6
Continuous
 62
     7
370
     0
100
AcDbLine
 10
395.2752211923
 20
328.610956124
 30
0.0
 11
395.2752211923
 21
207.160956124
 31
0.0
  0
LINE
  5
2F6
330
2ED
100
AcDbEntity
  8
0
  6
Continuous
 62
     7
370
     0
100
AcDbLine
 10
305.2752211923
 20
207.660956124
 30
0.0
 11
395.2752211923
 21
207.660956124
 31
0.0
  0
MTEXT
  5
2F7
330
2ED
100
AcDbEntity
  8
0
  6
Continuous
 62
     7
370
    18
100
AcDbMText
 10
337.862026149
 20
214.1062944736
 30
0.0
 40
5.0
 41
0.0
 71
     1
 72
     1
  1
90
  7
SLDTEXTSTYLE1
 73
     1
 44
1.0
  0
MTEXT
  5
2F8
330
2ED
100
AcDbEntity
  8
0
  6
Continuous
 62
     7
370
    18
100
AcDbMText
 10
347.3759150482
 20
214.1062944736
 30
0.0
 40
5.0
 41
0.0
 71
     1
 72
     1
  1
/ 100
  7
SLDTEXTSTYLE1
 73
     1
 44
1.0
  0
ENDBLK
  5
2EF
330
2ED
100
AcDbEntity
  8
0
100
AcDbBlockEnd
  0
BLOCK
  5
2FC
330
2FB
100
AcDbEntity
  8
0
100
AcDbBlockBegin
  2
_D_14
 70
     0
 10
0.0
 20
0.0
 30
0.0
  3
_D_14
  1

  0
SOLID
  5
2FE
330
2FB
100
AcDbEntity
  8
0
  6
Continuous
 62
     7
370
    18
100
AcDbTrace
 10
348.9268716218
 20
379.3126065535
 30
0.0
 11
351.4017453559
 21
381.0803735065
 31
0.0
 12
350.6946385747
 22
381.7874802876
 32
0.0
 13
350.6946385747
 23
381.7874802876
 33
0.0
  0
SOLID
  5
2FF
330
2FB
100
AcDbEntity
  8
0
  6
Continuous
 62
     7
370
    18
100
AcDbTrace
 10
343.6235707629
 20
374.0093056946
 30
0.0
 11
341.1486970287
 21
372.2415387416
 31
0.0
 12
341.8558038099
 22
371.5344319604
 32
0.0
 13
341.8558038099
 23
371.5344319604
 33
0.0
  0
LINE
  5
300
330
2FB
100
AcDbEntity
  8
0
  6
Continuous
 62
     7
370
     0
100
AcDbLine
 10
343.6235707629
 20
374.0093056946
 30
0.0
 11
327.8415094861
 21
358.2272444178
 31
0.0
  0
LINE
  5
301
330
2FB
100
AcDbEntity
  8
0
  6
Continuous
 62
     7
370
     0
100
AcDbLine
 10
348.9268716218
 20
379.3126065535
 30
0.0
 11
352.8159589183
 21
383.20169385
 31
0.0
  0
LINE
  5
302
330
2FB
100
AcDbEntity
  8
0
  6
Continuous
 62
     7
370
     0
100
AcDbLine
 10
343.6235707629
 20
374.0093056946
 30
0.0
 11
348.9268716218
 21
379.3126065535
 31
0.0
  0
MTEXT
  5
303
330
2FB
100
AcDbEntity
  8
0
  6
Continuous
 62
     7
370
    18
100
AcDbMText
 10
323.348807645
 20
362.7199462589
 30
0.0
 40
5.0
 41
0.0
 71
     1
 72
     1
  1
%%c
  7
SLDTEXTSTYLE1
 11
0.7071067811865485
 21
0.7071067811865466
 31
0.0
 73
     1
 44
1.0
  0
MTEXT
  5
304
330
2FB
100
AcDbEntity
  8
0
  6
Continuous
 62
     7
370
    18
100
AcDbMText
 10
328.4937461296
 20
367.8845266566
 30
0.0
 40
5.0
 41
0.0
 71
     1
 72
     1
  1
7.5
  7
SLDTEXTSTYLE1
 11
0.7071067811865485
 21
0.7071067811865466
 31
0.0
 73
     1
 44
1.0
  0
ENDBLK
  5
2FD
330
2FB
100
AcDbEntity
  8
0
100
AcDbBlockEnd
  0
BLOCK
  5
307
330
306
100
AcDbEntity
  8
0
100
AcDbBlockBegin
  2
_D_15
 70
     0
 10
0.0
 20
0.0
 30
0.0
  3
_D_15
  1

  0
SOLID
  5
309
330
306
100
AcDbEntity
  8
0
  6
Continuous
 62
     7
370
    18
100
AcDbTrace
 10
346.2752211923
 20
402.6251717577
 30
0.0
 11
349.2752211923
 21
402.1251717577
 31
0.0
 12
349.2752211923
 22
403.1251717577
 32
0.0
 13
349.2752211923
 23
403.1251717577
 33
0.0
  0
SOLID
  5
30A
330
306
100
AcDbEntity
  8
0
  6
Continuous
 62
     7
370
    18
100
AcDbTrace
 10
384.2752211923
 20
402.6251717577
 30
0.0
 11
381.2752211923
 21
403.1251717577
 31
0.0
 12
381.2752211923
 22
402.1251717577
 32
0.0
 13
381.2752211923
 23
402.1251717577
 33
0.0
  0
LINE
  5
30B
330
306
100
AcDbEntity
  8
0
  6
Continuous
 62
     7
370
     0
100
AcDbLine
 10
346.2752211923
 20
383.110956124
 30
0.0
 11
346.2752211923
 21
403.1251717577
 31
0.0
  0
LINE
  5
30C
330
306
100
AcDbEntity
  8
0
  6
Continuous
 62
     7
370
     0
100
AcDbLine
 10
384.2752211923
 20
383.110956124
 30
0.0
 11
384.2752211923
 21
403.1251717577
 31
0.0
  0
LINE
  5
30D
330
306
100
AcDbEntity
  8
0
  6
Continuous
 62
     7
370
     0
100
AcDbLine
 10
346.2752211923
 20
402.6251717577
 30
0.0
 11
384.2752211923
 21
402.6251717577
 31
0.0
  0
MTEXT
  5
30E
330
306
100
AcDbEntity
  8
0
  6
Continuous
 62
     7
370
    18
100
AcDbMText
 10
361.4557767427
 20
409.0705101073
 30
0.0
 40
5.0
 41
0.0
 71
     1
 72
     1
  1
38
  7
SLDTEXTSTYLE1
 73
     1
 44
1.0
  0
ENDBLK
  5
308
330
306
100
AcDbEntity
  8
0
100
AcDbBlockEnd
  0
BLOCK
  5
311
330
310
100
AcDbEntity
  8
0
100
AcDbBlockBegin
  2
_D_16
 70
     0
 10
0.0
 20
0.0
 30
0.0
  3
_D_16
  1

  0
SOLID
  5
313
330
310
100
AcDbEntity
  8
0
  6
Continuous
 62
     7
370
    18
100
AcDbTrace
 10
348.9268716218
 20
293.3126065535
 30
0.0
 11
351.4017453559
 21
295.0803735065
 31
0.0
 12
350.6946385747
 22
295.7874802876
 32
0.0
 13
350.6946385747
 23
295.7874802876
 33
0.0
  0
SOLID
  5
314
330
310
100
AcDbEntity
  8
0
  6
Continuous
 62
     7
370
    18
100
AcDbTrace
 10
343.6235707629
 20
288.0093056946
 30
0.0
 11
341.1486970287
 21
286.2415387416
 31
0.0
 12
341.8558038099
 22
285.5344319604
 32
0.0
 13
341.8558038099
 23
285.5344319604
 33
0.0
  0
LINE
  5
315
330
310
100
AcDbEntity
  8
0
  6
Continuous
 62
     7
370
     0
100
AcDbLine
 10
343.6235707629
 20
288.0093056946
 30
0.0
 11
327.9001176984
 21
272.2858526302
 31
0.0
  0
LINE
  5
316
330
310
100
AcDbEntity
  8
0
  6
Continuous
 62
     7
370
     0
100
AcDbLine
 10
348.9268716218
 20
293.3126065535
 30
0.0
 11
352.8159589183
 21
297.20169385
 31
0.0
  0
LINE
  5
317
330
310
100
AcDbEntity
  8
0
  6
Continuous
 62
     7
370
     0
100
AcDbLine
 10
343.6235707629
 20
288.0093056946
 30
0.0
 11
348.9268716218
 21
293.3126065535
 31
0.0
  0
MTEXT
  5
318
330
310
100
AcDbEntity
  8
0
  6
Continuous
 62
     7
370
    18
100
AcDbMText
 10
323.4079816851
 20
276.7779886435
 30
0.0
 40
5.0
 41
0.0
 71
     1
 72
     1
  1
%%c
  7
SLDTEXTSTYLE1
 11
0.7071067811865464
 21
0.7071067811865488
 31
0.0
 73
     1
 44
1.0
  0
MTEXT
  5
319
330
310
100
AcDbEntity
  8
0
  6
Continuous
 62
     7
370
    18
100
AcDbMText
 10
328.5529201697
 20
281.9425690412
 30
0.0
 40
5.0
 41
0.0
 71
     1
 72
     1
  1
7.5
  7
SLDTEXTSTYLE1
 11
0.7071067811865464
 21
0.7071067811865488
 31
0.0
 73
     1
 44
1.0
  0
ENDBLK
  5
312
330
310
100
AcDbEntity
  8
0
100
AcDbBlockEnd
  0
BLOCK
  5
31C
330
31B
100
AcDbEntity
  8
0
100
AcDbBlockBegin
  2
_D_17
 70
     0
 10
0.0
 20
0.0
 30
0.0
  3
_D_17
  1

  0
SOLID
  5
31E
330
31B
100
AcDbEntity
  8
0
  6
Continuous
 62
     7
370
    18
100
AcDbTrace
 10
346.2752211923
 20
313.8031045008
 30
0.0
 11
349.2752211923
 21
313.3031045008
 31
0.0
 12
349.2752211923
 22
314.3031045008
 32
0.0
 13
349.2752211923
 23
314.3031045008
 33
0.0
  0
SOLID
  5
31F
330
31B
100
AcDbEntity
  8
0
  6
Continuous
 62
     7
370
    18
100
AcDbTrace
 10
384.2752211923
 20
313.8031045008
 30
0.0
 11
381.2752211923
 21
314.3031045008
 31
0.0
 12
381.2752211923
 22
313.3031045008
 32
0.0
 13
381.2752211923
 23
313.3031045008
 33
0.0
  0
LINE
  5
320
330
31B
100
AcDbEntity
  8
0
  6
Continuous
 62
     7
370
     0
100
AcDbLine
 10
346.2752211923
 20
297.110956124
 30
0.0
 11
346.2752211923
 21
314.3031045008
 31
0.0
  0
LINE
  5
321
330
31B
100
AcDbEntity
  8
0
  6
Continuous
 62
     7
370
     0
100
AcDbLine
 10
384.2752211923
 20
297.110956124
 30
0.0
 11
384.2752211923
 21
314.3031045008
 31
0.0
  0
LINE
  5
322
330
31B
100
AcDbEntity
  8
0
  6
Continuous
 62
     7
370
     0
100
AcDbLine
 10
346.2752211923
 20
313.8031045008
 30
0.0
 11
384.2752211923
 21
313.8031045008
 31
0.0
  0
MTEXT
  5
323
330
31B
100
AcDbEntity
  8
0
  6
Continuous
 62
     7
370
    18
100
AcDbMText
 10
361.4557767427
 20
320.2484428504
 30
0.0
 40
5.0
 41
0.0
 71
     1
 72
     1
  1
38
  7
SLDTEXTSTYLE1
 73
     1
 44
1.0
  0
ENDBLK
  5
31D
330
31B
100
AcDbEntity
  8
0
100
AcDbBlockEnd
  0
BLOCK
  5
326
330
325
100
AcDbEntity
  8
0
100
AcDbBlockBegin
  2
_D_18
 70
     0
 10
0.0
 20
0.0
 30
0.0
  3
_D_18
  1

  0
SOLID
  5
328
330
325
100
AcDbEntity
  8
0
  6
Continuous
 62
     7
370
    18
100
AcDbTrace
 10
360.7752211923
 20
390.3632211221
 30
0.0
 11
357.7752211923
 21
390.8632211221
 31
0.0
 12
357.7752211923
 22
389.8632211221
 32
0.0
 13
357.7752211923
 23
389.8632211221
 33
0.0
  0
SOLID
  5
329
330
325
100
AcDbEntity
  8
0
  6
Continuous
 62
     7
370
    18
100
AcDbTrace
 10
369.7752211923
 20
390.3632211221
 30
0.0
 11
372.7752211923
 21
389.8632211221
 31
0.0
 12
372.7752211923
 22
390.8632211221
 32
0.0
 13
372.7752211923
 23
390.8632211221
 33
0.0
  0
LINE
  5
32A
330
325
100
AcDbEntity
  8
0
  6
Continuous
 62
     7
370
     0
100
AcDbLine
 10
360.7752211923
 20
381.360956124
 30
0.0
 11
360.7752211923
 21
390.8632211221
 31
0.0
  0
LINE
  5
32B
330
325
100
AcDbEntity
  8
0
  6
Continuous
 62
     7
370
     0
100
AcDbLine
 10
369.7752211923
 20
381.360956124
 30
0.0
 11
369.7752211923
 21
390.8632211221
 31
0.0
  0
LINE
  5
32C
330
325
100
AcDbEntity
  8
0
  6
Continuous
 62
     7
370
     0
100
AcDbLine
 10
360.7752211923
 20
390.3632211221
 30
0.0
 11
355.2752211923
 21
390.3632211221
 31
0.0
  0
LINE
  5
32D
330
325
100
AcDbEntity
  8
0
  6
Continuous
 62
     7
370
     0
100
AcDbLine
 10
360.7752211923
 20
390.3632211221
 30
0.0
 11
369.7752211923
 21
390.3632211221
 31
0.0
  0
LINE
  5
32E
330
325
100
AcDbEntity
  8
0
  6
Continuous
 62
     7
370
     0
100
AcDbLine
 10
369.7752211923
 20
390.3632211221
 30
0.0
 11
381.7299673685
 21
390.3632211221
 31
0.0
  0
INSERT
  5
336
330
325
100
AcDbEntity
  8
0
  6
Continuous
 62
     7
370
    18
100
AcDbBlockReference
  2
SW_SYMBOL_MOD_BOX
 10
371.00427266
 20
391.0858904715
 30
0.0
 41
0.0064453387
 42
0.0064453387
 43
0.0064453387
  0
MTEXT
  5
337
330
325
100
AcDbEntity
  8
0
  6
Continuous
 62
     7
370
    18
100
AcDbMText
 10
377.910522686
 20
396.8224487509
 30
0.0
 40
5.0
 41
0.0
 71
     1
 72
     1
  1
9
  7
SLDTEXTSTYLE1
 73
     1
 44
1.0
  0
ENDBLK
  5
327
330
325
100
AcDbEntity
  8
0
100
AcDbBlockEnd
  0
BLOCK
  5
330
330
32F
100
AcDbEntity
  8
0
100
AcDbBlockBegin
  2
SW_SYMBOL_MOD_BOX
 70
     0
 10
0.0
 20
0.0
 30
0.0
  3
SW_SYMBOL_MOD_BOX
  1

  0
LINE
  5
332
330
32F
100
AcDbEntity
  8
0
  6
Continuous
 62
     0
370
    18
100
AcDbLine
 10
200.0
 20
200.0
 30
0.0
 11
800.0
 21
200.0
 31
0.0
  0
LINE
  5
333
330
32F
100
AcDbEntity
  8
0
  6
Continuous
 62
     0
370
    18
100
AcDbLine
 10
200.0
 20
200.0
 30
0.0
 11
200.0
 21
800.0
 31
0.0
  0
LINE
  5
334
330
32F
100
AcDbEntity
  8
0
  6
Continuous
 62
     0
370
    18
100
AcDbLine
 10
200.0
 20
800.0
 30
0.0
 11
800.0
 21
800.0
 31
0.0
  0
LINE
  5
335
330
32F
100
AcDbEntity
  8
0
  6
Continuous
 62
     0
370
    18
100
AcDbLine
 10
800.0
 20
800.0
 30
0.0
 11
800.0
 21
200.0
 31
0.0
  0
ENDBLK
  5
331
330
32F
100
AcDbEntity
  8
0
100
AcDbBlockEnd
  0
BLOCK
  5
33A
330
339
100
AcDbEntity
  8
0
100
AcDbBlockBegin
  2
_D_19
 70
     0
 10
0.0
 20
0.0
 30
0.0
  3
_D_19
  1

  0
SOLID
  5
33C
330
339
100
AcDbEntity
  8
0
  6
Continuous
 62
     7
370
    18
100
AcDbTrace
 10
395.2752211923
 20
223.660956124
 30
0.0
 11
392.2752211923
 21
224.160956124
 31
0.0
 12
392.2752211923
 22
223.160956124
 32
0.0
 13
392.2752211923
 23
223.160956124
 33
0.0
  0
SOLID
  5
33D
330
339
100
AcDbEntity
  8
0
  6
Continuous
 62
     7
370
    18
100
AcDbTrace
 10
365.2752211923
 20
223.660956124
 30
0.0
 11
368.2752211923
 21
223.160956124
 31
0.0
 12
368.2752211923
 22
224.160956124
 32
0.0
 13
368.2752211923
 23
224.160956124
 33
0.0
  0
LINE
  5
33E
330
339
100
AcDbEntity
  8
0
  6
Continuous
 62
     7
370
     0
100
AcDbLine
 10
395.2752211923
 20
290.1958298582
 30
0.0
 11
395.2752211923
 21
223.160956124
 31
0.0
  0
LINE
  5
33F
330
339
100
AcDbEntity
  8
0
  6
Continuous
 62
     7
370
     0
100
AcDbLine
 10
365.2752211923
 20
284.845956124
 30
0.0
 11
365.2752211923
 21
223.160956124
 31
0.0
  0
LINE
  5
340
330
339
100
AcDbEntity
  8
0
  6
Continuous
 62
     7
370
     0
100
AcDbLine
 10
395.2752211923
 20
223.660956124
 30
0.0
 11
365.2752211923
 21
223.660956124
 31
0.0
  0
MTEXT
  5
341
330
339
100
AcDbEntity
  8
0
  6
Continuous
 62
     7
370
    18
100
AcDbMText
 10
376.4557767427
 20
230.1062944737
 30
0.0
 40
5.0
 41
0.0
 71
     1
 72
     1
  1
30
  7
SLDTEXTSTYLE1
 73
     1
 44
1.0
  0
ENDBLK
  5
33B
330
339
100
AcDbEntity
  8
0
100
AcDbBlockEnd
  0
BLOCK
  5
344
330
343
100
AcDbEntity
  8
0
100
AcDbBlockBegin
  2
_D_20
 70
     0
 10
0.0
 20
0.0
 30
0.0
  3
_D_20
  1

  0
SOLID
  5
346
330
343
100
AcDbEntity
  8
0
  6
Continuous
 62
     7
370
    18
100
AcDbTrace
 10
367.9268716218
 20
357.8126065535
 30
0.0
 11
370.4017453559
 21
359.5803735065
 31
0.0
 12
369.6946385747
 22
360.2874802876
 32
0.0
 13
369.6946385747
 23
360.2874802876
 33
0.0
  0
SOLID
  5
347
330
343
100
AcDbEntity
  8
0
  6
Continuous
 62
     7
370
    18
100
AcDbTrace
 10
362.6235707629
 20
352.5093056946
 30
0.0
 11
360.1486970287
 21
350.7415387416
 31
0.0
 12
360.8558038099
 22
350.0344319604
 32
0.0
 13
360.8558038099
 23
350.0344319604
 33
0.0
  0
LINE
  5
348
330
343
100
AcDbEntity
  8
0
  6
Continuous
 62
     7
370
     0
100
AcDbLine
 10
362.6235707629
 20
352.5093056946
 30
0.0
 11
347.4996180039
 21
337.3853529356
 31
0.0
  0
LINE
  5
349
330
343
100
AcDbEntity
  8
0
  6
Continuous
 62
     7
370
     0
100
AcDbLine
 10
367.9268716218
 20
357.8126065535
 30
0.0
 11
371.8159589183
 21
361.70169385
 31
0.0
  0
LINE
  5
34A
330
343
100
AcDbEntity
  8
0
  6
Continuous
 62
     7
370
     0
100
AcDbLine
 10
362.6235707629
 20
352.5093056946
 30
0.0
 11
367.9268716218
 21
357.8126065535
 31
0.0
  0
MTEXT
  5
34B
330
343
100
AcDbEntity
  8
0
  6
Continuous
 62
     7
370
    18
100
AcDbMText
 10
343.0137085924
 20
341.8712623471
 30
0.0
 40
5.0
 41
0.0
 71
     1
 72
     1
  1
%%c
  7
SLDTEXTSTYLE1
 11
0.7071067811865491
 21
0.7071067811865459
 31
0.0
 73
     1
 44
1.0
  0
MTEXT
  5
34C
330
343
100
AcDbEntity
  8
0
  6
Continuous
 62
     7
370
    18
100
AcDbMText
 10
348.158647077
 20
347.0358427448
 30
0.0
 40
5.0
 41
0.0
 71
     1
 72
     1
  1
7.5
  7
SLDTEXTSTYLE1
 11
0.7071067811865491
 21
0.7071067811865459
 31
0.0
 73
     1
 44
1.0
  0
ENDBLK
  5
345
330
343
100
AcDbEntity
  8
0
100
AcDbBlockEnd
  0
BLOCK
  5
34F
330
34E
100
AcDbEntity
  8
0
100
AcDbBlockBegin
  2
_D_21
 70
     0
 10
0.0
 20
0.0
 30
0.0
  3
_D_21
  1

  0
SOLID
  5
351
330
34E
100
AcDbEntity
  8
0
  6
Continuous
 62
     7
370
    18
100
AcDbTrace
 10
425.5672468908
 20
428.660956124
 30
0.0
 11
425.0672468908
 21
425.660956124
 31
0.0
 12
426.0672468908
 22
425.660956124
 32
0.0
 13
426.0672468908
 23
425.660956124
 33
0.0
  0
SOLID
  5
352
330
34E
100
AcDbEntity
  8
0
  6
Continuous
 62
     7
370
    18
100
AcDbTrace
 10
425.5672468908
 20
268.660956124
 30
0.0
 11
426.0672468908
 21
271.660956124
 31
0.0
 12
425.0672468908
 22
271.660956124
 32
0.0
 13
425.0672468908
 23
271.660956124
 33
0.0
  0
LINE
  5
353
330
34E
100
AcDbEntity
  8
0
  6
Continuous
 62
     7
370
     0
100
AcDbLine
 10
373.7403474582
 20
428.660956124
 30
0.0
 11
426.0672468908
 21
428.660956124
 31
0.0
  0
LINE
  5
354
330
34E
100
AcDbEntity
  8
0
  6
Continuous
 62
     7
370
     0
100
AcDbLine
 10
373.7403474582
 20
268.660956124
 30
0.0
 11
426.0672468908
 21
268.660956124
 31
0.0
  0
LINE
  5
355
330
34E
100
AcDbEntity
  8
0
  6
Continuous
 62
     7
370
     0
100
AcDbLine
 10
425.5672468908
 20
428.660956124
 30
0.0
 11
425.5672468908
 21
268.660956124
 31
0.0
  0
MTEXT
  5
356
330
34E
100
AcDbEntity
  8
0
  6
Continuous
 62
     7
370
    18
100
AcDbMText
 10
419.1219085412
 20
342.9317893332
 30
0.0
 40
5.0
 41
0.0
 71
     1
 72
     1
  1
160
  7
SLDTEXTSTYLE1
 11
-7.044195017643634E-15
 21
1.0
 31
0.0
 73
     1
 44
1.0
  0
ENDBLK
  5
350
330
34E
100
AcDbEntity
  8
0
100
AcDbBlockEnd
  0
BLOCK
  5
359
330
358
100
AcDbEntity
  8
0
100
AcDbBlockBegin
  2
_D_22
 70
     0
 10
0.0
 20
0.0
 30
0.0
  3
_D_22
  1

  0
SOLID
  5
35B
330
358
100
AcDbEntity
  8
0
  6
Continuous
 62
     7
370
    18
100
AcDbTrace
 10
295.2752211923
 20
365.910956124
 30
0.0
 11
298.2752211923
 21
365.410956124
 31
0.0
 12
298.2752211923
 22
366.410956124
 32
0.0
 13
298.2752211923
 23
366.410956124
 33
0.0
  0
SOLID
  5
35C
330
358
100
AcDbEntity
  8
0
  6
Continuous
 62
     7
370
    18
100
AcDbTrace
 10
305.2752211923
 20
365.910956124
 30
0.0
 11
302.2752211923
 21
366.410956124
 31
0.0
 12
302.2752211923
 22
365.410956124
 32
0.0
 13
302.2752211923
 23
365.410956124
 33
0.0
  0
LINE
  5
35D
330
358
100
AcDbEntity
  8
0
  6
Continuous
 62
     7
370
     0
100
AcDbLine
 10
295.2752211923
 20
384.010956124
 30
0.0
 11
295.2752211923
 21
365.410956124
 31
0.0
  0
LINE
  5
35E
330
358
100
AcDbEntity
  8
0
  6
Continuous
 62
     7
370
     0
100
AcDbLine
 10
295.2752211923
 20
365.910956124
 30
0.0
 11
305.2752211923
 21
365.910956124
 31
0.0
  0
MTEXT
  5
35F
330
358
100
AcDbEntity
  8
0
  6
Continuous
 62
     7
370
    18
100
AcDbMText
 10
296.4557767427
 20
372.3562944736
 30
0.0
 40
5.0
 41
0.0
 71
     1
 72
     1
  1
10
  7
SLDTEXTSTYLE1
 73
     1
 44
1.0
  0
ENDBLK
  5
35A
330
358
100
AcDbEntity
  8
0
100
AcDbBlockEnd
  0
BLOCK
  5
362
330
361
100
AcDbEntity
  8
0
100
AcDbBlockBegin
  2
_D_23
 70
     0
 10
0.0
 20
0.0
 30
0.0
  3
_D_23
  1

  0
SOLID
  5
364
330
361
100
AcDbEntity
  8
0
  6
Continuous
 62
     7
370
    18
100
AcDbTrace
 10
295.6252211923
 20
335.8356453718
 30
0.0
 11
298.6252211923
 21
335.3356453718
 31
0.0
 12
298.6252211923
 22
336.3356453718
 32
0.0
 13
298.6252211923
 23
336.3356453718
 33
0.0
  0
SOLID
  5
365
330
361
100
AcDbEntity
  8
0
  6
Continuous
 62
     7
370
    18
100
AcDbTrace
 10
305.2752211923
 20
335.8356453718
 30
0.0
 11
302.2752211923
 21
336.3356453718
 31
0.0
 12
302.2752211923
 22
335.3356453718
 32
0.0
 13
302.2752211923
 23
335.3356453718
 33
0.0
  0
LINE
  5
366
330
361
100
AcDbEntity
  8
0
  6
Continuous
 62
     7
370
     0
100
AcDbLine
 10
295.6252211923
 20
353.810956124
 30
0.0
 11
295.6252211923
 21
335.3356453718
 31
0.0
  0
LINE
  5
367
330
361
100
AcDbEntity
  8
0
  6
Continuous
 62
     7
370
     0
100
AcDbLine
 10
295.6252211923
 20
335.8356453718
 30
0.0
 11
284.0426576243
 21
335.8356453718
 31
0.0
  0
LINE
  5
368
330
361
100
AcDbEntity
  8
0
  6
Continuous
 62
     7
370
     0
100
AcDbLine
 10
295.6252211923
 20
335.8356453718
 30
0.0
 11
305.2752211923
 21
335.8356453718
 31
0.0
  0
MTEXT
  5
369
330
361
100
AcDbEntity
  8
0
  6
Continuous
 62
     7
370
    18
100
AcDbMText
 10
284.0426576243
 20
342.2809837214
 30
0.0
 40
5.0
 41
0.0
 71
     1
 72
     1
  1
9.7
  7
SLDTEXTSTYLE1
 73
     1
 44
1.0
  0
ENDBLK
  5
363
330
361
100
AcDbEntity
  8
0
100
AcDbBlockEnd
  0
BLOCK
  5
36B
330
36A
100
AcDbEntity
  8
0
100
AcDbBlockBegin
  2
SW_CENTERMARKSYMBOL_0
 70
     0
 10
0.0
 20
0.0
 30
0.0
  3
SW_CENTERMARKSYMBOL_0
  1

  0
LINE
  5
36D
330
36A
100
AcDbEntity
  8
0
  6
Continuous
 62
     0
370
    18
100
AcDbLine
 10
0.0
 20
0.0
 30
0.0
 11
0.0
 21
2.5
 31
0.0
  0
LINE
  5
36E
330
36A
100
AcDbEntity
  8
0
  6
Continuous
 62
     0
370
    18
100
AcDbLine
 10
0.0
 20
0.0
 30
0.0
 11
-2.5
 21
0.0
 31
0.0
  0
LINE
  5
36F
330
36A
100
AcDbEntity
  8
0
  6
Continuous
 62
     0
370
    18
100
AcDbLine
 10
0.0
 20
0.0
 30
0.0
 11
0.0
 21
-2.5
 31
0.0
  0
LINE
  5
370
330
36A
100
AcDbEntity
  8
0
  6
Continuous
 62
     0
370
    18
100
AcDbLine
 10
0.0
 20
0.0
 30
0.0
 11
2.5
 21
0.0
 31
0.0
  0
LINE
  5
371
330
36A
100
AcDbEntity
  8
0
  6
Continuous
 62
     0
370
    18
100
AcDbLine
 10
0.0
 20
5.0
 30
0.0
 11
0.0
 21
6.25
 31
0.0
  0
LINE
  5
372
330
36A
100
AcDbEntity
  8
0
  6
Continuous
 62
     0
370
    18
100
AcDbLine
 10
-5.0
 20
0.0
 30
0.0
 11
-6.25
 21
0.0
 31
0.0
  0
LINE
  5
373
330
36A
100
AcDbEntity
  8
0
  6
Continuous
 62
     0
370
    18
100
AcDbLine
 10
0.0
 20
-5.0
 30
0.0
 11
0.0
 21
-6.25
 31
0.0
  0
LINE
  5
374
330
36A
100
AcDbEntity
  8
0
  6
Continuous
 62
     0
370
    18
100
AcDbLine
 10
5.0
 20
0.0
 30
0.0
 11
6.25
 21
0.0
 31
0.0
  0
ENDBLK
  5
36C
330
36A
100
AcDbEntity
  8
0
100
AcDbBlockEnd
  0
BLOCK
  5
377
330
376
100
AcDbEntity
  8
0
100
AcDbBlockBegin
  2
SW_CENTERMARKSYMBOL_1
 70
     0
 10
0.0
 20
0.0
 30
0.0
  3
SW_CENTERMARKSYMBOL_1
  1

  0
LINE
  5
379
330
376
100
AcDbEntity
  8
0
  6
Continuous
 62
     0
370
    18
100
AcDbLine
 10
0.0
 20
0.0
 30
0.0
 11
0.0
 21
2.5
 31
0.0
  0
LINE
  5
37A
330
376
100
AcDbEntity
  8
0
  6
Continuous
 62
     0
370
    18
100
AcDbLine
 10
0.0
 20
0.0
 30
0.0
 11
-2.5
 21
0.0
 31
0.0
  0
LINE
  5
37B
330
376
100
AcDbEntity
  8
0
  6
Continuous
 62
     0
370
    18
100
AcDbLine
 10
0.0
 20
0.0
 30
0.0
 11
0.0
 21
-2.5
 31
0.0
  0
LINE
  5
37C
330
376
100
AcDbEntity
  8
0
  6
Continuous
 62
     0
370
    18
100
AcDbLine
 10
0.0
 20
0.0
 30
0.0
 11
2.5
 21
0.0
 31
0.0
  0
LINE
  5
37D
330
376
100
AcDbEntity
  8
0
  6
Continuous
 62
     0
370
    18
100
AcDbLine
 10
0.0
 20
5.0
 30
0.0
 11
0.0
 21
6.25
 31
0.0
  0
LINE
  5
37E
330
376
100
AcDbEntity
  8
0
  6
Continuous
 62
     0
370
    18
100
AcDbLine
 10
-5.0
 20
0.0
 30
0.0
 11
-6.25
 21
0.0
 31
0.0
  0
LINE
  5
37F
330
376
100
AcDbEntity
  8
0
  6
Continuous
 62
     0
370
    18
100
AcDbLine
 10
0.0
 20
-5.0
 30
0.0
 11
0.0
 21
-6.25
 31
0.0
  0
LINE
  5
380
330
376
100
AcDbEntity
  8
0
  6
Continuous
 62
     0
370
    18
100
AcDbLine
 10
5.0
 20
0.0
 30
0.0
 11
6.25
 21
0.0
 31
0.0
  0
ENDBLK
  5
378
330
376
100
AcDbEntity
  8
0
100
AcDbBlockEnd
  0
BLOCK
  5
383
330
382
100
AcDbEntity
  8
0
100
AcDbBlockBegin
  2
SW_CENTERMARKSYMBOL_2
 70
     0
 10
0.0
 20
0.0
 30
0.0
  3
SW_CENTERMARKSYMBOL_2
  1

  0
LINE
  5
385
330
382
100
AcDbEntity
  8
0
  6
Continuous
 62
     0
370
    18
100
AcDbLine
 10
0.0
 20
0.0
 30
0.0
 11
0.0
 21
2.5
 31
0.0
  0
LINE
  5
386
330
382
100
AcDbEntity
  8
0
  6
Continuous
 62
     0
370
    18
100
AcDbLine
 10
0.0
 20
0.0
 30
0.0
 11
-2.5
 21
0.0
 31
0.0
  0
LINE
  5
387
330
382
100
AcDbEntity
  8
0
  6
Continuous
 62
     0
370
    18
100
AcDbLine
 10
0.0
 20
0.0
 30
0.0
 11
0.0
 21
-2.5
 31
0.0
  0
LINE
  5
388
330
382
100
AcDbEntity
  8
0
  6
Continuous
 62
     0
370
    18
100
AcDbLine
 10
0.0
 20
0.0
 30
0.0
 11
2.5
 21
0.0
 31
0.0
  0
LINE
  5
389
330
382
100
AcDbEntity
  8
0
  6
Continuous
 62
     0
370
    18
100
AcDbLine
 10
0.0
 20
5.0
 30
0.0
 11
0.0
 21
11.4310827504
 31
0.0
  0
LINE
  5
38A
330
382
100
AcDbEntity
  8
0
  6
Continuous
 62
     0
370
    18
100
AcDbLine
 10
-5.0
 20
0.0
 30
0.0
 11
-11.4
 21
0.0
 31
0.0
  0
LINE
  5
38B
330
382
100
AcDbEntity
  8
0
  6
Continuous
 62
     0
370
    18
100
AcDbLine
 10
0.0
 20
-5.0
 30
0.0
 11
0.0
 21
-11.4
 31
0.0
  0
LINE
  5
38C
330
382
100
AcDbEntity
  8
0
  6
Continuous
 62
     0
370
    18
100
AcDbLine
 10
5.0
 20
0.0
 30
0.0
 11
11.4
 21
0.0
 31
0.0
  0
ENDBLK
  5
384
330
382
100
AcDbEntity
  8
0
100
AcDbBlockEnd
  0
BLOCK
  5
38F
330
38E
100
AcDbEntity
  8
0
100
AcDbBlockBegin
  2
SW_CENTERMARKSYMBOL_3
 70
     0
 10
0.0
 20
0.0
 30
0.0
  3
SW_CENTERMARKSYMBOL_3
  1

  0
LINE
  5
391
330
38E
100
AcDbEntity
  8
0
  6
Continuous
 62
     0
370
    18
100
AcDbLine
 10
0.0
 20
0.0
 30
0.0
 11
0.0
 21
2.5
 31
0.0
  0
LINE
  5
392
330
38E
100
AcDbEntity
  8
0
  6
Continuous
 62
     0
370
    18
100
AcDbLine
 10
0.0
 20
0.0
 30
0.0
 11
-2.5
 21
0.0
 31
0.0
  0
LINE
  5
393
330
38E
100
AcDbEntity
  8
0
  6
Continuous
 62
     0
370
    18
100
AcDbLine
 10
0.0
 20
0.0
 30
0.0
 11
0.0
 21
-2.5
 31
0.0
  0
LINE
  5
394
330
38E
100
AcDbEntity
  8
0
  6
Continuous
 62
     0
370
    18
100
AcDbLine
 10
0.0
 20
0.0
 30
0.0
 11
2.5
 21
0.0
 31
0.0
  0
LINE
  5
395
330
38E
100
AcDbEntity
  8
0
  6
Continuous
 62
     0
370
    18
100
AcDbLine
 10
0.0
 20
5.0
 30
0.0
 11
0.0
 21
6.25
 31
0.0
  0
LINE
  5
396
330
38E
100
AcDbEntity
  8
0
  6
Continuous
 62
     0
370
    18
100
AcDbLine
 10
-5.0
 20
0.0
 30
0.0
 11
-6.25
 21
0.0
 31
0.0
  0
LINE
  5
397
330
38E
100
AcDbEntity
  8
0
  6
Continuous
 62
     0
370
    18
100
AcDbLine
 10
0.0
 20
-5.0
 30
0.0
 11
0.0
 21
-6.25
 31
0.0
  0
LINE
  5
398
330
38E
100
AcDbEntity
  8
0
  6
Continuous
 62
     0
370
    18
100
AcDbLine
 10
5.0
 20
0.0
 30
0.0
 11
6.25
 21
0.0
 31
0.0
  0
ENDBLK
  5
390
330
38E
100
AcDbEntity
  8
0
100
AcDbBlockEnd
  0
BLOCK
  5
39B
330
39A
100
AcDbEntity
  8
0
100
AcDbBlockBegin
  2
SW_CENTERMARKSYMBOL_4
 70
     0
 10
0.0
 20
0.0
 30
0.0
  3
SW_CENTERMARKSYMBOL_4
  1

  0
LINE
  5
39D
330
39A
100
AcDbEntity
  8
0
  6
Continuous
 62
     0
370
    18
100
AcDbLine
 10
0.0
 20
0.0
 30
0.0
 11
0.0
 21
2.5
 31
0.0
  0
LINE
  5
39E
330
39A
100
AcDbEntity
  8
0
  6
Continuous
 62
     0
370
    18
100
AcDbLine
 10
0.0
 20
0.0
 30
0.0
 11
-2.5
 21
0.0
 31
0.0
  0
LINE
  5
39F
330
39A
100
AcDbEntity
  8
0
  6
Continuous
 62
     0
370
    18
100
AcDbLine
 10
0.0
 20
0.0
 30
0.0
 11
0.0
 21
-2.5
 31
0.0
  0
LINE
  5
3A0
330
39A
100
AcDbEntity
  8
0
  6
Continuous
 62
     0
370
    18
100
AcDbLine
 10
0.0
 20
0.0
 30
0.0
 11
2.5
 21
0.0
 31
0.0
  0
LINE
  5
3A1
330
39A
100
AcDbEntity
  8
0
  6
Continuous
 62
     0
370
    18
100
AcDbLine
 10
0.0
 20
5.0
 30
0.0
 11
0.0
 21
6.25
 31
0.0
  0
LINE
  5
3A2
330
39A
100
AcDbEntity
  8
0
  6
Continuous
 62
     0
370
    18
100
AcDbLine
 10
-5.0
 20
0.0
 30
0.0
 11
-6.25
 21
0.0
 31
0.0
  0
LINE
  5
3A3
330
39A
100
AcDbEntity
  8
0
  6
Continuous
 62
     0
370
    18
100
AcDbLine
 10
0.0
 20
-5.0
 30
0.0
 11
0.0
 21
-6.25
 31
0.0
  0
LINE
  5
3A4
330
39A
100
AcDbEntity
  8
0
  6
Continuous
 62
     0
370
    18
100
AcDbLine
 10
5.0
 20
0.0
 30
0.0
 11
6.25
 21
0.0
 31
0.0
  0
ENDBLK
  5
39C
330
39A
100
AcDbEntity
  8
0
100
AcDbBlockEnd
  0
BLOCK
  5
3A7
330
3A6
100
AcDbEntity
  8
0
100
AcDbBlockBegin
  2
SW_CENTERMARKSYMBOL_5
 70
     0
 10
0.0
 20
0.0
 30
0.0
  3
SW_CENTERMARKSYMBOL_5
  1

  0
LINE
  5
3A9
330
3A6
100
AcDbEntity
  8
0
  6
Continuous
 62
     0
370
    18
100
AcDbLine
 10
0.0
 20
0.0
 30
0.0
 11
0.0
 21
2.5
 31
0.0
  0
LINE
  5
3AA
330
3A6
100
AcDbEntity
  8
0
  6
Continuous
 62
     0
370
    18
100
AcDbLine
 10
0.0
 20
0.0
 30
0.0
 11
-2.5
 21
0.0
 31
0.0
  0
LINE
  5
3AB
330
3A6
100
AcDbEntity
  8
0
  6
Continuous
 62
     0
370
    18
100
AcDbLine
 10
0.0
 20
0.0
 30
0.0
 11
0.0
 21
-2.5
 31
0.0
  0
LINE
  5
3AC
330
3A6
100
AcDbEntity
  8
0
  6
Continuous
 62
     0
370
    18
100
AcDbLine
 10
0.0
 20
0.0
 30
0.0
 11
2.5
 21
0.0
 31
0.0
  0
LINE
  5
3AD
330
3A6
100
AcDbEntity
  8
0
  6
Continuous
 62
     0
370
    18
100
AcDbLine
 10
0.0
 20
5.0
 30
0.0
 11
0.0
 21
6.25
 31
0.0
  0
LINE
  5
3AE
330
3A6
100
AcDbEntity
  8
0
  6
Continuous
 62
     0
370
    18
100
AcDbLine
 10
-5.0
 20
0.0
 30
0.0
 11
-6.25
 21
0.0
 31
0.0
  0
LINE
  5
3AF
330
3A6
100
AcDbEntity
  8
0
  6
Continuous
 62
     0
370
    18
100
AcDbLine
 10
0.0
 20
-5.0
 30
0.0
 11
0.0
 21
-6.25
 31
0.0
  0
LINE
  5
3B0
330
3A6
100
AcDbEntity
  8
0
  6
Continuous
 62
     0
370
    18
100
AcDbLine
 10
5.0
 20
0.0
 30
0.0
 11
6.25
 21
0.0
 31
0.0
  0
ENDBLK
  5
3A8
330
3A6
100
AcDbEntity
  8
0
100
AcDbBlockEnd
  0
BLOCK
  5
3B3
330
3B2
100
AcDbEntity
  8
0
100
AcDbBlockBegin
  2
SW_CENTERMARKSYMBOL_6
 70
     0
 10
0.0
 20
0.0
 30
0.0
  3
SW_CENTERMARKSYMBOL_6
  1

  0
LINE
  5
3B5
330
3B2
100
AcDbEntity
  8
0
  6
Continuous
 62
     0
370
    18
100
AcDbLine
 10
0.0
 20
0.0
 30
0.0
 11
0.0
 21
2.5
 31
0.0
  0
LINE
  5
3B6
330
3B2
100
AcDbEntity
  8
0
  6
Continuous
 62
     0
370
    18
100
AcDbLine
 10
0.0
 20
0.0
 30
0.0
 11
-2.5
 21
0.0
 31
0.0
  0
LINE
  5
3B7
330
3B2
100
AcDbEntity
  8
0
  6
Continuous
 62
     0
370
    18
100
AcDbLine
 10
0.0
 20
0.0
 30
0.0
 11
0.0
 21
-2.5
 31
0.0
  0
LINE
  5
3B8
330
3B2
100
AcDbEntity
  8
0
  6
Continuous
 62
     0
370
    18
100
AcDbLine
 10
0.0
 20
0.0
 30
0.0
 11
2.5
 21
0.0
 31
0.0
  0
LINE
  5
3B9
330
3B2
100
AcDbEntity
  8
0
  6
Continuous
 62
     0
370
    18
100
AcDbLine
 10
0.0
 20
5.0
 30
0.0
 11
0.0
 21
6.25
 31
0.0
  0
LINE
  5
3BA
330
3B2
100
AcDbEntity
  8
0
  6
Continuous
 62
     0
370
    18
100
AcDbLine
 10
-5.0
 20
0.0
 30
0.0
 11
-6.25
 21
0.0
 31
0.0
  0
LINE
  5
3BB
330
3B2
100
AcDbEntity
  8
0
  6
Continuous
 62
     0
370
    18
100
AcDbLine
 10
0.0
 20
-5.0
 30
0.0
 11
0.0
 21
-6.25
 31
0.0
  0
LINE
  5
3BC
330
3B2
100
AcDbEntity
  8
0
  6
Continuous
 62
     0
370
    18
100
AcDbLine
 10
5.0
 20
0.0
 30
0.0
 11
6.25
 21
0.0
 31
0.0
  0
ENDBLK
  5
3B4
330
3B2
100
AcDbEntity
  8
0
100
AcDbBlockEnd
  0
BLOCK
  5
3BF
330
3BE
100
AcDbEntity
  8
0
100
AcDbBlockBegin
  2
SW_CENTERMARKSYMBOL_7
 70
     0
 10
0.0
 20
0.0
 30
0.0
  3
SW_CENTERMARKSYMBOL_7
  1

  0
LINE
  5
3C1
330
3BE
100
AcDbEntity
  8
0
  6
Continuous
 62
     0
370
    18
100
AcDbLine
 10
0.0
 20
0.0
 30
0.0
 11
0.0
 21
2.5
 31
0.0
  0
LINE
  5
3C2
330
3BE
100
AcDbEntity
  8
0
  6
Continuous
 62
     0
370
    18
100
AcDbLine
 10
0.0
 20
0.0
 30
0.0
 11
-2.5
 21
0.0
 31
0.0
  0
LINE
  5
3C3
330
3BE
100
AcDbEntity
  8
0
  6
Continuous
 62
     0
370
    18
100
AcDbLine
 10
0.0
 20
0.0
 30
0.0
 11
0.0
 21
-2.5
 31
0.0
  0
LINE
  5
3C4
330
3BE
100
AcDbEntity
  8
0
  6
Continuous
 62
     0
370
    18
100
AcDbLine
 10
0.0
 20
0.0
 30
0.0
 11
2.5
 21
0.0
 31
0.0
  0
LINE
  5
3C5
330
3BE
100
AcDbEntity
  8
0
  6
Continuous
 62
     0
370
    18
100
AcDbLine
 10
0.0
 20
2.5
 30
0.0
 11
0.0
 21
4.55
 31
0.0
  0
LINE
  5
3C6
330
3BE
100
AcDbEntity
  8
0
  6
Continuous
 62
     0
370
    18
100
AcDbLine
 10
-2.5
 20
0.0
 30
0.0
 11
-4.55
 21
0.0
 31
0.0
  0
LINE
  5
3C7
330
3BE
100
AcDbEntity
  8
0
  6
Continuous
 62
     0
370
    18
100
AcDbLine
 10
0.0
 20
-2.5
 30
0.0
 11
0.0
 21
-4.55
 31
0.0
  0
LINE
  5
3C8
330
3BE
100
AcDbEntity
  8
0
  6
Continuous
 62
     0
370
    18
100
AcDbLine
 10
2.5
 20
0.0
 30
0.0
 11
4.55
 21
0.0
 31
0.0
  0
ENDBLK
  5
3C0
330
3BE
100
AcDbEntity
  8
0
100
AcDbBlockEnd
  0
BLOCK
  5
3CB
330
3CA
100
AcDbEntity
  8
0
100
AcDbBlockBegin
  2
SW_CENTERMARKSYMBOL_8
 70
     0
 10
0.0
 20
0.0
 30
0.0
  3
SW_CENTERMARKSYMBOL_8
  1

  0
LINE
  5
3CD
330
3CA
100
AcDbEntity
  8
0
  6
Continuous
 62
     0
370
    18
100
AcDbLine
 10
0.0
 20
0.0
 30
0.0
 11
0.0
 21
2.5
 31
0.0
  0
LINE
  5
3CE
330
3CA
100
AcDbEntity
  8
0
  6
Continuous
 62
     0
370
    18
100
AcDbLine
 10
0.0
 20
0.0
 30
0.0
 11
-2.5
 21
0.0
 31
0.0
  0
LINE
  5
3CF
330
3CA
100
AcDbEntity
  8
0
  6
Continuous
 62
     0
370
    18
100
AcDbLine
 10
0.0
 20
0.0
 30
0.0
 11
0.0
 21
-2.5
 31
0.0
  0
LINE
  5
3D0
330
3CA
100
AcDbEntity
  8
0
  6
Continuous
 62
     0
370
    18
100
AcDbLine
 10
0.0
 20
0.0
 30
0.0
 11
2.5
 21
0.0
 31
0.0
  0
LINE
  5
3D1
330
3CA
100
AcDbEntity
  8
0
  6
Continuous
 62
     0
370
    18
100
AcDbLine
 10
0.0
 20
2.5
 30
0.0
 11
0.0
 21
4.5
 31
0.0
  0
LINE
  5
3D2
330
3CA
100
AcDbEntity
  8
0
  6
Continuous
 62
     0
370
    18
100
AcDbLine
 10
-2.5
 20
0.0
 30
0.0
 11
-4.5
 21
0.0
 31
0.0
  0
LINE
  5
3D3
330
3CA
100
AcDbEntity
  8
0
  6
Continuous
 62
     0
370
    18
100
AcDbLine
 10
0.0
 20
-2.5
 30
0.0
 11
0.0
 21
-4.5
 31
0.0
  0
LINE
  5
3D4
330
3CA
100
AcDbEntity
  8
0
  6
Continuous
 62
     0
370
    18
100
AcDbLine
 10
2.5
 20
0.0
 30
0.0
 11
4.5
 21
0.0
 31
0.0
  0
ENDBLK
  5
3CC
330
3CA
100
AcDbEntity
  8
0
100
AcDbBlockEnd
  0
BLOCK
  5
3D7
330
3D6
100
AcDbEntity
  8
0
100
AcDbBlockBegin
  2
SW_CENTERMARKSYMBOL_9
 70
     0
 10
0.0
 20
0.0
 30
0.0
  3
SW_CENTERMARKSYMBOL_9
  1

  0
LINE
  5
3D9
330
3D6
100
AcDbEntity
  8
0
  6
Continuous
 62
     0
370
    18
100
AcDbLine
 10
0.0
 20
0.0
 30
0.0
 11
0.0
 21
2.5
 31
0.0
  0
LINE
  5
3DA
330
3D6
100
AcDbEntity
  8
0
  6
Continuous
 62
     0
370
    18
100
AcDbLine
 10
0.0
 20
0.0
 30
0.0
 11
-2.5
 21
0.0
 31
0.0
  0
LINE
  5
3DB
330
3D6
100
AcDbEntity
  8
0
  6
Continuous
 62
     0
370
    18
100
AcDbLine
 10
0.0
 20
0.0
 30
0.0
 11
0.0
 21
-2.5
 31
0.0
  0
LINE
  5
3DC
330
3D6
100
AcDbEntity
  8
0
  6
Continuous
 62
     0
370
    18
100
AcDbLine
 10
0.0
 20
0.0
 30
0.0
 11
2.5
 21
0.0
 31
0.0
  0
LINE
  5
3DD
330
3D6
100
AcDbEntity
  8
0
  6
Continuous
 62
     0
370
    18
100
AcDbLine
 10
0.0
 20
5.0
 30
0.0
 11
0.0
 21
13.6529331945
 31
0.0
  0
LINE
  5
3DE
330
3D6
100
AcDbEntity
  8
0
  6
Continuous
 62
     0
370
    18
100
AcDbLine
 10
-5.0
 20
0.0
 30
0.0
 11
-13.615
 21
0.0
 31
0.0
  0
LINE
  5
3DF
330
3D6
100
AcDbEntity
  8
0
  6
Continuous
 62
     0
370
    18
100
AcDbLine
 10
0.0
 20
-5.0
 30
0.0
 11
0.0
 21
-13.615
 31
0.0
  0
LINE
  5
3E0
330
3D6
100
AcDbEntity
  8
0
  6
Continuous
 62
     0
370
    18
100
AcDbLine
 10
5.0
 20
0.0
 30
0.0
 11
13.615
 21
0.0
 31
0.0
  0
ENDBLK
  5
3D8
330
3D6
100
AcDbEntity
  8
0
100
AcDbBlockEnd
  0
BLOCK
  5
3E3
330
3E2
100
AcDbEntity
  8
0
100
AcDbBlockBegin
  2
SW_CENTERMARKSYMBOL_10
 70
     0
 10
0.0
 20
0.0
 30
0.0
  3
SW_CENTERMARKSYMBOL_10
  1

  0
LINE
  5
3E5
330
3E2
100
AcDbEntity
  8
0
  6
Continuous
 62
     0
370
    18
100
AcDbLine
 10
0.0
 20
0.0
 30
0.0
 11
0.0
 21
2.5
 31
0.0
  0
LINE
  5
3E6
330
3E2
100
AcDbEntity
  8
0
  6
Continuous
 62
     0
370
    18
100
AcDbLine
 10
0.0
 20
0.0
 30
0.0
 11
-2.5
 21
0.0
 31
0.0
  0
LINE
  5
3E7
330
3E2
100
AcDbEntity
  8
0
  6
Continuous
 62
     0
370
    18
100
AcDbLine
 10
0.0
 20
0.0
 30
0.0
 11
0.0
 21
-2.5
 31
0.0
  0
LINE
  5
3E8
330
3E2
100
AcDbEntity
  8
0
  6
Continuous
 62
     0
370
    18
100
AcDbLine
 10
0.0
 20
0.0
 30
0.0
 11
2.5
 21
0.0
 31
0.0
  0
LINE
  5
3E9
330
3E2
100
AcDbEntity
  8
0
  6
Continuous
 62
     0
370
    18
100
AcDbLine
 10
0.0
 20
5.0
 30
0.0
 11
0.0
 21
7.615
 31
0.0
  0
LINE
  5
3EA
330
3E2
100
AcDbEntity
  8
0
  6
Continuous
 62
     0
370
    18
100
AcDbLine
 10
-5.0
 20
0.0
 30
0.0
 11
-7.615
 21
0.0
 31
0.0
  0
LINE
  5
3EB
330
3E2
100
AcDbEntity
  8
0
  6
Continuous
 62
     0
370
    18
100
AcDbLine
 10
0.0
 20
-5.0
 30
0.0
 11
0.0
 21
-7.615
 31
0.0
  0
LINE
  5
3EC
330
3E2
100
AcDbEntity
  8
0
  6
Continuous
 62
     0
370
    18
100
AcDbLine
 10
5.0
 20
0.0
 30
0.0
 11
7.615
 21
0.0
 31
0.0
  0
ENDBLK
  5
3E4
330
3E2
100
AcDbEntity
  8
0
100
AcDbBlockEnd
  0
BLOCK
  5
3EF
330
3EE
100
AcDbEntity
  8
0
100
AcDbBlockBegin
  2
SW_CENTERMARKSYMBOL_11
 70
     0
 10
0.0
 20
0.0
 30
0.0
  3
SW_CENTERMARKSYMBOL_11
  1

  0
LINE
  5
3F1
330
3EE
100
AcDbEntity
  8
0
  6
Continuous
 62
     0
370
    18
100
AcDbLine
 10
0.0
 20
0.0
 30
0.0
 11
0.0
 21
2.5
 31
0.0
  0
LINE
  5
3F2
330
3EE
100
AcDbEntity
  8
0
  6
Continuous
 62
     0
370
    18
100
AcDbLine
 10
0.0
 20
0.0
 30
0.0
 11
-2.5
 21
0.0
 31
0.0
  0
LINE
  5
3F3
330
3EE
100
AcDbEntity
  8
0
  6
Continuous
 62
     0
370
    18
100
AcDbLine
 10
0.0
 20
0.0
 30
0.0
 11
0.0
 21
-2.5
 31
0.0
  0
LINE
  5
3F4
330
3EE
100
AcDbEntity
  8
0
  6
Continuous
 62
     0
370
    18
100
AcDbLine
 10
0.0
 20
0.0
 30
0.0
 11
2.5
 21
0.0
 31
0.0
  0
LINE
  5
3F5
330
3EE
100
AcDbEntity
  8
0
  6
Continuous
 62
     0
370
    18
100
AcDbLine
 10
0.0
 20
5.0
 30
0.0
 11
0.0
 21
6.25
 31
0.0
  0
LINE
  5
3F6
330
3EE
100
AcDbEntity
  8
0
  6
Continuous
 62
     0
370
    18
100
AcDbLine
 10
-5.0
 20
0.0
 30
0.0
 11
-6.25
 21
0.0
 31
0.0
  0
LINE
  5
3F7
330
3EE
100
AcDbEntity
  8
0
  6
Continuous
 62
     0
370
    18
100
AcDbLine
 10
0.0
 20
-5.0
 30
0.0
 11
0.0
 21
-6.25
 31
0.0
  0
LINE
  5
3F8
330
3EE
100
AcDbEntity
  8
0
  6
Continuous
 62
     0
370
    18
100
AcDbLine
 10
5.0
 20
0.0
 30
0.0
 11
6.25
 21
0.0
 31
0.0
  0
ENDBLK
  5
3F0
330
3EE
100
AcDbEntity
  8
0
100
AcDbBlockEnd
  0
BLOCK
  5
491
330
490
100
AcDbEntity
  8
0
100
AcDbBlockBegin
  2
_D_24
 70
     0
 10
0.0
 20
0.0
 30
0.0
  3
_D_24
  1

  0
SOLID
  5
493
330
490
100
AcDbEntity
  8
0
  6
Continuous
 62
     7
370
    18
100
AcDbTrace
 10
456.1810858779
 20
463.660956124
 30
0.0
 11
456.6810858779
 21
466.660956124
 31
0.0
 12
455.6810858779
 22
466.660956124
 32
0.0
 13
455.6810858779
 23
466.660956124
 33
0.0
  0
SOLID
  5
494
330
490
100
AcDbEntity
  8
0
  6
Continuous
 62
     7
370
    18
100
AcDbTrace
 10
456.1810858779
 20
454.660956124
 30
0.0
 11
455.6810858779
 21
451.660956124
 31
0.0
 12
456.6810858779
 22
451.660956124
 32
0.0
 13
456.6810858779
 23
451.660956124
 33
0.0
  0
LINE
  5
495
330
490
100
AcDbEntity
  8
0
  6
Continuous
 62
     7
370
     0
100
AcDbLine
 10
476.1637858549
 20
463.660956124
 30
0.0
 11
455.6810858779
 21
463.660956124
 31
0.0
  0
LINE
  5
496
330
490
100
AcDbEntity
  8
0
  6
Continuous
 62
     7
370
     0
100
AcDbLine
 10
476.1637858549
 20
454.660956124
 30
0.0
 11
455.6810858779
 21
454.660956124
 31
0.0
  0
LINE
  5
497
330
490
100
AcDbEntity
  8
0
  6
Continuous
 62
     7
370
     0
100
AcDbLine
 10
456.1810858779
 20
463.660956124
 30
0.0
 11
456.1810858779
 21
469.160956124
 31
0.0
  0
LINE
  5
498
330
490
100
AcDbEntity
  8
0
  6
Continuous
 62
     7
370
     0
100
AcDbLine
 10
456.1810858779
 20
463.660956124
 30
0.0
 11
456.1810858779
 21
454.660956124
 31
0.0
  0
LINE
  5
499
330
490
100
AcDbEntity
  8
0
  6
Continuous
 62
     7
370
     0
100
AcDbLine
 10
456.1810858779
 20
454.660956124
 30
0.0
 11
456.1810858779
 21
449.160956124
 31
0.0
  0
MTEXT
  5
49A
330
490
100
AcDbEntity
  8
0
  6
Continuous
 62
     7
370
    18
100
AcDbMText
 10
449.7357475283
 20
457.2512338992
 30
0.0
 40
5.0
 41
0.0
 71
     1
 72
     1
  1
9
  7
SLDTEXTSTYLE1
 11
-7.044195017643634E-15
 21
1.0
 31
0.0
 73
     1
 44
1.0
  0
ENDBLK
  5
492
330
490
100
AcDbEntity
  8
0
100
AcDbBlockEnd
  0
BLOCK
  5
49D
330
49C
100
AcDbEntity
  8
0
100
AcDbBlockBegin
  2
_D_25
 70
     0
 10
0.0
 20
0.0
 30
0.0
  3
_D_25
  1

  0
SOLID
  5
49F
330
49C
100
AcDbEntity
  8
0
  6
Continuous
 62
     7
370
    18
100
AcDbTrace
 10
457.3637858549
 20
233.660956124
 30
0.0
 11
456.8637858549
 21
230.660956124
 31
0.0
 12
457.8637858549
 22
230.660956124
 32
0.0
 13
457.8637858549
 23
230.660956124
 33
0.0
  0
SOLID
  5
4A0
330
49C
100
AcDbEntity
  8
0
  6
Continuous
 62
     7
370
    18
100
AcDbTrace
 10
457.3637858549
 20
242.660956124
 30
0.0
 11
457.8637858549
 21
245.660956124
 31
0.0
 12
456.8637858549
 22
245.660956124
 32
0.0
 13
456.8637858549
 23
245.660956124
 33
0.0
  0
LINE
  5
4A1
330
49C
100
AcDbEntity
  8
0
  6
Continuous
 62
     7
370
     0
100
AcDbLine
 10
476.1637858549
 20
233.660956124
 30
0.0
 11
456.8637858549
 21
233.660956124
 31
0.0
  0
LINE
  5
4A2
330
49C
100
AcDbEntity
  8
0
  6
Continuous
 62
     7
370
     0
100
AcDbLine
 10
476.1637858549
 20
242.660956124
 30
0.0
 11
456.8637858549
 21
242.660956124
 31
0.0
  0
LINE
  5
4A3
330
49C
100
AcDbEntity
  8
0
  6
Continuous
 62
     7
370
     0
100
AcDbLine
 10
457.3637858549
 20
233.660956124
 30
0.0
 11
457.3637858549
 21
228.160956124
 31
0.0
  0
LINE
  5
4A4
330
49C
100
AcDbEntity
  8
0
  6
Continuous
 62
     7
370
     0
100
AcDbLine
 10
457.3637858549
 20
233.660956124
 30
0.0
 11
457.3637858549
 21
242.660956124
 31
0.0
  0
LINE
  5
4A5
330
49C
100
AcDbEntity
  8
0
  6
Continuous
 62
     7
370
     0
100
AcDbLine
 10
457.3637858549
 20
242.660956124
 30
0.0
 11
457.3637858549
 21
248.160956124
 31
0.0
  0
MTEXT
  5
4A6
330
49C
100
AcDbEntity
  8
0
  6
Continuous
 62
     7
370
    18
100
AcDbMText
 10
450.9184475053
 20
236.2512338992
 30
0.0
 40
5.0
 41
0.0
 71
     1
 72
     1
  1
9
  7
SLDTEXTSTYLE1
 11
6.123233995736766E-17
 21
1.0
 31
0.0
 73
     1
 44
1.0
  0
ENDBLK
  5
49E
330
49C
100
AcDbEntity
  8
0
100
AcDbBlockEnd
  0
BLOCK
  5
4A9
330
4A8
100
AcDbEntity
  8
0
100
AcDbBlockBegin
  2
_D_26
 70
     0
 10
0.0
 20
0.0
 30
0.0
  3
_D_26
  1

  0
SOLID
  5
4AB
330
4A8
100
AcDbEntity
  8
0
  6
Continuous
 62
     7
370
    18
100
AcDbTrace
 10
515.4454829983
 20
463.660956124
 30
0.0
 11
514.9454829983
 21
460.660956124
 31
0.0
 12
515.9454829983
 22
460.660956124
 32
0.0
 13
515.9454829983
 23
460.660956124
 33
0.0
  0
SOLID
  5
4AC
330
4A8
100
AcDbEntity
  8
0
  6
Continuous
 62
     7
370
    18
100
AcDbTrace
 10
515.4454829983
 20
233.660956124
 30
0.0
 11
515.9454829983
 21
236.660956124
 31
0.0
 12
514.9454829983
 22
236.660956124
 32
0.0
 13
514.9454829983
 23
236.660956124
 33
0.0
  0
LINE
  5
4AD
330
4A8
100
AcDbEntity
  8
0
  6
Continuous
 62
     7
370
     0
100
AcDbLine
 10
476.5637858549
 20
463.660956124
 30
0.0
 11
515.9454829983
 21
463.660956124
 31
0.0
  0
LINE
  5
4AE
330
4A8
100
AcDbEntity
  8
0
  6
Continuous
 62
     7
370
     0
100
AcDbLine
 10
476.5637858549
 20
233.660956124
 30
0.0
 11
515.9454829983
 21
233.660956124
 31
0.0
  0
LINE
  5
4AF
330
4A8
100
AcDbEntity
  8
0
  6
Continuous
 62
     7
370
     0
100
AcDbLine
 10
515.4454829983
 20
463.660956124
 30
0.0
 11
515.4454829983
 21
233.660956124
 31
0.0
  0
MTEXT
  5
4B0
330
4A8
100
AcDbEntity
  8
0
  6
Continuous
 62
     7
370
    18
100
AcDbMText
 10
509.0001446486
 20
342.9317893332
 30
0.0
 40
5.0
 41
0.0
 71
     1
 72
     1
  1
230
  7
SLDTEXTSTYLE1
 11
-7.044195017643634E-15
 21
1.0
 31
0.0
 73
     1
 44
1.0
  0
ENDBLK
  5
4AA
330
4A8
100
AcDbEntity
  8
0
100
AcDbBlockEnd
  0
BLOCK
  5
4B3
330
4B2
100
AcDbEntity
  8
0
100
AcDbBlockBegin
  2
_D_27
 70
     0
 10
0.0
 20
0.0
 30
0.0
  3
_D_27
  1

  0
SOLID
  5
4B5
330
4B2
100
AcDbEntity
  8
0
  6
Continuous
 62
     7
370
    18
100
AcDbTrace
 10
467.3637858549
 20
223.660956124
 30
0.0
 11
470.3637858549
 21
223.160956124
 31
0.0
 12
470.3637858549
 22
224.160956124
 32
0.0
 13
470.3637858549
 23
224.160956124
 33
0.0
  0
SOLID
  5
4B6
330
4B2
100
AcDbEntity
  8
0
  6
Continuous
 62
     7
370
    18
100
AcDbTrace
 10
485.3637858549
 20
223.660956124
 30
0.0
 11
482.3637858549
 21
224.160956124
 31
0.0
 12
482.3637858549
 22
223.160956124
 32
0.0
 13
482.3637858549
 23
223.160956124
 33
0.0
  0
LINE
  5
4B7
330
4B2
100
AcDbEntity
  8
0
  6
Continuous
 62
     7
370
     0
100
AcDbLine
 10
467.3637858549
 20
242.460956124
 30
0.0
 11
467.3637858549
 21
223.160956124
 31
0.0
  0
LINE
  5
4B8
330
4B2
100
AcDbEntity
  8
0
  6
Continuous
 62
     7
370
     0
100
AcDbLine
 10
485.3637858549
 20
242.460956124
 30
0.0
 11
485.3637858549
 21
223.160956124
 31
0.0
  0
LINE
  5
4B9
330
4B2
100
AcDbEntity
  8
0
  6
Continuous
 62
     7
370
     0
100
AcDbLine
 10
467.3637858549
 20
223.660956124
 30
0.0
 11
485.3637858549
 21
223.660956124
 31
0.0
  0
MTEXT
  5
4BA
330
4B2
100
AcDbEntity
  8
0
  6
Continuous
 62
     7
370
    18
100
AcDbMText
 10
472.5443414053
 20
230.1062944737
 30
0.0
 40
5.0
 41
0.0
 71
     1
 72
     1
  1
18
  7
SLDTEXTSTYLE1
 73
     1
 44
1.0
  0
ENDBLK
  5
4B4
330
4B2
100
AcDbEntity
  8
0
100
AcDbBlockEnd
  0
BLOCK
  5
4BE
330
4BD
100
AcDbEntity
  8
0
100
AcDbBlockBegin
  2
_D_28
 70
     0
 10
0.0
 20
0.0
 30
0.0
  3
_D_28
  1

  0
SOLID
  5
4C0
330
4BD
100
AcDbEntity
  8
0
  6
Continuous
 62
     7
370
    18
100
AcDbTrace
 10
467.3637858549
 20
418.9393383728
 30
0.0
 11
464.3637858549
 21
419.4393383728
 31
0.0
 12
464.3637858549
 22
418.4393383728
 32
0.0
 13
464.3637858549
 23
418.4393383728
 33
0.0
  0
SOLID
  5
4C1
330
4BD
100
AcDbEntity
  8
0
  6
Continuous
 62
     7
370
    18
100
AcDbTrace
 10
470.813785855
 20
418.9393383728
 30
0.0
 11
473.813785855
 21
418.4393383728
 31
0.0
 12
473.813785855
 22
419.4393383728
 32
0.0
 13
473.813785855
 23
419.4393383728
 33
0.0
  0
LINE
  5
4C2
330
4BD
100
AcDbEntity
  8
0
  6
Continuous
 62
     7
370
     0
100
AcDbLine
 10
470.813785855
 20
411.810956124
 30
0.0
 11
470.813785855
 21
419.4393383728
 31
0.0
  0
LINE
  5
4C3
330
4BD
100
AcDbEntity
  8
0
  6
Continuous
 62
     7
370
     0
100
AcDbLine
 10
467.3637858549
 20
418.9393383728
 30
0.0
 11
444.5894803511
 21
418.9393383728
 31
0.0
  0
LINE
  5
4C4
330
4BD
100
AcDbEntity
  8
0
  6
Continuous
 62
     7
370
     0
100
AcDbLine
 10
467.3637858549
 20
418.9393383728
 30
0.0
 11
470.813785855
 21
418.9393383728
 31
0.0
  0
LINE
  5
4C5
330
4BD
100
AcDbEntity
  8
0
  6
Continuous
 62
     7
370
     0
100
AcDbLine
 10
470.813785855
 20
418.9393383728
 30
0.0
 11
476.313785855
 21
418.9393383728
 31
0.0
  0
MTEXT
  5
4C6
330
4BD
100
AcDbEntity
  8
0
  6
Continuous
 62
     7
370
    18
100
AcDbMText
 10
444.5894803511
 20
425.3846767224
 30
0.0
 40
5.0
 41
0.0
 71
     1
 72
     1
  1
3.5
  7
SLDTEXTSTYLE1
 73
     1
 44
1.0
  0
ENDBLK
  5
4BF
330
4BD
100
AcDbEntity
  8
0
100
AcDbBlockEnd
  0
BLOCK
  5
4C9
330
4C8
100
AcDbEntity
  8
0
100
AcDbBlockBegin
  2
_D_29
 70
     0
 10
0.0
 20
0.0
 30
0.0
  3
_D_29
  1

  0
SOLID
  5
4CB
330
4C8
100
AcDbEntity
  8
0
  6
Continuous
 62
     7
370
    18
100
AcDbTrace
 10
470.6137858549
 20
339.2588762371
 30
0.0
 11
473.6137858549
 21
338.7588762371
 31
0.0
 12
473.6137858549
 22
339.7588762371
 32
0.0
 13
473.6137858549
 23
339.7588762371
 33
0.0
  0
SOLID
  5
4CC
330
4C8
100
AcDbEntity
  8
0
  6
Continuous
 62
     7
370
    18
100
AcDbTrace
 10
479.8137858549
 20
339.2588762371
 30
0.0
 11
476.8137858549
 21
339.7588762371
 31
0.0
 12
476.8137858549
 22
338.7588762371
 32
0.0
 13
476.8137858549
 23
338.7588762371
 33
0.0
  0
LINE
  5
4CD
330
4C8
100
AcDbEntity
  8
0
  6
Continuous
 62
     7
370
     0
100
AcDbLine
 10
470.6137858549
 20
353.610956124
 30
0.0
 11
470.6137858549
 21
338.7588762371
 31
0.0
  0
LINE
  5
4CE
330
4C8
100
AcDbEntity
  8
0
  6
Continuous
 62
     7
370
     0
100
AcDbLine
 10
479.8137858549
 20
353.610956124
 30
0.0
 11
479.8137858549
 21
338.7588762371
 31
0.0
  0
LINE
  5
4CF
330
4C8
100
AcDbEntity
  8
0
  6
Continuous
 62
     7
370
     0
100
AcDbLine
 10
470.6137858549
 20
339.2588762371
 30
0.0
 11
479.8137858549
 21
339.2588762371
 31
0.0
  0
LINE
  5
4D0
330
4C8
100
AcDbEntity
  8
0
  6
Continuous
 62
     7
370
     0
100
AcDbLine
 10
479.8137858549
 20
339.2588762371
 30
0.0
 11
500.1380913588
 21
339.2588762371
 31
0.0
  0
MTEXT
  5
4D1
330
4C8
100
AcDbEntity
  8
0
  6
Continuous
 62
     7
370
    18
100
AcDbMText
 10
490.5894803511
 20
345.7042145867
 30
0.0
 40
5.0
 41
0.0
 71
     1
 72
     1
  1
9.2
  7
SLDTEXTSTYLE1
 73
     1
 44
1.0
  0
ENDBLK
  5
4CA
330
4C8
100
AcDbEntity
  8
0
100
AcDbBlockEnd
  0
BLOCK
  5
4D4
330
4D3
100
AcDbEntity
  8
0
100
AcDbBlockBegin
  2
_D_30
 70
     0
 10
0.0
 20
0.0
 30
0.0
  3
_D_30
  1

  0
SOLID
  5
4D6
330
4D3
100
AcDbEntity
  8
0
  6
Continuous
 62
     7
370
    18
100
AcDbTrace
 10
470.6137858549
 20
339.2588762371
 30
0.0
 11
473.6137858549
 21
338.7588762371
 31
0.0
 12
473.6137858549
 22
339.7588762371
 32
0.0
 13
473.6137858549
 23
339.7588762371
 33
0.0
  0
SOLID
  5
4D7
330
4D3
100
AcDbEntity
  8
0
  6
Continuous
 62
     7
370
    18
100
AcDbTrace
 10
467.3637858549
 20
339.2588762371
 30
0.0
 11
464.3637858549
 21
339.7588762371
 31
0.0
 12
464.3637858549
 22
338.7588762371
 32
0.0
 13
464.3637858549
 23
338.7588762371
 33
0.0
  0
LINE
  5
4D8
330
4D3
100
AcDbEntity
  8
0
  6
Continuous
 62
     7
370
     0
100
AcDbLine
 10
470.6137858549
 20
353.610956124
 30
0.0
 11
470.6137858549
 21
338.7588762371
 31
0.0
  0
LINE
  5
4D9
330
4D3
100
AcDbEntity
  8
0
  6
Continuous
 62
     7
370
     0
100
AcDbLine
 10
470.6137858549
 20
339.2588762371
 30
0.0
 11
476.1137858549
 21
339.2588762371
 31
0.0
  0
LINE
  5
4DA
330
4D3
100
AcDbEntity
  8
0
  6
Continuous
 62
     7
370
     0
100
AcDbLine
 10
470.6137858549
 20
339.2588762371
 30
0.0
 11
467.3637858549
 21
339.2588762371
 31
0.0
  0
LINE
  5
4DB
330
4D3
100
AcDbEntity
  8
0
  6
Continuous
 62
     7
370
     0
100
AcDbLine
 10
467.3637858549
 20
339.2588762371
 30
0.0
 11
451.4067803741
 21
339.2588762371
 31
0.0
  0
MTEXT
  5
4DC
330
4D3
100
AcDbEntity
  8
0
  6
Continuous
 62
     7
370
    18
100
AcDbMText
 10
451.4067803741
 20
345.7042145867
 30
0.0
 40
5.0
 41
0.0
 71
     1
 72
     1
  1
3.3
  7
SLDTEXTSTYLE1
 73
     1
 44
1.0
  0
ENDBLK
  5
4D5
330
4D3
100
AcDbEntity
  8
0
100
AcDbBlockEnd
  0
BLOCK
  5
4DF
330
4DE
100
AcDbEntity
  8
0
100
AcDbBlockBegin
  2
_D_31
 70
     0
 10
0.0
 20
0.0
 30
0.0
  3
_D_31
  1

  0
SOLID
  5
4E1
330
4DE
100
AcDbEntity
  8
0
  6
Continuous
 62
     7
370
    18
100
AcDbTrace
 10
470.813785855
 20
418.9393383728
 30
0.0
 11
473.813785855
 21
418.4393383728
 31
0.0
 12
473.813785855
 22
419.4393383728
 32
0.0
 13
473.813785855
 23
419.4393383728
 33
0.0
  0
SOLID
  5
4E2
330
4DE
100
AcDbEntity
  8
0
  6
Continuous
 62
     7
370
    18
100
AcDbTrace
 10
481.5137858549
 20
418.9393383728
 30
0.0
 11
478.5137858549
 21
419.4393383728
 31
0.0
 12
478.5137858549
 22
418.4393383728
 32
0.0
 13
478.5137858549
 23
418.4393383728
 33
0.0
  0
LINE
  5
4E3
330
4DE
100
AcDbEntity
  8
0
  6
Continuous
 62
     7
370
     0
100
AcDbLine
 10
470.813785855
 20
411.810956124
 30
0.0
 11
470.813785855
 21
419.4393383728
 31
0.0
  0
LINE
  5
4E4
330
4DE
100
AcDbEntity
  8
0
  6
Continuous
 62
     7
370
     0
100
AcDbLine
 10
481.5137858549
 20
409.460956124
 30
0.0
 11
481.5137858549
 21
419.4393383728
 31
0.0
  0
LINE
  5
4E5
330
4DE
100
AcDbEntity
  8
0
  6
Continuous
 62
     7
370
     0
100
AcDbLine
 10
470.813785855
 20
418.9393383728
 30
0.0
 11
481.5137858549
 21
418.9393383728
 31
0.0
  0
LINE
  5
4E6
330
4DE
100
AcDbEntity
  8
0
  6
Continuous
 62
     7
370
     0
100
AcDbLine
 10
481.5137858549
 20
418.9393383728
 30
0.0
 11
502.0478134672
 21
418.9393383728
 31
0.0
  0
MTEXT
  5
4E7
330
4DE
100
AcDbEntity
  8
0
  6
Continuous
 62
     7
370
    18
100
AcDbMText
 10
488.6797582427
 20
425.3846767224
 30
0.0
 40
5.0
 41
0.0
 71
     1
 72
     1
  1
10.7
  7
SLDTEXTSTYLE1
 73
     1
 44
1.0
  0
ENDBLK
  5
4E0
330
4DE
100
AcDbEntity
  8
0
100
AcDbBlockEnd
  0
BLOCK
  5
550
330
54F
100
AcDbEntity
  8
0
100
AcDbBlockBegin
  2
_D_32
 70
     0
 10
0.0
 20
0.0
 30
0.0
  3
_D_32
  1

  0
SOLID
  5
552
330
54F
100
AcDbEntity
  8
0
  6
Continuous
 62
     7
370
    18
100
AcDbTrace
 10
413.2796211923
 20
180.552179023
 30
0.0
 11
412.7796211923
 21
177.552179023
 31
0.0
 12
413.7796211923
 22
177.552179023
 32
0.0
 13
413.7796211923
 23
177.552179023
 33
0.0
  0
SOLID
  5
553
330
54F
100
AcDbEntity
  8
0
  6
Continuous
 62
     7
370
    18
100
AcDbTrace
 10
413.2796211923
 20
181.752179023
 30
0.0
 11
413.7796211923
 21
184.752179023
 31
0.0
 12
412.7796211923
 22
184.752179023
 32
0.0
 13
412.7796211923
 23
184.752179023
 33
0.0
  0
LINE
  5
554
330
54F
100
AcDbEntity
  8
0
  6
Continuous
 62
     7
370
     0
100
AcDbLine
 10
393.6252211923
 20
180.552179023
 30
0.0
 11
413.7796211923
 21
180.552179023
 31
0.0
  0
LINE
  5
555
330
54F
100
AcDbEntity
  8
0
  6
Continuous
 62
     7
370
     0
100
AcDbLine
 10
308.4752211923
 20
181.752179023
 30
0.0
 11
413.7796211923
 21
181.752179023
 31
0.0
  0
LINE
  5
556
330
54F
100
AcDbEntity
  8
0
  6
Continuous
 62
     7
370
     0
100
AcDbLine
 10
413.2796211923
 20
180.552179023
 30
0.0
 11
413.2796211923
 21
175.052179023
 31
0.0
  0
LINE
  5
557
330
54F
100
AcDbEntity
  8
0
  6
Continuous
 62
     7
370
     0
100
AcDbLine
 10
413.2796211923
 20
180.552179023
 30
0.0
 11
413.2796211923
 21
181.752179023
 31
0.0
  0
LINE
  5
558
330
54F
100
AcDbEntity
  8
0
  6
Continuous
 62
     7
370
     0
100
AcDbLine
 10
413.2796211923
 20
181.752179023
 30
0.0
 11
413.2796211923
 21
196.5264845268
 31
0.0
  0
MTEXT
  5
559
330
54F
100
AcDbEntity
  8
0
  6
Continuous
 62
     7
370
    18
100
AcDbMText
 10
406.8342828427
 20
186.9778735192
 30
0.0
 40
5.0
 41
0.0
 71
     1
 72
     1
  1
1.2
  7
SLDTEXTSTYLE1
 11
-8.269460797427576E-16
 21
1.0
 31
0.0
 73
     1
 44
1.0
  0
ENDBLK
  5
551
330
54F
100
AcDbEntity
  8
0
100
AcDbBlockEnd
  0
BLOCK
  5
55C
330
55B
100
AcDbEntity
  8
0
100
AcDbBlockBegin
  2
_D_33
 70
     0
 10
0.0
 20
0.0
 30
0.0
  3
_D_33
  1

  0
SOLID
  5
55E
330
55B
100
AcDbEntity
  8
0
  6
Continuous
 62
     7
370
    18
100
AcDbTrace
 10
413.2796211923
 20
167.552179023
 30
0.0
 11
413.7796211923
 21
170.552179023
 31
0.0
 12
412.7796211923
 22
170.552179023
 32
0.0
 13
412.7796211923
 23
170.552179023
 33
0.0
  0
SOLID
  5
55F
330
55B
100
AcDbEntity
  8
0
  6
Continuous
 62
     7
370
    18
100
AcDbTrace
 10
413.2796211923
 20
180.552179023
 30
0.0
 11
412.7796211923
 21
177.552179023
 31
0.0
 12
413.7796211923
 22
177.552179023
 32
0.0
 13
413.7796211923
 23
177.552179023
 33
0.0
  0
LINE
  5
560
330
55B
100
AcDbEntity
  8
0
  6
Continuous
 62
     7
370
     0
100
AcDbLine
 10
393.7252211923
 20
167.552179023
 30
0.0
 11
413.7796211923
 21
167.552179023
 31
0.0
  0
LINE
  5
561
330
55B
100
AcDbEntity
  8
0
  6
Continuous
 62
     7
370
     0
100
AcDbLine
 10
393.6252211923
 20
180.552179023
 30
0.0
 11
413.7796211923
 21
180.552179023
 31
0.0
  0
LINE
  5
562
330
55B
100
AcDbEntity
  8
0
  6
Continuous
 62
     7
370
     0
100
AcDbLine
 10
413.2796211923
 20
167.552179023
 30
0.0
 11
413.2796211923
 21
180.552179023
 31
0.0
  0
MTEXT
  5
563
330
55B
100
AcDbEntity
  8
0
  6
Continuous
 62
     7
370
    18
100
AcDbMText
 10
406.8342828427
 20
170.2327345734
 30
0.0
 40
5.0
 41
0.0
 71
     1
 72
     1
  1
13
  7
SLDTEXTSTYLE1
 11
-3.491481338843133E-15
 21
1.0
 31
0.0
 73
     1
 44
1.0
  0
ENDBLK
  5
55D
330
55B
100
AcDbEntity
  8
0
100
AcDbBlockEnd
  0
BLOCK
  5
5D8
330
5D7
100
AcDbEntity
  8
0
100
AcDbBlockBegin
  2
_D_34
 70
     0
 10
0.0
 20
0.0
 30
0.0
  3
_D_34
  1

  0
SOLID
  5
5DA
330
5D7
100
AcDbEntity
  8
0
  6
Continuous
 62
     7
370
    18
100
AcDbTrace
 10
413.2796211923
 20
115.7811288251
 30
0.0
 11
413.7796211923
 21
118.7811288251
 31
0.0
 12
412.7796211923
 22
118.7811288251
 32
0.0
 13
412.7796211923
 23
118.7811288251
 33
0.0
  0
SOLID
  5
5DB
330
5D7
100
AcDbEntity
  8
0
  6
Continuous
 62
     7
370
    18
100
AcDbTrace
 10
413.2796211923
 20
129.4811288251
 30
0.0
 11
412.7796211923
 21
126.4811288251
 31
0.0
 12
413.7796211923
 22
126.4811288251
 32
0.0
 13
413.7796211923
 23
126.4811288251
 33
0.0
  0
LINE
  5
5DC
330
5D7
100
AcDbEntity
  8
0
  6
Continuous
 62
     7
370
     0
100
AcDbLine
 10
382.6810357674
 20
115.7811288251
 30
0.0
 11
413.7796211923
 21
115.7811288251
 31
0.0
  0
LINE
  5
5DD
330
5D7
100
AcDbEntity
  8
0
  6
Continuous
 62
     7
370
     0
100
AcDbLine
 10
393.6252211923
 20
129.4811288251
 30
0.0
 11
413.7796211923
 21
129.4811288251
 31
0.0
  0
LINE
  5
5DE
330
5D7
100
AcDbEntity
  8
0
  6
Continuous
 62
     7
370
     0
100
AcDbLine
 10
413.2796211923
 20
115.7811288251
 30
0.0
 11
413.2796211923
 21
95.9971012129
 31
0.0
  0
LINE
  5
5DF
330
5D7
100
AcDbEntity
  8
0
  6
Continuous
 62
     7
370
     0
100
AcDbLine
 10
413.2796211923
 20
115.7811288251
 30
0.0
 11
413.2796211923
 21
129.4811288251
 31
0.0
  0
MTEXT
  5
5E0
330
5D7
100
AcDbEntity
  8
0
  6
Continuous
 62
     7
370
    18
100
AcDbMText
 10
406.8342828427
 20
95.9971012129
 30
0.0
 40
5.0
 41
0.0
 71
     1
 72
     1
  1
13.7
  7
SLDTEXTSTYLE1
 11
-8.269460797427576E-16
 21
1.0
 31
0.0
 73
     1
 44
1.0
  0
ENDBLK
  5
5D9
330
5D7
100
AcDbEntity
  8
0
100
AcDbBlockEnd
  0
BLOCK
  5
5E3
330
5E2
100
AcDbEntity
  8
0
100
AcDbBlockBegin
  2
_D_35
 70
     0
 10
0.0
 20
0.0
 30
0.0
  3
_D_35
  1

  0
SOLID
  5
5E5
330
5E2
100
AcDbEntity
  8
0
  6
Continuous
 62
     7
370
    18
100
AcDbTrace
 10
413.2796211923
 20
130.6811288251
 30
0.0
 11
412.7796211923
 21
127.6811288251
 31
0.0
 12
413.7796211923
 22
127.6811288251
 32
0.0
 13
413.7796211923
 23
127.6811288251
 33
0.0
  0
SOLID
  5
5E6
330
5E2
100
AcDbEntity
  8
0
  6
Continuous
 62
     7
370
    18
100
AcDbTrace
 10
413.2796211923
 20
129.4811288251
 30
0.0
 11
413.7796211923
 21
132.4811288251
 31
0.0
 12
412.7796211923
 22
132.4811288251
 32
0.0
 13
412.7796211923
 23
132.4811288251
 33
0.0
  0
LINE
  5
5E7
330
5E2
100
AcDbEntity
  8
0
  6
Continuous
 62
     7
370
     0
100
AcDbLine
 10
308.4752211923
 20
130.6811288251
 30
0.0
 11
413.7796211923
 21
130.6811288251
 31
0.0
  0
LINE
  5
5E8
330
5E2
100
AcDbEntity
  8
0
  6
Continuous
 62
     7
370
     0
100
AcDbLine
 10
393.6252211923
 20
129.4811288251
 30
0.0
 11
413.7796211923
 21
129.4811288251
 31
0.0
  0
LINE
  5
5E9
330
5E2
100
AcDbEntity
  8
0
  6
Continuous
 62
     7
370
     0
100
AcDbLine
 10
413.2796211923
 20
130.6811288251
 30
0.0
 11
413.2796211923
 21
145.4554343289
 31
0.0
  0
LINE
  5
5EA
330
5E2
100
AcDbEntity
  8
0
  6
Continuous
 62
     7
370
     0
100
AcDbLine
 10
413.2796211923
 20
130.6811288251
 30
0.0
 11
413.2796211923
 21
129.4811288251
 31
0.0
  0
MTEXT
  5
5EB
330
5E2
100
AcDbEntity
  8
0
  6
Continuous
 62
     7
370
    18
100
AcDbMText
 10
406.8342828427
 20
135.9068233213
 30
0.0
 40
5.0
 41
0.0
 71
     1
 72
     1
  1
1.2
  7
SLDTEXTSTYLE1
 11
-7.932373437343760E-15
 21
1.0
 31
0.0
 73
     1
 44
1.0
  0
ENDBLK
  5
5E4
330
5E2
100
AcDbEntity
  8
0
100
AcDbBlockEnd
  0
BLOCK
  5
5EE
330
5ED
100
AcDbEntity
  8
0
100
AcDbBlockBegin
  2
_D_36
 70
     0
 10
0.0
 20
0.0
 30
0.0
  3
_D_36
  1

  0
SOLID
  5
5F0
330
5ED
100
AcDbEntity
  8
0
  6
Continuous
 62
     7
370
    18
100
AcDbTrace
 10
382.4810357674
 20
102.6811288251
 30
0.0
 11
379.4810357674
 21
103.1811288251
 31
0.0
 12
379.4810357674
 22
102.1811288251
 32
0.0
 13
379.4810357674
 23
102.1811288251
 33
0.0
  0
SOLID
  5
5F1
330
5ED
100
AcDbEntity
  8
0
  6
Continuous
 62
     7
370
    18
100
AcDbTrace
 10
348.0694066173
 20
102.6811288251
 30
0.0
 11
351.0694066173
 21
102.1811288251
 31
0.0
 12
351.0694066173
 22
103.1811288251
 32
0.0
 13
351.0694066173
 23
103.1811288251
 33
0.0
  0
LINE
  5
5F2
330
5ED
100
AcDbEntity
  8
0
  6
Continuous
 62
     7
370
     0
100
AcDbLine
 10
382.4810357674
 20
115.5811288251
 30
0.0
 11
382.4810357674
 21
102.1811288251
 31
0.0
  0
LINE
  5
5F3
330
5ED
100
AcDbEntity
  8
0
  6
Continuous
 62
     7
370
     0
100
AcDbLine
 10
348.0694066173
 20
115.5811288251
 30
0.0
 11
348.0694066173
 21
102.1811288251
 31
0.0
  0
LINE
  5
5F4
330
5ED
100
AcDbEntity
  8
0
  6
Continuous
 62
     7
370
     0
100
AcDbLine
 10
382.4810357674
 20
102.6811288251
 30
0.0
 11
348.0694066173
 21
102.6811288251
 31
0.0
  0
MTEXT
  5
5F5
330
5ED
100
AcDbEntity
  8
0
  6
Continuous
 62
     7
370
    18
100
AcDbMText
 10
357.8108113865
 20
109.126467524
 30
0.0
 40
5.0
 41
0.0
 71
     1
 72
     1
  1
%%c
  7
SLDTEXTSTYLE1
 73
     1
 44
1.0
  0
MTEXT
  5
5F6
330
5ED
100
AcDbEntity
  8
0
  6
Continuous
 62
     7
370
    18
100
AcDbMText
 10
365.1007420989
 20
109.1403564539
 30
0.0
 40
5.0
 41
0.0
 71
     1
 72
     1
  1
35
  7
SLDTEXTSTYLE1
 73
     1
 44
1.0
  0
ENDBLK
  5
5EF
330
5ED
100
AcDbEntity
  8
0
100
AcDbBlockEnd
  0
ENDSEC
  0
SECTION
  2
ENTITIES
  0
MTEXT
  5
EF
330
1F
100
AcDbEntity
  8
0
  6
Continuous
 62
     7
370
     0
100
AcDbMText
 10
279.7936839692
 20
178.8396118197
 30
0.0
 40
5.0
 41
0.0
 71
     1
 72
     1
  1
RZ
  7
SLDTEXTSTYLE1
 73
     1
 44
1.0
  0
MTEXT
  5
F0
330
1F
100
AcDbEntity
  8
0
  6
Continuous
 62
     7
370
     0
100
AcDbMText
 10
280.7737567773
 20
128.362163261
 30
0.0
 40
5.0
 41
0.0
 71
     1
 72
     1
  1
PZ
  7
SLDTEXTSTYLE1
 73
     1
 44
1.0
  0
MTEXT
  5
F1
330
1F
100
AcDbEntity
  8
0
  6
Continuous
 62
     7
370
     0
100
AcDbMText
 10
426.7865295257
 20
211.3168082067
 30
0.0
 40
5.0
 41
0.0
 71
     1
 72
     1
  1
Abbildung: DIN links
  7
SLDTEXTSTYLE1
 73
     1
 44
1.0
  0
LINE
  5
F2
330
1F
100
AcDbEntity
  8
0
  6
Continuous
 62
     7
370
    50
100
AcDbLine
 10
305.2752211923
 20
233.660956124
 30
0.0
 11
308.2752211923
 21
233.660956124
 31
0.0
  0
LINE
  5
F3
330
1F
100
AcDbEntity
  8
0
  6
Continuous
 62
     7
370
    50
100
AcDbLine
 10
308.2752211923
 20
463.660956124
 30
0.0
 11
305.2752211923
 21
463.660956124
 31
0.0
  0
SPLINE
  5
F4
330
1F
100
AcDbEntity
  8
0
  6
Continuous
 62
     7
370
    50
100
AcDbSpline
210
0.0
220
0.0
230
1.0
 70
     8
 71
     3
 72
    10
 73
     6
 74
     0
 42
0.000000001
 43
0.00000001
 40
0.0
 40
0.0
 40
0.0
 40
0.0
 40
0.0695197785310925
 40
0.9513755770532116
 40
1.0
 40
1.0
 40
1.0
 40
1.0
 10
365.8021501958219
 20
351.5092028974215
 30
0.0
 10
365.8534823892473
 20
351.5722435026991
 30
0.0
 10
366.5559615422802
 20
352.434951835364
 30
0.0
 10
367.5497776336402
 20
353.1673183801443
 30
0.0
 10
368.5623637821553
 20
353.5662016360266
 30
0.0
 10
368.6152788425934
 20
353.5870462146571
 30
0.0
  0
SPLINE
  5
F5
330
1F
100
AcDbEntity
  8
0
  6
Continuous
 62
     7
370
    50
100
AcDbSpline
210
0.0
220
0.0
230
1.0
 70
     8
 71
     3
 72
     9
 73
     5
 74
     0
 42
0.000000001
 43
0.00000001
 40
0.0
 40
0.0
 40
0.0
 40
0.0
 40
0.4368523792456058
 40
1.0
 40
1.0
 40
1.0
 40
1.0
 10
368.9332481631146
 20
354.7861107890024
 30
0.0
 10
368.1937919233666
 20
354.4468537824063
 30
0.0
 10
366.5011005821294
 20
353.670259622196
 30
0.0
 10
365.2040277426555
 20
352.3263437820029
 30
0.0
 10
364.4735842591607
 20
351.5695207741041
 30
0.0
  0
LINE
  5
F6
330
1F
100
AcDbEntity
  8
0
  6
Continuous
 62
     7
370
    50
100
AcDbLine
 10
305.2752211923
 20
233.660956124
 30
0.0
 11
305.2752211923
 21
242.660956124
 31
0.0
  0
LINE
  5
F7
330
1F
100
AcDbEntity
  8
0
  6
Continuous
 62
     7
370
    50
100
AcDbLine
 10
308.2752211923
 20
233.660956124
 30
0.0
 11
308.2752211923
 21
242.660956124
 31
0.0
  0
LINE
  5
F8
330
1F
100
AcDbEntity
  8
0
  6
Continuous
 62
     7
370
    50
100
AcDbLine
 10
305.2752211923
 20
242.660956124
 30
0.0
 11
305.2752211923
 21
454.660956124
 31
0.0
  0
LINE
  5
F9
330
1F
100
AcDbEntity
  8
0
  6
Continuous
 62
     7
370
    50
100
AcDbLine
 10
308.2752211923
 20
242.660956124
 30
0.0
 11
308.2752211923
 21
454.660956124
 31
0.0
  0
LINE
  5
FA
330
1F
100
AcDbEntity
  8
0
  6
Continuous
 62
     7
370
    50
100
AcDbLine
 10
305.2752211923
 20
454.660956124
 30
0.0
 11
305.2752211923
 21
463.660956124
 31
0.0
  0
LINE
  5
FB
330
1F
100
AcDbEntity
  8
0
  6
Continuous
 62
     7
370
    50
100
AcDbLine
 10
308.2752211923
 20
454.660956124
 30
0.0
 11
308.2752211923
 21
463.660956124
 31
0.0
  0
CIRCLE
  5
FC
330
1F
100
AcDbEntity
  8
0
  6
Continuous
 62
     7
370
    50
100
AcDbCircle
 10
360.2752211923
 20
324.660956124
 30
0.0
 40
3.0
  0
LINE
  5
FD
330
1F
100
AcDbEntity
  8
0
  6
Continuous
 62
     7
370
    50
100
AcDbLine
 10
359.7448911064
 20
324.1306260382
 30
0.0
 11
359.8252211923
 21
323.4947657451
 31
0.0
  0
LINE
  5
FE
330
1F
100
AcDbEntity
  8
0
  6
Continuous
 62
     7
370
    50
100
AcDbLine
 10
359.8252211923
 20
323.4947657451
 30
0.0
 11
359.8252211923
 21
322.660956124
 31
0.0
  0
LINE
  5
FF
330
1F
100
AcDbEntity
  8
0
  6
Continuous
 62
     7
370
    50
100
AcDbLine
 10
359.8252211923
 20
322.660956124
 30
0.0
 11
360.7252211923
 21
322.660956124
 31
0.0
  0
LINE
  5
100
330
1F
100
AcDbEntity
  8
0
  6
Continuous
 62
     7
370
    50
100
AcDbLine
 10
360.7252211923
 20
322.660956124
 30
0.0
 11
360.7252211923
 21
323.4947657451
 31
0.0
  0
LINE
  5
101
330
1F
100
AcDbEntity
  8
0
  6
Continuous
 62
     7
370
    50
100
AcDbLine
 10
360.7252211923
 20
323.4947657451
 30
0.0
 11
360.8055512782
 21
324.1306260382
 31
0.0
  0
LINE
  5
102
330
1F
100
AcDbEntity
  8
0
  6
Continuous
 62
     7
370
    50
100
AcDbLine
 10
360.8055512782
 20
324.1306260382
 30
0.0
 11
361.4414115713
 21
324.210956124
 31
0.0
  0
LINE
  5
103
330
1F
100
AcDbEntity
  8
0
  6
Continuous
 62
     7
370
    50
100
AcDbLine
 10
361.4414115713
 20
324.210956124
 30
0.0
 11
362.2752211923
 21
324.210956124
 31
0.0
  0
LINE
  5
104
330
1F
100
AcDbEntity
  8
0
  6
Continuous
 62
     7
370
    50
100
AcDbLine
 10
362.2752211923
 20
324.210956124
 30
0.0
 11
362.2752211923
 21
325.110956124
 31
0.0
  0
LINE
  5
105
330
1F
100
AcDbEntity
  8
0
  6
Continuous
 62
     7
370
    50
100
AcDbLine
 10
362.2752211923
 20
325.110956124
 30
0.0
 11
361.4414115713
 21
325.110956124
 31
0.0
  0
LINE
  5
106
330
1F
100
AcDbEntity
  8
0
  6
Continuous
 62
     7
370
    50
100
AcDbLine
 10
361.4414115713
 20
325.110956124
 30
0.0
 11
360.8055512782
 21
325.1912862099
 31
0.0
  0
LINE
  5
107
330
1F
100
AcDbEntity
  8
0
  6
Continuous
 62
     7
370
    50
100
AcDbLine
 10
360.8055512782
 20
325.1912862099
 30
0.0
 11
360.7252211923
 21
325.827146503
 31
0.0
  0
LINE
  5
108
330
1F
100
AcDbEntity
  8
0
  6
Continuous
 62
     7
370
    50
100
AcDbLine
 10
360.7252211923
 20
325.827146503
 30
0.0
 11
360.7252211923
 21
326.660956124
 31
0.0
  0
LINE
  5
109
330
1F
100
AcDbEntity
  8
0
  6
Continuous
 62
     7
370
    50
100
AcDbLine
 10
360.7252211923
 20
326.660956124
 30
0.0
 11
359.8252211923
 21
326.660956124
 31
0.0
  0
LINE
  5
10A
330
1F
100
AcDbEntity
  8
0
  6
Continuous
 62
     7
370
    50
100
AcDbLine
 10
359.8252211923
 20
326.660956124
 30
0.0
 11
359.8252211923
 21
325.827146503
 31
0.0
  0
LINE
  5
10B
330
1F
100
AcDbEntity
  8
0
  6
Continuous
 62
     7
370
    50
100
AcDbLine
 10
359.8252211923
 20
325.827146503
 30
0.0
 11
359.7448911064
 21
325.1912862099
 31
0.0
  0
LINE
  5
10C
330
1F
100
AcDbEntity
  8
0
  6
Continuous
 62
     7
370
    50
100
AcDbLine
 10
359.7448911064
 20
325.1912862099
 30
0.0
 11
359.1090308133
 21
325.110956124
 31
0.0
  0
LINE
  5
10D
330
1F
100
AcDbEntity
  8
0
  6
Continuous
 62
     7
370
    50
100
AcDbLine
 10
359.1090308133
 20
325.110956124
 30
0.0
 11
358.2752211923
 21
325.110956124
 31
0.0
  0
LINE
  5
10E
330
1F
100
AcDbEntity
  8
0
  6
Continuous
 62
     7
370
    50
100
AcDbLine
 10
358.2752211923
 20
325.110956124
 30
0.0
 11
358.2752211923
 21
324.210956124
 31
0.0
  0
LINE
  5
10F
330
1F
100
AcDbEntity
  8
0
  6
Continuous
 62
     7
370
    50
100
AcDbLine
 10
358.2752211923
 20
324.210956124
 30
0.0
 11
359.1090308133
 21
324.210956124
 31
0.0
  0
LINE
  5
110
330
1F
100
AcDbEntity
  8
0
  6
Continuous
 62
     7
370
    50
100
AcDbLine
 10
359.1090308133
 20
324.210956124
 30
0.0
 11
359.7448911064
 21
324.1306260382
 31
0.0
  0
LINE
  5
111
330
1F
100
AcDbEntity
  8
0
  6
Continuous
 62
     7
370
    50
100
AcDbLine
 10
360.3893818249
 20
326.3251167566
 30
0.0
 11
360.7252211923
 21
326.660956124
 31
0.0
  0
LINE
  5
112
330
1F
100
AcDbEntity
  8
0
  6
Continuous
 62
     7
370
    50
100
AcDbLine
 10
360.3893818249
 20
326.3251167566
 30
0.0
 11
360.1610605597
 21
326.3251167566
 31
0.0
  0
LINE
  5
113
330
1F
100
AcDbEntity
  8
0
  6
Continuous
 62
     7
370
    50
100
AcDbLine
 10
360.1610605597
 20
326.3251167566
 30
0.0
 11
359.8252211923
 21
326.660956124
 31
0.0
  0
LINE
  5
114
330
1F
100
AcDbEntity
  8
0
  6
Continuous
 62
     7
370
    50
100
AcDbLine
 10
358.6110605597
 20
324.5467954915
 30
0.0
 11
358.2752211923
 21
324.210956124
 31
0.0
  0
LINE
  5
115
330
1F
100
AcDbEntity
  8
0
  6
Continuous
 62
     7
370
    50
100
AcDbLine
 10
358.6110605597
 20
324.5467954915
 30
0.0
 11
359.1301606226
 21
324.5467954915
 31
0.0
  0
LINE
  5
116
330
1F
100
AcDbEntity
  8
0
  6
Continuous
 62
     7
370
    50
100
AcDbLine
 10
359.1301606226
 20
324.5467954915
 30
0.0
 11
359.1090308133
 21
324.210956124
 31
0.0
  0
LINE
  5
117
330
1F
100
AcDbEntity
  8
0
  6
Continuous
 62
     7
370
    50
100
AcDbLine
 10
358.6110605597
 20
324.7751167566
 30
0.0
 11
358.2752211923
 21
325.110956124
 31
0.0
  0
LINE
  5
118
330
1F
100
AcDbEntity
  8
0
  6
Continuous
 62
     7
370
    50
100
AcDbLine
 10
358.6110605597
 20
324.7751167566
 30
0.0
 11
358.6110605597
 21
324.5467954915
 31
0.0
  0
LINE
  5
119
330
1F
100
AcDbEntity
  8
0
  6
Continuous
 62
     7
370
    50
100
AcDbLine
 10
360.1610605597
 20
325.8060166937
 30
0.0
 11
359.8252211923
 21
325.827146503
 31
0.0
  0
LINE
  5
11A
330
1F
100
AcDbEntity
  8
0
  6
Continuous
 62
     7
370
    50
100
AcDbLine
 10
360.1610605597
 20
325.8060166937
 30
0.0
 11
360.045431695
 21
324.8907456214
 31
0.0
  0
LINE
  5
11B
330
1F
100
AcDbEntity
  8
0
  6
Continuous
 62
     7
370
    50
100
AcDbLine
 10
360.045431695
 20
324.8907456214
 30
0.0
 11
359.7448911064
 21
325.1912862099
 31
0.0
  0
LINE
  5
11C
330
1F
100
AcDbEntity
  8
0
  6
Continuous
 62
     7
370
    50
100
AcDbLine
 10
360.1610605597
 20
326.3251167566
 30
0.0
 11
360.1610605597
 21
325.8060166937
 31
0.0
  0
LINE
  5
11D
330
1F
100
AcDbEntity
  8
0
  6
Continuous
 62
     7
370
    50
100
AcDbLine
 10
361.420281762
 20
324.7751167566
 30
0.0
 11
361.4414115713
 21
325.110956124
 31
0.0
  0
LINE
  5
11E
330
1F
100
AcDbEntity
  8
0
  6
Continuous
 62
     7
370
    50
100
AcDbLine
 10
361.420281762
 20
324.7751167566
 30
0.0
 11
360.5050106897
 21
324.8907456214
 31
0.0
  0
LINE
  5
11F
330
1F
100
AcDbEntity
  8
0
  6
Continuous
 62
     7
370
    50
100
AcDbLine
 10
360.5050106897
 20
324.8907456214
 30
0.0
 11
360.8055512782
 21
325.1912862099
 31
0.0
  0
LINE
  5
120
330
1F
100
AcDbEntity
  8
0
  6
Continuous
 62
     7
370
    50
100
AcDbLine
 10
361.9393818249
 20
324.7751167566
 30
0.0
 11
362.2752211923
 21
325.110956124
 31
0.0
  0
LINE
  5
121
330
1F
100
AcDbEntity
  8
0
  6
Continuous
 62
     7
370
    50
100
AcDbLine
 10
361.9393818249
 20
324.7751167566
 30
0.0
 11
361.420281762
 21
324.7751167566
 31
0.0
  0
LINE
  5
122
330
1F
100
AcDbEntity
  8
0
  6
Continuous
 62
     7
370
    50
100
AcDbLine
 10
361.9393818249
 20
324.5467954915
 30
0.0
 11
362.2752211923
 21
324.210956124
 31
0.0
  0
LINE
  5
123
330
1F
100
AcDbEntity
  8
0
  6
Continuous
 62
     7
370
    50
100
AcDbLine
 10
361.9393818249
 20
324.5467954915
 30
0.0
 11
361.9393818249
 21
324.7751167566
 31
0.0
  0
LINE
  5
124
330
1F
100
AcDbEntity
  8
0
  6
Continuous
 62
     7
370
    50
100
AcDbLine
 10
361.420281762
 20
324.5467954915
 30
0.0
 11
361.4414115713
 21
324.210956124
 31
0.0
  0
LINE
  5
125
330
1F
100
AcDbEntity
  8
0
  6
Continuous
 62
     7
370
    50
100
AcDbLine
 10
361.420281762
 20
324.5467954915
 30
0.0
 11
361.9393818249
 21
324.5467954915
 31
0.0
  0
LINE
  5
126
330
1F
100
AcDbEntity
  8
0
  6
Continuous
 62
     7
370
    50
100
AcDbLine
 10
360.5050106897
 20
324.4311666267
 30
0.0
 11
360.8055512782
 21
324.1306260382
 31
0.0
  0
LINE
  5
127
330
1F
100
AcDbEntity
  8
0
  6
Continuous
 62
     7
370
    50
100
AcDbLine
 10
360.5050106897
 20
324.4311666267
 30
0.0
 11
361.420281762
 21
324.5467954915
 31
0.0
  0
LINE
  5
128
330
1F
100
AcDbEntity
  8
0
  6
Continuous
 62
     7
370
    50
100
AcDbLine
 10
360.3893818249
 20
323.5158955544
 30
0.0
 11
360.7252211923
 21
323.4947657451
 31
0.0
  0
LINE
  5
129
330
1F
100
AcDbEntity
  8
0
  6
Continuous
 62
     7
370
    50
100
AcDbLine
 10
360.3893818249
 20
323.5158955544
 30
0.0
 11
360.5050106897
 21
324.4311666267
 31
0.0
  0
LINE
  5
12A
330
1F
100
AcDbEntity
  8
0
  6
Continuous
 62
     7
370
    50
100
AcDbLine
 10
360.3893818249
 20
322.9967954915
 30
0.0
 11
360.7252211923
 21
322.660956124
 31
0.0
  0
LINE
  5
12B
330
1F
100
AcDbEntity
  8
0
  6
Continuous
 62
     7
370
    50
100
AcDbLine
 10
360.3893818249
 20
322.9967954915
 30
0.0
 11
360.3893818249
 21
323.5158955544
 31
0.0
  0
LINE
  5
12C
330
1F
100
AcDbEntity
  8
0
  6
Continuous
 62
     7
370
    50
100
AcDbLine
 10
360.1610605597
 20
322.9967954915
 30
0.0
 11
359.8252211923
 21
322.660956124
 31
0.0
  0
LINE
  5
12D
330
1F
100
AcDbEntity
  8
0
  6
Continuous
 62
     7
370
    50
100
AcDbLine
 10
360.1610605597
 20
322.9967954915
 30
0.0
 11
360.3893818249
 21
322.9967954915
 31
0.0
  0
LINE
  5
12E
330
1F
100
AcDbEntity
  8
0
  6
Continuous
 62
     7
370
    50
100
AcDbLine
 10
360.1610605597
 20
323.5158955544
 30
0.0
 11
359.8252211923
 21
323.4947657451
 31
0.0
  0
LINE
  5
12F
330
1F
100
AcDbEntity
  8
0
  6
Continuous
 62
     7
370
    50
100
AcDbLine
 10
360.1610605597
 20
323.5158955544
 30
0.0
 11
360.1610605597
 21
322.9967954915
 31
0.0
  0
LINE
  5
130
330
1F
100
AcDbEntity
  8
0
  6
Continuous
 62
     7
370
    50
100
AcDbLine
 10
360.3893818249
 20
325.8060166937
 30
0.0
 11
360.7252211923
 21
325.827146503
 31
0.0
  0
LINE
  5
131
330
1F
100
AcDbEntity
  8
0
  6
Continuous
 62
     7
370
    50
100
AcDbLine
 10
360.3893818249
 20
325.8060166937
 30
0.0
 11
360.3893818249
 21
326.3251167566
 31
0.0
  0
LINE
  5
132
330
1F
100
AcDbEntity
  8
0
  6
Continuous
 62
     7
370
    50
100
AcDbLine
 10
360.5050106897
 20
324.8907456214
 30
0.0
 11
360.3893818249
 21
325.8060166937
 31
0.0
  0
LINE
  5
133
330
1F
100
AcDbEntity
  8
0
  6
Continuous
 62
     7
370
    50
100
AcDbLine
 10
360.045431695
 20
324.4311666267
 30
0.0
 11
359.7448911064
 21
324.1306260382
 31
0.0
  0
LINE
  5
134
330
1F
100
AcDbEntity
  8
0
  6
Continuous
 62
     7
370
    50
100
AcDbLine
 10
360.045431695
 20
324.4311666267
 30
0.0
 11
360.1610605597
 21
323.5158955544
 31
0.0
  0
LINE
  5
135
330
1F
100
AcDbEntity
  8
0
  6
Continuous
 62
     7
370
    50
100
AcDbLine
 10
359.1301606226
 20
324.5467954915
 30
0.0
 11
360.045431695
 21
324.4311666267
 31
0.0
  0
LINE
  5
136
330
1F
100
AcDbEntity
  8
0
  6
Continuous
 62
     7
370
    50
100
AcDbLine
 10
359.1301606226
 20
324.7751167566
 30
0.0
 11
359.1090308133
 21
325.110956124
 31
0.0
  0
LINE
  5
137
330
1F
100
AcDbEntity
  8
0
  6
Continuous
 62
     7
370
    50
100
AcDbLine
 10
359.1301606226
 20
324.7751167566
 30
0.0
 11
358.6110605597
 21
324.7751167566
 31
0.0
  0
LINE
  5
138
330
1F
100
AcDbEntity
  8
0
  6
Continuous
 62
     7
370
    50
100
AcDbLine
 10
360.045431695
 20
324.8907456214
 30
0.0
 11
359.1301606226
 21
324.7751167566
 31
0.0
  0
LINE
  5
139
330
1F
100
AcDbEntity
  8
0
  6
Continuous
 62
     7
370
    50
100
AcDbLine
 10
364.5661220462
 20
396.9052477549
 30
0.0
 11
364.029771831
 21
396.5543921126
 31
0.0
  0
LINE
  5
13A
330
1F
100
AcDbEntity
  8
0
  6
Continuous
 62
     7
370
    50
100
AcDbLine
 10
364.029771831
 20
396.5543921126
 30
0.0
 11
363.2802891752
 21
396.1889961182
 31
0.0
  0
LINE
  5
13B
330
1F
100
AcDbEntity
  8
0
  6
Continuous
 62
     7
370
    50
100
AcDbLine
 10
363.2802891752
 20
396.1889961182
 30
0.0
 11
363.6746914304
 21
395.3800172179
 31
0.0
  0
LINE
  5
13C
330
1F
100
AcDbEntity
  8
0
  6
Continuous
 62
     7
370
    50
100
AcDbLine
 10
363.6746914304
 20
395.3800172179
 30
0.0
 11
364.4241740862
 21
395.7454132123
 31
0.0
  0
LINE
  5
13D
330
1F
100
AcDbEntity
  8
0
  6
Continuous
 62
     7
370
    50
100
AcDbLine
 10
364.4241740862
 20
395.7454132123
 30
0.0
 11
365.0309295614
 21
395.9518569779
 31
0.0
  0
LINE
  5
13E
330
1F
100
AcDbEntity
  8
0
  6
Continuous
 62
     7
370
    50
100
AcDbLine
 10
365.0309295614
 20
395.9518569779
 30
0.0
 11
365.3817852038
 21
395.4155067628
 31
0.0
  0
LINE
  5
13F
330
1F
100
AcDbEntity
  8
0
  6
Continuous
 62
     7
370
    50
100
AcDbLine
 10
365.3817852038
 20
395.4155067628
 30
0.0
 11
365.7471811981
 21
394.6660241069
 31
0.0
  0
LINE
  5
140
330
1F
100
AcDbEntity
  8
0
  6
Continuous
 62
     7
370
    50
100
AcDbLine
 10
365.7471811981
 20
394.6660241069
 30
0.0
 11
366.5561600984
 21
395.0604263621
 31
0.0
  0
LINE
  5
141
330
1F
100
AcDbEntity
  8
0
  6
Continuous
 62
     7
370
    50
100
AcDbLine
 10
366.5561600984
 20
395.0604263621
 30
0.0
 11
366.190764104
 21
395.809909018
 31
0.0
  0
LINE
  5
142
330
1F
100
AcDbEntity
  8
0
  6
Continuous
 62
     7
370
    50
100
AcDbLine
 10
366.190764104
 20
395.809909018
 30
0.0
 11
365.9843203385
 21
396.4166644931
 31
0.0
  0
LINE
  5
143
330
1F
100
AcDbEntity
  8
0
  6
Continuous
 62
     7
370
    50
100
AcDbLine
 10
365.9843203385
 20
396.4166644931
 30
0.0
 11
366.5206705536
 21
396.7675201355
 31
0.0
  0
LINE
  5
144
330
1F
100
AcDbEntity
  8
0
  6
Continuous
 62
     7
370
    50
100
AcDbLine
 10
366.5206705536
 20
396.7675201355
 30
0.0
 11
367.2701532094
 21
397.1329161298
 31
0.0
  0
LINE
  5
145
330
1F
100
AcDbEntity
  8
0
  6
Continuous
 62
     7
370
    50
100
AcDbLine
 10
367.2701532094
 20
397.1329161298
 30
0.0
 11
366.8757509542
 21
397.9418950301
 31
0.0
  0
LINE
  5
146
330
1F
100
AcDbEntity
  8
0
  6
Continuous
 62
     7
370
    50
100
AcDbLine
 10
366.8757509542
 20
397.9418950301
 30
0.0
 11
366.1262682984
 21
397.5764990358
 31
0.0
  0
LINE
  5
147
330
1F
100
AcDbEntity
  8
0
  6
Continuous
 62
     7
370
    50
100
AcDbLine
 10
366.1262682984
 20
397.5764990358
 30
0.0
 11
365.5195128232
 21
397.3700552702
 31
0.0
  0
LINE
  5
148
330
1F
100
AcDbEntity
  8
0
  6
Continuous
 62
     7
370
    50
100
AcDbLine
 10
365.5195128232
 20
397.3700552702
 30
0.0
 11
365.1686571809
 21
397.9064054853
 31
0.0
  0
LINE
  5
149
330
1F
100
AcDbEntity
  8
0
  6
Continuous
 62
     7
370
    50
100
AcDbLine
 10
365.1686571809
 20
397.9064054853
 30
0.0
 11
364.8032611865
 21
398.6558881412
 31
0.0
  0
LINE
  5
14A
330
1F
100
AcDbEntity
  8
0
  6
Continuous
 62
     7
370
    50
100
AcDbLine
 10
364.8032611865
 20
398.6558881412
 30
0.0
 11
363.9942822862
 21
398.261485886
 31
0.0
  0
LINE
  5
14B
330
1F
100
AcDbEntity
  8
0
  6
Continuous
 62
     7
370
    50
100
AcDbLine
 10
363.9942822862
 20
398.261485886
 30
0.0
 11
364.3596782806
 21
397.5120032301
 31
0.0
  0
LINE
  5
14C
330
1F
100
AcDbEntity
  8
0
  6
Continuous
 62
     7
370
    50
100
AcDbLine
 10
364.3596782806
 20
397.5120032301
 30
0.0
 11
364.5661220462
 21
396.9052477549
 31
0.0
  0
CIRCLE
  5
14D
330
1F
100
AcDbEntity
  8
0
  6
Continuous
 62
     7
370
    50
100
AcDbCircle
 10
365.2752211923
 20
396.660956124
 30
0.0
 40
3.000000000000043
  0
LINE
  5
14E
330
1F
100
AcDbEntity
  8
0
  6
Continuous
 62
     7
370
    50
100
AcDbLine
 10
364.443329804
 20
398.106784599
 30
0.0
 11
363.9942822862
 21
398.261485886
 31
0.0
  0
LINE
  5
14F
330
1F
100
AcDbEntity
  8
0
  6
Continuous
 62
     7
370
    50
100
AcDbLine
 10
364.443329804
 20
398.106784599
 30
0.0
 11
364.6708122879
 21
397.6401834901
 31
0.0
  0
LINE
  5
150
330
1F
100
AcDbEntity
  8
0
  6
Continuous
 62
     7
370
    50
100
AcDbLine
 10
364.6708122879
 20
397.6401834901
 30
0.0
 11
364.3596782806
 21
397.5120032301
 31
0.0
  0
LINE
  5
151
330
1F
100
AcDbEntity
  8
0
  6
Continuous
 62
     7
370
    50
100
AcDbLine
 10
364.6485598996
 20
398.2068406233
 30
0.0
 11
364.8032611865
 21
398.6558881412
 31
0.0
  0
LINE
  5
152
330
1F
100
AcDbEntity
  8
0
  6
Continuous
 62
     7
370
    50
100
AcDbLine
 10
364.6485598996
 20
398.2068406233
 30
0.0
 11
364.443329804
 21
398.106784599
 31
0.0
  0
LINE
  5
153
330
1F
100
AcDbEntity
  8
0
  6
Continuous
 62
     7
370
    50
100
AcDbLine
 10
364.8760423834
 20
397.7402395144
 30
0.0
 11
365.1686571809
 21
397.9064054853
 31
0.0
  0
LINE
  5
154
330
1F
100
AcDbEntity
  8
0
  6
Continuous
 62
     7
370
    50
100
AcDbLine
 10
364.8760423834
 20
397.7402395144
 30
0.0
 11
364.6485598996
 21
398.2068406233
 31
0.0
  0
LINE
  5
155
330
1F
100
AcDbEntity
  8
0
  6
Continuous
 62
     7
370
    50
100
AcDbLine
 10
365.3810715911
 20
396.9682054027
 30
0.0
 11
365.5195128232
 21
397.3700552702
 31
0.0
  0
LINE
  5
156
330
1F
100
AcDbEntity
  8
0
  6
Continuous
 62
     7
370
    50
100
AcDbLine
 10
365.3810715911
 20
396.9682054027
 30
0.0
 11
364.8760423834
 21
397.7402395144
 31
0.0
  0
LINE
  5
157
330
1F
100
AcDbEntity
  8
0
  6
Continuous
 62
     7
370
    50
100
AcDbLine
 10
366.2544485584
 20
397.2653650285
 30
0.0
 11
366.1262682984
 21
397.5764990358
 31
0.0
  0
LINE
  5
158
330
1F
100
AcDbEntity
  8
0
  6
Continuous
 62
     7
370
    50
100
AcDbLine
 10
366.2544485584
 20
397.2653650285
 30
0.0
 11
365.3810715911
 21
396.9682054027
 31
0.0
  0
LINE
  5
159
330
1F
100
AcDbEntity
  8
0
  6
Continuous
 62
     7
370
    50
100
AcDbLine
 10
365.6744000012
 20
395.5816727336
 30
0.0
 11
365.3817852038
 21
395.4155067628
 31
0.0
  0
LINE
  5
15A
330
1F
100
AcDbEntity
  8
0
  6
Continuous
 62
     7
370
    50
100
AcDbLine
 10
365.6744000012
 20
395.5816727336
 30
0.0
 11
365.9018824851
 21
395.1150716247
 31
0.0
  0
LINE
  5
15B
330
1F
100
AcDbEntity
  8
0
  6
Continuous
 62
     7
370
    50
100
AcDbLine
 10
365.9018824851
 20
395.1150716247
 30
0.0
 11
365.7471811981
 21
394.6660241069
 31
0.0
  0
LINE
  5
15C
330
1F
100
AcDbEntity
  8
0
  6
Continuous
 62
     7
370
    50
100
AcDbLine
 10
365.1693707935
 20
396.3537068453
 30
0.0
 11
365.0309295614
 21
395.9518569779
 31
0.0
  0
LINE
  5
15D
330
1F
100
AcDbEntity
  8
0
  6
Continuous
 62
     7
370
    50
100
AcDbLine
 10
365.1693707935
 20
396.3537068453
 30
0.0
 11
365.6744000012
 21
395.5816727336
 31
0.0
  0
LINE
  5
15E
330
1F
100
AcDbEntity
  8
0
  6
Continuous
 62
     7
370
    50
100
AcDbLine
 10
365.9018824851
 20
395.1150716247
 30
0.0
 11
366.1071125806
 21
395.215127649
 31
0.0
  0
LINE
  5
15F
330
1F
100
AcDbEntity
  8
0
  6
Continuous
 62
     7
370
    50
100
AcDbLine
 10
366.1071125806
 20
395.215127649
 30
0.0
 11
366.5561600984
 21
395.0604263621
 31
0.0
  0
LINE
  5
160
330
1F
100
AcDbEntity
  8
0
  6
Continuous
 62
     7
370
    50
100
AcDbLine
 10
364.2959938262
 20
396.0565472196
 30
0.0
 11
364.4241740862
 21
395.7454132123
 31
0.0
  0
LINE
  5
161
330
1F
100
AcDbEntity
  8
0
  6
Continuous
 62
     7
370
    50
100
AcDbLine
 10
364.2959938262
 20
396.0565472196
 30
0.0
 11
365.1693707935
 21
396.3537068453
 31
0.0
  0
LINE
  5
162
330
1F
100
AcDbEntity
  8
0
  6
Continuous
 62
     7
370
    50
100
AcDbLine
 10
363.8293927173
 20
395.8290647358
 30
0.0
 11
363.6746914304
 21
395.3800172179
 31
0.0
  0
LINE
  5
163
330
1F
100
AcDbEntity
  8
0
  6
Continuous
 62
     7
370
    50
100
AcDbLine
 10
363.8293927173
 20
395.8290647358
 30
0.0
 11
364.2959938262
 21
396.0565472196
 31
0.0
  0
LINE
  5
164
330
1F
100
AcDbEntity
  8
0
  6
Continuous
 62
     7
370
    50
100
AcDbLine
 10
363.729336693
 20
396.0342948313
 30
0.0
 11
363.2802891752
 21
396.1889961182
 31
0.0
  0
LINE
  5
165
330
1F
100
AcDbEntity
  8
0
  6
Continuous
 62
     7
370
    50
100
AcDbLine
 10
363.729336693
 20
396.0342948313
 30
0.0
 11
363.8293927173
 21
395.8290647358
 31
0.0
  0
LINE
  5
166
330
1F
100
AcDbEntity
  8
0
  6
Continuous
 62
     7
370
    50
100
AcDbLine
 10
364.1959378019
 20
396.2617773151
 30
0.0
 11
364.029771831
 21
396.5543921126
 31
0.0
  0
LINE
  5
167
330
1F
100
AcDbEntity
  8
0
  6
Continuous
 62
     7
370
    50
100
AcDbLine
 10
364.1959378019
 20
396.2617773151
 30
0.0
 11
363.729336693
 21
396.0342948313
 31
0.0
  0
LINE
  5
168
330
1F
100
AcDbEntity
  8
0
  6
Continuous
 62
     7
370
    50
100
AcDbLine
 10
364.9679719136
 20
396.7668065228
 30
0.0
 11
364.5661220462
 21
396.9052477549
 31
0.0
  0
LINE
  5
169
330
1F
100
AcDbEntity
  8
0
  6
Continuous
 62
     7
370
    50
100
AcDbLine
 10
364.9679719136
 20
396.7668065228
 30
0.0
 11
364.1959378019
 21
396.2617773151
 31
0.0
  0
LINE
  5
16A
330
1F
100
AcDbEntity
  8
0
  6
Continuous
 62
     7
370
    50
100
AcDbLine
 10
366.7210496673
 20
397.4928475123
 30
0.0
 11
366.8757509542
 21
397.9418950301
 31
0.0
  0
LINE
  5
16B
330
1F
100
AcDbEntity
  8
0
  6
Continuous
 62
     7
370
    50
100
AcDbLine
 10
366.7210496673
 20
397.4928475123
 30
0.0
 11
366.2544485584
 21
397.2653650285
 31
0.0
  0
LINE
  5
16C
330
1F
100
AcDbEntity
  8
0
  6
Continuous
 62
     7
370
    50
100
AcDbLine
 10
366.8211056916
 20
397.2876174168
 30
0.0
 11
367.2701532094
 21
397.1329161298
 31
0.0
  0
LINE
  5
16D
330
1F
100
AcDbEntity
  8
0
  6
Continuous
 62
     7
370
    50
100
AcDbLine
 10
366.8211056916
 20
397.2876174168
 30
0.0
 11
366.7210496673
 21
397.4928475123
 31
0.0
  0
LINE
  5
16E
330
1F
100
AcDbEntity
  8
0
  6
Continuous
 62
     7
370
    50
100
AcDbLine
 10
366.3545045827
 20
397.0601349329
 30
0.0
 11
366.5206705536
 21
396.7675201355
 31
0.0
  0
LINE
  5
16F
330
1F
100
AcDbEntity
  8
0
  6
Continuous
 62
     7
370
    50
100
AcDbLine
 10
366.3545045827
 20
397.0601349329
 30
0.0
 11
366.8211056916
 21
397.2876174168
 31
0.0
  0
LINE
  5
170
330
1F
100
AcDbEntity
  8
0
  6
Continuous
 62
     7
370
    50
100
AcDbLine
 10
365.582470471
 20
396.5551057253
 30
0.0
 11
365.9843203385
 21
396.4166644931
 31
0.0
  0
LINE
  5
171
330
1F
100
AcDbEntity
  8
0
  6
Continuous
 62
     7
370
    50
100
AcDbLine
 10
365.582470471
 20
396.5551057253
 30
0.0
 11
366.3545045827
 21
397.0601349329
 31
0.0
  0
LINE
  5
172
330
1F
100
AcDbEntity
  8
0
  6
Continuous
 62
     7
370
    50
100
AcDbLine
 10
365.8796300967
 20
395.6817287579
 30
0.0
 11
366.190764104
 21
395.809909018
 31
0.0
  0
LINE
  5
173
330
1F
100
AcDbEntity
  8
0
  6
Continuous
 62
     7
370
    50
100
AcDbLine
 10
365.8796300967
 20
395.6817287579
 30
0.0
 11
365.582470471
 21
396.5551057253
 31
0.0
  0
LINE
  5
174
330
1F
100
AcDbEntity
  8
0
  6
Continuous
 62
     7
370
    50
100
AcDbLine
 10
366.1071125806
 20
395.215127649
 30
0.0
 11
365.8796300967
 21
395.6817287579
 31
0.0
  0
LINE
  5
175
330
1F
100
AcDbEntity
  8
0
  6
Continuous
 62
     7
370
    50
100
AcDbLine
 10
364.6708122879
 20
397.6401834901
 30
0.0
 11
364.9679719136
 21
396.7668065228
 31
0.0
  0
LINE
  5
176
330
1F
100
AcDbEntity
  8
0
  6
Continuous
 62
     7
370
    50
100
AcDbLine
 10
335.4128760681
 20
294.4236969192
 30
0.0
 11
335.9827941315
 21
294.1304996544
 31
0.0
  0
LINE
  5
177
330
1F
100
AcDbEntity
  8
0
  6
Continuous
 62
     7
370
    50
100
AcDbLine
 10
335.9827941315
 20
294.1304996544
 30
0.0
 11
336.6705844318
 21
293.6591367507
 31
0.0
  0
LINE
  5
178
330
1F
100
AcDbEntity
  8
0
  6
Continuous
 62
     7
370
    50
100
AcDbLine
 10
336.6705844318
 20
293.6591367507
 30
0.0
 11
337.1793655763
 21
294.401525966
 31
0.0
  0
LINE
  5
179
330
1F
100
AcDbEntity
  8
0
  6
Continuous
 62
     7
370
    50
100
AcDbLine
 10
337.1793655763
 20
294.401525966
 30
0.0
 11
336.491575276
 21
294.8728888697
 31
0.0
  0
LINE
  5
17A
330
1F
100
AcDbEntity
  8
0
  6
Continuous
 62
     7
370
    50
100
AcDbLine
 10
336.491575276
 20
294.8728888697
 30
0.0
 11
336.0124803972
 21
295.2986109998
 31
0.0
  0
LINE
  5
17B
330
1F
100
AcDbEntity
  8
0
  6
Continuous
 62
     7
370
    50
100
AcDbLine
 10
336.0124803972
 20
295.2986109998
 30
0.0
 11
336.3056776619
 21
295.8685290632
 31
0.0
  0
LINE
  5
17C
330
1F
100
AcDbEntity
  8
0
  6
Continuous
 62
     7
370
    50
100
AcDbLine
 10
336.3056776619
 20
295.8685290632
 30
0.0
 11
336.7770405656
 21
296.5563193635
 31
0.0
  0
LINE
  5
17D
330
1F
100
AcDbEntity
  8
0
  6
Continuous
 62
     7
370
    50
100
AcDbLine
 10
336.7770405656
 20
296.5563193635
 30
0.0
 11
336.0346513503
 21
297.065100508
 31
0.0
  0
LINE
  5
17E
330
1F
100
AcDbEntity
  8
0
  6
Continuous
 62
     7
370
    50
100
AcDbLine
 10
336.0346513503
 20
297.065100508
 30
0.0
 11
335.5632884466
 21
296.3773102078
 31
0.0
  0
LINE
  5
17F
330
1F
100
AcDbEntity
  8
0
  6
Continuous
 62
     7
370
    50
100
AcDbLine
 10
335.5632884466
 20
296.3773102078
 30
0.0
 11
335.1375663165
 21
295.8982153289
 31
0.0
  0
LINE
  5
180
330
1F
100
AcDbEntity
  8
0
  6
Continuous
 62
     7
370
    50
100
AcDbLine
 10
335.1375663165
 20
295.8982153289
 30
0.0
 11
334.5676482531
 21
296.1914125936
 31
0.0
  0
LINE
  5
181
330
1F
100
AcDbEntity
  8
0
  6
Continuous
 62
     7
370
    50
100
AcDbLine
 10
334.5676482531
 20
296.1914125936
 30
0.0
 11
333.8798579529
 21
296.6627754973
 31
0.0
  0
LINE
  5
182
330
1F
100
AcDbEntity
  8
0
  6
Continuous
 62
     7
370
    50
100
AcDbLine
 10
333.8798579529
 20
296.6627754973
 30
0.0
 11
333.3710768083
 21
295.9203862821
 31
0.0
  0
LINE
  5
183
330
1F
100
AcDbEntity
  8
0
  6
Continuous
 62
     7
370
    50
100
AcDbLine
 10
333.3710768083
 20
295.9203862821
 30
0.0
 11
334.0588671086
 21
295.4490233784
 31
0.0
  0
LINE
  5
184
330
1F
100
AcDbEntity
  8
0
  6
Continuous
 62
     7
370
    50
100
AcDbLine
 10
334.0588671086
 20
295.4490233784
 30
0.0
 11
334.5379619874
 21
295.0233012482
 31
0.0
  0
LINE
  5
185
330
1F
100
AcDbEntity
  8
0
  6
Continuous
 62
     7
370
    50
100
AcDbLine
 10
334.5379619874
 20
295.0233012482
 30
0.0
 11
334.2447647227
 21
294.4533831849
 31
0.0
  0
LINE
  5
186
330
1F
100
AcDbEntity
  8
0
  6
Continuous
 62
     7
370
    50
100
AcDbLine
 10
334.2447647227
 20
294.4533831849
 30
0.0
 11
333.773401819
 21
293.7655928846
 31
0.0
  0
LINE
  5
187
330
1F
100
AcDbEntity
  8
0
  6
Continuous
 62
     7
370
    50
100
AcDbLine
 10
333.773401819
 20
293.7655928846
 30
0.0
 11
334.5157910343
 21
293.25681174
 31
0.0
  0
LINE
  5
188
330
1F
100
AcDbEntity
  8
0
  6
Continuous
 62
     7
370
    50
100
AcDbLine
 10
334.5157910343
 20
293.25681174
 30
0.0
 11
334.987153938
 21
293.9446020403
 31
0.0
  0
LINE
  5
189
330
1F
100
AcDbEntity
  8
0
  6
Continuous
 62
     7
370
    50
100
AcDbLine
 10
334.987153938
 20
293.9446020403
 30
0.0
 11
335.4128760681
 21
294.4236969192
 31
0.0
  0
CIRCLE
  5
18A
330
1F
100
AcDbEntity
  8
0
  6
Continuous
 62
     7
370
    50
100
AcDbCircle
 10
335.2752211923
 20
295.160956124
 30
0.0
 40
2.999999999999991
  0
LINE
  5
18B
330
1F
100
AcDbEntity
  8
0
  6
Continuous
 62
     7
370
    50
100
AcDbLine
 10
333.8379570997
 20
296.0075582673
 30
0.0
 11
333.3710768083
 21
295.9203862821
 31
0.0
  0
LINE
  5
18C
330
1F
100
AcDbEntity
  8
0
  6
Continuous
 62
     7
370
    50
100
AcDbLine
 10
333.8379570997
 20
296.0075582673
 30
0.0
 11
334.2661507534
 21
295.7141045738
 31
0.0
  0
LINE
  5
18D
330
1F
100
AcDbEntity
  8
0
  6
Continuous
 62
     7
370
    50
100
AcDbLine
 10
334.2661507534
 20
295.7141045738
 30
0.0
 11
334.0588671086
 21
295.4490233784
 31
0.0
  0
LINE
  5
18E
330
1F
100
AcDbEntity
  8
0
  6
Continuous
 62
     7
370
    50
100
AcDbLine
 10
334.2661507534
 20
295.7141045738
 30
0.0
 11
334.9557702944
 21
295.1013109228
 31
0.0
  0
LINE
  5
18F
330
1F
100
AcDbEntity
  8
0
  6
Continuous
 62
     7
370
    50
100
AcDbLine
 10
334.9557702944
 20
295.1013109228
 30
0.0
 11
334.5379619874
 21
295.0233012482
 31
0.0
  0
LINE
  5
190
330
1F
100
AcDbEntity
  8
0
  6
Continuous
 62
     7
370
    50
100
AcDbLine
 10
333.9670299381
 20
296.195895206
 30
0.0
 11
333.8798579529
 21
296.6627754973
 31
0.0
  0
LINE
  5
191
330
1F
100
AcDbEntity
  8
0
  6
Continuous
 62
     7
370
    50
100
AcDbLine
 10
333.9670299381
 20
296.195895206
 30
0.0
 11
333.8379570997
 21
296.0075582673
 31
0.0
  0
LINE
  5
192
330
1F
100
AcDbEntity
  8
0
  6
Continuous
 62
     7
370
    50
100
AcDbLine
 10
335.5946720902
 20
295.2206013253
 30
0.0
 11
336.0124803972
 21
295.2986109998
 31
0.0
  0
LINE
  5
193
330
1F
100
AcDbEntity
  8
0
  6
Continuous
 62
     7
370
    50
100
AcDbLine
 10
335.5946720902
 20
295.2206013253
 30
0.0
 11
336.0167065808
 21
296.0409537246
 31
0.0
  0
LINE
  5
194
330
1F
100
AcDbEntity
  8
0
  6
Continuous
 62
     7
370
    50
100
AcDbLine
 10
336.0167065808
 20
296.0409537246
 30
0.0
 11
336.3056776619
 21
295.8685290632
 31
0.0
  0
LINE
  5
195
330
1F
100
AcDbEntity
  8
0
  6
Continuous
 62
     7
370
    50
100
AcDbLine
 10
336.1218233356
 20
296.5982202167
 30
0.0
 11
336.0346513503
 21
297.065100508
 31
0.0
  0
LINE
  5
196
330
1F
100
AcDbEntity
  8
0
  6
Continuous
 62
     7
370
    50
100
AcDbLine
 10
336.1218233356
 20
296.5982202167
 30
0.0
 11
335.8283696421
 21
296.170026563
 31
0.0
  0
LINE
  5
197
330
1F
100
AcDbEntity
  8
0
  6
Continuous
 62
     7
370
    50
100
AcDbLine
 10
335.8283696421
 20
296.170026563
 30
0.0
 11
335.5632884466
 21
296.3773102078
 31
0.0
  0
LINE
  5
198
330
1F
100
AcDbEntity
  8
0
  6
Continuous
 62
     7
370
    50
100
AcDbLine
 10
336.3101602743
 20
296.4691473783
 30
0.0
 11
336.7770405656
 21
296.5563193635
 31
0.0
  0
LINE
  5
199
330
1F
100
AcDbEntity
  8
0
  6
Continuous
 62
     7
370
    50
100
AcDbLine
 10
336.3101602743
 20
296.4691473783
 30
0.0
 11
336.1218233356
 21
296.5982202167
 31
0.0
  0
LINE
  5
19A
330
1F
100
AcDbEntity
  8
0
  6
Continuous
 62
     7
370
    50
100
AcDbLine
 10
334.9557702944
 20
295.1013109228
 30
0.0
 11
334.5337358038
 21
294.2809585235
 31
0.0
  0
LINE
  5
19B
330
1F
100
AcDbEntity
  8
0
  6
Continuous
 62
     7
370
    50
100
AcDbLine
 10
334.5337358038
 20
294.2809585235
 30
0.0
 11
334.2447647227
 21
294.4533831849
 31
0.0
  0
LINE
  5
19C
330
1F
100
AcDbEntity
  8
0
  6
Continuous
 62
     7
370
    50
100
AcDbLine
 10
336.0167065808
 20
296.0409537246
 30
0.0
 11
336.3101602743
 21
296.4691473783
 31
0.0
  0
LINE
  5
19D
330
1F
100
AcDbEntity
  8
0
  6
Continuous
 62
     7
370
    50
100
AcDbLine
 10
334.3952235918
 20
295.9024415125
 30
0.0
 11
334.5676482531
 21
296.1914125936
 31
0.0
  0
LINE
  5
19E
330
1F
100
AcDbEntity
  8
0
  6
Continuous
 62
     7
370
    50
100
AcDbLine
 10
334.3952235918
 20
295.9024415125
 30
0.0
 11
333.9670299381
 21
296.195895206
 31
0.0
  0
LINE
  5
19F
330
1F
100
AcDbEntity
  8
0
  6
Continuous
 62
     7
370
    50
100
AcDbLine
 10
335.8283696421
 20
296.170026563
 30
0.0
 11
335.215575991
 21
295.4804070219
 31
0.0
  0
LINE
  5
1A0
330
1F
100
AcDbEntity
  8
0
  6
Continuous
 62
     7
370
    50
100
AcDbLine
 10
335.215575991
 20
295.4804070219
 30
0.0
 11
335.1375663165
 21
295.8982153289
 31
0.0
  0
LINE
  5
1A1
330
1F
100
AcDbEntity
  8
0
  6
Continuous
 62
     7
370
    50
100
AcDbLine
 10
335.215575991
 20
295.4804070219
 30
0.0
 11
334.3952235918
 21
295.9024415125
 31
0.0
  0
LINE
  5
1A2
330
1F
100
AcDbEntity
  8
0
  6
Continuous
 62
     7
370
    50
100
AcDbLine
 10
336.2842916313
 20
294.6078076743
 30
0.0
 11
336.491575276
 21
294.8728888697
 31
0.0
  0
LINE
  5
1A3
330
1F
100
AcDbEntity
  8
0
  6
Continuous
 62
     7
370
    50
100
AcDbLine
 10
336.2842916313
 20
294.6078076743
 30
0.0
 11
335.5946720902
 21
295.2206013253
 31
0.0
  0
LINE
  5
1A4
330
1F
100
AcDbEntity
  8
0
  6
Continuous
 62
     7
370
    50
100
AcDbLine
 10
334.2402821103
 20
293.8527648698
 30
0.0
 11
333.773401819
 21
293.7655928846
 31
0.0
  0
LINE
  5
1A5
330
1F
100
AcDbEntity
  8
0
  6
Continuous
 62
     7
370
    50
100
AcDbLine
 10
334.2402821103
 20
293.8527648698
 30
0.0
 11
334.4286190491
 21
293.7236920314
 31
0.0
  0
LINE
  5
1A6
330
1F
100
AcDbEntity
  8
0
  6
Continuous
 62
     7
370
    50
100
AcDbLine
 10
334.4286190491
 20
293.7236920314
 30
0.0
 11
334.5157910343
 21
293.25681174
 31
0.0
  0
LINE
  5
1A7
330
1F
100
AcDbEntity
  8
0
  6
Continuous
 62
     7
370
    50
100
AcDbLine
 10
334.5337358038
 20
294.2809585235
 30
0.0
 11
334.2402821103
 21
293.8527648698
 31
0.0
  0
LINE
  5
1A8
330
1F
100
AcDbEntity
  8
0
  6
Continuous
 62
     7
370
    50
100
AcDbLine
 10
335.3348663936
 20
294.8415052262
 30
0.0
 11
335.4128760681
 21
294.4236969192
 31
0.0
  0
LINE
  5
1A9
330
1F
100
AcDbEntity
  8
0
  6
Continuous
 62
     7
370
    50
100
AcDbLine
 10
335.3348663936
 20
294.8415052262
 30
0.0
 11
336.1552187928
 21
294.4194707356
 31
0.0
  0
LINE
  5
1AA
330
1F
100
AcDbEntity
  8
0
  6
Continuous
 62
     7
370
    50
100
AcDbLine
 10
336.1552187928
 20
294.4194707356
 30
0.0
 11
335.9827941315
 21
294.1304996544
 31
0.0
  0
LINE
  5
1AB
330
1F
100
AcDbEntity
  8
0
  6
Continuous
 62
     7
370
    50
100
AcDbLine
 10
334.7220727425
 20
294.1518856851
 30
0.0
 11
334.987153938
 21
293.9446020403
 31
0.0
  0
LINE
  5
1AC
330
1F
100
AcDbEntity
  8
0
  6
Continuous
 62
     7
370
    50
100
AcDbLine
 10
334.7220727425
 20
294.1518856851
 30
0.0
 11
335.3348663936
 21
294.8415052262
 31
0.0
  0
LINE
  5
1AD
330
1F
100
AcDbEntity
  8
0
  6
Continuous
 62
     7
370
    50
100
AcDbLine
 10
336.1552187928
 20
294.4194707356
 30
0.0
 11
336.5834124465
 21
294.1260170421
 31
0.0
  0
LINE
  5
1AE
330
1F
100
AcDbEntity
  8
0
  6
Continuous
 62
     7
370
    50
100
AcDbLine
 10
336.5834124465
 20
294.1260170421
 30
0.0
 11
336.6705844318
 21
293.6591367507
 31
0.0
  0
LINE
  5
1AF
330
1F
100
AcDbEntity
  8
0
  6
Continuous
 62
     7
370
    50
100
AcDbLine
 10
334.4286190491
 20
293.7236920314
 30
0.0
 11
334.7220727425
 21
294.1518856851
 31
0.0
  0
LINE
  5
1B0
330
1F
100
AcDbEntity
  8
0
  6
Continuous
 62
     7
370
    50
100
AcDbLine
 10
336.712485285
 20
294.3143539808
 30
0.0
 11
337.1793655763
 21
294.401525966
 31
0.0
  0
LINE
  5
1B1
330
1F
100
AcDbEntity
  8
0
  6
Continuous
 62
     7
370
    50
100
AcDbLine
 10
336.712485285
 20
294.3143539808
 30
0.0
 11
336.2842916313
 21
294.6078076743
 31
0.0
  0
LINE
  5
1B2
330
1F
100
AcDbEntity
  8
0
  6
Continuous
 62
     7
370
    50
100
AcDbLine
 10
336.5834124465
 20
294.1260170421
 30
0.0
 11
336.712485285
 21
294.3143539808
 31
0.0
  0
ARC
  5
1B3
330
1F
100
AcDbEntity
  8
0
  6
Continuous
 62
     7
370
    50
100
AcDbCircle
 10
310.9740535587
 20
410.8633261944
 30
0.0
 40
9.600000000000056
100
AcDbArc
 50
295.964266707
 51
351.1686978777
  0
ARC
  5
1B4
330
1F
100
AcDbEntity
  8
0
  6
Continuous
 62
     7
370
    50
100
AcDbCircle
 10
310.9740535587
 20
410.8633261944
 30
0.0
 40
10.40000000000004
100
AcDbArc
 50
295.9642667072
 51
340.4620120051
  0
LINE
  5
1B5
330
1F
100
AcDbEntity
  8
0
  6
Continuous
 62
     7
370
    50
100
AcDbLine
 10
315.5272829296
 20
401.5130266111
 30
0.0
 11
311.6374106759
 21
399.6188113041
 31
0.0
  0
ARC
  5
1B6
330
1F
100
AcDbEntity
  8
0
  6
Continuous
 62
     7
370
    50
100
AcDbCircle
 10
312.0752211923
 20
398.7197440365
 30
0.0
 40
1.000000000000019
100
AcDbArc
 50
115.9642667091
 51
147.8167176708
  0
LINE
  5
1B7
330
1F
100
AcDbEntity
  8
0
  6
Continuous
 62
     7
370
    50
100
AcDbLine
 10
311.2288725804
 20
399.252373389
 30
0.0
 11
310.3763957801
 21
397.8977868398
 31
0.0
  0
LINE
  5
1B8
330
1F
100
AcDbEntity
  8
0
  6
Continuous
 62
     7
370
    50
100
AcDbLine
 10
310.2752211923
 20
397.9614586582
 30
0.0
 11
310.3763957801
 21
397.8977868398
 31
0.0
  0
LINE
  5
1B9
330
1F
100
AcDbEntity
  8
0
  6
Continuous
 62
     7
370
    50
100
AcDbLine
 10
310.5517936909
 20
399.678476871
 30
0.0
 11
310.2752211923
 21
399.2390028743
 31
0.0
  0
ARC
  5
1BA
330
1F
100
AcDbEntity
  8
0
  6
Continuous
 62
     7
370
    50
100
AcDbCircle
 10
312.0752211923
 20
398.7197440365
 30
0.0
 40
1.800000000000024
100
AcDbArc
 50
115.9642667091
 51
147.8167176708
  0
LINE
  5
1BB
330
1F
100
AcDbEntity
  8
0
  6
Continuous
 62
     7
370
    50
100
AcDbLine
 10
315.1770345164
 20
402.2322804252
 30
0.0
 11
311.2871622627
 21
400.3380651182
 31
0.0
  0
LINE
  5
1BC
330
1F
100
AcDbEntity
  8
0
  6
Continuous
 62
     7
370
    50
100
AcDbLine
 10
341.2752211924
 20
284.660956124
 30
0.0
 11
341.2752211923
 21
275.660956124
 31
0.0
  0
LINE
  5
1BD
330
1F
100
AcDbEntity
  8
0
  6
Continuous
 62
     7
370
    50
100
AcDbLine
 10
345.2752211923
 20
284.660956124
 30
0.0
 11
345.2752211923
 21
284.2023774803
 31
0.0
  0
LINE
  5
1BE
330
1F
100
AcDbEntity
  8
0
  6
Continuous
 62
     7
370
    50
100
AcDbLine
 10
345.2459318704
 20
284.1316668022
 30
0.0
 11
345.2752211923
 21
284.2023774803
 31
0.0
  0
LINE
  5
1BF
330
1F
100
AcDbEntity
  8
0
  6
Continuous
 62
     7
370
    50
100
AcDbLine
 10
343.5252211923
 20
282.410956124
 30
0.0
 11
345.2459318704
 21
284.1316668022
 31
0.0
  0
LINE
  5
1C0
330
1F
100
AcDbEntity
  8
0
  6
Continuous
 62
     7
370
    50
100
AcDbLine
 10
343.5252211923
 20
277.910956124
 30
0.0
 11
343.5252211923
 21
282.410956124
 31
0.0
  0
LINE
  5
1C1
330
1F
100
AcDbEntity
  8
0
  6
Continuous
 62
     7
370
    50
100
AcDbLine
 10
345.2459318704
 20
276.1902454459
 30
0.0
 11
343.5252211923
 21
277.910956124
 31
0.0
  0
LINE
  5
1C2
330
1F
100
AcDbEntity
  8
0
  6
Continuous
 62
     7
370
    50
100
AcDbLine
 10
345.2752211923
 20
276.1195347678
 30
0.0
 11
345.2459318704
 21
276.1902454459
 31
0.0
  0
LINE
  5
1C3
330
1F
100
AcDbEntity
  8
0
  6
Continuous
 62
     7
370
    50
100
AcDbLine
 10
345.2752211923
 20
276.1195347678
 30
0.0
 11
345.2752211923
 21
275.660956124
 31
0.0
  0
LINE
  5
1C4
330
1F
100
AcDbEntity
  8
0
  6
Continuous
 62
     7
370
    50
100
AcDbLine
 10
352.6752211923
 20
287.5632699474
 30
0.0
 11
352.6752211923
 21
282.1586423007
 31
0.0
  0
ARC
  5
1C5
330
1F
100
AcDbEntity
  8
0
  6
Continuous
 62
     7
370
    50
100
AcDbCircle
 10
355.2752211923
 20
284.860956124
 30
0.0
 40
3.75000000000004
100
AcDbArc
 50
226.1054462363
 51
313.8945537637
  0
LINE
  5
1C6
330
1F
100
AcDbEntity
  8
0
  6
Continuous
 62
     7
370
    50
100
AcDbLine
 10
357.8752211923
 20
282.1586423007
 30
0.0
 11
357.8752211923
 21
287.5632699474
 31
0.0
  0
ARC
  5
1C7
330
1F
100
AcDbEntity
  8
0
  6
Continuous
 62
     7
370
    50
100
AcDbCircle
 10
355.2752211923
 20
284.860956124
 30
0.0
 40
3.750000000000001
100
AcDbArc
 50
46.1054462363
 51
133.8945537637
  0
CIRCLE
  5
1C8
330
1F
100
AcDbEntity
  8
0
  6
Continuous
 62
     7
370
    50
100
AcDbCircle
 10
384.2752211923
 20
376.660956124
 30
0.0
 40
3.75
  0
CIRCLE
  5
1C9
330
1F
100
AcDbEntity
  8
0
  6
Continuous
 62
     7
370
    50
100
AcDbCircle
 10
365.2752211923
 20
355.160956124
 30
0.0
 40
3.749999999999943
  0
CIRCLE
  5
1CA
330
1F
100
AcDbEntity
  8
0
  6
Continuous
 62
     7
370
    50
100
AcDbCircle
 10
346.2752211923
 20
376.660956124
 30
0.0
 40
3.750000000000057
  0
CIRCLE
  5
1CB
330
1F
100
AcDbEntity
  8
0
  6
Continuous
 62
     7
370
    50
100
AcDbCircle
 10
384.2752211923
 20
290.660956124
 30
0.0
 40
3.75
  0
CIRCLE
  5
1CC
330
1F
100
AcDbEntity
  8
0
  6
Continuous
 62
     7
370
    50
100
AcDbCircle
 10
346.2752211923
 20
290.660956124
 30
0.0
 40
3.750000000000057
  0
LINE
  5
1CD
330
1F
100
AcDbEntity
  8
0
  6
Continuous
 62
     7
370
    50
100
AcDbLine
 10
332.1152211923
 20
428.660956124
 30
0.0
 11
308.2752211923
 21
428.660956124
 31
0.0
  0
LINE
  5
1CE
330
1F
100
AcDbEntity
  8
0
  6
Continuous
 62
     7
370
    50
100
AcDbLine
 10
332.1152211923
 20
428.660956124
 30
0.0
 11
332.1152211923
 21
426.910956124
 31
0.0
  0
LINE
  5
1CF
330
1F
100
AcDbEntity
  8
0
  6
Continuous
 62
     7
370
    50
100
AcDbLine
 10
332.1152211923
 20
426.910956124
 30
0.0
 11
337.3652211923
 21
426.910956124
 31
0.0
  0
LINE
  5
1D0
330
1F
100
AcDbEntity
  8
0
  6
Continuous
 62
     7
370
    50
100
AcDbLine
 10
337.3652211923
 20
426.910956124
 30
0.0
 11
337.3652211923
 21
428.660956124
 31
0.0
  0
LINE
  5
1D1
330
1F
100
AcDbEntity
  8
0
  6
Continuous
 62
     7
370
    50
100
AcDbLine
 10
351.9652211923
 20
428.660956124
 30
0.0
 11
337.3652211923
 21
428.660956124
 31
0.0
  0
LINE
  5
1D2
330
1F
100
AcDbEntity
  8
0
  6
Continuous
 62
     7
370
    50
100
AcDbLine
 10
351.9652211923
 20
428.660956124
 30
0.0
 11
351.9652211923
 21
426.910956124
 31
0.0
  0
LINE
  5
1D3
330
1F
100
AcDbEntity
  8
0
  6
Continuous
 62
     7
370
    50
100
AcDbLine
 10
351.9652211923
 20
426.910956124
 30
0.0
 11
375.7252211923
 21
426.910956124
 31
0.0
  0
LINE
  5
1D4
330
1F
100
AcDbEntity
  8
0
  6
Continuous
 62
     7
370
    50
100
AcDbLine
 10
375.7252211923
 20
426.910956124
 30
0.0
 11
393.5252211923
 21
409.110956124
 31
0.0
  0
LINE
  5
1D5
330
1F
100
AcDbEntity
  8
0
  6
Continuous
 62
     7
370
    50
100
AcDbLine
 10
393.5252211923
 20
409.110956124
 30
0.0
 11
393.5252211923
 21
368.510956124
 31
0.0
  0
LINE
  5
1D6
330
1F
100
AcDbEntity
  8
0
  6
Continuous
 62
     7
370
    50
100
AcDbLine
 10
393.5252211923
 20
368.510956124
 30
0.0
 11
395.2752211923
 21
368.510956124
 31
0.0
  0
LINE
  5
1D7
330
1F
100
AcDbEntity
  8
0
  6
Continuous
 62
     7
370
    50
100
AcDbLine
 10
395.2752211923
 20
328.810956124
 30
0.0
 11
395.2752211923
 21
368.510956124
 31
0.0
  0
LINE
  5
1D8
330
1F
100
AcDbEntity
  8
0
  6
Continuous
 62
     7
370
    50
100
AcDbLine
 10
395.2752211923
 20
328.810956124
 30
0.0
 11
393.5252211923
 21
328.810956124
 31
0.0
  0
LINE
  5
1D9
330
1F
100
AcDbEntity
  8
0
  6
Continuous
 62
     7
370
    50
100
AcDbLine
 10
393.5252211923
 20
328.810956124
 30
0.0
 11
393.5252211923
 21
288.210956124
 31
0.0
  0
LINE
  5
1DA
330
1F
100
AcDbEntity
  8
0
  6
Continuous
 62
     7
370
    50
100
AcDbLine
 10
393.5252211923
 20
288.210956124
 30
0.0
 11
375.7252211923
 21
270.410956124
 31
0.0
  0
LINE
  5
1DB
330
1F
100
AcDbEntity
  8
0
  6
Continuous
 62
     7
370
    50
100
AcDbLine
 10
375.7252211923
 20
270.410956124
 30
0.0
 11
351.9652211923
 21
270.410956124
 31
0.0
  0
LINE
  5
1DC
330
1F
100
AcDbEntity
  8
0
  6
Continuous
 62
     7
370
    50
100
AcDbLine
 10
351.9652211923
 20
270.410956124
 30
0.0
 11
351.9652211923
 21
268.660956124
 31
0.0
  0
LINE
  5
1DD
330
1F
100
AcDbEntity
  8
0
  6
Continuous
 62
     7
370
    50
100
AcDbLine
 10
337.3652211923
 20
268.660956124
 30
0.0
 11
351.9652211923
 21
268.660956124
 31
0.0
  0
LINE
  5
1DE
330
1F
100
AcDbEntity
  8
0
  6
Continuous
 62
     7
370
    50
100
AcDbLine
 10
337.3652211923
 20
268.660956124
 30
0.0
 11
337.3652211923
 21
270.410956124
 31
0.0
  0
LINE
  5
1DF
330
1F
100
AcDbEntity
  8
0
  6
Continuous
 62
     7
370
    50
100
AcDbLine
 10
337.3652211923
 20
270.410956124
 30
0.0
 11
332.1152211923
 21
270.410956124
 31
0.0
  0
LINE
  5
1E0
330
1F
100
AcDbEntity
  8
0
  6
Continuous
 62
     7
370
    50
100
AcDbLine
 10
332.1152211923
 20
270.410956124
 30
0.0
 11
332.1152211923
 21
268.660956124
 31
0.0
  0
LINE
  5
1E1
330
1F
100
AcDbEntity
  8
0
  6
Continuous
 62
     7
370
    50
100
AcDbLine
 10
308.2752211923
 20
268.660956124
 30
0.0
 11
332.1152211923
 21
268.660956124
 31
0.0
  0
LINE
  5
1E2
330
1F
100
AcDbEntity
  8
0
  6
Continuous
 62
     7
370
    50
100
AcDbLine
 10
308.2752211923
 20
383.660956124
 30
0.0
 11
319.7752211923
 21
383.660956124
 31
0.0
  0
ARC
  5
1E3
330
1F
100
AcDbEntity
  8
0
  6
Continuous
 62
     7
370
    50
100
AcDbCircle
 10
319.7752211923
 20
384.660956124
 30
0.0
 40
1.0
100
AcDbArc
 50
270.0
 51
0.0
  0
LINE
  5
1E4
330
1F
100
AcDbEntity
  8
0
  6
Continuous
 62
     7
370
    50
100
AcDbLine
 10
320.7752211923
 20
384.660956124
 30
0.0
 11
320.7752211923
 21
408.660956124
 31
0.0
  0
ARC
  5
1E5
330
1F
100
AcDbEntity
  8
0
  6
Continuous
 62
     7
370
    50
100
AcDbCircle
 10
319.7752211923
 20
408.660956124
 30
0.0
 40
1.0
100
AcDbArc
 50
0.0
 51
90.0
  0
LINE
  5
1E6
330
1F
100
AcDbEntity
  8
0
  6
Continuous
 62
     7
370
    50
100
AcDbLine
 10
319.7752211923
 20
409.660956124
 30
0.0
 11
308.2752211923
 21
409.660956124
 31
0.0
  0
CIRCLE
  5
1E7
330
1F
100
AcDbEntity
  8
0
  6
Continuous
 62
     7
370
    50
100
AcDbCircle
 10
365.2752211923
 20
376.660956124
 30
0.0
 40
9.025000000000034
  0
ARC
  5
1E8
330
1F
100
AcDbEntity
  8
0
  6
Continuous
 62
     7
370
    50
100
AcDbCircle
 10
365.2752211923
 20
298.660956124
 30
0.0
 40
11.11500000000003
100
AcDbArc
 50
297.3992997312
 51
242.6007002688
  0
LINE
  5
1E9
330
1F
100
AcDbEntity
  8
0
  6
Continuous
 62
     7
370
    50
100
AcDbLine
 10
360.1602211923
 20
288.792825602
 30
0.0
 11
360.1602211923
 21
279.610956124
 31
0.0
  0
ARC
  5
1EA
330
1F
100
AcDbEntity
  8
0
  6
Continuous
 62
     7
370
    50
100
AcDbCircle
 10
365.2752211923
 20
279.610956124
 30
0.0
 40
5.115000000000066
100
AcDbArc
 50
180.0
 51
0.0
  0
LINE
  5
1EB
330
1F
100
AcDbEntity
  8
0
  6
Continuous
 62
     7
370
    50
100
AcDbLine
 10
370.3902211923
 20
279.610956124
 30
0.0
 11
370.3902211923
 21
288.792825602
 31
0.0
  0
LINE
  5
1EC
330
1F
100
AcDbEntity
  8
0
  6
Continuous
 62
     7
370
    50
100
AcDbLine
 10
377.8752211923
 20
282.1586423007
 30
0.0
 11
377.8752211923
 21
287.5632699474
 31
0.0
  0
ARC
  5
1ED
330
1F
100
AcDbEntity
  8
0
  6
Continuous
 62
     7
370
    50
100
AcDbCircle
 10
375.2752211923
 20
284.860956124
 30
0.0
 40
3.750000000000001
100
AcDbArc
 50
46.1054462363
 51
133.8945537637
  0
LINE
  5
1EE
330
1F
100
AcDbEntity
  8
0
  6
Continuous
 62
     7
370
    50
100
AcDbLine
 10
372.6752211923
 20
287.5632699474
 30
0.0
 11
372.6752211923
 21
282.1586423007
 31
0.0
  0
ARC
  5
1EF
330
1F
100
AcDbEntity
  8
0
  6
Continuous
 62
     7
370
    50
100
AcDbCircle
 10
375.2752211923
 20
284.860956124
 30
0.0
 40
3.750000000000001
100
AcDbArc
 50
226.1054462363
 51
313.8945537637
  0
CIRCLE
  5
1F0
330
1F
100
AcDbEntity
  8
0
  6
Continuous
 62
     7
370
    50
100
AcDbCircle
 10
335.2752211923
 20
295.160956124
 30
0.0
 40
3.5
  0
CIRCLE
  5
1F1
330
1F
100
AcDbEntity
  8
0
  6
Continuous
 62
     7
370
    50
100
AcDbCircle
 10
360.2752211923
 20
324.660956124
 30
0.0
 40
3.5
  0
CIRCLE
  5
1F2
330
1F
100
AcDbEntity
  8
0
  6
Continuous
 62
     7
370
    50
100
AcDbCircle
 10
365.2752211923
 20
396.660956124
 30
0.0
 40
3.5
  0
LINE
  5
1F3
330
1F
100
AcDbEntity
  8
0
  6
Continuous
 62
     7
370
    50
100
AcDbLine
 10
351.2752211923
 20
275.660956124
 30
0.0
 11
351.2752211923
 21
284.660956124
 31
0.0
  0
LINE
  5
1F4
330
1F
100
AcDbEntity
  8
0
  6
Continuous
 62
     7
370
    50
100
AcDbLine
 10
381.2750949265
 20
415.660956124
 30
0.0
 11
373.2753474582
 21
415.660956124
 31
0.0
  0
LINE
  5
1F5
330
1F
100
AcDbEntity
  8
0
  6
Continuous
 62
     7
370
    50
100
AcDbLine
 10
381.2750949265
 20
405.660956124
 30
0.0
 11
373.2753474582
 21
405.660956124
 31
0.0
  0
CIRCLE
  5
1F6
330
1F
100
AcDbEntity
  8
0
  6
Continuous
 62
     7
370
    50
100
AcDbCircle
 10
376.5252211923
 20
336.410956124
 30
0.0
 40
2.050000000000011
  0
CIRCLE
  5
1F7
330
1F
100
AcDbEntity
  8
0
  6
Continuous
 62
     7
370
    50
100
AcDbCircle
 10
385.5252211923
 20
308.110956124
 30
0.0
 40
2.050000000000011
  0
LINE
  5
1F8
330
1F
100
AcDbEntity
  8
0
  6
Continuous
 62
     7
370
    50
100
AcDbLine
 10
341.2752211923
 20
275.660956124
 30
0.0
 11
351.2752211923
 21
275.660956124
 31
0.0
  0
LINE
  5
1F9
330
1F
100
AcDbEntity
  8
0
  6
Continuous
 62
     7
370
    50
100
AcDbLine
 10
351.2752211923
 20
284.660956124
 30
0.0
 11
341.2752211924
 21
284.660956124
 31
0.0
  0
LINE
  5
1FA
330
1F
100
AcDbEntity
  8
0
  6
Continuous
 62
     7
370
    50
100
AcDbLine
 10
347.2752211923
 20
275.660956124
 30
0.0
 11
347.2752211923
 21
276.1195347678
 31
0.0
  0
LINE
  5
1FB
330
1F
100
AcDbEntity
  8
0
  6
Continuous
 62
     7
370
    50
100
AcDbLine
 10
347.3045105142
 20
276.1902454459
 30
0.0
 11
347.2752211923
 21
276.1195347678
 31
0.0
  0
LINE
  5
1FC
330
1F
100
AcDbEntity
  8
0
  6
Continuous
 62
     7
370
    50
100
AcDbLine
 10
349.0252211923
 20
277.910956124
 30
0.0
 11
347.3045105142
 21
276.1902454459
 31
0.0
  0
LINE
  5
1FD
330
1F
100
AcDbEntity
  8
0
  6
Continuous
 62
     7
370
    50
100
AcDbLine
 10
349.0252211923
 20
282.410956124
 30
0.0
 11
349.0252211923
 21
277.910956124
 31
0.0
  0
LINE
  5
1FE
330
1F
100
AcDbEntity
  8
0
  6
Continuous
 62
     7
370
    50
100
AcDbLine
 10
347.3045105142
 20
284.1316668022
 30
0.0
 11
349.0252211923
 21
282.410956124
 31
0.0
  0
LINE
  5
1FF
330
1F
100
AcDbEntity
  8
0
  6
Continuous
 62
     7
370
    50
100
AcDbLine
 10
347.2752211923
 20
284.2023774803
 30
0.0
 11
347.3045105142
 21
284.1316668022
 31
0.0
  0
LINE
  5
200
330
1F
100
AcDbEntity
  8
0
  6
Continuous
 62
     7
370
    50
100
AcDbLine
 10
347.2752211923
 20
284.2023774803
 30
0.0
 11
347.2752211923
 21
284.660956124
 31
0.0
  0
LINE
  5
201
330
1F
100
AcDbEntity
  8
0
  6
Continuous
 62
     7
370
    50
100
AcDbLine
 10
349.0252211923
 20
282.410956124
 30
0.0
 11
343.5252211923
 21
282.410956124
 31
0.0
  0
LINE
  5
202
330
1F
100
AcDbEntity
  8
0
  6
Continuous
 62
     7
370
    50
100
AcDbLine
 10
349.0252211923
 20
277.910956124
 30
0.0
 11
343.5252211923
 21
277.910956124
 31
0.0
  0
ARC
  5
203
330
1F
100
AcDbEntity
  8
0
  6
Continuous
 62
     7
370
    50
100
AcDbCircle
 10
316.6252211923
 20
383.110956124
 30
0.0
 40
2.000000000000086
100
AcDbArc
 50
15.9620141628
 51
164.0379858372
  0
LINE
  5
204
330
1F
100
AcDbEntity
  8
0
  6
Continuous
 62
     7
370
    50
100
AcDbLine
 10
304.6252211923
 20
357.010956124
 30
0.0
 11
304.6252211923
 21
354.010956124
 31
0.0
  0
LINE
  5
205
330
1F
100
AcDbEntity
  8
0
  6
Continuous
 62
     7
370
    50
100
AcDbLine
 10
305.2752211923
 20
357.010956124
 30
0.0
 11
304.6252211923
 21
357.010956124
 31
0.0
  0
LINE
  5
206
330
1F
100
AcDbEntity
  8
0
  6
Continuous
 62
     7
370
    50
100
AcDbLine
 10
305.2752211923
 20
354.010956124
 30
0.0
 11
304.6252211923
 21
354.010956124
 31
0.0
  0
LINE
  5
207
330
1F
100
AcDbEntity
  8
0
  6
Continuous
 62
     7
370
    50
100
AcDbLine
 10
295.6252211923
 20
357.010956124
 30
0.0
 11
295.6252211923
 21
354.010956124
 31
0.0
  0
LINE
  5
208
330
1F
100
AcDbEntity
  8
0
  6
Continuous
 62
     7
370
    50
100
AcDbLine
 10
295.6252211923
 20
357.010956124
 30
0.0
 11
304.6252211923
 21
357.010956124
 31
0.0
  0
LINE
  5
209
330
1F
100
AcDbEntity
  8
0
  6
Continuous
 62
     7
370
    50
100
AcDbLine
 10
295.6252211923
 20
354.010956124
 30
0.0
 11
304.6252211923
 21
354.010956124
 31
0.0
  0
LINE
  5
20A
330
1F
100
AcDbEntity
  8
0
  6
Continuous
 62
     7
370
    50
100
AcDbLine
 10
312.1252211923
 20
387.410956124
 30
0.0
 11
312.1252211923
 21
383.660956124
 31
0.0
  0
ARC
  5
20B
330
1F
100
AcDbEntity
  8
0
  6
Continuous
 62
     7
370
    50
100
AcDbCircle
 10
312.6252211923
 20
387.410956124
 30
0.0
 40
0.5
100
AcDbArc
 50
90.0
 51
180.0
  0
LINE
  5
20C
330
1F
100
AcDbEntity
  8
0
  6
Continuous
 62
     7
370
    50
100
AcDbLine
 10
320.7752211923
 20
387.910956124
 30
0.0
 11
312.6252211923
 21
387.910956124
 31
0.0
  0
LINE
  5
20D
330
1F
100
AcDbEntity
  8
0
  6
Continuous
 62
     7
370
    50
100
AcDbLine
 10
369.7752211923
 20
372.160956124
 30
0.0
 11
360.7752211923
 21
372.160956124
 31
0.0
  0
LINE
  5
20E
330
1F
100
AcDbEntity
  8
0
  6
Continuous
 62
     7
370
    50
100
AcDbLine
 10
369.7752211923
 20
381.160956124
 30
0.0
 11
369.7752211923
 21
372.160956124
 31
0.0
  0
LINE
  5
20F
330
1F
100
AcDbEntity
  8
0
  6
Continuous
 62
     7
370
    50
100
AcDbLine
 10
360.7752211923
 20
381.160956124
 30
0.0
 11
369.7752211923
 21
381.160956124
 31
0.0
  0
CIRCLE
  5
210
330
1F
100
AcDbEntity
  8
0
  6
Continuous
 62
     7
370
    50
100
AcDbCircle
 10
365.2752211923
 20
376.660956124
 30
0.0
 40
8.900000000000034
  0
LINE
  5
211
330
1F
100
AcDbEntity
  8
0
  6
Continuous
 62
     7
370
    50
100
AcDbLine
 10
360.7752211923
 20
372.160956124
 30
0.0
 11
360.7752211923
 21
381.160956124
 31
0.0
  0
LINE
  5
212
330
1F
100
AcDbEntity
  8
0
  6
Continuous
 62
     7
370
    50
100
AcDbLine
 10
310.2752211923
 20
384.210956124
 30
0.0
 11
310.2752211923
 21
409.110956124
 31
0.0
  0
SPLINE
  5
213
330
1F
100
AcDbEntity
  8
0
  6
Continuous
 62
     7
370
    50
100
AcDbSpline
210
0.0
220
0.0
230
1.0
 70
     8
 71
     3
 72
    10
 73
     6
 74
     0
 42
0.000000001
 43
0.00000001
 40
0.0
 40
0.0
 40
0.0
 40
0.0
 40
0.3283864931587869
 40
0.6715957244171677
 40
1.0
 40
1.0
 40
1.0
 40
1.0
 10
305.2752211923097
 20
408.7526760453166
 30
0.0
 10
304.9228816246251
 20
406.1165280868017
 30
0.0
 10
304.2022985551943
 20
400.7252414938615
 30
0.0
 10
304.2022849179553
 20
392.5969717282179
 30
0.0
 10
304.9228705980315
 20
387.2055400795328
 30
0.0
 10
305.2752211923097
 20
384.5692482436699
 30
0.0
  0
LINE
  5
214
330
1F
100
AcDbEntity
  8
0
  6
Continuous
 62
     7
370
    50
100
AcDbLine
 10
310.2752211923
 20
409.110956124
 30
0.0
 11
308.2752211923
 21
409.110956124
 31
0.0
  0
LINE
  5
215
330
1F
100
AcDbEntity
  8
0
  6
Continuous
 62
     7
370
    50
100
AcDbLine
 10
310.2752211923
 20
384.210956124
 30
0.0
 11
308.2752211923
 21
384.210956124
 31
0.0
  0
LINE
  5
216
330
1F
100
AcDbEntity
  8
0
  6
Continuous
 62
     7
370
    50
100
AcDbLine
 10
295.2752211923
 20
384.210956124
 30
0.0
 11
295.2752211923
 21
409.110956124
 31
0.0
  0
LINE
  5
217
330
1F
100
AcDbEntity
  8
0
  6
Continuous
 62
     7
370
    50
100
AcDbLine
 10
305.2752211923
 20
409.110956124
 30
0.0
 11
295.2752211923
 21
409.110956124
 31
0.0
  0
LINE
  5
218
330
1F
100
AcDbEntity
  8
0
  6
Continuous
 62
     7
370
    50
100
AcDbLine
 10
305.2752211923
 20
384.210956124
 30
0.0
 11
295.2752211923
 21
384.210956124
 31
0.0
  0
SPLINE
  5
219
330
1F
100
AcDbEntity
  8
0
  6
Continuous
 62
     7
370
    50
100
AcDbSpline
210
0.0
220
0.0
230
1.0
 70
     8
 71
     3
 72
    11
 73
     7
 74
     0
 42
0.000000001
 43
0.00000001
 40
0.0
 40
0.0
 40
0.0
 40
0.0
 40
0.2732392317695511
 40
0.5611630443851734
 40
0.7872948679378241
 40
1.0
 40
1.0
 40
1.0
 40
1.0
 10
305.2752211923097
 20
384.5424600752706
 30
0.0
 10
304.9662288674413
 20
386.7418016508567
 30
0.0
 10
304.331638173448
 20
391.2586830891696
 30
0.0
 10
304.2072186905644
 20
397.6652250112826
 30
0.0
 10
304.5086212843293
 20
403.5664458579312
 30
0.0
 10
305.0249538070557
 20
407.0949219397083
 30
0.0
 10
305.2752211923096
 20
408.8051812087826
 30
0.0
  0
LINE
  5
21A
330
1F
100
AcDbEntity
  8
0
  6
Continuous
 62
     7
370
    50
100
AcDbLine
 10
312.4952211923
 20
389.760956124
 30
0.0
 11
312.4952211923
 21
392.260956124
 31
0.0
  0
LINE
  5
21B
330
1F
100
AcDbEntity
  8
0
  6
Continuous
 62
     7
370
    50
100
AcDbLine
 10
320.7752211923
 20
392.260956124
 30
0.0
 11
312.4952211923
 21
392.260956124
 31
0.0
  0
LINE
  5
21C
330
1F
100
AcDbEntity
  8
0
  6
Continuous
 62
     7
370
    50
100
AcDbLine
 10
320.7752211923
 20
389.760956124
 30
0.0
 11
312.4952211923
 21
389.760956124
 31
0.0
  0
LINE
  5
21D
330
1F
100
AcDbEntity
  8
0
  6
Continuous
 62
     7
370
    50
100
AcDbLine
 10
312.4952211923
 20
392.997556124
 30
0.0
 11
312.4952211923
 21
392.260956124
 31
0.0
  0
LINE
  5
21E
330
1F
100
AcDbEntity
  8
0
  6
Continuous
 62
     7
370
    50
100
AcDbLine
 10
312.4952211923
 20
392.997556124
 30
0.0
 11
312.4952211923
 21
393.720956124
 31
0.0
  0
ARC
  5
21F
330
1F
100
AcDbEntity
  8
0
  6
Continuous
 62
     7
370
    50
100
AcDbCircle
 10
312.1352211923
 20
393.720956124
 30
0.0
 40
0.3600000000000136
100
AcDbArc
 50
0.0
 51
180.0
  0
LINE
  5
220
330
1F
100
AcDbEntity
  8
0
  6
Continuous
 62
     7
370
    50
100
AcDbLine
 10
311.7752211923
 20
393.720956124
 30
0.0
 11
311.7752211923
 21
383.660956124
 31
0.0
  0
LINE
  5
221
330
1F
100
AcDbEntity
  8
0
  6
Continuous
 62
     7
370
    50
100
AcDbLine
 10
297.7752211923
 20
381.710956124
 30
0.0
 11
305.2752211923
 21
381.710956124
 31
0.0
  0
LINE
  5
222
330
1F
100
AcDbEntity
  8
0
  6
Continuous
 62
     7
370
    50
100
AcDbLine
 10
295.2752211923
 20
382.1517735758
 30
0.0
 11
297.7752211923
 21
381.710956124
 31
0.0
  0
LINE
  5
223
330
1F
100
AcDbEntity
  8
0
  6
Continuous
 62
     7
370
    50
100
AcDbLine
 10
295.2752211923
 20
411.1701386723
 30
0.0
 11
295.2752211923
 21
409.110956124
 31
0.0
  0
LINE
  5
224
330
1F
100
AcDbEntity
  8
0
  6
Continuous
 62
     7
370
    50
100
AcDbLine
 10
295.2752211923
 20
384.210956124
 30
0.0
 11
295.2752211923
 21
382.1517735758
 31
0.0
  0
LINE
  5
225
330
1F
100
AcDbEntity
  8
0
  6
Continuous
 62
     7
370
    50
100
AcDbLine
 10
297.7752211923
 20
411.610956124
 30
0.0
 11
295.2752211923
 21
411.1701386723
 31
0.0
  0
LINE
  5
226
330
1F
100
AcDbEntity
  8
0
  6
Continuous
 62
     7
370
    50
100
AcDbLine
 10
305.2752211923
 20
411.610956124
 30
0.0
 11
297.7752211923
 21
411.610956124
 31
0.0
  0
CIRCLE
  5
227
330
1F
100
AcDbEntity
  8
0
  6
Continuous
 62
     7
370
    50
100
AcDbCircle
 10
376.5252211923
 20
336.410956124
 30
0.0
 40
2.0
  0
CIRCLE
  5
228
330
1F
100
AcDbEntity
  8
0
  6
Continuous
 62
     7
370
    50
100
AcDbCircle
 10
385.5252211923
 20
308.110956124
 30
0.0
 40
2.0
  0
LINE
  5
229
330
1F
100
AcDbEntity
  8
0
  6
Continuous
 62
     7
370
    50
100
AcDbLine
 10
352.2752211923
 20
270.410956124
 30
0.0
 11
352.2752211923
 21
268.660956124
 31
0.0
  0
LINE
  5
22A
330
1F
100
AcDbEntity
  8
0
  6
Continuous
 62
     7
370
    50
100
AcDbLine
 10
352.2752211923
 20
268.660956124
 30
0.0
 11
373.5403474582
 21
268.660956124
 31
0.0
  0
LINE
  5
22B
330
1F
100
AcDbEntity
  8
0
  6
Continuous
 62
     7
370
    50
100
AcDbLine
 10
373.5403474582
 20
270.410956124
 30
0.0
 11
373.5403474582
 21
268.660956124
 31
0.0
  0
LINE
  5
22C
330
1F
100
AcDbEntity
  8
0
  6
Continuous
 62
     7
370
    50
100
AcDbLine
 10
352.2752211923
 20
270.410956124
 30
0.0
 11
373.5403474582
 21
270.410956124
 31
0.0
  0
LINE
  5
22D
330
1F
100
AcDbEntity
  8
0
  6
Continuous
 62
     7
370
    50
100
AcDbLine
 10
332.2752211923
 20
270.410956124
 30
0.0
 11
332.2752211923
 21
268.660956124
 31
0.0
  0
LINE
  5
22E
330
1F
100
AcDbEntity
  8
0
  6
Continuous
 62
     7
370
    50
100
AcDbLine
 10
337.2752211923
 20
270.410956124
 30
0.0
 11
337.2752211923
 21
268.660956124
 31
0.0
  0
LINE
  5
22F
330
1F
100
AcDbEntity
  8
0
  6
Continuous
 62
     7
370
    50
100
AcDbLine
 10
332.2752211923
 20
268.660956124
 30
0.0
 11
337.2752211923
 21
268.660956124
 31
0.0
  0
LINE
  5
230
330
1F
100
AcDbEntity
  8
0
  6
Continuous
 62
     7
370
    50
100
AcDbLine
 10
332.2752211923
 20
270.410956124
 30
0.0
 11
337.2752211923
 21
270.410956124
 31
0.0
  0
LINE
  5
231
330
1F
100
AcDbEntity
  8
0
  6
Continuous
 62
     7
370
    50
100
AcDbLine
 10
352.2752211923
 20
426.910956124
 30
0.0
 11
352.2752211923
 21
428.660956124
 31
0.0
  0
LINE
  5
232
330
1F
100
AcDbEntity
  8
0
  6
Continuous
 62
     7
370
    50
100
AcDbLine
 10
373.5403474582
 20
426.910956124
 30
0.0
 11
352.2752211923
 21
426.910956124
 31
0.0
  0
LINE
  5
233
330
1F
100
AcDbEntity
  8
0
  6
Continuous
 62
     7
370
    50
100
AcDbLine
 10
373.5403474582
 20
426.910956124
 30
0.0
 11
373.5403474582
 21
428.660956124
 31
0.0
  0
LINE
  5
234
330
1F
100
AcDbEntity
  8
0
  6
Continuous
 62
     7
370
    50
100
AcDbLine
 10
373.5403474582
 20
428.660956124
 30
0.0
 11
352.2752211923
 21
428.660956124
 31
0.0
  0
LINE
  5
235
330
1F
100
AcDbEntity
  8
0
  6
Continuous
 62
     7
370
    50
100
AcDbLine
 10
332.2752211923
 20
426.910956124
 30
0.0
 11
332.2752211923
 21
428.660956124
 31
0.0
  0
LINE
  5
236
330
1F
100
AcDbEntity
  8
0
  6
Continuous
 62
     7
370
    50
100
AcDbLine
 10
337.2752211923
 20
426.910956124
 30
0.0
 11
337.2752211923
 21
428.660956124
 31
0.0
  0
LINE
  5
237
330
1F
100
AcDbEntity
  8
0
  6
Continuous
 62
     7
370
    50
100
AcDbLine
 10
337.2752211923
 20
426.910956124
 30
0.0
 11
332.2752211923
 21
426.910956124
 31
0.0
  0
LINE
  5
238
330
1F
100
AcDbEntity
  8
0
  6
Continuous
 62
     7
370
    50
100
AcDbLine
 10
337.2752211923
 20
428.660956124
 30
0.0
 11
332.2752211923
 21
428.660956124
 31
0.0
  0
LINE
  5
239
330
1F
100
AcDbEntity
  8
0
  6
Continuous
 62
     7
370
    50
100
AcDbLine
 10
393.5252211923
 20
328.660956124
 30
0.0
 11
395.2752211923
 21
328.660956124
 31
0.0
  0
LINE
  5
23A
330
1F
100
AcDbEntity
  8
0
  6
Continuous
 62
     7
370
    50
100
AcDbLine
 10
393.5252211923
 20
290.3958298582
 30
0.0
 11
393.5252211923
 21
328.660956124
 31
0.0
  0
LINE
  5
23B
330
1F
100
AcDbEntity
  8
0
  6
Continuous
 62
     7
370
    50
100
AcDbLine
 10
393.5252211923
 20
290.3958298582
 30
0.0
 11
395.2752211923
 21
290.3958298582
 31
0.0
  0
LINE
  5
23C
330
1F
100
AcDbEntity
  8
0
  6
Continuous
 62
     7
370
    50
100
AcDbLine
 10
395.2752211923
 20
290.3958298582
 30
0.0
 11
395.2752211923
 21
328.660956124
 31
0.0
  0
LINE
  5
23D
330
1F
100
AcDbEntity
  8
0
  6
Continuous
 62
     7
370
    50
100
AcDbLine
 10
393.5252211923
 20
368.660956124
 30
0.0
 11
395.2752211923
 21
368.660956124
 31
0.0
  0
LINE
  5
23E
330
1F
100
AcDbEntity
  8
0
  6
Continuous
 62
     7
370
    50
100
AcDbLine
 10
393.5252211923
 20
368.660956124
 30
0.0
 11
393.5252211923
 21
406.9260823899
 31
0.0
  0
LINE
  5
23F
330
1F
100
AcDbEntity
  8
0
  6
Continuous
 62
     7
370
    50
100
AcDbLine
 10
395.2752211923
 20
368.660956124
 30
0.0
 11
395.2752211923
 21
406.9260823899
 31
0.0
  0
LINE
  5
240
330
1F
100
AcDbEntity
  8
0
  6
Continuous
 62
     7
370
    50
100
AcDbLine
 10
393.5252211923
 20
406.9260823899
 30
0.0
 11
395.2752211923
 21
406.9260823899
 31
0.0
  0
LINE
  5
241
330
1F
100
AcDbEntity
  8
0
  6
Continuous
 62
     7
370
    50
100
AcDbLine
 10
352.2752211923
 20
268.660956124
 30
0.0
 11
351.9652211923
 21
268.660956124
 31
0.0
  0
LINE
  5
242
330
1F
100
AcDbEntity
  8
0
  6
Continuous
 62
     7
370
    50
100
AcDbLine
 10
337.3652211923
 20
268.660956124
 30
0.0
 11
337.2752211923
 21
268.660956124
 31
0.0
  0
LINE
  5
243
330
1F
100
AcDbEntity
  8
0
  6
Continuous
 62
     7
370
    50
100
AcDbLine
 10
373.5644895938
 20
270.410956124
 30
0.0
 11
374.794855393
 21
269.1805903248
 31
0.0
  0
LINE
  5
244
330
1F
100
AcDbEntity
  8
0
  6
Continuous
 62
     7
370
    50
100
AcDbLine
 10
393.5252211923
 20
290.3716877226
 30
0.0
 11
394.7555869916
 21
289.1413219233
 31
0.0
  0
LINE
  5
245
330
1F
100
AcDbEntity
  8
0
  6
Continuous
 62
     7
370
    50
100
AcDbLine
 10
374.794855393
 20
269.1805903248
 30
0.0
 11
394.7555869916
 21
289.1413219233
 31
0.0
  0
LINE
  5
246
330
1F
100
AcDbEntity
  8
0
  6
Continuous
 62
     7
370
    50
100
AcDbLine
 10
373.5644895938
 20
426.910956124
 30
0.0
 11
374.794855393
 21
428.1413219233
 31
0.0
  0
LINE
  5
247
330
1F
100
AcDbEntity
  8
0
  6
Continuous
 62
     7
370
    50
100
AcDbLine
 10
393.5252211923
 20
406.9502245255
 30
0.0
 11
394.7555869916
 21
408.1805903248
 31
0.0
  0
LINE
  5
248
330
1F
100
AcDbEntity
  8
0
  6
Continuous
 62
     7
370
    50
100
AcDbLine
 10
394.7555869916
 20
408.1805903248
 30
0.0
 11
374.794855393
 21
428.1413219233
 31
0.0
  0
LINE
  5
249
330
1F
100
AcDbEntity
  8
0
  6
Continuous
 62
     7
370
    50
100
AcDbLine
 10
352.2752211923
 20
428.660956124
 30
0.0
 11
351.9652211923
 21
428.660956124
 31
0.0
  0
LINE
  5
24A
330
1F
100
AcDbEntity
  8
0
  6
Continuous
 62
     7
370
    50
100
AcDbLine
 10
337.3652211923
 20
428.660956124
 30
0.0
 11
337.2752211923
 21
428.660956124
 31
0.0
  0
LINE
  5
24B
330
1F
100
AcDbEntity
  8
0
  6
Continuous
 62
     7
370
    50
100
AcDbLine
 10
395.2752211923
 20
328.660956124
 30
0.0
 11
395.2752211923
 21
328.810956124
 31
0.0
  0
LINE
  5
24C
330
1F
100
AcDbEntity
  8
0
  6
Continuous
 62
     7
370
    50
100
AcDbLine
 10
395.2752211923
 20
368.510956124
 30
0.0
 11
395.2752211923
 21
368.660956124
 31
0.0
  0
LINE
  5
24D
330
1F
100
AcDbEntity
  8
0
  6
Continuous
 62
     7
370
    50
100
AcDbLine
 10
332.2752211923
 20
268.660956124
 30
0.0
 11
332.1152211923
 21
268.660956124
 31
0.0
  0
LINE
  5
24E
330
1F
100
AcDbEntity
  8
0
  6
Continuous
 62
     7
370
    50
100
AcDbLine
 10
332.2752211923
 20
428.660956124
 30
0.0
 11
332.1152211923
 21
428.660956124
 31
0.0
  0
LINE
  5
24F
330
1F
100
AcDbEntity
  8
0
  6
Continuous
 62
     8
370
    18
100
AcDbLine
 10
308.2752211923
 20
242.660956124
 30
0.0
 11
305.2752211923
 21
242.660956124
 31
0.0
  0
LINE
  5
250
330
1F
100
AcDbEntity
  8
0
  6
Continuous
 62
     8
370
    18
100
AcDbLine
 10
308.2752211923
 20
454.660956124
 30
0.0
 11
305.2752211923
 21
454.660956124
 31
0.0
  0
LINE
  5
251
330
1F
100
AcDbEntity
  8
0
  6
Continuous
 62
     8
370
    18
100
AcDbLine
 10
381.2750949265
 20
405.660956124
 30
0.0
 11
381.2750949265
 21
415.660956124
 31
0.0
  0
LINE
  5
252
330
1F
100
AcDbEntity
  8
0
  6
Continuous
 62
     8
370
    18
100
AcDbLine
 10
373.2753474582
 20
415.660956124
 30
0.0
 11
373.2753474582
 21
405.660956124
 31
0.0
  0
LINE
  5
253
330
1F
100
AcDbEntity
  8
0
  6
Continuous
 62
     8
370
    18
100
AcDbLine
 10
380.0376580594
 20
415.660956124
 30
0.0
 11
380.0376580594
 21
405.660956124
 31
0.0
  0
LINE
  5
254
330
1F
100
AcDbEntity
  8
0
  6
Continuous
 62
     8
370
    18
100
AcDbLine
 10
374.5127843252
 20
405.660956124
 30
0.0
 11
374.5127843252
 21
415.660956124
 31
0.0
  0
LINE
  5
255
330
1F
100
AcDbEntity
  8
0
  6
Continuous
 62
     8
370
    18
100
AcDbLine
 10
376.8098406001
 20
415.660956124
 30
0.0
 11
376.8098406001
 21
405.660956124
 31
0.0
  0
LINE
  5
256
330
1F
100
AcDbEntity
  8
0
  6
Continuous
 62
     8
370
    18
100
AcDbLine
 10
377.7406017845
 20
405.660956124
 30
0.0
 11
377.7406017845
 21
415.660956124
 31
0.0
  0
LINE
  5
257
330
1F
100
AcDbEntity
  8
0
  6
Continuous
 62
     8
370
    18
100
AcDbLine
 10
347.3045105142
 20
284.1316668022
 30
0.0
 11
345.2459318704
 21
284.1316668022
 31
0.0
  0
LINE
  5
258
330
1F
100
AcDbEntity
  8
0
  6
Continuous
 62
     8
370
    18
100
AcDbLine
 10
345.2459318704
 20
276.1902454459
 30
0.0
 11
347.3045105142
 21
276.1902454459
 31
0.0
  0
LINE
  5
259
330
1F
100
AcDbEntity
  8
0
  6
Continuous
 62
     8
370
    18
100
AcDbLine
 10
377.2694600079
 20
405.660956124
 30
0.0
 11
377.2694600079
 21
415.660956124
 31
0.0
  0
LINE
  5
25A
330
1F
100
AcDbEntity
  8
0
  6
Continuous
 62
     8
370
    18
100
AcDbLine
 10
377.2809823768
 20
415.660956124
 30
0.0
 11
377.2809823768
 21
405.660956124
 31
0.0
  0
LINE
  5
25B
330
1F
100
AcDbEntity
  8
0
  6
Continuous
 62
     8
370
    18
100
AcDbLine
 10
347.2752211923
 20
276.1195347678
 30
0.0
 11
345.2752211923
 21
276.1195347678
 31
0.0
  0
LINE
  5
25C
330
1F
100
AcDbEntity
  8
0
  6
Continuous
 62
     8
370
    18
100
AcDbLine
 10
345.2752211923
 20
284.2023774803
 30
0.0
 11
347.2752211923
 21
284.2023774803
 31
0.0
  0
LINE
  5
25D
330
1F
100
AcDbEntity
  8
0
  6
Continuous
 62
     8
370
    18
100
AcDbLine
 10
320.7752211923
 20
392.997556124
 30
0.0
 11
312.4952211923
 21
392.997556124
 31
0.0
  0
LINE
  5
25E
330
1F
100
AcDbEntity
  8
LINIEN-DÜNN
  6
PHANTOM
 62
     7
100
AcDbLine
 10
360.1602211923
 20
291.728784747
 30
0.0
 11
360.1602211923
 21
278.610956124
 31
0.0
  0
LINE
  5
25F
330
1F
100
AcDbEntity
  8
LINIEN-DÜNN
  6
PHANTOM
 62
     7
100
AcDbLine
 10
370.3902211923
 20
291.728784747
 30
0.0
 11
370.3902211923
 21
278.610956124
 31
0.0
  0
ARC
  5
260
330
1F
100
AcDbEntity
  8
LINIEN-DÜNN
  6
PHANTOM
 62
     7
100
AcDbCircle
 10
365.2752211923
 20
298.660956124
 30
0.0
 40
8.615000000000052
100
AcDbArc
 50
306.4222821942
 51
233.5777178058
  0
ARC
  5
261
330
1F
100
AcDbEntity
  8
LINIEN-DÜNN
  6
PHANTOM
 62
     7
100
AcDbCircle
 10
365.2752211923
 20
278.610956124
 30
0.0
 40
5.115000000000009
100
AcDbArc
 50
180.0
 51
0.0
  0
DIMENSION
  5
262
330
1F
100
AcDbEntity
  8
0
  6
Continuous
 62
     7
370
    18
100
AcDbDimension
  2
_D
 10
277.2751961923
 20
268.660956124
 30
0.0
 11
277.2751961923
 21
251.160956124
 31
0.0
 70
   160
  1
<>
 71
     2
 42
-1.0
  3
SLDDIMSTYLE0
100
AcDbAlignedDimension
 13
305.2752211923
 23
233.660956124
 33
0.0
 14
308.2752211923
 24
268.660956124
 34
0.0
 50
90.0
100
AcDbRotatedDimension
  0
DIMENSION
  5
26D
330
1F
100
AcDbEntity
  8
0
  6
Continuous
 62
     7
370
    18
100
AcDbDimension
  2
_D_1
 10
277.2751961923
 20
268.660956124
 30
0.0
 11
277.2751961923
 21
311.335956124
 31
0.0
 70
   160
  1
<>
 71
     2
 42
-1.0
  3
SLDDIMSTYLE1
100
AcDbAlignedDimension
 13
295.6252211923
 23
354.010956124
 33
0.0
 14
308.2752211923
 24
268.660956124
 34
0.0
 50
90.0
100
AcDbRotatedDimension
  0
DIMENSION
  5
278
330
1F
100
AcDbEntity
  8
0
  6
Continuous
 62
     7
370
    18
100
AcDbDimension
  2
_D_2
 10
277.2751961923
 20
354.010956124
 30
0.0
 11
277.2751961923
 21
355.510956124
 31
0.0
 70
   160
  1
<>
 71
     2
 42
-1.0
  3
SLDDIMSTYLE2
100
AcDbAlignedDimension
 13
295.6252211923
 23
357.010956124
 33
0.0
 14
295.6252211923
 24
354.010956124
 34
0.0
 50
90.0
100
AcDbRotatedDimension
  0
DIMENSION
  5
285
330
1F
100
AcDbEntity
  8
0
  6
Continuous
 62
     7
370
    18
100
AcDbDimension
  2
_D_3
 10
277.2751961923
 20
381.710956124
 30
0.0
 11
277.2751961923
 21
369.360956124
 31
0.0
 70
   160
  1
<>
 71
     2
 42
-1.0
  3
SLDDIMSTYLE1
100
AcDbAlignedDimension
 13
295.6252211923
 23
357.010956124
 33
0.0
 14
297.7752211923
 24
381.710956124
 34
0.0
 50
90.0
100
AcDbRotatedDimension
  0
DIMENSION
  5
28F
330
1F
100
AcDbEntity
  8
0
  6
Continuous
 62
     7
370
    18
100
AcDbDimension
  2
_D_4
 10
277.2751961923
 20
411.610956124
 30
0.0
 11
277.2751961923
 21
396.660956124
 31
0.0
 70
   160
  1
<>
 71
     2
 42
-1.0
  3
SLDDIMSTYLE0
100
AcDbAlignedDimension
 13
297.7752211923
 23
381.710956124
 33
0.0
 14
297.7752211923
 24
411.610956124
 34
0.0
 50
90.0
100
AcDbRotatedDimension
  0
DIMENSION
  5
299
330
1F
100
AcDbEntity
  8
0
  6
Continuous
 62
     7
370
    18
100
AcDbDimension
  2
_D_5
 10
277.2751961923
 20
411.610956124
 30
0.0
 11
277.2751961923
 21
420.135956124
 31
0.0
 70
   160
  1
<>
 71
     2
 42
-1.0
  3
SLDDIMSTYLE0
100
AcDbAlignedDimension
 13
308.2752211923
 23
428.660956124
 33
0.0
 14
297.7752211923
 24
411.610956124
 34
0.0
 50
90.0
100
AcDbRotatedDimension
  0
DIMENSION
  5
2A3
330
1F
100
AcDbEntity
  8
0
  6
Continuous
 62
     7
370
    18
100
AcDbDimension
  2
_D_6
 10
277.2751961923
 20
428.660956124
 30
0.0
 11
277.2751961923
 21
446.160956124
 31
0.0
 70
   160
  1
<>
 71
     2
 42
-1.0
  3
SLDDIMSTYLE0
100
AcDbAlignedDimension
 13
305.2752211923
 23
463.660956124
 33
0.0
 14
308.2752211923
 24
428.660956124
 34
0.0
 50
90.0
100
AcDbRotatedDimension
  0
DIMENSION
  5
2AD
330
1F
100
AcDbEntity
  8
0
  6
Continuous
 62
     7
370
    18
100
AcDbDimension
  2
_D_7
 10
308.2752211923
 20
473.660956124
 30
0.0
 11
314.365959082
 21
473.660956124
 31
0.0
 70
   160
  1
<>
 71
     2
 42
-1.0
  3
SLDDIMSTYLE2
100
AcDbAlignedDimension
 13
305.2752211923
 23
459.160956124
 33
0.0
 14
308.2752211923
 24
457.7072860304
 34
0.0
100
AcDbRotatedDimension
  0
DIMENSION
  5
2B9
330
1F
100
AcDbEntity
  8
0
  6
Continuous
 62
     7
370
    18
100
AcDbDimension
  2
_D_8
 10
413.2796211923
 20
376.660956124
 30
0.0
 11
413.2796211923
 21
402.660956124
 31
0.0
 70
   160
  1
<>
 71
     2
 42
-1.0
  3
SLDDIMSTYLE0
100
AcDbAlignedDimension
 13
373.5403474582
 23
428.660956124
 33
0.0
 14
365.2752211923
 24
376.660956124
 34
0.0
 50
90.0
100
AcDbRotatedDimension
  0
DIMENSION
  5
2C3
330
1F
100
AcDbEntity
  8
0
  6
Continuous
 62
     7
370
    18
100
AcDbDimension
  2
_D_9
 10
413.2796211923
 20
376.660956124
 30
0.0
 11
413.2796211923
 21
337.660956124
 31
0.0
 70
   160
  1
<>
 71
     2
 42
-1.0
  3
SLDDIMSTYLE0
100
AcDbAlignedDimension
 13
365.2752211923
 23
298.660956124
 33
0.0
 14
365.2752211923
 24
376.660956124
 34
0.0
 50
90.0
100
AcDbRotatedDimension
  0
DIMENSION
  5
2CD
330
1F
100
AcDbEntity
  8
0
  6
Continuous
 62
     7
370
    18
100
AcDbDimension
  2
_D_10
 10
405.2796211923
 20
376.660956124
 30
0.0
 11
405.2796211923
 21
365.910956124
 31
0.0
 70
   160
  1
<>
 71
     2
 42
-1.0
  3
SLDDIMSTYLE1
100
AcDbAlignedDimension
 13
371.5252211923
 23
355.160956124
 33
0.0
 14
365.2752211923
 24
376.660956124
 34
0.0
 50
90.0
100
AcDbRotatedDimension
  0
DIMENSION
  5
2D7
330
1F
100
AcDbEntity
  8
0
  6
Continuous
 62
     7
370
    18
100
AcDbDimension
  2
_D_11
 10
413.2796211923
 20
298.660956124
 30
0.0
 11
413.2796211923
 21
283.660956124
 31
0.0
 70
   160
  1
<>
 71
     2
 42
-1.0
  3
SLDDIMSTYLE0
100
AcDbAlignedDimension
 13
373.5403474582
 23
268.660956124
 33
0.0
 14
365.2752211923
 24
298.660956124
 34
0.0
 50
90.0
100
AcDbRotatedDimension
  0
DIMENSION
  5
2E1
330
1F
100
AcDbEntity
  8
0
  6
Continuous
 62
     7
370
    18
100
AcDbDimension
  2
_D_12
 10
305.2752211923
 20
223.660956124
 30
0.0
 11
335.2752211923
 21
223.660956124
 31
0.0
 70
   160
  1
<> / 70
 71
     2
 42
-1.0
  3
SLDDIMSTYLE0
100
AcDbAlignedDimension
 13
365.2752211923
 23
279.610956124
 33
0.0
 14
305.2752211923
 24
239.0203796494
 34
0.0
100
AcDbRotatedDimension
  0
DIMENSION
  5
2EC
330
1F
100
AcDbEntity
  8
0
  6
Continuous
 62
     7
370
    18
100
AcDbDimension
  2
_D_13
 10
395.2752211923
 20
207.660956124
 30
0.0
 11
350.2752211923
 21
207.660956124
 31
0.0
 70
   160
  1
(<> / 100)
 71
     2
 42
-1.0
  3
SLDDIMSTYLE0
100
AcDbAlignedDimension
 13
305.2752211923
 23
239.0203796494
 33
0.0
 14
395.2752211923
 24
328.810956124
 34
0.0
100
AcDbRotatedDimension
  0
DIMENSION
  5
2F9
330
1F
100
AcDbEntity
  8
0
  6
Continuous
 62
     7
370
    18
100
AcDbDimension
  2
_D_14
 10
343.6235707629
 20
374.0093056946
 30
0.0
 11
333.4988659803
 21
363.884600912
 31
0.0
 70
   163
  1
<>
 71
     1
 42
-1.0
  3
SLDDIMSTYLE3
100
AcDbDiametricDimension
 15
348.9268716218
 25
379.3126065535
 35
0.0
 40
0.0
  0
DIMENSION
  5
305
330
1F
100
AcDbEntity
  8
0
  6
Continuous
 62
     7
370
    18
100
AcDbDimension
  2
_D_15
 10
384.2752211923
 20
402.6251717577
 30
0.0
 11
365.2752211923
 21
402.6251717577
 31
0.0
 70
   160
  1
<>
 71
     2
 42
-1.0
  3
SLDDIMSTYLE0
100
AcDbAlignedDimension
 13
346.2752211923
 23
382.910956124
 33
0.0
 14
384.2752211923
 24
382.910956124
 34
0.0
100
AcDbRotatedDimension
  0
DIMENSION
  5
30F
330
1F
100
AcDbEntity
  8
0
  6
Continuous
 62
     7
370
    18
100
AcDbDimension
  2
_D_16
 10
343.6235707629
 20
288.0093056946
 30
0.0
 11
333.5562319092
 21
277.941966841
 31
0.0
 70
   163
  1
<>
 71
     1
 42
-1.0
  3
SLDDIMSTYLE3
100
AcDbDiametricDimension
 15
348.9268716218
 25
293.3126065535
 35
0.0
 40
0.0
  0
DIMENSION
  5
31A
330
1F
100
AcDbEntity
  8
0
  6
Continuous
 62
     7
370
    18
100
AcDbDimension
  2
_D_17
 10
384.2752211923
 20
313.8031045008
 30
0.0
 11
365.2752211923
 21
313.8031045008
 31
0.0
 70
   160
  1
<>
 71
     2
 42
-1.0
  3
SLDDIMSTYLE0
100
AcDbAlignedDimension
 13
346.2752211923
 23
296.910956124
 33
0.0
 14
384.2752211923
 24
296.910956124
 34
0.0
100
AcDbRotatedDimension
  0
DIMENSION
  5
324
330
1F
100
AcDbEntity
  8
0
  6
Continuous
 62
     7
370
    18
100
AcDbDimension
  2
_D_18
 10
369.7752211923
 20
390.363221122
 30
0.0
 11
376.3671200142
 21
390.363221122
 31
0.0
 70
   160
  1
{\fGDT;o}<>
 71
     2
 42
-1.0
  3
SLDDIMSTYLE2
100
AcDbAlignedDimension
 13
360.7752211923
 23
381.160956124
 33
0.0
 14
369.7752211923
 24
381.160956124
 34
0.0
100
AcDbRotatedDimension
  0
DIMENSION
  5
338
330
1F
100
AcDbEntity
  8
0
  6
Continuous
 62
     7
370
    18
100
AcDbDimension
  2
_D_19
 10
365.2752211923
 20
223.660956124
 30
0.0
 11
380.2752211923
 21
223.660956124
 31
0.0
 70
   160
  1
<>
 71
     2
 42
-1.0
  3
SLDDIMSTYLE0
100
AcDbAlignedDimension
 13
395.2752211923
 23
290.3958298582
 33
0.0
 14
365.2752211923
 24
285.045956124
 34
0.0
100
AcDbRotatedDimension
  0
DIMENSION
  5
342
330
1F
100
AcDbEntity
  8
0
  6
Continuous
 62
     7
370
    18
100
AcDbDimension
  2
_D_20
 10
362.6235707629
 20
352.5093056946
 30
0.0
 11
353.1424401115
 21
343.0281750432
 31
0.0
 70
   163
  1
<>
 71
     1
 42
-1.0
  3
SLDDIMSTYLE3
100
AcDbDiametricDimension
 15
367.9268716218
 25
357.8126065535
 35
0.0
 40
0.0
  0
DIMENSION
  5
34D
330
1F
100
AcDbEntity
  8
0
  6
Continuous
 62
     7
370
    18
100
AcDbDimension
  2
_D_21
 10
425.5672468908
 20
268.660956124
 30
0.0
 11
425.5672468908
 21
348.660956124
 31
0.0
 70
   160
  1
<>
 71
     2
 42
-1.0
  3
SLDDIMSTYLE0
100
AcDbAlignedDimension
 13
373.5403474582
 23
428.660956124
 33
0.0
 14
373.5403474582
 24
268.660956124
 34
0.0
 50
90.0
100
AcDbRotatedDimension
  0
DIMENSION
  5
357
330
1F
100
AcDbEntity
  8
0
  6
Continuous
 62
     7
370
    18
100
AcDbDimension
  2
_D_22
 10
305.2752211923
 20
365.910956124
 30
0.0
 11
300.2752211923
 21
365.910956124
 31
0.0
 70
   160
  1
<>
 71
     2
 42
-1.0
  3
SLDDIMSTYLE0
100
AcDbAlignedDimension
 13
295.2752211923
 23
384.210956124
 33
0.0
 14
305.2752211923
 24
459.160956124
 34
0.0
100
AcDbRotatedDimension
  0
DIMENSION
  5
360
330
1F
100
AcDbEntity
  8
0
  6
Continuous
 62
     7
370
    18
100
AcDbDimension
  2
_D_23
 10
305.2752211923
 20
335.8356453718
 30
0.0
 11
288.8169631281
 21
335.8356453718
 31
0.0
 70
   160
  1
<>
 71
     2
 42
-1.0
  3
SLDDIMSTYLE1
100
AcDbAlignedDimension
 13
295.6252211923
 23
354.010956124
 33
0.0
 14
305.2752211923
 24
239.0203796494
 34
0.0
100
AcDbRotatedDimension
  0
INSERT
  5
375
330
1F
100
AcDbEntity
  8
0
  6
Continuous
 62
     7
370
     0
100
AcDbBlockReference
  2
SW_CENTERMARKSYMBOL_0
 10
346.2752211923
 20
290.660956124
 30
0.0
  0
INSERT
  5
381
330
1F
100
AcDbEntity
  8
0
  6
Continuous
 62
     7
370
     0
100
AcDbBlockReference
  2
SW_CENTERMARKSYMBOL_1
 10
384.2752211923
 20
290.660956124
 30
0.0
  0
INSERT
  5
38D
330
1F
100
AcDbEntity
  8
0
  6
Continuous
 62
     7
370
     0
100
AcDbBlockReference
  2
SW_CENTERMARKSYMBOL_2
 10
365.2752211923
 20
376.660956124
 30
0.0
  0
INSERT
  5
399
330
1F
100
AcDbEntity
  8
0
  6
Continuous
 62
     7
370
     0
100
AcDbBlockReference
  2
SW_CENTERMARKSYMBOL_3
 10
346.2752211923
 20
376.660956124
 30
0.0
  0
INSERT
  5
3A5
330
1F
100
AcDbEntity
  8
0
  6
Continuous
 62
     7
370
     0
100
AcDbBlockReference
  2
SW_CENTERMARKSYMBOL_4
 10
384.2752211923
 20
376.660956124
 30
0.0
  0
INSERT
  5
3B1
330
1F
100
AcDbEntity
  8
0
  6
Continuous
 62
     7
370
     0
100
AcDbBlockReference
  2
SW_CENTERMARKSYMBOL_5
 10
355.2752211923
 20
284.860956124
 30
0.0
  0
INSERT
  5
3BD
330
1F
100
AcDbEntity
  8
0
  6
Continuous
 62
     7
370
     0
100
AcDbBlockReference
  2
SW_CENTERMARKSYMBOL_6
 10
375.2752211923
 20
284.860956124
 30
0.0
  0
INSERT
  5
3C9
330
1F
100
AcDbEntity
  8
0
  6
Continuous
 62
     7
370
     0
100
AcDbBlockReference
  2
SW_CENTERMARKSYMBOL_7
 10
385.5252211923
 20
308.110956124
 30
0.0
  0
INSERT
  5
3D5
330
1F
100
AcDbEntity
  8
0
  6
Continuous
 62
     7
370
     0
100
AcDbBlockReference
  2
SW_CENTERMARKSYMBOL_8
 10
376.5252211923
 20
336.410956124
 30
0.0
  0
INSERT
  5
3E1
330
1F
100
AcDbEntity
  8
0
  6
Continuous
 62
     7
370
     0
100
AcDbBlockReference
  2
SW_CENTERMARKSYMBOL_9
 10
365.2752211923
 20
298.660956124
 30
0.0
  0
INSERT
  5
3ED
330
1F
100
AcDbEntity
  8
0
  6
Continuous
 62
     7
370
     0
100
AcDbBlockReference
  2
SW_CENTERMARKSYMBOL_10
 10
365.2752211923
 20
279.610956124
 30
0.0
  0
INSERT
  5
3F9
330
1F
100
AcDbEntity
  8
0
  6
Continuous
 62
     7
370
     0
100
AcDbBlockReference
  2
SW_CENTERMARKSYMBOL_11
 10
365.2752211923
 20
355.160956124
 30
0.0
  0
SPLINE
  5
3FA
330
1F
100
AcDbEntity
  8
0
  6
Continuous
 62
     7
370
    50
100
AcDbSpline
210
0.0
220
0.0
230
1.0
 70
     8
 71
     3
 72
    12
 73
     8
 74
     0
 42
0.000000001
 43
0.00000001
 40
0.0
 40
0.0
 40
0.0
 40
0.0
 40
0.2779547953096619
 40
0.5159973879576135
 40
0.7071330153077633
 40
0.8692187847918871
 40
1.0
 40
1.0
 40
1.0
 40
1.0
 10
478.0439765480872
 20
282.5085904983154
 30
0.0
 10
478.1969345699395
 20
282.5415198348272
 30
0.0
 10
478.4808870006038
 20
282.6026501046194
 30
0.0
 10
478.9186977793586
 20
282.4958056455507
 30
0.0
 10
479.2608508195801
 20
282.2780118731251
 30
0.0
 10
479.4979460259526
 20
282.004979067606
 30
0.0
 10
479.5816776578632
 20
281.7983239646226
 30
0.0
 10
479.6190684364248
 20
281.706041095915
 30
0.0
  0
LINE
  5
3FB
330
1F
100
AcDbEntity
  8
0
  6
Continuous
 62
     7
370
    50
100
AcDbLine
 10
477.0906895263
 20
282.1988487688
 30
0.0
 11
478.0439765481
 21
282.5085904983
 31
0.0
  0
SPLINE
  5
3FC
330
1F
100
AcDbEntity
  8
0
  6
Continuous
 62
     7
370
    50
100
AcDbSpline
210
0.0
220
0.0
230
1.0
 70
     8
 71
     3
 72
    14
 73
    10
 74
     0
 42
0.000000001
 43
0.00000001
 40
0.0
 40
0.0
 40
0.0
 40
0.0
 40
0.2337298463302795
 40
0.3571487443606797
 40
0.4614326237113371
 40
0.5661517357530615
 40
0.6625074245274981
 40
0.8098938979957189
 40
1.0
 40
1.0
 40
1.0
 40
1.0
 10
477.0906895262744
 20
282.1988487687651
 30
0.0
 10
476.9962694170238
 20
282.1780983469423
 30
0.0
 10
476.8519916365406
 20
282.1463908555144
 30
0.0
 10
476.6314509373832
 20
282.1913136063712
 30
0.0
 10
476.4705956120156
 20
282.2642758673562
 30
0.0
 10
476.3372559277564
 20
282.3677505424718
 30
0.0
 10
476.2219464970146
 20
282.5076168620835
 30
0.0
 10
476.1315483223611
 20
282.6933762073452
 30
0.0
 10
476.1201860860069
 20
282.8310567793811
 30
0.0
 10
476.113785854949
 20
282.9086108317475
 30
0.0
  0
SPLINE
  5
3FD
330
1F
100
AcDbEntity
  8
0
  6
Continuous
 62
     7
370
    50
100
AcDbSpline
210
0.0
220
0.0
230
1.0
 70
    24
 71
     3
 72
     9
 73
     5
 74
     0
 42
0.000000001
 43
0.00000001
 40
0.0
 40
0.0
 40
0.0
 40
0.0
 40
0.0973198947275422
 40
1.0
 40
1.0
 40
1.0
 40
1.0
 10
476.113785854949
 20
282.9086108317475
 30
0.0
 10
476.113785854949
 20
282.9414545717822
 30
0.0
 10
476.113785854949
 20
283.2789368525297
 30
0.0
 10
476.113785854949
 20
283.6111100169829
 30
0.0
 10
476.113785854949
 20
283.9109561240402
 30
0.0
  0
SPLINE
  5
3FE
330
1F
100
AcDbEntity
  8
0
  6
Continuous
 62
     7
370
    50
100
AcDbSpline
210
0.0
220
0.0
230
1.0
 70
     8
 71
     3
 72
    13
 73
     9
 74
     0
 42
0.000000001
 43
0.00000001
 40
0.0
 40
0.0
 40
0.0
 40
0.0
 40
0.0322909181989799
 40
0.1817093178181514
 40
0.3337540600370161
 40
0.5039543014980904
 40
0.7536644575319864
 40
1.0
 40
1.0
 40
1.0
 40
1.0
 10
474.863785854949
 20
285.1609561240402
 30
0.0
 10
474.8882410716124
 20
285.1605066095854
 30
0.0
 10
475.025856877692
 20
285.1579770759113
 30
0.0
 10
475.2763114248354
 20
285.1065691304525
 30
0.0
 10
475.5825725200427
 20
284.9524861164958
 30
0.0
 10
475.8682623368694
 20
284.6913329317322
 30
0.0
 10
476.0757224219631
 20
284.3256237327731
 30
0.0
 10
476.1011557184432
 20
284.0485503474714
 30
0.0
 10
476.113785854949
 20
283.9109561240402
 30
0.0
  0
ARC
  5
3FF
330
1F
100
AcDbEntity
  8
0
  6
Continuous
 62
     7
370
    50
100
AcDbCircle
 10
474.8637858549
 20
280.160956124
 30
0.0
 40
5.000000000000088
100
AcDbArc
 50
18.0
 51
90.0
  0
SPLINE
  5
400
330
1F
100
AcDbEntity
  8
0
  6
Continuous
 62
     7
370
    50
100
AcDbSpline
210
0.0
220
0.0
230
1.0
 70
     8
 71
     3
 72
    12
 73
     8
 74
     0
 42
0.000000001
 43
0.00000001
 40
0.0
 40
0.0
 40
0.0
 40
0.0
 40
0.277932498099379
 40
0.5159800970362025
 40
0.7071188158808203
 40
0.8692062446186677
 40
1.0
 40
1.0
 40
1.0
 40
1.0
 10
478.0792517940145
 20
277.8618739604998
 30
0.0
 10
478.1578305277817
 20
277.7265898081079
 30
0.0
 10
478.3037114987063
 20
277.4754355510278
 30
0.0
 10
478.3373997965739
 20
277.0260496898846
 30
0.0
 10
478.2360059953436
 20
276.6333344932935
 30
0.0
 10
478.0496046383999
 20
276.323457339973
 30
0.0
 10
477.8789309273812
 20
276.179955605923
 30
0.0
 10
477.8027121164114
 20
276.1158711521655
 30
0.0
  0
LINE
  5
401
330
1F
100
AcDbEntity
  8
0
  6
Continuous
 62
     7
370
    50
100
AcDbLine
 10
477.4900880135
 20
278.6727883362
 30
0.0
 11
478.079251794
 21
277.8618739605
 31
0.0
  0
SPLINE
  5
402
330
1F
100
AcDbEntity
  8
0
  6
Continuous
 62
     7
370
    50
100
AcDbSpline
210
0.0
220
0.0
230
1.0
 70
     8
 71
     3
 72
    14
 73
    10
 74
     0
 42
0.000000001
 43
0.00000001
 40
0.0
 40
0.0
 40
0.0
 40
0.0
 40
0.2336989696763962
 40
0.3571251047639039
 40
0.4614127820380098
 40
0.5661358795335778
 40
0.6624911182635322
 40
0.8098698416229569
 40
0.9999999999999999
 40
0.9999999999999999
 40
0.9999999999999999
 40
0.9999999999999999
 10
477.4900880135
 20
278.6727883361963
 30
0.0
 10
477.4411817067189
 20
278.7561627890493
 30
0.0
 10
477.3664459474768
 20
278.883570754309
 30
0.0
 10
477.3410089939852
 20
279.1071829043725
 30
0.0
 10
477.3606852977229
 20
279.2827183106289
 30
0.0
 10
477.4178865037713
 20
279.4415142116098
 30
0.0
 10
477.5152695541965
 20
279.59440459313
 30
0.0
 10
477.664005110342
 20
279.7377946671193
 30
0.0
 10
477.7914423235691
 20
279.7911503940306
 30
0.0
 10
477.8632320122118
 20
279.8212074780272
 30
0.0
  0
LINE
  5
403
330
1F
100
AcDbEntity
  8
0
  6
Continuous
 62
     7
370
    50
100
AcDbLine
 10
477.8632320122
 20
279.821207478
 30
0.0
 11
478.816519034
 21
280.1309492076
 31
0.0
  0
SPLINE
  5
404
330
1F
100
AcDbEntity
  8
0
  6
Continuous
 62
     7
370
    50
100
AcDbSpline
210
0.0
220
0.0
230
1.0
 70
     8
 71
     3
 72
    13
 73
     9
 74
     0
 42
0.000000001
 43
0.00000001
 40
0.0
 40
0.0
 40
0.0
 40
0.0
 40
0.0322878732436789
 40
0.1817064081576929
 40
0.3337509419515585
 40
0.5039506955884427
 40
0.753659825909838
 40
1.0
 40
1.0
 40
1.0
 40
1.0
 10
479.6190684364248
 20
281.706041095915
 30
0.0
 10
479.6261973664282
 20
281.6826461155612
 30
0.0
 10
479.6663168334231
 20
281.5509862252694
 30
0.0
 10
479.6948209160894
 20
281.2969062581375
 30
0.0
 10
479.6429208834245
 20
280.9580201079647
 30
0.0
 10
479.4828346455893
 20
280.6056118532034
 30
0.0
 10
479.199133318734
 20
280.295291525026
 30
0.0
 10
478.9434783622938
 20
280.1854813854477
 30
0.0
 10
478.8165190340246
 20
280.1309492075774
 30
0.0
  0
ARC
  5
405
330
1F
100
AcDbEntity
  8
0
  6
Continuous
 62
     7
370
    50
100
AcDbCircle
 10
474.8637858549
 20
280.160956124
 30
0.0
 40
5.000000000000088
100
AcDbArc
 50
306.0
 51
18.0
  0
SPLINE
  5
406
330
1F
100
AcDbEntity
  8
0
  6
Continuous
 62
     7
370
    50
100
AcDbSpline
210
0.0
220
0.0
230
1.0
 70
     8
 71
     3
 72
    14
 73
    10
 74
     0
 42
0.000000001
 43
0.00000001
 40
0.0
 40
0.0
 40
0.0
 40
0.0
 40
0.2336990194066705
 40
0.3571251428373837
 40
0.4614128139940084
 40
0.566135905070066
 40
0.662491144524143
 40
0.8098698803644627
 40
1.0
 40
1.0
 40
1.0
 40
1.0
 10
474.2600261823353
 20
277.2033252054651
 30
0.0
 10
474.3242071347802
 20
277.2756020051966
 30
0.0
 10
474.4222847042433
 20
277.3860511739329
 30
0.0
 10
474.6270920759877
 20
277.4793431013629
 30
0.0
 10
474.8001164744374
 20
277.5148732328754
 30
0.0
 10
474.9688164874399
 20
277.5095422743354
 30
0.0
 10
475.1443168957703
 20
277.4641712061743
 30
0.0
 10
475.3266507525987
 20
277.3670252530804
 30
0.0
 10
475.4167753197434
 20
277.2623130951123
 30
0.0
 10
475.4675455275627
 20
277.2033252054651
 30
0.0
  0
LINE
  5
407
330
1F
100
AcDbEntity
  8
0
  6
Continuous
 62
     7
370
    50
100
AcDbLine
 10
475.4675455276
 20
277.2033252055
 30
0.0
 11
476.0567093081
 21
276.3924108298
 31
0.0
  0
ARC
  5
408
330
1F
100
AcDbEntity
  8
0
  6
Continuous
 62
     7
370
    50
100
AcDbCircle
 10
474.8637858549
 20
280.160956124
 30
0.0
 40
5.000000000000066
100
AcDbArc
 50
234.0
 51
306.0
  0
SPLINE
  5
409
330
1F
100
AcDbEntity
  8
0
  6
Continuous
 62
     7
370
    50
100
AcDbSpline
210
0.0
220
0.0
230
1.0
 70
     8
 71
     3
 72
    12
 73
     8
 74
     0
 42
0.000000001
 43
0.00000001
 40
0.0
 40
0.0
 40
0.0
 40
0.0
 40
0.2778762958787918
 40
0.515936513939087
 40
0.707083025492221
 40
0.8691746369068166
 40
1.0
 40
1.0
 40
1.0
 40
1.0
 10
473.6708624018209
 20
276.3924108297685
 30
0.0
 10
473.5665057625158
 20
276.2758954536307
 30
0.0
 10
473.37274544007
 20
276.0595598471883
 30
0.0
 10
472.955806847863
 20
275.8886333323136
 30
0.0
 10
472.5509721222874
 20
275.8636817096583
 30
0.0
 10
472.198627066527
 20
275.9451870100551
 30
0.0
 10
472.0093820163967
 20
276.0631744709883
 30
0.0
 10
471.9248595934866
 20
276.1158711521654
 30
0.0
  0
LINE
  5
40A
330
1F
100
AcDbEntity
  8
0
  6
Continuous
 62
     7
370
    50
100
AcDbLine
 10
474.2600261823
 20
277.2033252055
 30
0.0
 11
473.6708624018
 21
276.3924108298
 31
0.0
  0
SPLINE
  5
40B
330
1F
100
AcDbEntity
  8
0
  6
Continuous
 62
     7
370
    50
100
AcDbSpline
210
0.0
220
0.0
230
1.0
 70
     8
 71
     3
 72
    13
 73
     9
 74
     0
 42
0.000000001
 43
0.00000001
 40
0.0
 40
0.0
 40
0.0
 40
0.0
 40
0.0322769530346958
 40
0.1816959732276039
 40
0.3337397595961519
 40
0.5039377637922882
 40
0.7536432156330265
 40
1.0
 40
1.0
 40
1.0
 40
1.0
 10
477.8027121164114
 20
276.1158711521655
 30
0.0
 10
477.7826719992757
 20
276.1018663132042
 30
0.0
 10
477.6698605891453
 20
276.0230291676338
 30
0.0
 10
477.4370339472723
 20
275.9174035911814
 30
0.0
 10
477.0986970795827
 20
275.8620356463999
 30
0.0
 10
476.714068879968
 20
275.9053787355155
 30
0.0
 10
476.3312556503333
 20
276.0792960358409
 30
0.0
 10
476.1478119767366
 20
276.2885099979848
 30
0.0
 10
476.0567093080771
 20
276.3924108297685
 30
0.0
  0
SPLINE
  5
40C
330
1F
100
AcDbEntity
  8
0
  6
Continuous
 62
     7
370
    50
100
AcDbSpline
210
0.0
220
0.0
230
1.0
 70
     8
 71
     3
 72
    13
 73
     9
 74
     0
 42
0.000000001
 43
0.00000001
 40
0.0
 40
0.0
 40
0.0
 40
0.0
 40
0.2463401740902088
 40
0.496049304411571
 40
0.6662490580484366
 40
0.8182935918423109
 40
0.9677121267563216
 40
1.0
 40
1.0
 40
1.0
 40
1.0
 10
470.9110526758735
 20
280.1309492075773
 30
0.0
 10
470.7840933476043
 20
280.1854813854476
 30
0.0
 10
470.528438391164
 20
280.295291525026
 30
0.0
 10
470.2447370643087
 20
280.6056118532032
 30
0.0
 10
470.0846508264735
 20
280.9580201079646
 30
0.0
 10
470.0327507938086
 20
281.2969062581374
 30
0.0
 10
470.0612548764749
 20
281.5509862252694
 30
0.0
 10
470.1013743434697
 20
281.6826461155611
 30
0.0
 10
470.1085032734732
 20
281.7060410959149
 30
0.0
  0
LINE
  5
40D
330
1F
100
AcDbEntity
  8
0
  6
Continuous
 62
     7
370
    50
100
AcDbLine
 10
471.8643396977
 20
279.821207478
 30
0.0
 11
470.9110526759
 21
280.1309492076
 31
0.0
  0
SPLINE
  5
40E
330
1F
100
AcDbEntity
  8
0
  6
Continuous
 62
     7
370
    50
100
AcDbSpline
210
0.0
220
0.0
230
1.0
 70
     8
 71
     3
 72
    14
 73
    10
 74
     0
 42
0.000000001
 43
0.00000001
 40
0.0
 40
0.0
 40
0.0
 40
0.0
 40
0.2336989696764595
 40
0.3571251047639492
 40
0.4614127820380398
 40
0.566135879533611
 40
0.6624911182635486
 40
0.8098698416229753
 40
1.0
 40
1.0
 40
1.0
 40
1.0
 10
472.2374836963979
 20
278.6727883361962
 30
0.0
 10
472.2863900031792
 20
278.7561627890493
 30
0.0
 10
472.3611257624212
 20
278.8835707543089
 30
0.0
 10
472.3865627159128
 20
279.1071829043724
 30
0.0
 10
472.3668864121751
 20
279.2827183106288
 30
0.0
 10
472.3096852061267
 20
279.4415142116097
 30
0.0
 10
472.2123021557015
 20
279.5944045931299
 30
0.0
 10
472.063566599556
 20
279.7377946671192
 30
0.0
 10
471.936129386329
 20
279.7911503940305
 30
0.0
 10
471.8643396976863
 20
279.8212074780271
 30
0.0
  0
LINE
  5
40F
330
1F
100
AcDbEntity
  8
0
  6
Continuous
 62
     7
370
    50
100
AcDbLine
 10
472.2374836964
 20
278.6727883362
 30
0.0
 11
471.6483199159
 21
277.8618739605
 31
0.0
  0
SPLINE
  5
410
330
1F
100
AcDbEntity
  8
0
  6
Continuous
 62
     7
370
    50
100
AcDbSpline
210
0.0
220
0.0
230
1.0
 70
     8
 71
     3
 72
    13
 73
     9
 74
     0
 42
0.000000001
 43
0.00000001
 40
0.0
 40
0.0
 40
0.0
 40
0.0
 40
0.0322494288145329
 40
0.181669672611433
 40
0.333711575488101
 40
0.5039051706407891
 40
0.7536013513512483
 40
1.0
 40
1.0
 40
1.0
 40
1.0
 10
471.9248595934866
 20
276.1158711521654
 30
0.0
 10
471.9053638967496
 20
276.1305898336215
 30
0.0
 10
471.7955394138443
 20
276.2135041096162
 30
0.0
 10
471.6231398206247
 20
276.4022712738988
 30
0.0
 10
471.4659157848366
 20
276.7069318579514
 30
0.0
 10
471.3882631314687
 20
277.0861194639488
 30
0.0
 10
471.435352117031
 20
277.503966453916
 30
0.0
 10
471.5776459242631
 20
277.7431012997619
 30
0.0
 10
471.6483199158835
 20
277.8618739604997
 30
0.0
  0
ARC
  5
411
330
1F
100
AcDbEntity
  8
0
  6
Continuous
 62
     7
370
    50
100
AcDbCircle
 10
474.8637858549
 20
280.160956124
 30
0.0
 40
5.000000000000066
100
AcDbArc
 50
162.0
 51
234.0
  0
SPLINE
  5
412
330
1F
100
AcDbEntity
  8
0
  6
Continuous
 62
     7
370
    50
100
AcDbSpline
210
0.0
220
0.0
230
1.0
 70
     8
 71
     3
 72
    12
 73
     8
 74
     0
 42
0.000000001
 43
0.00000001
 40
0.0
 40
0.0
 40
0.0
 40
0.0
 40
0.277961012492637
 40
0.5160022092374952
 40
0.7071369745913222
 40
0.8692222814367832
 40
0.9999999999999999
 40
0.9999999999999999
 40
0.9999999999999999
 40
0.9999999999999999
 10
473.613785854949
 20
283.9109561240402
 30
0.0
 10
473.6297355116654
 20
284.0666071547104
 30
0.0
 10
473.6593441896179
 20
284.3555551441268
 30
0.0
 10
473.8962553304086
 20
284.7389222320575
 30
0.0
 10
474.2091216753157
 20
284.9970241820034
 30
0.0
 10
474.5420557976769
 20
285.1381397908604
 30
0.0
 10
474.7644679222856
 20
285.1539127316336
 30
0.0
 10
474.863785854949
 20
285.1609561240402
 30
0.0
  0
SPLINE
  5
413
330
1F
100
AcDbEntity
  8
0
  6
Continuous
 62
     7
370
    50
100
AcDbSpline
210
0.0
220
0.0
230
1.0
 70
    24
 71
     3
 72
     9
 73
     5
 74
     0
 42
0.000000001
 43
0.00000001
 40
0.0
 40
0.0
 40
0.0
 40
0.0
 40
0.0973198947275388
 40
1.0
 40
1.0
 40
1.0
 40
1.0
 10
473.613785854949
 20
282.9086108317475
 30
0.0
 10
473.613785854949
 20
282.9414545717822
 30
0.0
 10
473.613785854949
 20
283.2789368525296
 30
0.0
 10
473.613785854949
 20
283.6111100169829
 30
0.0
 10
473.613785854949
 20
283.9109561240402
 30
0.0
  0
SPLINE
  5
414
330
1F
100
AcDbEntity
  8
0
  6
Continuous
 62
     7
370
    50
100
AcDbSpline
210
0.0
220
0.0
230
1.0
 70
     8
 71
     3
 72
    14
 73
    10
 74
     0
 42
0.000000001
 43
0.00000001
 40
0.0
 40
0.0
 40
0.0
 40
0.0
 40
0.2337298463302727
 40
0.3571487443606727
 40
0.4614326237113302
 40
0.5661517357530611
 40
0.6625074245275115
 40
0.8098938979957687
 40
1.0
 40
1.0
 40
1.0
 40
1.0
 10
472.6368821836236
 20
282.198848768765
 30
0.0
 10
472.7313022928742
 20
282.1780983469422
 30
0.0
 10
472.8755800733575
 20
282.1463908555144
 30
0.0
 10
473.0961207725148
 20
282.1913136063712
 30
0.0
 10
473.2569760978823
 20
282.2642758673563
 30
0.0
 10
473.3903157821416
 20
282.3677505424719
 30
0.0
 10
473.5056252128834
 20
282.5076168620835
 30
0.0
 10
473.5960233875369
 20
282.6933762073452
 30
0.0
 10
473.6073856238911
 20
282.8310567793811
 30
0.0
 10
473.613785854949
 20
282.9086108317475
 30
0.0
  0
LINE
  5
415
330
1F
100
AcDbEntity
  8
0
  6
Continuous
 62
     7
370
    50
100
AcDbLine
 10
472.6368821836
 20
282.1988487688
 30
0.0
 11
471.6835951618
 21
282.5085904983
 31
0.0
  0
SPLINE
  5
416
330
1F
100
AcDbEntity
  8
0
  6
Continuous
 62
     7
370
    50
100
AcDbSpline
210
0.0
220
0.0
230
1.0
 70
     8
 71
     3
 72
    12
 73
     8
 74
     0
 42
0.000000001
 43
0.00000001
 40
0.0
 40
0.0
 40
0.0
 40
0.0
 40
0.1307812152081135
 40
0.2928669846922303
 40
0.4840026120423864
 40
0.722045204690334
 40
1.0
 40
1.0
 40
1.0
 40
1.0
 10
470.1085032734732
 20
281.7060410959149
 30
0.0
 10
470.1458940520347
 20
281.7983239646225
 30
0.0
 10
470.2296256839454
 20
282.0049790676059
 30
0.0
 10
470.466720890318
 20
282.278011873125
 30
0.0
 10
470.8088739305394
 20
282.4958056455507
 30
0.0
 10
471.2466847092942
 20
282.6026501046193
 30
0.0
 10
471.5306371399585
 20
282.5415198348271
 30
0.0
 10
471.6835951618108
 20
282.5085904983152
 30
0.0
  0
ARC
  5
417
330
1F
100
AcDbEntity
  8
0
  6
Continuous
 62
     7
370
    50
100
AcDbCircle
 10
474.8637858549
 20
280.160956124
 30
0.0
 40
5.0
100
AcDbArc
 50
90.0
 51
162.0
  0
SPLINE
  5
418
330
1F
100
AcDbEntity
  8
0
  6
Continuous
 62
     7
370
    50
100
AcDbSpline
210
0.0
220
0.0
230
1.0
 70
     8
 71
     3
 72
    18
 73
    14
 74
     0
 42
0.000000001
 43
0.00000001
 40
0.0
 40
0.0
 40
0.0
 40
0.0
 40
0.1229571234210858
 40
0.2483044662035953
 40
0.3637513285027756
 40
0.4821579134505909
 40
0.5738953075243133
 40
0.6680258065019161
 40
0.7443713503833803
 40
0.822796518162399
 40
0.8992261157828738
 40
0.9784375301823229
 40
1.0
 40
1.0
 40
1.0
 40
1.0
 10
478.8799084065233
 20
456.7752578282686
 30
0.0
 10
478.9484060377872
 20
456.8063748117028
 30
0.0
 10
479.0867328568763
 20
456.8692136757433
 30
0.0
 10
479.314169375558
 20
456.9142173530336
 30
0.0
 10
479.5509347502508
 20
456.9191005990945
 30
0.0
 10
479.773247510644
 20
456.8809031081112
 30
0.0
 10
479.9804095468128
 20
456.8055852577271
 30
0.0
 10
480.1536169066273
 20
456.7079396139042
 30
0.0
 10
480.307041853614
 20
456.5858798206742
 30
0.0
 10
480.4355396662852
 20
456.4481140289952
 30
0.0
 10
480.54535782545
 20
456.2861970976521
 30
0.0
 10
480.6101067519235
 20
456.1498237122382
 30
0.0
 10
480.6376473490168
 20
456.0688569597905
 30
0.0
 10
480.6435401782771
 20
456.0515325987276
 30
0.0
  0
SPLINE
  5
419
330
1F
100
AcDbEntity
  8
0
  6
Continuous
 62
     7
370
    50
100
AcDbSpline
210
0.0
220
0.0
230
1.0
 70
     8
 71
     3
 72
    15
 73
    11
 74
     0
 42
0.000000001
 43
0.00000001
 40
0.0
 40
0.0
 40
0.0
 40
0.0
 40
0.1918489219228783
 40
0.3184866952271323
 40
0.4165733661801665
 40
0.4963740515680622
 40
0.5762994184847099
 40
0.6738646769154066
 40
0.8162793967583399
 40
1.0
 40
1.0
 40
1.0
 40
1.0
 10
478.8799084065233
 20
456.7752578282686
 30
0.0
 10
478.7786776521932
 20
456.7348008258124
 30
0.0
 10
478.6106253739798
 20
456.667638514542
 30
0.0
 10
478.3414100630119
 20
456.6758994521874
 30
0.0
 10
478.1302040931008
 20
456.7360146037829
 30
0.0
 10
477.9538850666416
 20
456.8347547595363
 30
0.0
 10
477.8024948296247
 20
456.9693114435419
 30
0.0
 10
477.6692783321848
 20
457.1600385216615
 30
0.0
 10
477.5771297214469
 20
457.4187840354336
 30
0.0
 10
477.5898922000279
 20
457.6033277201607
 30
0.0
 10
477.5970816398028
 20
457.7072860303547
 30
0.0
  0
ARC
  5
41A
330
1F
100
AcDbEntity
  8
0
  6
Continuous
 62
     7
370
    50
100
AcDbCircle
 10
476.3637858549
 20
454.660956124
 30
0.0
 40
4.50000000000005
100
AcDbArc
 50
18.0
 51
90.0
  0
SPLINE
  5
41B
330
1F
100
AcDbEntity
  8
0
  6
Continuous
 62
     7
370
    50
100
AcDbSpline
210
0.0
220
0.0
230
1.0
 70
     8
 71
     3
 72
    24
 73
    20
 74
     0
 42
0.000000001
 43
0.00000001
 40
0.0
 40
0.0
 40
0.0
 40
0.0
 40
0.072731724825438
 40
0.1171464477057383
 40
0.2519520556643513
 40
0.3062222113102185
 40
0.3520508293549044
 40
0.3982437596744267
 40
0.4402437451730214
 40
0.5249567890305452
 40
0.5676866013254612
 40
0.6295905676164323
 40
0.6919678133135432
 40
0.7556882431938123
 40
0.819813650130156
 40
0.8645746211975422
 40
0.9095672086248296
 40
0.9546721586575813
 40
1.0
 40
1.0
 40
1.0
 40
1.0
 10
476.3637858549489
 20
459.1609561240403
 30
0.0
 10
476.4256270790048
 20
459.1583599578053
 30
0.0
 10
476.5252325776686
 20
459.1541784035686
 30
0.0
 10
476.7333495978852
 20
459.1123104860447
 30
0.0
 10
476.914969890454
 20
459.0410416768594
 30
0.0
 10
477.0725969118699
 20
458.9427643413809
 30
0.0
 10
477.1626716110389
 20
458.8742894311463
 30
0.0
 10
477.2379267122593
 20
458.8062984770449
 30
0.0
 10
477.3258967680774
 20
458.7132097135542
 30
0.0
 10
477.3993226193707
 20
458.6155209865626
 30
0.0
 10
477.4670648625235
 20
458.5019377609614
 30
0.0
 10
477.516799614321
 20
458.3991508136726
 30
0.0
 10
477.5597954108256
 20
458.2814066681721
 30
0.0
 10
477.5905344422648
 20
458.1613214700441
 30
0.0
 10
477.6071891927997
 20
458.0524233795963
 30
0.0
 10
477.6139320637306
 20
457.9560095301143
 30
0.0
 10
477.6140534928351
 20
457.8722762910525
 30
0.0
 10
477.6089953805712
 20
457.7890819332803
 30
0.0
 10
477.6010594067042
 20
457.7345960954012
 30
0.0
 10
477.5970816398028
 20
457.7072860303547
 30
0.0
  0
SPLINE
  5
41C
330
1F
100
AcDbEntity
  8
0
  6
Continuous
 62
     7
370
    50
100
AcDbSpline
210
0.0
220
0.0
230
1.0
 70
     8
 71
     3
 72
    13
 73
     9
 74
     0
 42
0.000000001
 43
0.00000001
 40
0.0
 40
0.0
 40
0.0
 40
0.0
 40
0.1171349406193619
 40
0.252284459645799
 40
0.3984947725611719
 40
0.5679071944496445
 40
0.8195999646153899
 40
1.0
 40
1.0
 40
1.0
 40
1.0
 10
479.0088194902651
 20
239.020379649353
 30
0.0
 10
478.9241935662984
 20
238.9675854576061
 30
0.0
 10
478.7419268115019
 20
238.8538776769313
 30
0.0
 10
478.4181807445688
 20
238.7755052851739
 30
0.0
 10
478.0664241837166
 20
238.7815472560425
 30
0.0
 10
477.6749518382065
 20
238.905982349128
 30
0.0
 10
477.3499386567826
 20
239.1495577933891
 30
0.0
 10
477.2135563982631
 20
239.3766843643445
 30
0.0
 10
477.1566163984605
 20
239.4715103853077
 30
0.0
  0
ARC
  5
41D
330
1F
100
AcDbEntity
  8
0
  6
Continuous
 62
     7
370
    50
100
AcDbCircle
 10
476.3637858549
 20
242.660956124
 30
0.0
 40
4.500000000000001
100
AcDbArc
 50
234.0
 51
306.0
  0
SPLINE
  5
41E
330
1F
100
AcDbEntity
  8
0
  6
Continuous
 62
     7
370
    50
100
AcDbSpline
210
0.0
220
0.0
230
1.0
 70
     8
 71
     3
 72
    18
 73
    14
 74
     0
 42
0.000000001
 43
0.00000001
 40
0.0
 40
0.0
 40
0.0
 40
0.0
 40
0.1228981597775447
 40
0.2481828562563882
 40
0.3636430837758023
 40
0.4820634171133991
 40
0.5738096129861611
 40
0.6679491004695136
 40
0.744299914788289
 40
0.8227304523631273
 40
0.899165347199309
 40
0.9783824471694711
 40
1.0
 40
1.0
 40
1.0
 40
1.0
 10
475.5709553114375
 20
239.4715103853076
 30
0.0
 10
475.5338492177614
 20
239.4061050759394
 30
0.0
 10
475.4589164740187
 20
239.2740243635617
 30
0.0
 10
475.3014447409273
 20
239.1039663086951
 30
0.0
 10
475.1128201495803
 20
238.9608341348635
 30
0.0
 10
474.9105165943042
 20
238.8610236512796
 30
0.0
 10
474.6986446867113
 20
238.8001533147161
 30
0.0
 10
474.501115877187
 20
238.7773112387517
 30
0.0
 10
474.3052373904162
 20
238.7858517356765
 30
0.0
 10
474.1202909795791
 20
238.8217540544978
 30
0.0
 10
473.9362559092138
 20
238.8881785082689
 30
0.0
 10
473.8036569143601
 20
238.9604582272579
 30
0.0
 10
473.7337411838117
 20
239.0098011995721
 30
0.0
 10
473.7187522196328
 20
239.0203796493529
 30
0.0
  0
SPLINE
  5
41F
330
1F
100
AcDbEntity
  8
0
  6
Continuous
 62
     7
370
    50
100
AcDbSpline
210
0.0
220
0.0
230
1.0
 70
     8
 71
     3
 72
    23
 73
    19
 74
     0
 42
0.000000001
 43
0.00000001
 40
0.0
 40
0.0
 40
0.0
 40
0.0
 40
0.0949056463753318
 40
0.1918066303329801
 40
0.2545138744273445
 40
0.3183814756892776
 40
0.3668446528438111
 40
0.4164943108864113
 40
0.4558692156882826
 40
0.4963423949522429
 40
0.5357431001161843
 40
0.5763230874787421
 40
0.6244334561826956
 40
0.6739290670662991
 40
0.744189314781643
 40
0.8163684084943859
 40
0.9072348187737261
 40
1.0
 40
1.0
 40
1.0
 40
1.0
 10
475.5709553114375
 20
239.4715103853076
 30
0.0
 10
475.5972943437205
 20
239.5179642953027
 30
0.0
 10
475.6505261715558
 20
239.6118487824985
 30
0.0
 10
475.7532743815245
 20
239.7226855782362
 30
0.0
 10
475.8624492845583
 20
239.8090597869826
 30
0.0
 10
475.9621959520307
 20
239.8676128269592
 30
0.0
 10
476.0664328169815
 20
239.9118428680556
 30
0.0
 10
476.1637235586333
 20
239.9400582660325
 30
0.0
 10
476.2613388751384
 20
239.9566453008786
 30
0.0
 10
476.3543189403049
 20
239.9625636942708
 30
0.0
 10
476.4484975997361
 20
239.958543185006
 30
0.0
 10
476.5459234994263
 20
239.9440097466129
 30
0.0
 10
476.6449999757849
 20
239.9174165901898
 30
0.0
 10
476.7548736924908
 20
239.8732904336429
 30
0.0
 10
476.8653913163917
 20
239.8097896385197
 30
0.0
 10
476.9783469085075
 20
239.7189111010988
 30
0.0
 10
477.0800882172285
 20
239.6068704802414
 30
0.0
 10
477.1309317620925
 20
239.5169403793456
 30
0.0
 10
477.1566163984605
 20
239.4715103853077
 30
0.0
  0
ARC
  5
420
330
1F
100
AcDbEntity
  8
0
  6
Continuous
 62
     7
370
    50
100
AcDbCircle
 10
476.3637858549
 20
454.660956124
 30
0.0
 40
4.500000000000035
100
AcDbArc
 50
234.0
 51
306.0
  0
SPLINE
  5
421
330
1F
100
AcDbEntity
  8
0
  6
Continuous
 62
     7
370
    50
100
AcDbSpline
210
0.0
220
0.0
230
1.0
 70
     8
 71
     3
 72
    13
 73
     9
 74
     0
 42
0.000000001
 43
0.00000001
 40
0.0
 40
0.0
 40
0.0
 40
0.0
 40
0.248375132743237
 40
0.4822451355169595
 40
0.6681126228991604
 40
0.8228609817832969
 40
0.978312471337025
 40
1.0
 40
1.0
 40
1.0
 40
1.0
 10
475.5709553114375
 20
451.4715103853077
 30
0.0
 10
475.4886706341384
 20
451.3420947102463
 30
0.0
 10
475.3289067120547
 20
451.0908212471235
 30
0.0
 10
474.9356428509494
 20
450.8503754766629
 30
0.0
 10
474.5161692145022
 20
450.7620111183538
 30
0.0
 10
474.1173690753277
 20
450.8072428676122
 30
0.0
 10
473.8561632711764
 20
450.9234391372819
 30
0.0
 10
473.7337406915735
 20
451.009805607973
 30
0.0
 10
473.7187522196328
 20
451.0203796493531
 30
0.0
  0
SPLINE
  5
422
330
1F
100
AcDbEntity
  8
0
  6
Continuous
 62
     7
370
    50
100
AcDbSpline
210
0.0
220
0.0
230
1.0
 70
     8
 71
     3
 72
    15
 73
    11
 74
     0
 42
0.000000001
 43
0.00000001
 40
0.0
 40
0.0
 40
0.0
 40
0.0
 40
0.1918498372373659
 40
0.3184872949837917
 40
0.4165738248546031
 40
0.4963744671901246
 40
0.5762997877555511
 40
0.6738651765323985
 40
0.8162801686696741
 40
0.9999999999999999
 40
0.9999999999999999
 40
0.9999999999999999
 40
0.9999999999999999
 10
477.1566163984605
 20
451.4715103853077
 30
0.0
 10
477.0984987052519
 20
451.5637431644868
 30
0.0
 10
477.002018316385
 20
451.7168575417133
 30
0.0
 10
476.7793622491981
 20
451.8684149963453
 30
0.0
 10
476.573158345516
 20
451.9439242174005
 30
0.0
 10
476.3724753496163
 20
451.967679221496
 30
0.0
 10
476.1709076777853
 20
451.947805311449
 30
0.0
 10
475.9510266479397
 20
451.871806265221
 30
0.0
 10
475.7243906055194
 20
451.7166402534525
 30
0.0
 10
475.6262438256907
 20
451.5598399074682
 30
0.0
 10
475.5709553114375
 20
451.4715103853077
 30
0.0
  0
SPLINE
  5
423
330
1F
100
AcDbEntity
  8
0
  6
Continuous
 62
     7
370
    50
100
AcDbSpline
210
0.0
220
0.0
230
1.0
 70
     8
 71
     3
 72
    13
 73
     9
 74
     0
 42
0.000000001
 43
0.00000001
 40
0.0
 40
0.0
 40
0.0
 40
0.0
 40
0.1171349406193732
 40
0.2522844596458084
 40
0.3984947725611818
 40
0.5679071944496551
 40
0.8195999646153941
 40
1.0
 40
1.0
 40
1.0
 40
1.0
 10
479.0088194902651
 20
451.0203796493531
 30
0.0
 10
478.9241935662984
 20
450.9675854576061
 30
0.0
 10
478.7419268115019
 20
450.8538776769313
 30
0.0
 10
478.4181807445687
 20
450.7755052851739
 30
0.0
 10
478.0664241837166
 20
450.7815472560426
 30
0.0
 10
477.6749518382065
 20
450.9059823491281
 30
0.0
 10
477.3499386567826
 20
451.1495577933892
 30
0.0
 10
477.2135563982631
 20
451.3766843643446
 30
0.0
 10
477.1566163984605
 20
451.4715103853077
 30
0.0
  0
SPLINE
  5
424
330
1F
100
AcDbEntity
  8
0
  6
Continuous
 62
     7
370
    50
100
AcDbSpline
210
0.0
220
0.0
230
1.0
 70
     8
 71
     3
 72
    13
 73
     9
 74
     0
 42
0.000000001
 43
0.00000001
 40
0.0
 40
0.0
 40
0.0
 40
0.0
 40
0.2484637409110861
 40
0.4823140464238872
 40
0.6681686148344431
 40
0.822909267132781
 40
0.97835285445439
 40
1.0
 40
1.0
 40
1.0
 40
1.0
 10
479.1521308965359
 20
240.9213365334107
 30
0.0
 10
479.2498172080099
 20
240.8030408464524
 30
0.0
 10
479.4394443946348
 20
240.5734070526354
 30
0.0
 10
479.5465518659493
 20
240.1250232584242
 30
0.0
 10
479.500920780166
 20
239.6987970549478
 30
0.0
 10
479.3346360887185
 20
239.3335222340737
 30
0.0
 10
479.1434201015994
 20
239.1210606429819
 30
0.0
 10
479.0234806059385
 20
239.0313461351591
 30
0.0
 10
479.0088194902651
 20
239.020379649353
 30
0.0
  0
SPLINE
  5
425
330
1F
100
AcDbEntity
  8
0
  6
Continuous
 62
     7
370
    50
100
AcDbSpline
210
0.0
220
0.0
230
1.0
 70
     8
 71
     3
 72
    15
 73
    11
 74
     0
 42
0.000000001
 43
0.00000001
 40
0.0
 40
0.0
 40
0.0
 40
0.0
 40
0.1918134371224021
 40
0.318463444655534
 40
0.4165555849895945
 40
0.4963579397126479
 40
0.5762851038529091
 40
0.6738453098131209
 40
0.8162494746290645
 40
1.0
 40
1.0
 40
1.0
 40
1.0
 10
479.1521308965359
 20
240.9213365334107
 30
0.0
 10
479.0823840544159
 20
241.0050937513143
 30
0.0
 10
478.9665849741816
 20
241.144153936714
 30
0.0
 10
478.8912381871741
 20
241.4027229350767
 30
0.0
 10
478.8831331836908
 20
241.6221768275908
 30
0.0
 10
478.9225468644998
 20
241.8203853293832
 30
0.0
 10
479.0037282515282
 20
242.0059502443129
 30
0.0
 10
479.1439429134751
 20
242.1915860047612
 30
0.0
 10
479.3615523267972
 20
242.3592025187684
 30
0.0
 10
479.5410185920481
 20
242.40409698983
 30
0.0
 10
479.6421271197449
 20
242.4293898428596
 30
0.0
  0
SPLINE
  5
426
330
1F
100
AcDbEntity
  8
0
  6
Continuous
 62
     7
370
    50
100
AcDbSpline
210
0.0
220
0.0
230
1.0
 70
     8
 71
     3
 72
    13
 73
     9
 74
     0
 42
0.000000001
 43
0.00000001
 40
0.0
 40
0.0
 40
0.0
 40
0.0
 40
0.117148391709967
 40
0.2522983693457051
 40
0.3985104300065859
 40
0.5679258008036563
 40
0.8196236355435039
 40
1.0
 40
1.0
 40
1.0
 40
1.0
 10
480.6435401782771
 20
244.0515325987276
 30
0.0
 10
480.6676016175148
 20
243.9547228227392
 30
0.0
 10
480.7194218925962
 20
243.7462270144566
 30
0.0
 10
480.6939051291356
 20
243.4140970360201
 30
0.0
 10
480.5794504888164
 20
243.0814255198283
 30
0.0
 10
480.3401218623187
 20
242.747569739163
 30
0.0
 10
480.0080367266019
 20
242.5137520732126
 30
0.0
 10
479.7498932783895
 20
242.454235852173
 30
0.0
 10
479.6421271197449
 20
242.4293898428596
 30
0.0
  0
ARC
  5
427
330
1F
100
AcDbEntity
  8
0
  6
Continuous
 62
     7
370
    50
100
AcDbCircle
 10
476.3637858549
 20
242.660956124
 30
0.0
 40
4.500000000000005
100
AcDbArc
 50
306.0
 51
18.0
  0
SPLINE
  5
428
330
1F
100
AcDbEntity
  8
0
  6
Continuous
 62
     7
370
    50
100
AcDbSpline
210
0.0
220
0.0
230
1.0
 70
     8
 71
     3
 72
    13
 73
     9
 74
     0
 42
0.000000001
 43
0.00000001
 40
0.0
 40
0.0
 40
0.0
 40
0.0
 40
0.2478862331502862
 40
0.4818649241196483
 40
0.6678037083407324
 40
0.8225946083215783
 40
0.9780897184739494
 40
1.0
 40
1.0
 40
1.0
 40
1.0
 10
473.085444590153
 20
454.4293898428596
 30
0.0
 10
472.9372300190478
 20
454.467551296523
 30
0.0
 10
472.6491163866311
 20
454.5417331731851
 30
0.0
 10
472.2989271774126
 20
454.8410085436819
 30
0.0
 10
472.0849827692031
 20
455.2125987444044
 30
0.0
 10
472.0045326336792
 20
455.6058885611183
 30
0.0
 10
472.0341977629719
 20
455.8904876516972
 30
0.0
 10
472.0785534280524
 20
456.0338293239622
 30
0.0
 10
472.0840315316208
 20
456.0515325987275
 30
0.0
  0
SPLINE
  5
429
330
1F
100
AcDbEntity
  8
0
  6
Continuous
 62
     7
370
    50
100
AcDbSpline
210
0.0
220
0.0
230
1.0
 70
     8
 71
     3
 72
    15
 73
    11
 74
     0
 42
0.000000001
 43
0.00000001
 40
0.0
 40
0.0
 40
0.0
 40
0.0
 40
0.1918134371223963
 40
0.3184634446555265
 40
0.416555584989572
 40
0.4963579397126257
 40
0.5762851038528806
 40
0.6738453098131003
 40
0.8162494746290365
 40
1.0
 40
1.0
 40
1.0
 40
1.0
 10
473.5754408133621
 20
452.9213365334107
 30
0.0
 10
473.645187655482
 20
453.0050937513143
 30
0.0
 10
473.7609867357164
 20
453.1441539367139
 30
0.0
 10
473.8363335227239
 20
453.4027229350767
 30
0.0
 10
473.8444385262071
 20
453.6221768275907
 30
0.0
 10
473.8050248453982
 20
453.8203853293832
 30
0.0
 10
473.7238434583697
 20
454.0059502443128
 30
0.0
 10
473.5836287964228
 20
454.1915860047612
 30
0.0
 10
473.3660193831007
 20
454.3592025187684
 30
0.0
 10
473.1865531178498
 20
454.40409698983
 30
0.0
 10
473.085444590153
 20
454.4293898428595
 30
0.0
  0
SPLINE
  5
42A
330
1F
100
AcDbEntity
  8
0
  6
Continuous
 62
     7
370
    50
100
AcDbSpline
210
0.0
220
0.0
230
1.0
 70
     8
 71
     3
 72
    13
 73
     9
 74
     0
 42
0.000000001
 43
0.00000001
 40
0.0
 40
0.0
 40
0.0
 40
0.0
 40
0.1170983962556761
 40
0.2522466701056889
 40
0.3984522353881694
 40
0.5678566463196004
 40
0.8195356573285328
 40
1.0
 40
1.0
 40
1.0
 40
1.0
 10
473.7187522196328
 20
451.0203796493531
 30
0.0
 10
473.6424138325227
 20
451.0845274840964
 30
0.0
 10
473.477970043662
 20
451.2227110820442
 30
0.0
 10
473.3033849961478
 20
451.506353364818
 30
0.0
 10
473.2004084877684
 20
451.842749344197
 30
0.0
 10
473.1977484796337
 20
452.2535034850436
 30
0.0
 10
473.3289447301291
 20
452.6379262785749
 30
0.0
 10
473.502827044556
 20
452.8378484452756
 30
0.0
 10
473.5754408133621
 20
452.9213365334107
 30
0.0
  0
ARC
  5
42B
330
1F
100
AcDbEntity
  8
0
  6
Continuous
 62
     7
370
    50
100
AcDbCircle
 10
476.3637858549
 20
454.660956124
 30
0.0
 40
4.49999999999998
100
AcDbArc
 50
162.0
 51
234.0
  0
SPLINE
  5
42C
330
1F
100
AcDbEntity
  8
0
  6
Continuous
 62
     7
370
    50
100
AcDbSpline
210
0.0
220
0.0
230
1.0
 70
     8
 71
     3
 72
    13
 73
     9
 74
     0
 42
0.000000001
 43
0.00000001
 40
0.0
 40
0.0
 40
0.0
 40
0.0
 40
0.1171483917099719
 40
0.252298369345715
 40
0.3985104300065925
 40
0.5679258008036668
 40
0.8196236355435211
 40
1.0
 40
1.0
 40
1.0
 40
1.0
 10
480.6435401782771
 20
456.0515325987276
 30
0.0
 10
480.6676016175148
 20
455.9547228227393
 30
0.0
 10
480.7194218925962
 20
455.7462270144567
 30
0.0
 10
480.6939051291356
 20
455.4140970360201
 30
0.0
 10
480.5794504888163
 20
455.0814255198283
 30
0.0
 10
480.3401218623187
 20
454.7475697391631
 30
0.0
 10
480.0080367266019
 20
454.5137520732126
 30
0.0
 10
479.7498932783895
 20
454.454235852173
 30
0.0
 10
479.6421271197449
 20
454.4293898428596
 30
0.0
  0
ARC
  5
42D
330
1F
100
AcDbEntity
  8
0
  6
Continuous
 62
     7
370
    50
100
AcDbCircle
 10
476.3637858549
 20
454.660956124
 30
0.0
 40
4.50000000000005
100
AcDbArc
 50
306.0
 51
18.0
  0
SPLINE
  5
42E
330
1F
100
AcDbEntity
  8
0
  6
Continuous
 62
     7
370
    50
100
AcDbSpline
210
0.0
220
0.0
230
1.0
 70
     8
 71
     3
 72
    13
 73
     9
 74
     0
 42
0.000000001
 43
0.00000001
 40
0.0
 40
0.0
 40
0.0
 40
0.0
 40
0.248463740911084
 40
0.482314046423884
 40
0.6681686148344452
 40
0.8229092671327877
 40
0.9783528544544096
 40
1.0
 40
1.0
 40
1.0
 40
1.0
 10
479.1521308965359
 20
452.9213365334108
 30
0.0
 10
479.2498172080099
 20
452.8030408464524
 30
0.0
 10
479.4394443946348
 20
452.5734070526354
 30
0.0
 10
479.5465518659493
 20
452.1250232584243
 30
0.0
 10
479.500920780166
 20
451.6987970549478
 30
0.0
 10
479.3346360887184
 20
451.3335222340738
 30
0.0
 10
479.1434201015994
 20
451.1210606429818
 30
0.0
 10
479.0234806059384
 20
451.0313461351591
 30
0.0
 10
479.0088194902651
 20
451.0203796493531
 30
0.0
  0
SPLINE
  5
42F
330
1F
100
AcDbEntity
  8
0
  6
Continuous
 62
     7
370
    50
100
AcDbSpline
210
0.0
220
0.0
230
1.0
 70
     8
 71
     3
 72
    15
 73
    11
 74
     0
 42
0.000000001
 43
0.00000001
 40
0.0
 40
0.0
 40
0.0
 40
0.0
 40
0.1918134371223982
 40
0.3184634446555283
 40
0.4165555849895739
 40
0.4963579397126277
 40
0.5762851038528816
 40
0.6738453098130999
 40
0.816249474629037
 40
1.0
 40
1.0
 40
1.0
 40
1.0
 10
479.1521308965359
 20
452.9213365334108
 30
0.0
 10
479.0823840544159
 20
453.0050937513145
 30
0.0
 10
478.9665849741816
 20
453.144153936714
 30
0.0
 10
478.8912381871741
 20
453.4027229350768
 30
0.0
 10
478.8831331836909
 20
453.6221768275907
 30
0.0
 10
478.9225468644997
 20
453.8203853293832
 30
0.0
 10
479.0037282515282
 20
454.0059502443129
 30
0.0
 10
479.1439429134751
 20
454.1915860047613
 30
0.0
 10
479.3615523267972
 20
454.3592025187685
 30
0.0
 10
479.5410185920481
 20
454.40409698983
 30
0.0
 10
479.6421271197449
 20
454.4293898428596
 30
0.0
  0
SPLINE
  5
430
330
1F
100
AcDbEntity
  8
0
  6
Continuous
 62
     7
370
    50
100
AcDbSpline
210
0.0
220
0.0
230
1.0
 70
     8
 71
     3
 72
    15
 73
    11
 74
     0
 42
0.000000001
 43
0.00000001
 40
0.0
 40
0.0
 40
0.0
 40
0.0
 40
0.1918489219228668
 40
0.3184866952271249
 40
0.4165733661801653
 40
0.4963740515680565
 40
0.5762994184846959
 40
0.6738646769153864
 40
0.8162793967583158
 40
1.0
 40
1.0
 40
1.0
 40
1.0
 10
473.8476633033746
 20
244.7752578282686
 30
0.0
 10
473.9488940577047
 20
244.7348008258124
 30
0.0
 10
474.1169463359182
 20
244.6676385145419
 30
0.0
 10
474.386161646886
 20
244.6758994521873
 30
0.0
 10
474.5973676167971
 20
244.7360146037828
 30
0.0
 10
474.7736866432563
 20
244.8347547595363
 30
0.0
 10
474.9250768802732
 20
244.9693114435418
 30
0.0
 10
475.0582933777131
 20
245.1600385216614
 30
0.0
 10
475.150441988451
 20
245.4187840354335
 30
0.0
 10
475.13767950987
 20
245.6033277201606
 30
0.0
 10
475.1304900700952
 20
245.7072860303547
 30
0.0
  0
SPLINE
  5
431
330
1F
100
AcDbEntity
  8
0
  6
Continuous
 62
     7
370
    50
100
AcDbSpline
210
0.0
220
0.0
230
1.0
 70
     8
 71
     3
 72
    19
 73
    15
 74
     0
 42
0.000000001
 43
0.00000001
 40
0.0
 40
0.0
 40
0.0
 40
0.0
 40
0.0578287333667495
 40
0.1169034397077947
 40
0.1836679710627933
 40
0.2521036945626401
 40
0.3244049848182882
 40
0.3982879611295106
 40
0.4821073883037236
 40
0.5676173729306208
 40
0.6917308821900726
 40
0.8194238478362598
 40
0.90925326139178
 40
1.0
 40
1.0
 40
1.0
 40
1.0
 10
472.0840315316208
 20
244.0515325987274
 30
0.0
 10
472.1008128343067
 20
244.0977368745452
 30
0.0
 10
472.1347370082001
 20
244.1911409395806
 30
0.0
 10
472.2090665870582
 20
244.3275674435904
 30
0.0
 10
472.3026580328285
 20
244.459418447316
 30
0.0
 10
472.4181226585603
 20
244.5825652244162
 30
0.0
 10
472.5496063661126
 20
244.6895089132856
 30
0.0
 10
472.6995745201021
 20
244.780767365034
 30
0.0
 10
472.8640145459839
 20
244.8512278290214
 30
0.0
 10
473.0645230099362
 20
244.9042770824401
 30
0.0
 10
473.2924182719051
 20
244.9234741409871
 30
0.0
 10
473.5116952365009
 20
244.8976813839074
 30
0.0
 10
473.6977544963241
 20
244.8457889307151
 30
0.0
 10
473.7975247570478
 20
244.7988476827746
 30
0.0
 10
473.8476633033746
 20
244.7752578282686
 30
0.0
  0
ARC
  5
432
330
1F
100
AcDbEntity
  8
0
  6
Continuous
 62
     7
370
    50
100
AcDbCircle
 10
476.3637858549
 20
242.660956124
 30
0.0
 40
4.5
100
AcDbArc
 50
90.0
 51
162.0
  0
SPLINE
  5
433
330
1F
100
AcDbEntity
  8
0
  6
Continuous
 62
     7
370
    50
100
AcDbSpline
210
0.0
220
0.0
230
1.0
 70
     8
 71
     3
 72
    13
 73
     9
 74
     0
 42
0.000000001
 43
0.00000001
 40
0.0
 40
0.0
 40
0.0
 40
0.0
 40
0.2485086942884784
 40
0.4823490069988018
 40
0.6681970215939744
 40
0.8229337645461712
 40
0.9783733432651572
 40
1.0
 40
1.0
 40
1.0
 40
1.0
 10
475.1304900700952
 20
245.7072860303547
 30
0.0
 10
475.1209934049616
 20
245.860436537113
 30
0.0
 10
475.1025606213115
 20
246.1576977458919
 30
0.0
 10
475.2795002665977
 20
246.5834176860213
 30
0.0
 10
475.5669581227569
 20
246.9013974517609
 30
0.0
 10
475.9161922960681
 20
247.099150124863
 30
0.0
 10
476.1957509687806
 20
247.1586224247311
 30
0.0
 10
476.3454961579064
 20
247.1607021133742
 30
0.0
 10
476.363785854949
 20
247.1609561240402
 30
0.0
  0
SPLINE
  5
434
330
1F
100
AcDbEntity
  8
0
  6
Continuous
 62
     7
370
    50
100
AcDbSpline
210
0.0
220
0.0
230
1.0
 70
     8
 71
     3
 72
    18
 73
    14
 74
     0
 42
0.000000001
 43
0.00000001
 40
0.0
 40
0.0
 40
0.0
 40
0.0
 40
0.1229571234210866
 40
0.2483044662035908
 40
0.3637513285027714
 40
0.482157913450588
 40
0.5738953075243082
 40
0.6680258065019101
 40
0.7443713503833684
 40
0.8227965181623883
 40
0.8992261157828675
 40
0.9784375301823065
 40
1.0
 40
1.0
 40
1.0
 40
1.0
 10
478.8799084065233
 20
244.7752578282686
 30
0.0
 10
478.9484060377872
 20
244.8063748117027
 30
0.0
 10
479.0867328568763
 20
244.8692136757432
 30
0.0
 10
479.314169375558
 20
244.9142173530336
 30
0.0
 10
479.5509347502508
 20
244.9191005990945
 30
0.0
 10
479.773247510644
 20
244.8809031081112
 30
0.0
 10
479.9804095468128
 20
244.805585257727
 30
0.0
 10
480.1536169066273
 20
244.7079396139041
 30
0.0
 10
480.307041853614
 20
244.5858798206742
 30
0.0
 10
480.4355396662852
 20
244.4481140289951
 30
0.0
 10
480.5453578254499
 20
244.2861970976521
 30
0.0
 10
480.6101067519235
 20
244.1498237122381
 30
0.0
 10
480.6376473490168
 20
244.0688569597905
 30
0.0
 10
480.6435401782771
 20
244.0515325987275
 30
0.0
  0
SPLINE
  5
435
330
1F
100
AcDbEntity
  8
0
  6
Continuous
 62
     7
370
    50
100
AcDbSpline
210
0.0
220
0.0
230
1.0
 70
     8
 71
     3
 72
    15
 73
    11
 74
     0
 42
0.000000001
 43
0.00000001
 40
0.0
 40
0.0
 40
0.0
 40
0.0
 40
0.1918489219228794
 40
0.3184866952271331
 40
0.416573366180172
 40
0.4963740515680697
 40
0.5762994184847129
 40
0.6738646769154031
 40
0.816279396758331
 40
0.9999999999999999
 40
0.9999999999999999
 40
0.9999999999999999
 40
0.9999999999999999
 10
478.8799084065233
 20
244.7752578282686
 30
0.0
 10
478.7786776521932
 20
244.7348008258124
 30
0.0
 10
478.6106253739798
 20
244.6676385145419
 30
0.0
 10
478.3414100630119
 20
244.6758994521874
 30
0.0
 10
478.1302040931008
 20
244.7360146037828
 30
0.0
 10
477.9538850666416
 20
244.8347547595363
 30
0.0
 10
477.8024948296247
 20
244.9693114435418
 30
0.0
 10
477.6692783321848
 20
245.1600385216615
 30
0.0
 10
477.5771297214469
 20
245.4187840354335
 30
0.0
 10
477.5898922000279
 20
245.6033277201606
 30
0.0
 10
477.5970816398028
 20
245.7072860303547
 30
0.0
  0
ARC
  5
436
330
1F
100
AcDbEntity
  8
0
  6
Continuous
 62
     7
370
    50
100
AcDbCircle
 10
476.3637858549
 20
242.660956124
 30
0.0
 40
4.500000000000005
100
AcDbArc
 50
18.0
 51
90.0
  0
SPLINE
  5
437
330
1F
100
AcDbEntity
  8
0
  6
Continuous
 62
     7
370
    50
100
AcDbSpline
210
0.0
220
0.0
230
1.0
 70
     8
 71
     3
 72
    13
 73
     9
 74
     0
 42
0.000000001
 43
0.00000001
 40
0.0
 40
0.0
 40
0.0
 40
0.0
 40
0.1171534822544315
 40
0.2523036334908887
 40
0.3985163556194859
 40
0.5679328424644081
 40
0.8196325939074662
 40
1.0
 40
1.0
 40
1.0
 40
1.0
 10
476.363785854949
 20
247.1609561240402
 30
0.0
 10
476.4632971705373
 20
247.1539234388991
 30
0.0
 10
476.677606348662
 20
247.1387777344766
 30
0.0
 10
476.9855982873196
 20
247.0118710753518
 30
0.0
 10
477.2666175042721
 20
246.8002138342607
 30
0.0
 10
477.5101737441155
 20
246.4694277450492
 30
0.0
 10
477.6299210731682
 20
246.0813458865143
 30
0.0
 10
477.6067531439364
 20
245.8174499727344
 30
0.0
 10
477.5970816398028
 20
245.7072860303547
 30
0.0
  0
LINE
  5
438
330
1F
100
AcDbEntity
  8
0
  6
Continuous
 62
     7
370
    50
100
AcDbLine
 10
485.3637858549
 20
242.660956124
 30
0.0
 11
485.3637858549
 21
454.660956124
 31
0.0
  0
LINE
  5
439
330
1F
100
AcDbEntity
  8
0
  6
Continuous
 62
     7
370
    50
100
AcDbLine
 10
467.3637858549
 20
454.660956124
 30
0.0
 11
467.3637858549
 21
242.660956124
 31
0.0
  0
ARC
  5
43A
330
1F
100
AcDbEntity
  8
0
  6
Continuous
 62
     7
370
    50
100
AcDbCircle
 10
476.3637858549
 20
242.660956124
 30
0.0
 40
4.49999999999999
100
AcDbArc
 50
162.0
 51
234.0
  0
ARC
  5
43B
330
1F
100
AcDbEntity
  8
0
  6
Continuous
 62
     7
370
    50
100
AcDbCircle
 10
476.3637858549
 20
454.660956124
 30
0.0
 40
4.5
100
AcDbArc
 50
90.0
 51
162.0
  0
LINE
  5
43C
330
1F
100
AcDbEntity
  8
0
  6
Continuous
 62
     7
370
    50
100
AcDbLine
 10
473.6137858549
 20
381.510956124
 30
0.0
 11
473.6137858549
 21
384.060956124
 31
0.0
  0
LINE
  5
43D
330
1F
100
AcDbEntity
  8
0
  6
Continuous
 62
     7
370
    50
100
AcDbLine
 10
473.6137858549
 20
384.060956124
 30
0.0
 11
481.5137858549
 21
384.060956124
 31
0.0
  0
LINE
  5
43E
330
1F
100
AcDbEntity
  8
0
  6
Continuous
 62
     7
370
    50
100
AcDbLine
 10
481.5137858549
 20
384.060956124
 30
0.0
 11
481.5137858549
 21
409.260956124
 31
0.0
  0
LINE
  5
43F
330
1F
100
AcDbEntity
  8
0
  6
Continuous
 62
     7
370
    50
100
AcDbLine
 10
481.5137858549
 20
409.260956124
 30
0.0
 11
473.6137858549
 21
409.260956124
 31
0.0
  0
LINE
  5
440
330
1F
100
AcDbEntity
  8
0
  6
Continuous
 62
     7
370
    50
100
AcDbLine
 10
473.6137858549
 20
409.260956124
 30
0.0
 11
473.6137858549
 21
411.810956124
 31
0.0
  0
ARC
  5
441
330
1F
100
AcDbEntity
  8
0
  6
Continuous
 62
     7
370
    50
100
AcDbCircle
 10
471.9798112587
 20
357.710956124
 30
0.0
 40
0.5
100
AcDbArc
 50
210.0
 51
270.0
  0
ARC
  5
442
330
1F
100
AcDbEntity
  8
0
  6
Continuous
 62
     7
370
    50
100
AcDbCircle
 10
471.9798112587
 20
353.310956124
 30
0.0
 40
0.5000000000000202
100
AcDbArc
 50
90.0
 51
150.0
  0
LINE
  5
443
330
1F
100
AcDbEntity
  8
0
  6
Continuous
 62
     7
370
    50
100
AcDbLine
 10
473.6137858549
 20
411.810956124
 30
0.0
 11
470.8137858549
 21
411.810956124
 31
0.0
  0
ARC
  5
444
330
1F
100
AcDbEntity
  8
0
  6
Continuous
 62
     7
370
    50
100
AcDbCircle
 10
479.3137858549
 20
357.210956124
 30
0.0
 40
0.5
100
AcDbArc
 50
0.0
 51
150.0
  0
LINE
  5
445
330
1F
100
AcDbEntity
  8
0
  6
Continuous
 62
     7
370
    50
100
AcDbLine
 10
470.6137858549
 20
357.210956124
 30
0.0
 11
470.6137858549
 21
353.810956124
 31
0.0
  0
ARC
  5
446
330
1F
100
AcDbEntity
  8
0
  6
Continuous
 62
     7
370
    50
100
AcDbCircle
 10
476.3637858549
 20
242.660956124
 30
0.0
 40
9.000000000000057
100
AcDbArc
 50
180.0
 51
0.0
  0
LINE
  5
447
330
1F
100
AcDbEntity
  8
0
  6
Continuous
 62
     7
370
    50
100
AcDbLine
 10
479.8137858549
 20
353.810956124
 30
0.0
 11
479.8137858549
 21
357.210956124
 31
0.0
  0
ARC
  5
448
330
1F
100
AcDbEntity
  8
0
  6
Continuous
 62
     7
370
    50
100
AcDbCircle
 10
478.4477604512
 20
357.710956124
 30
0.0
 40
0.500000000000041
100
AcDbArc
 50
270.0
 51
330.0
  0
LINE
  5
449
330
1F
100
AcDbEntity
  8
0
  6
Continuous
 62
     7
370
    50
100
AcDbLine
 10
470.8137858549
 20
381.510956124
 30
0.0
 11
473.6137858549
 21
381.510956124
 31
0.0
  0
LINE
  5
44A
330
1F
100
AcDbEntity
  8
0
  6
Continuous
 62
     7
370
    50
100
AcDbLine
 10
470.8137858549
 20
411.810956124
 30
0.0
 11
470.8137858549
 21
411.610956124
 31
0.0
  0
LINE
  5
44B
330
1F
100
AcDbEntity
  8
0
  6
Continuous
 62
     7
370
    50
100
AcDbLine
 10
470.8137858549
 20
381.710956124
 30
0.0
 11
470.8137858549
 21
381.510956124
 31
0.0
  0
ARC
  5
44C
330
1F
100
AcDbEntity
  8
0
  6
Continuous
 62
     7
370
    50
100
AcDbCircle
 10
471.1137858549
 20
357.210956124
 30
0.0
 40
0.5
100
AcDbArc
 50
30.0
 51
180.0
  0
LINE
  5
44D
330
1F
100
AcDbEntity
  8
0
  6
Continuous
 62
     7
370
    50
100
AcDbLine
 10
478.4477604512
 20
357.210956124
 30
0.0
 11
471.9798112587
 21
357.210956124
 31
0.0
  0
ARC
  5
44E
330
1F
100
AcDbEntity
  8
0
  6
Continuous
 62
     7
370
    50
100
AcDbCircle
 10
478.4477604512
 20
353.310956124
 30
0.0
 40
0.5000000000000694
100
AcDbArc
 50
30.0
 51
90.0
  0
ARC
  5
44F
330
1F
100
AcDbEntity
  8
0
  6
Continuous
 62
     7
370
    50
100
AcDbCircle
 10
479.3137858549
 20
353.810956124
 30
0.0
 40
0.5
100
AcDbArc
 50
210.0
 51
0.0
  0
LINE
  5
450
330
1F
100
AcDbEntity
  8
0
  6
Continuous
 62
     7
370
    50
100
AcDbLine
 10
471.9798112587
 20
353.810956124
 30
0.0
 11
478.4477604512
 21
353.810956124
 31
0.0
  0
ARC
  5
451
330
1F
100
AcDbEntity
  8
0
  6
Continuous
 62
     7
370
    50
100
AcDbCircle
 10
471.1137858549
 20
353.810956124
 30
0.0
 40
0.5
100
AcDbArc
 50
180.0
 51
330.0
  0
ARC
  5
452
330
1F
100
AcDbEntity
  8
0
  6
Continuous
 62
     7
370
    50
100
AcDbCircle
 10
476.3637858549
 20
454.660956124
 30
0.0
 40
9.000000000000057
100
AcDbArc
 50
0.0
 51
180.0
  0
SPLINE
  5
453
330
1F
100
AcDbEntity
  8
0
  6
Continuous
 62
     7
370
    50
100
AcDbSpline
210
0.0
220
0.0
230
1.0
 70
     8
 71
     3
 72
    23
 73
    19
 74
     0
 42
0.000000001
 43
0.00000001
 40
0.0
 40
0.0
 40
0.0
 40
0.0
 40
0.0949117253450067
 40
0.1918192168457213
 40
0.2545243253075913
 40
0.3183897473670048
 40
0.3668519642429752
 40
0.4165006556901546
 40
0.4558752653280477
 40
0.4963481513191363
 40
0.53574855609833
 40
0.576328199250902
 40
0.6244394473334162
 40
0.6739359582327924
 40
0.7441980426400255
 40
0.8163790197002965
 40
0.9072403113745038
 40
0.9999999999999999
 40
0.9999999999999999
 40
0.9999999999999999
 40
0.9999999999999999
 10
475.1304900700952
 20
457.7072860303547
 30
0.0
 10
475.1364864861322
 20
457.6542188833952
 30
0.0
 10
475.148605408467
 20
457.5469687145356
 30
0.0
 10
475.1306249630076
 20
457.3968992221093
 30
0.0
 10
475.0930661116849
 20
457.2628479959386
 30
0.0
 10
475.0467847142988
 20
457.1568511707742
 30
0.0
 10
474.9884522812304
 20
457.0598021617567
 30
0.0
 10
474.9263262261018
 20
456.979791182375
 30
0.0
 10
474.8571027703797
 20
456.9089967980213
 30
0.0
 10
474.7853585379457
 20
456.8495578746019
 30
0.0
 10
474.7068031362822
 20
456.79745535297
 30
0.0
 10
474.6194409113921
 20
456.7519489312924
 30
0.0
 10
474.5236542853069
 20
456.7152287135746
 30
0.0
 10
474.4088257446588
 20
456.6863467275808
 30
0.0
 10
474.2820879707988
 20
456.6727613369669
 30
0.0
 10
474.1372900248178
 20
456.6798928469527
 30
0.0
 10
473.9891300630484
 20
456.7107347357756
 30
0.0
 10
473.8951427911015
 20
456.753602399211
 30
0.0
 10
473.8476633033746
 20
456.7752578282686
 30
0.0
  0
SPLINE
  5
454
330
1F
100
AcDbEntity
  8
0
  6
Continuous
 62
     7
370
    50
100
AcDbSpline
210
0.0
220
0.0
230
1.0
 70
     8
 71
     3
 72
    19
 73
    15
 74
     0
 42
0.000000001
 43
0.00000001
 40
0.0
 40
0.0
 40
0.0
 40
0.0
 40
0.0578287333667448
 40
0.1169034397077772
 40
0.1836679710627733
 40
0.2521036945626111
 40
0.3244049848182601
 40
0.3982879611294928
 40
0.4821073883036999
 40
0.5676173729305913
 40
0.69173088219004
 40
0.8194238478362265
 40
0.9092532613917615
 40
1.0
 40
1.0
 40
1.0
 40
1.0
 10
472.0840315316208
 20
456.0515325987275
 30
0.0
 10
472.1008128343067
 20
456.0977368745453
 30
0.0
 10
472.1347370082001
 20
456.1911409395806
 30
0.0
 10
472.2090665870581
 20
456.3275674435905
 30
0.0
 10
472.3026580328285
 20
456.459418447316
 30
0.0
 10
472.4181226585603
 20
456.5825652244162
 30
0.0
 10
472.5496063661126
 20
456.6895089132856
 30
0.0
 10
472.6995745201021
 20
456.7807673650341
 30
0.0
 10
472.8640145459838
 20
456.8512278290214
 30
0.0
 10
473.0645230099361
 20
456.9042770824401
 30
0.0
 10
473.292418271905
 20
456.9234741409871
 30
0.0
 10
473.5116952365009
 20
456.8976813839075
 30
0.0
 10
473.697754496324
 20
456.8457889307152
 30
0.0
 10
473.7975247570478
 20
456.7988476827747
 30
0.0
 10
473.8476633033746
 20
456.7752578282686
 30
0.0
  0
SPLINE
  5
455
330
1F
100
AcDbEntity
  8
0
  6
Continuous
 62
     7
370
    50
100
AcDbSpline
210
0.0
220
0.0
230
1.0
 70
     8
 71
     3
 72
    26
 73
    22
 74
     0
 42
0.000000001
 43
0.00000001
 40
0.0
 40
0.0
 40
0.0
 40
0.0
 40
0.0613394848686472
 40
0.1229507095639638
 40
0.1854607442126797
 40
0.248307151613638
 40
0.305872000610337
 40
0.3637583254994269
 40
0.4227582413410801
 40
0.4821975739311132
 40
0.5279384258486393
 40
0.5739399264934255
 40
0.6208422157619647
 40
0.668097268479024
 40
0.7063839420207307
 40
0.7836899535016106
 40
0.8228322479749879
 40
0.861205607863446
 40
0.9389483034826426
 40
0.9784573379419261
 40
1.0
 40
1.0
 40
1.0
 40
1.0
 10
475.1304900700952
 20
457.7072860303547
 30
0.0
 10
475.1253489291325
 20
457.7443299563147
 30
0.0
 10
475.1150438714577
 20
457.8185819163952
 30
0.0
 10
475.1123145362164
 20
457.9334260296194
 30
0.0
 10
475.119675604825
 20
458.0505714221026
 30
0.0
 10
475.1382519819788
 20
458.1660727916395
 30
0.0
 10
475.1672724727184
 20
458.2786434142311
 30
0.0
 10
475.2063984857123
 20
458.3880255484258
 30
0.0
 10
475.2573461407661
 20
458.4968717995251
 30
0.0
 10
475.3159405227261
 20
458.5955803798551
 30
0.0
 10
475.3792530298333
 20
458.6832863102998
 30
0.0
 10
475.4449173477671
 20
458.7604929308686
 30
0.0
 10
475.5191069116114
 20
458.8344359247702
 30
0.0
 10
475.5966479792184
 20
458.8995336381988
 30
0.0
 10
475.699974061117
 20
458.9731520598485
 30
0.0
 10
475.8083456005644
 20
459.0338927434117
 30
0.0
 10
475.9251766409705
 20
459.0827747269453
 30
0.0
 10
476.0472864692167
 20
459.1232601505582
 30
0.0
 10
476.1762483328612
 20
459.1497731237567
 30
0.0
 10
476.2936401552685
 20
459.1600248456315
 30
0.0
 10
476.3454901126112
 20
459.1607132234792
 30
0.0
 10
476.3637858549489
 20
459.1609561240403
 30
0.0
  0
SPLINE
  5
456
330
1F
100
AcDbEntity
  8
0
  6
Continuous
 62
     7
370
    50
100
AcDbSpline
210
0.0
220
0.0
230
1.0
 70
     8
 71
     3
 72
    15
 73
    11
 74
     0
 42
0.000000001
 43
0.00000001
 40
0.0
 40
0.0
 40
0.0
 40
0.0
 40
0.191813437122403
 40
0.3184634446555189
 40
0.4165555849895827
 40
0.496357939712624
 40
0.5762851038528841
 40
0.6738453098130934
 40
0.8162494746290225
 40
1.0
 40
1.0
 40
1.0
 40
1.0
 10
473.5754408133621
 20
240.9213365334107
 30
0.0
 10
473.645187655482
 20
241.0050937513143
 30
0.0
 10
473.7609867357164
 20
241.1441539367139
 30
0.0
 10
473.8363335227239
 20
241.4027229350767
 30
0.0
 10
473.8444385262071
 20
241.6221768275907
 30
0.0
 10
473.8050248453982
 20
241.8203853293832
 30
0.0
 10
473.7238434583697
 20
242.0059502443129
 30
0.0
 10
473.5836287964228
 20
242.1915860047611
 30
0.0
 10
473.3660193831008
 20
242.3592025187684
 30
0.0
 10
473.1865531178498
 20
242.4040969898299
 30
0.0
 10
473.085444590153
 20
242.4293898428595
 30
0.0
  0
SPLINE
  5
457
330
1F
100
AcDbEntity
  8
0
  6
Continuous
 62
     7
370
    50
100
AcDbSpline
210
0.0
220
0.0
230
1.0
 70
     8
 71
     3
 72
    13
 73
     9
 74
     0
 42
0.000000001
 43
0.00000001
 40
0.0
 40
0.0
 40
0.0
 40
0.0
 40
0.2478862331503043
 40
0.4818649241196678
 40
0.6678037083407594
 40
0.8225946083216038
 40
0.9780897184739714
 40
1.0
 40
1.0
 40
1.0
 40
1.0
 10
473.085444590153
 20
242.4293898428595
 30
0.0
 10
472.9372300190478
 20
242.4675512965228
 30
0.0
 10
472.6491163866311
 20
242.541733173185
 30
0.0
 10
472.2989271774126
 20
242.8410085436819
 30
0.0
 10
472.084982769203
 20
243.2125987444043
 30
0.0
 10
472.0045326336792
 20
243.6058885611184
 30
0.0
 10
472.034197762972
 20
243.8904876516972
 30
0.0
 10
472.0785534280525
 20
244.0338293239622
 30
0.0
 10
472.0840315316208
 20
244.0515325987275
 30
0.0
  0
SPLINE
  5
458
330
1F
100
AcDbEntity
  8
0
  6
Continuous
 62
     7
370
    50
100
AcDbSpline
210
0.0
220
0.0
230
1.0
 70
     8
 71
     3
 72
    13
 73
     9
 74
     0
 42
0.000000001
 43
0.00000001
 40
0.0
 40
0.0
 40
0.0
 40
0.0
 40
0.1170983962556783
 40
0.252246670105691
 40
0.3984522353881721
 40
0.5678566463196091
 40
0.8195356573285403
 40
1.0
 40
1.0
 40
1.0
 40
1.0
 10
473.7187522196328
 20
239.020379649353
 30
0.0
 10
473.6424138325227
 20
239.0845274840964
 30
0.0
 10
473.477970043662
 20
239.2227110820441
 30
0.0
 10
473.3033849961478
 20
239.506353364818
 30
0.0
 10
473.2004084877684
 20
239.842749344197
 30
0.0
 10
473.1977484796337
 20
240.2535034850436
 30
0.0
 10
473.3289447301291
 20
240.6379262785748
 30
0.0
 10
473.502827044556
 20
240.8378484452756
 30
0.0
 10
473.5754408133621
 20
240.9213365334107
 30
0.0
  0
LINE
  5
459
330
1F
100
AcDbEntity
  8
0
  6
Continuous
 62
     7
370
    50
100
AcDbLine
 10
479.3137858549
 20
353.3204479535
 30
0.0
 11
479.3137858549
 21
354.010956124
 31
0.0
  0
LINE
  5
45A
330
1F
100
AcDbEntity
  8
0
  6
Continuous
 62
     7
370
    50
100
AcDbLine
 10
479.3137858549
 20
357.010956124
 30
0.0
 11
479.3137858549
 21
357.7079914564
 31
0.0
  0
LINE
  5
45B
330
1F
100
AcDbEntity
  8
0
  6
Continuous
 62
     7
370
    50
100
AcDbLine
 10
470.8137858549
 20
356.7460358772
 30
0.0
 11
470.6137858549
 21
356.7460358772
 31
0.0
  0
LINE
  5
45C
330
1F
100
AcDbEntity
  8
0
  6
Continuous
 62
     7
370
    50
100
AcDbLine
 10
470.6137858549
 20
356.9291131264
 30
0.0
 11
470.8137858549
 21
356.9291131264
 31
0.0
  0
LINE
  5
45D
330
1F
100
AcDbEntity
  8
0
  6
Continuous
 62
     7
370
    50
100
AcDbLine
 10
475.3137858549
 20
353.810956124
 30
0.0
 11
475.3137858549
 21
354.010956124
 31
0.0
  0
LINE
  5
45E
330
1F
100
AcDbEntity
  8
0
  6
Continuous
 62
     7
370
    50
100
AcDbLine
 10
478.313785855
 20
409.260956124
 30
0.0
 11
478.313785855
 21
409.110956124
 31
0.0
  0
LINE
  5
45F
330
1F
100
AcDbEntity
  8
0
  6
Continuous
 62
     7
370
    50
100
AcDbLine
 10
473.313785855
 20
411.810956124
 30
0.0
 11
473.313785855
 21
411.610956124
 31
0.0
  0
LINE
  5
460
330
1F
100
AcDbEntity
  8
0
  6
Continuous
 62
     7
370
    50
100
AcDbLine
 10
479.8137858549
 20
409.110956124
 30
0.0
 11
479.8137858549
 21
409.260956124
 31
0.0
  0
LINE
  5
461
330
1F
100
AcDbEntity
  8
0
  6
Continuous
 62
     7
370
    50
100
AcDbLine
 10
479.8137858549
 20
384.060956124
 30
0.0
 11
479.8137858549
 21
384.210956124
 31
0.0
  0
LINE
  5
462
330
1F
100
AcDbEntity
  8
0
  6
Continuous
 62
     7
370
    50
100
AcDbLine
 10
479.6137858549
 20
384.210956124
 30
0.0
 11
479.6137858549
 21
384.060956124
 31
0.0
  0
LINE
  5
463
330
1F
100
AcDbEntity
  8
0
  6
Continuous
 62
     7
370
    50
100
AcDbLine
 10
477.2137858549
 20
384.060956124
 30
0.0
 11
477.2137858549
 21
384.210956124
 31
0.0
  0
LINE
  5
464
330
1F
100
AcDbEntity
  8
0
  6
Continuous
 62
     7
370
    50
100
AcDbLine
 10
472.5822152164
 20
354.010956124
 30
0.0
 11
470.8137858549
 21
354.010956124
 31
0.0
  0
LINE
  5
465
330
1F
100
AcDbEntity
  8
0
  6
Continuous
 62
     7
370
    50
100
AcDbLine
 10
470.8137858549
 20
357.010956124
 30
0.0
 11
470.8137858549
 21
354.010956124
 31
0.0
  0
LINE
  5
466
330
1F
100
AcDbEntity
  8
0
  6
Continuous
 62
     7
370
    50
100
AcDbLine
 10
472.5822152164
 20
357.010956124
 30
0.0
 11
470.8137858549
 21
357.010956124
 31
0.0
  0
LINE
  5
467
330
1F
100
AcDbEntity
  8
0
  6
Continuous
 62
     7
370
    50
100
AcDbLine
 10
472.5822152164
 20
357.010956124
 30
0.0
 11
472.5822152164
 21
354.010956124
 31
0.0
  0
LINE
  5
468
330
1F
100
AcDbEntity
  8
0
  6
Continuous
 62
     7
370
    50
100
AcDbLine
 10
479.6137858549
 20
357.010956124
 30
0.0
 11
479.6137858549
 21
354.010956124
 31
0.0
  0
LINE
  5
469
330
1F
100
AcDbEntity
  8
0
  6
Continuous
 62
     7
370
    50
100
AcDbLine
 10
472.5822152164
 20
354.010956124
 30
0.0
 11
479.6137858549
 21
354.010956124
 31
0.0
  0
LINE
  5
46A
330
1F
100
AcDbEntity
  8
0
  6
Continuous
 62
     7
370
    50
100
AcDbLine
 10
472.5822152164
 20
357.010956124
 30
0.0
 11
479.6137858549
 21
357.010956124
 31
0.0
  0
LINE
  5
46B
330
1F
100
AcDbEntity
  8
0
  6
Continuous
 62
     7
370
    50
100
AcDbLine
 10
470.8137858549
 20
357.510956124
 30
0.0
 11
470.8137858549
 21
357.610956124
 31
0.0
  0
LINE
  5
46C
330
1F
100
AcDbEntity
  8
0
  6
Continuous
 62
     7
370
    50
100
AcDbLine
 10
470.8137858549
 20
357.510956124
 30
0.0
 11
470.8496842398
 21
357.010956124
 31
0.0
  0
ARC
  5
46D
330
1F
100
AcDbEntity
  8
0
  6
Continuous
 62
     7
370
    50
100
AcDbCircle
 10
474.3137858549
 20
357.510956124
 30
0.0
 40
0.5
100
AcDbArc
 50
216.8698976458
 51
270.0
  0
LINE
  5
46E
330
1F
100
AcDbEntity
  8
0
  6
Continuous
 62
     7
370
    50
100
AcDbLine
 10
473.8137858549
 20
384.210956124
 30
0.0
 11
473.8137858549
 21
384.060956124
 31
0.0
  0
LINE
  5
46F
330
1F
100
AcDbEntity
  8
0
  6
Continuous
 62
     7
370
    50
100
AcDbLine
 10
480.813785855
 20
384.210956124
 30
0.0
 11
473.793785855
 21
384.210956124
 31
0.0
  0
LINE
  5
470
330
1F
100
AcDbEntity
  8
0
  6
Continuous
 62
     7
370
    50
100
AcDbLine
 10
473.793785855
 20
384.210956124
 30
0.0
 11
473.793785855
 21
409.110956124
 31
0.0
  0
LINE
  5
471
330
1F
100
AcDbEntity
  8
0
  6
Continuous
 62
     7
370
    50
100
AcDbLine
 10
480.813785855
 20
409.110956124
 30
0.0
 11
473.793785855
 21
409.110956124
 31
0.0
  0
SPLINE
  5
472
330
1F
100
AcDbEntity
  8
0
  6
Continuous
 62
     7
370
    50
100
AcDbSpline
210
0.0
220
0.0
230
1.0
 70
    24
 71
     3
 72
    10
 73
     6
 74
     0
 42
0.000000001
 43
0.00000001
 40
0.0
 40
0.0
 40
0.0
 40
0.0
 40
0.3333351742904225
 40
0.6666470774813156
 40
1.0
 40
1.0
 40
1.0
 40
1.0
 10
480.8137858549502
 20
409.1109561240399
 30
0.0
 10
480.8137858549502
 20
406.3557100219188
 30
0.0
 10
480.8137858549502
 20
400.8454101694329
 30
0.0
 10
480.8137858549502
 20
392.4767990457512
 30
0.0
 10
480.8137858549502
 20
386.9663501157114
 30
0.0
 10
480.8137858549502
 20
384.2109561240401
 30
0.0
  0
LINE
  5
473
330
1F
100
AcDbEntity
  8
0
  6
Continuous
 62
     7
370
    50
100
AcDbLine
 10
473.313785855
 20
384.210956124
 30
0.0
 11
473.313785855
 21
409.110956124
 31
0.0
  0
LINE
  5
474
330
1F
100
AcDbEntity
  8
0
  6
Continuous
 62
     7
370
    50
100
AcDbLine
 10
473.793785855
 20
384.210956124
 30
0.0
 11
473.313785855
 21
384.210956124
 31
0.0
  0
LINE
  5
475
330
1F
100
AcDbEntity
  8
0
  6
Continuous
 62
     7
370
    50
100
AcDbLine
 10
473.793785855
 20
409.110956124
 30
0.0
 11
473.313785855
 21
409.110956124
 31
0.0
  0
SPLINE
  5
476
330
1F
100
AcDbEntity
  8
0
  6
Continuous
 62
     7
370
    50
100
AcDbSpline
210
0.0
220
0.0
230
1.0
 70
    24
 71
     3
 72
    11
 73
     7
 74
     0
 42
0.000000001
 43
0.00000001
 40
0.0
 40
0.0
 40
0.0
 40
0.0
 40
0.2795735660003902
 40
0.5601025844952758
 40
0.7804266276350196
 40
1.0
 40
1.0
 40
1.0
 40
1.0
 10
480.8137858549502
 20
384.21095612404
 30
0.0
 10
480.8137858549502
 20
386.5204989133186
 30
0.0
 10
480.8137858549502
 20
391.1474774355854
 30
0.0
 10
480.8137858549502
 20
397.6652528694195
 30
0.0
 10
480.8137858549502
 20
403.668953200745
 30
0.0
 10
480.8137858549502
 20
407.2990200136507
 30
0.0
 10
480.8137858549502
 20
409.1109561240399
 30
0.0
  0
LINE
  5
477
330
1F
100
AcDbEntity
  8
0
  6
Continuous
 62
     7
370
    50
100
AcDbLine
 10
473.313785855
 20
411.1701386723
 30
0.0
 11
471.2546033067
 21
411.1701386723
 31
0.0
  0
LINE
  5
478
330
1F
100
AcDbEntity
  8
0
  6
Continuous
 62
     7
370
    50
100
AcDbLine
 10
470.813785855
 20
411.610956124
 30
0.0
 11
471.2546033067
 21
411.1701386723
 31
0.0
  0
LINE
  5
479
330
1F
100
AcDbEntity
  8
0
  6
Continuous
 62
     7
370
    50
100
AcDbLine
 10
470.813785855
 20
411.610956124
 30
0.0
 11
473.313785855
 21
411.610956124
 31
0.0
  0
LINE
  5
47A
330
1F
100
AcDbEntity
  8
0
  6
Continuous
 62
     7
370
    50
100
AcDbLine
 10
473.313785855
 20
411.610956124
 30
0.0
 11
473.313785855
 21
411.1701386723
 31
0.0
  0
LINE
  5
47B
330
1F
100
AcDbEntity
  8
0
  6
Continuous
 62
     7
370
    50
100
AcDbLine
 10
471.2546033067
 20
382.1517735758
 30
0.0
 11
473.313785855
 21
382.1517735758
 31
0.0
  0
LINE
  5
47C
330
1F
100
AcDbEntity
  8
0
  6
Continuous
 62
     7
370
    50
100
AcDbLine
 10
471.2546033067
 20
411.1701386723
 30
0.0
 11
471.2546033067
 21
382.1517735758
 31
0.0
  0
LINE
  5
47D
330
1F
100
AcDbEntity
  8
0
  6
Continuous
 62
     7
370
    50
100
AcDbLine
 10
473.313785855
 20
411.1701386723
 30
0.0
 11
473.313785855
 21
382.1517735758
 31
0.0
  0
LINE
  5
47E
330
1F
100
AcDbEntity
  8
0
  6
Continuous
 62
     7
370
    50
100
AcDbLine
 10
470.813785855
 20
381.710956124
 30
0.0
 11
470.813785855
 21
411.610956124
 31
0.0
  0
LINE
  5
47F
330
1F
100
AcDbEntity
  8
0
  6
Continuous
 62
     7
370
    50
100
AcDbLine
 10
470.813785855
 20
381.710956124
 30
0.0
 11
471.2546033067
 21
382.1517735758
 31
0.0
  0
LINE
  5
480
330
1F
100
AcDbEntity
  8
0
  6
Continuous
 62
     7
370
    50
100
AcDbLine
 10
473.313785855
 20
381.710956124
 30
0.0
 11
470.813785855
 21
381.710956124
 31
0.0
  0
LINE
  5
481
330
1F
100
AcDbEntity
  8
0
  6
Continuous
 62
     7
370
    50
100
AcDbLine
 10
473.313785855
 20
382.1517735758
 30
0.0
 11
473.313785855
 21
381.710956124
 31
0.0
  0
LINE
  5
482
330
1F
100
AcDbEntity
  8
0
  6
Continuous
 62
     7
370
    50
100
AcDbLine
 10
479.5137858549
 20
357.160956124
 30
0.0
 11
479.5137858549
 21
357.6692136935
 31
0.0
  0
LINE
  5
483
330
1F
100
AcDbEntity
  8
0
  6
Continuous
 62
     7
370
    50
100
AcDbLine
 10
479.3137858549
 20
357.160956124
 30
0.0
 11
479.5137858549
 21
357.160956124
 31
0.0
  0
LINE
  5
484
330
1F
100
AcDbEntity
  8
0
  6
Continuous
 62
     7
370
    50
100
AcDbLine
 10
479.7137858549
 20
384.060956124
 30
0.0
 11
479.7137858549
 21
384.210956124
 31
0.0
  0
ELLIPSE
  5
485
330
1F
100
AcDbEntity
  8
0
  6
Continuous
 62
     7
370
    50
100
AcDbEllipse
 10
470.7637858549
 20
278.5402454459
 30
0.0
 11
1.784600750472805
 21
0.7392058342670681
 31
0.0
210
0.0
220
0.0
230
1.0
 40
0.3178372452
 41
5.568581148874499
 42
6.15228561328005
  0
LINE
  5
486
330
1F
100
AcDbEntity
  8
0
  6
Continuous
 62
     8
370
    18
100
AcDbLine
 10
470.6137858549
 20
355.1880026994
 30
0.0
 11
470.8137858549
 21
355.1880026994
 31
0.0
  0
LINE
  5
487
330
1F
100
AcDbEntity
  8
0
  6
Continuous
 62
     8
370
    18
100
AcDbLine
 10
470.8137858549
 20
354.3253223562
 30
0.0
 11
470.6137858549
 21
354.3253223562
 31
0.0
  0
LINE
  5
488
330
1F
100
AcDbEntity
  8
0
  6
Continuous
 62
     8
370
    18
100
AcDbLine
 10
480.813785855
 20
408.660956124
 30
0.0
 11
481.5137858549
 21
408.660956124
 31
0.0
  0
LINE
  5
489
330
1F
100
AcDbEntity
  8
0
  6
Continuous
 62
     8
370
    18
100
AcDbLine
 10
480.813785855
 20
384.660956124
 30
0.0
 11
481.5137858549
 21
384.660956124
 31
0.0
  0
LINE
  5
48A
330
1F
100
AcDbEntity
  8
0
  6
Continuous
 62
     8
370
    18
100
AcDbLine
 10
471.5137858549
 20
357.510956124
 30
0.0
 11
470.8137858549
 21
357.510956124
 31
0.0
  0
LINE
  5
48B
330
1F
100
AcDbEntity
  8
0
  6
Continuous
 62
     8
370
    18
100
AcDbLine
 10
473.313785855
 20
381.910956124
 30
0.0
 11
473.6137858549
 21
381.910956124
 31
0.0
  0
LINE
  5
48C
330
1F
100
AcDbEntity
  8
0
  6
Continuous
 62
     8
370
    18
100
AcDbLine
 10
472.6108421297
 20
411.610956124
 30
0.0
 11
472.6108421297
 21
411.810956124
 31
0.0
  0
POINT
  5
48D
330
1F
100
AcDbEntity
  8
0
  6
Continuous
 62
     7
370
     0
100
AcDbPoint
 10
476.3637858549
 20
463.660956124
 30
0.0
  0
POINT
  5
48E
330
1F
100
AcDbEntity
  8
0
  6
Continuous
 62
     7
370
     0
100
AcDbPoint
 10
476.3637858549
 20
233.660956124
 30
0.0
  0
DIMENSION
  5
48F
330
1F
100
AcDbEntity
  8
0
  6
Continuous
 62
     7
370
    18
100
AcDbDimension
  2
_D_24
 10
456.1810858779
 20
454.660956124
 30
0.0
 11
456.1810858779
 21
459.160956124
 31
0.0
 70
   160
  1
<>
 71
     2
 42
-1.0
  3
SLDDIMSTYLE2
100
AcDbAlignedDimension
 13
476.3637858549
 23
463.660956124
 33
0.0
 14
476.3637858549
 24
454.660956124
 34
0.0
 50
90.0
100
AcDbRotatedDimension
  0
DIMENSION
  5
49B
330
1F
100
AcDbEntity
  8
0
  6
Continuous
 62
     7
370
    18
100
AcDbDimension
  2
_D_25
 10
457.3637858549
 20
242.660956124
 30
0.0
 11
457.3637858549
 21
238.160956124
 31
0.0
 70
   160
  1
<>
 71
     2
 42
-1.0
  3
SLDDIMSTYLE2
100
AcDbAlignedDimension
 13
476.3637858549
 23
233.660956124
 33
0.0
 14
476.3637858549
 24
242.660956124
 34
0.0
 50
90.0
100
AcDbRotatedDimension
  0
DIMENSION
  5
4A7
330
1F
100
AcDbEntity
  8
0
  6
Continuous
 62
     7
370
    18
100
AcDbDimension
  2
_D_26
 10
515.4454829983
 20
233.660956124
 30
0.0
 11
515.4454829983
 21
348.660956124
 31
0.0
 70
   160
  1
<>
 71
     2
 42
-1.0
  3
SLDDIMSTYLE0
100
AcDbAlignedDimension
 13
476.3637858549
 23
463.660956124
 33
0.0
 14
476.3637858549
 24
233.660956124
 34
0.0
 50
90.0
100
AcDbRotatedDimension
  0
DIMENSION
  5
4B1
330
1F
100
AcDbEntity
  8
0
  6
Continuous
 62
     7
370
    18
100
AcDbDimension
  2
_D_27
 10
485.3637858549
 20
223.660956124
 30
0.0
 11
476.3637858549
 21
223.660956124
 31
0.0
 70
   160
  1
<>
 71
     2
 42
-1.0
  3
SLDDIMSTYLE0
100
AcDbAlignedDimension
 13
467.3637858549
 23
242.660956124
 33
0.0
 14
485.3637858549
 24
242.660956124
 34
0.0
100
AcDbRotatedDimension
  0
DIMENSION
  5
4BB
330
1F
100
AcDbEntity
  8
0
  6
Continuous
 62
     7
370
    18
100
AcDbDimension
  2
_D_28
 10
470.813785855
 20
418.9393383728
 30
0.0
 11
449.3637858549
 21
418.9393383728
 31
0.0
 70
   160
  1
<>
 71
     2
 42
-1.0
  3
SLDDIMSTYLE4
100
AcDbAlignedDimension
 13
467.3637858549
 23
454.660956124
 33
0.0
 14
470.813785855
 24
411.610956124
 34
0.0
100
AcDbRotatedDimension
  0
DIMENSION
  5
4C7
330
1F
100
AcDbEntity
  8
0
  6
Continuous
 62
     7
370
    18
100
AcDbDimension
  2
_D_29
 10
479.8137858549
 20
339.2588762371
 30
0.0
 11
495.3637858549
 21
339.2588762371
 31
0.0
 70
   160
  1
<>
 71
     2
 42
-1.0
  3
SLDDIMSTYLE1
100
AcDbAlignedDimension
 13
470.6137858549
 23
353.810956124
 33
0.0
 14
479.8137858549
 24
353.810956124
 34
0.0
100
AcDbRotatedDimension
  0
DIMENSION
  5
4D2
330
1F
100
AcDbEntity
  8
0
  6
Continuous
 62
     7
370
    18
100
AcDbDimension
  2
_D_30
 10
467.3637858549
 20
339.2588762371
 30
0.0
 11
456.1810858779
 21
339.2588762371
 31
0.0
 70
   160
  1
<>
 71
     2
 42
-1.0
  3
SLDDIMSTYLE4
100
AcDbAlignedDimension
 13
470.6137858549
 23
353.810956124
 33
0.0
 14
467.3637858549
 24
242.660956124
 34
0.0
100
AcDbRotatedDimension
  0
DIMENSION
  5
4DD
330
1F
100
AcDbEntity
  8
0
  6
Continuous
 62
     7
370
    18
100
AcDbDimension
  2
_D_31
 10
481.5137858549
 20
418.9393383728
 30
0.0
 11
495.3637858549
 21
418.9393383728
 31
0.0
 70
   160
  1
<>
 71
     2
 42
-1.0
  3
SLDDIMSTYLE1
100
AcDbAlignedDimension
 13
470.813785855
 23
411.610956124
 33
0.0
 14
481.5137858549
 24
409.260956124
 34
0.0
100
AcDbRotatedDimension
  0
LINE
  5
4E8
330
1F
100
AcDbEntity
  8
0
  6
Continuous
 62
     7
370
    50
100
AcDbLine
 10
295.2752211923
 20
175.322179023
 30
0.0
 11
304.2746526396
 21
168.302179023
 31
0.0
  0
LINE
  5
4E9
330
1F
100
AcDbEntity
  8
0
  6
Continuous
 62
     7
370
    50
100
AcDbLine
 10
295.2752211923
 20
175.322179023
 30
0.0
 11
304.2746526396
 21
168.302179023
 31
0.0
  0
LINE
  5
4EA
330
1F
100
AcDbEntity
  8
0
  6
Continuous
 62
     7
370
    50
100
AcDbLine
 10
331.7752211923
 20
169.502179023
 30
0.0
 11
331.7752211923
 21
169.302179023
 31
0.0
  0
LINE
  5
4EB
330
1F
100
AcDbEntity
  8
0
  6
Continuous
 62
     7
370
    50
100
AcDbLine
 10
373.5403474582
 20
172.802179023
 30
0.0
 11
373.557418526
 21
172.802179023
 31
0.0
  0
LINE
  5
4EC
330
1F
100
AcDbEntity
  8
0
  6
Continuous
 62
     7
370
    50
100
AcDbLine
 10
373.5403474582
 20
175.802179023
 30
0.0
 11
373.557418526
 21
175.802179023
 31
0.0
  0
LINE
  5
4ED
330
1F
100
AcDbEntity
  8
0
  6
Continuous
 62
     7
370
    50
100
AcDbLine
 10
313.2752211923
 20
170.802179023
 30
0.0
 11
311.2871622627
 21
170.802179023
 31
0.0
  0
LINE
  5
4EE
330
1F
100
AcDbEntity
  8
0
  6
Continuous
 62
     7
370
    50
100
AcDbLine
 10
311.2871622627
 20
170.802179023
 30
0.0
 11
310.5517936909
 21
170.802179023
 31
0.0
  0
LINE
  5
4EF
330
1F
100
AcDbEntity
  8
0
  6
Continuous
 62
     7
370
    50
100
AcDbLine
 10
310.5517936909
 20
170.802179023
 30
0.0
 11
310.2752211923
 21
170.802179023
 31
0.0
  0
LINE
  5
4F0
330
1F
100
AcDbEntity
  8
0
  6
Continuous
 62
     7
370
    50
100
AcDbLine
 10
332.1152211923
 20
167.552179023
 30
0.0
 11
308.2752211923
 21
167.552179023
 31
0.0
  0
LINE
  5
4F1
330
1F
100
AcDbEntity
  8
0
  6
Continuous
 62
     7
370
    50
100
AcDbLine
 10
332.1152211923
 20
169.302179023
 30
0.0
 11
308.2752211923
 21
169.302179023
 31
0.0
  0
LINE
  5
4F2
330
1F
100
AcDbEntity
  8
0
  6
Continuous
 62
     7
370
    50
100
AcDbLine
 10
332.1152211923
 20
169.302179023
 30
0.0
 11
332.1152211923
 21
167.552179023
 31
0.0
  0
LINE
  5
4F3
330
1F
100
AcDbEntity
  8
0
  6
Continuous
 62
     7
370
    50
100
AcDbLine
 10
351.9652211923
 20
167.552179023
 30
0.0
 11
337.3652211923
 21
167.552179023
 31
0.0
  0
LINE
  5
4F4
330
1F
100
AcDbEntity
  8
0
  6
Continuous
 62
     7
370
    50
100
AcDbLine
 10
337.3652211923
 20
169.302179023
 30
0.0
 11
337.3652211923
 21
167.552179023
 31
0.0
  0
LINE
  5
4F5
330
1F
100
AcDbEntity
  8
0
  6
Continuous
 62
     7
370
    50
100
AcDbLine
 10
351.9652211923
 20
169.302179023
 30
0.0
 11
351.9652211923
 21
167.552179023
 31
0.0
  0
LINE
  5
4F6
330
1F
100
AcDbEntity
  8
0
  6
Continuous
 62
     7
370
    50
100
AcDbLine
 10
351.9652211923
 20
169.302179023
 30
0.0
 11
337.3652211923
 21
169.302179023
 31
0.0
  0
LINE
  5
4F7
330
1F
100
AcDbEntity
  8
0
  6
Continuous
 62
     7
370
    50
100
AcDbLine
 10
332.1152211923
 20
167.552179023
 30
0.0
 11
332.2752211923
 21
167.552179023
 31
0.0
  0
LINE
  5
4F8
330
1F
100
AcDbEntity
  8
0
  6
Continuous
 62
     7
370
    50
100
AcDbLine
 10
337.2752211923
 20
167.552179023
 30
0.0
 11
337.3652211923
 21
167.552179023
 31
0.0
  0
LINE
  5
4F9
330
1F
100
AcDbEntity
  8
0
  6
Continuous
 62
     7
370
    50
100
AcDbLine
 10
332.1152211923
 20
169.302179023
 30
0.0
 11
332.2752211923
 21
169.302179023
 31
0.0
  0
LINE
  5
4FA
330
1F
100
AcDbEntity
  8
0
  6
Continuous
 62
     7
370
    50
100
AcDbLine
 10
375.7252211923
 20
169.302179023
 30
0.0
 11
375.7252211923
 21
167.552179023
 31
0.0
  0
LINE
  5
4FB
330
1F
100
AcDbEntity
  8
0
  6
Continuous
 62
     7
370
    50
100
AcDbLine
 10
351.9652211923
 20
167.552179023
 30
0.0
 11
352.2752211923
 21
167.552179023
 31
0.0
  0
LINE
  5
4FC
330
1F
100
AcDbEntity
  8
0
  6
Continuous
 62
     7
370
    50
100
AcDbLine
 10
373.5403474582
 20
167.552179023
 30
0.0
 11
375.7252211923
 21
167.552179023
 31
0.0
  0
LINE
  5
4FD
330
1F
100
AcDbEntity
  8
0
  6
Continuous
 62
     7
370
    50
100
AcDbLine
 10
373.5403474582
 20
169.302179023
 30
0.0
 11
373.5644895938
 21
169.302179023
 31
0.0
  0
LINE
  5
4FE
330
1F
100
AcDbEntity
  8
0
  6
Continuous
 62
     7
370
    50
100
AcDbLine
 10
393.5252211923
 20
169.302179023
 30
0.0
 11
393.5252211923
 21
167.552179023
 31
0.0
  0
LINE
  5
4FF
330
1F
100
AcDbEntity
  8
0
  6
Continuous
 62
     7
370
    50
100
AcDbLine
 10
375.7252211923
 20
167.552179023
 30
0.0
 11
393.5252211923
 21
167.552179023
 31
0.0
  0
LINE
  5
500
330
1F
100
AcDbEntity
  8
0
  6
Continuous
 62
     7
370
    50
100
AcDbLine
 10
373.5403474582
 20
169.567179023
 30
0.0
 11
373.557418526
 21
169.5842500908
 31
0.0
  0
LINE
  5
501
330
1F
100
AcDbEntity
  8
0
  6
Continuous
 62
     7
370
    50
100
AcDbLine
 10
332.2752211923
 20
169.502179023
 30
0.0
 11
324.8688175602
 21
169.502179023
 31
0.0
  0
LINE
  5
502
330
1F
100
AcDbEntity
  8
0
  6
Continuous
 62
     7
370
    50
100
AcDbLine
 10
324.8688175602
 20
169.502179023
 30
0.0
 11
324.174276659
 21
169.502179023
 31
0.0
  0
LINE
  5
503
330
1F
100
AcDbEntity
  8
0
  6
Continuous
 62
     7
370
    50
100
AcDbLine
 10
324.174276659
 20
169.502179023
 30
0.0
 11
323.9321269461
 21
169.502179023
 31
0.0
  0
LINE
  5
504
330
1F
100
AcDbEntity
  8
0
  6
Continuous
 62
     7
370
    50
100
AcDbLine
 10
323.519368964
 20
169.502179023
 30
0.0
 11
323.519368964
 21
170.052179023
 31
0.0
  0
LINE
  5
505
330
1F
100
AcDbEntity
  8
0
  6
Continuous
 62
     7
370
    50
100
AcDbLine
 10
323.9321269461
 20
169.502179023
 30
0.0
 11
323.519368964
 21
169.502179023
 31
0.0
  0
LINE
  5
506
330
1F
100
AcDbEntity
  8
0
  6
Continuous
 62
     7
370
    50
100
AcDbLine
 10
318.0449427299
 20
170.052179023
 30
0.0
 11
318.0449427299
 21
169.502179023
 31
0.0
  0
LINE
  5
507
330
1F
100
AcDbEntity
  8
0
  6
Continuous
 62
     7
370
    50
100
AcDbLine
 10
318.0449427299
 20
169.502179023
 30
0.0
 11
320.6114149834
 21
169.502179023
 31
0.0
  0
LINE
  5
508
330
1F
100
AcDbEntity
  8
0
  6
Continuous
 62
     7
370
    50
100
AcDbLine
 10
316.5260777414
 20
170.052179023
 30
0.0
 11
316.5260777414
 21
169.502179023
 31
0.0
  0
LINE
  5
509
330
1F
100
AcDbEntity
  8
0
  6
Continuous
 62
     7
370
    50
100
AcDbLine
 10
318.0449427299
 20
169.502179023
 30
0.0
 11
316.5260777414
 21
169.502179023
 31
0.0
  0
LINE
  5
50A
330
1F
100
AcDbEntity
  8
0
  6
Continuous
 62
     7
370
    50
100
AcDbLine
 10
323.519368964
 20
169.502179023
 30
0.0
 11
320.6114149834
 21
169.502179023
 31
0.0
  0
LINE
  5
50B
330
1F
100
AcDbEntity
  8
0
  6
Continuous
 62
     7
370
    50
100
AcDbLine
 10
295.6252211923
 20
177.9230760144
 30
0.0
 11
295.6252211923
 21
178.302179023
 31
0.0
  0
LINE
  5
50C
330
1F
100
AcDbEntity
  8
0
  6
Continuous
 62
     7
370
    50
100
AcDbLine
 10
316.5260777414
 20
169.502179023
 30
0.0
 11
310.2752211923
 21
169.502179023
 31
0.0
  0
LINE
  5
50D
330
1F
100
AcDbEntity
  8
0
  6
Continuous
 62
     7
370
    50
100
AcDbLine
 10
295.6252211923
 20
178.302179023
 30
0.0
 11
297.7752211923
 21
178.302179023
 31
0.0
  0
LINE
  5
50E
330
1F
100
AcDbEntity
  8
0
  6
Continuous
 62
     7
370
    50
100
AcDbLine
 10
295.2752211923
 20
175.322179023
 30
0.0
 11
295.2752211923
 21
175.802179023
 31
0.0
  0
LINE
  5
50F
330
1F
100
AcDbEntity
  8
0
  6
Continuous
 62
     7
370
    50
100
AcDbLine
 10
310.2752211923
 20
172.552179023
 30
0.0
 11
310.2752211923
 21
169.302179023
 31
0.0
  0
LINE
  5
510
330
1F
100
AcDbEntity
  8
0
  6
Continuous
 62
     7
370
    50
100
AcDbLine
 10
305.2752211923
 20
168.3301471505
 30
0.0
 11
295.2752211923
 21
175.322179023
 31
0.0
  0
SPLINE
  5
511
330
1F
100
AcDbEntity
  8
0
  6
Continuous
 62
     7
370
    50
100
AcDbSpline
210
0.0
220
0.0
230
1.0
 70
    24
 71
     3
 72
    10
 73
     6
 74
     0
 42
0.000000001
 43
0.00000001
 40
0.0
 40
0.0
 40
0.0
 40
0.0
 40
0.1201667529185235
 40
0.56083408001192
 40
1.0
 40
1.0
 40
1.0
 40
1.0
 10
304.3300519705381
 20
168.3021790229724
 30
0.0
 10
304.3127516218162
 20
168.3021790229724
 30
0.0
 10
304.232008613258
 20
168.3021790229724
 30
0.0
 10
304.5412431462637
 20
168.3021790229724
 30
0.0
 10
305.0575221814773
 20
168.3021790229724
 30
0.0
 10
305.3152211923095
 20
168.3021790229724
 30
0.0
  0
LINE
  5
512
330
1F
100
AcDbEntity
  8
0
  6
Continuous
 62
     7
370
    50
100
AcDbLine
 10
297.7752211923
 20
178.302179023
 30
0.0
 11
297.7752211923
 21
175.802179023
 31
0.0
  0
LINE
  5
513
330
1F
100
AcDbEntity
  8
0
  6
Continuous
 62
     7
370
    50
100
AcDbLine
 10
305.2752211923
 20
175.802179023
 30
0.0
 11
297.7752211923
 21
175.802179023
 31
0.0
  0
LINE
  5
514
330
1F
100
AcDbEntity
  8
0
  6
Continuous
 62
     7
370
    50
100
AcDbLine
 10
305.2752211923
 20
178.302179023
 30
0.0
 11
297.7752211923
 21
178.302179023
 31
0.0
  0
LINE
  5
515
330
1F
100
AcDbEntity
  8
0
  6
Continuous
 62
     7
370
    50
100
AcDbLine
 10
295.2752211923
 20
175.802179023
 30
0.0
 11
295.2752211923
 21
177.8613615712
 31
0.0
  0
LINE
  5
516
330
1F
100
AcDbEntity
  8
0
  6
Continuous
 62
     7
370
    50
100
AcDbLine
 10
297.7752211923
 20
178.302179023
 30
0.0
 11
295.2752211923
 21
177.8613615712
 31
0.0
  0
LINE
  5
517
330
1F
100
AcDbEntity
  8
0
  6
Continuous
 62
     7
370
    50
100
AcDbLine
 10
297.7752211923
 20
175.802179023
 30
0.0
 11
295.2752211923
 21
175.802179023
 31
0.0
  0
LINE
  5
518
330
1F
100
AcDbEntity
  8
0
  6
Continuous
 62
     7
370
    50
100
AcDbLine
 10
373.5403474582
 20
178.302179023
 30
0.0
 11
373.557418526
 21
178.302179023
 31
0.0
  0
LINE
  5
519
330
1F
100
AcDbEntity
  8
0
  6
Continuous
 62
     7
370
    50
100
AcDbLine
 10
313.2752211923
 20
170.305585026
 30
0.0
 11
312.4952211923
 21
170.305585026
 31
0.0
  0
LINE
  5
51A
330
1F
100
AcDbEntity
  8
0
  6
Continuous
 62
     7
370
    50
100
AcDbLine
 10
312.4952211923
 20
170.305585026
 30
0.0
 11
312.4952211923
 21
170.802179023
 31
0.0
  0
LINE
  5
51B
330
1F
100
AcDbEntity
  8
0
  6
Continuous
 62
     7
370
    50
100
AcDbLine
 10
324.2133590138
 20
170.052179023
 30
0.0
 11
324.2133590138
 21
169.602179023
 31
0.0
  0
LINE
  5
51C
330
1F
100
AcDbEntity
  8
0
  6
Continuous
 62
     7
370
    50
100
AcDbLine
 10
329.0429881453
 20
170.052179023
 30
0.0
 11
329.0429881453
 21
169.602179023
 31
0.0
  0
LINE
  5
51D
330
1F
100
AcDbEntity
  8
0
  6
Continuous
 62
     7
370
    50
100
AcDbLine
 10
324.2133590138
 20
169.602179023
 30
0.0
 11
329.0429881453
 21
169.602179023
 31
0.0
  0
LINE
  5
51E
330
1F
100
AcDbEntity
  8
0
  6
Continuous
 62
     7
370
    50
100
AcDbLine
 10
330.3370833708
 20
170.052179023
 30
0.0
 11
330.3370833708
 21
169.602179023
 31
0.0
  0
LINE
  5
51F
330
1F
100
AcDbEntity
  8
0
  6
Continuous
 62
     7
370
    50
100
AcDbLine
 10
329.0429881453
 20
169.602179023
 30
0.0
 11
330.3370833708
 21
169.602179023
 31
0.0
  0
LINE
  5
520
330
1F
100
AcDbEntity
  8
0
  6
Continuous
 62
     7
370
    50
100
AcDbLine
 10
308.2752211923
 20
181.752179023
 30
0.0
 11
305.2752211923
 21
181.752179023
 31
0.0
  0
LINE
  5
521
330
1F
100
AcDbEntity
  8
0
  6
Continuous
 62
     7
370
    50
100
AcDbLine
 10
308.2752211923
 20
163.752179023
 30
0.0
 11
305.2752211923
 21
163.752179023
 31
0.0
  0
LINE
  5
522
330
1F
100
AcDbEntity
  8
0
  6
Continuous
 62
     7
370
    50
100
AcDbLine
 10
305.2752211923
 20
163.752179023
 30
0.0
 11
305.2752211923
 21
181.752179023
 31
0.0
  0
LINE
  5
523
330
1F
100
AcDbEntity
  8
0
  6
Continuous
 62
     7
370
    50
100
AcDbLine
 10
308.2752211923
 20
163.752179023
 30
0.0
 11
308.2752211923
 21
181.752179023
 31
0.0
  0
SPLINE
  5
524
330
1F
100
AcDbEntity
  8
0
  6
Continuous
 62
     7
370
    50
100
AcDbSpline
210
0.0
220
0.0
230
1.0
 70
     8
 71
     3
 72
    14
 73
    10
 74
     0
 42
0.000000001
 43
0.00000001
 40
0.0
 40
0.0
 40
0.0
 40
0.0
 40
0.25
 40
0.25
 40
0.5
 40
0.5
 40
0.75
 40
0.75
 40
1.0
 40
1.0
 40
1.0
 40
1.0
 10
373.5089261019196
 20
180.5521790229736
 30
0.0
 10
373.5115450203162
 20
180.5521790229735
 30
0.0
 10
373.5141629946258
 20
180.5040284748099
 30
0.0
 10
373.519399887332
 20
180.3186838414289
 30
0.0
 10
373.5220183336851
 20
180.1815626814101
 30
0.0
 10
373.5272552263913
 20
179.8390904549271
 30
0.0
 10
373.5298736727444
 20
179.6338741366597
 30
0.0
 10
373.5351105654506
 20
179.1864126090382
 30
0.0
 10
373.5377285397602
 20
178.9443871131717
 30
0.0
 10
373.5403474581569
 20
178.7021790229736
 30
0.0
  0
LINE
  5
525
330
1F
100
AcDbEntity
  8
0
  6
Continuous
 62
     7
370
    50
100
AcDbLine
 10
310.0252211923
 20
178.702179023
 30
0.0
 11
310.0252211923
 21
180.552179023
 31
0.0
  0
LINE
  5
526
330
1F
100
AcDbEntity
  8
0
  6
Continuous
 62
     7
370
    50
100
AcDbLine
 10
373.5089261019
 20
180.552179023
 30
0.0
 11
310.0252211923
 21
180.552179023
 31
0.0
  0
LINE
  5
527
330
1F
100
AcDbEntity
  8
0
  6
Continuous
 62
     7
370
    50
100
AcDbLine
 10
373.5403474582
 20
167.552179023
 30
0.0
 11
352.2752211923
 21
167.552179023
 31
0.0
  0
LINE
  5
528
330
1F
100
AcDbEntity
  8
0
  6
Continuous
 62
     7
370
    50
100
AcDbLine
 10
352.2752211923
 20
167.552179023
 30
0.0
 11
352.2752211923
 21
169.302179023
 31
0.0
  0
LINE
  5
529
330
1F
100
AcDbEntity
  8
0
  6
Continuous
 62
     7
370
    50
100
AcDbLine
 10
352.2752211923
 20
169.302179023
 30
0.0
 11
337.2752211923
 21
169.302179023
 31
0.0
  0
LINE
  5
52A
330
1F
100
AcDbEntity
  8
0
  6
Continuous
 62
     7
370
    50
100
AcDbLine
 10
337.2752211923
 20
169.302179023
 30
0.0
 11
337.2752211923
 21
167.552179023
 31
0.0
  0
LINE
  5
52B
330
1F
100
AcDbEntity
  8
0
  6
Continuous
 62
     7
370
    50
100
AcDbLine
 10
337.2752211923
 20
167.552179023
 30
0.0
 11
332.2752211923
 21
167.552179023
 31
0.0
  0
LINE
  5
52C
330
1F
100
AcDbEntity
  8
0
  6
Continuous
 62
     7
370
    50
100
AcDbLine
 10
332.2752211923
 20
167.552179023
 30
0.0
 11
332.2752211923
 21
170.052179023
 31
0.0
  0
LINE
  5
52D
330
1F
100
AcDbEntity
  8
0
  6
Continuous
 62
     7
370
    50
100
AcDbLine
 10
332.2752211923
 20
170.052179023
 30
0.0
 11
313.2752211923
 21
170.052179023
 31
0.0
  0
LINE
  5
52E
330
1F
100
AcDbEntity
  8
0
  6
Continuous
 62
     7
370
    50
100
AcDbLine
 10
313.2752211923
 20
170.052179023
 30
0.0
 11
313.2752211923
 21
172.552179023
 31
0.0
  0
LINE
  5
52F
330
1F
100
AcDbEntity
  8
0
  6
Continuous
 62
     7
370
    50
100
AcDbLine
 10
313.2752211923
 20
172.552179023
 30
0.0
 11
310.0252211923
 21
172.552179023
 31
0.0
  0
LINE
  5
530
330
1F
100
AcDbEntity
  8
0
  6
Continuous
 62
     7
370
    50
100
AcDbLine
 10
310.0252211923
 20
178.702179023
 30
0.0
 11
310.0252211923
 21
172.552179023
 31
0.0
  0
LINE
  5
531
330
1F
100
AcDbEntity
  8
0
  6
Continuous
 62
     7
370
    50
100
AcDbLine
 10
373.5403474582
 20
178.702179023
 30
0.0
 11
373.5403474582
 21
167.552179023
 31
0.0
  0
SPLINE
  5
532
330
1F
100
AcDbEntity
  8
0
  6
Continuous
 62
     7
370
    50
100
AcDbSpline
210
0.0
220
0.0
230
1.0
 70
     8
 71
     3
 72
    14
 73
    10
 74
     0
 42
0.000000001
 43
0.00000001
 40
0.0
 40
0.0
 40
0.0
 40
0.0
 40
0.25
 40
0.25
 40
0.5
 40
0.5
 40
0.75
 40
0.75
 40
1.0
 40
1.0
 40
1.0
 40
1.0
 10
374.7948553930452
 20
178.7021790229736
 30
0.0
 10
374.7967072480029
 20
178.9443871131717
 30
0.0
 10
374.7645108562658
 20
179.1864126090382
 30
0.0
 10
374.6371554514905
 20
179.6338741366597
 30
0.0
 10
374.5420476705695
 20
179.8390904549271
 30
0.0
 10
374.3035862792002
 20
180.1815626814102
 30
0.0
 10
374.1603279501156
 20
180.3186838414289
 30
0.0
 10
373.8476279119593
 20
180.50402847481
 30
0.0
 10
373.6783412299993
 20
180.5521790229736
 30
0.0
 10
373.5089261019196
 20
180.5521790229736
 30
0.0
  0
LINE
  5
533
330
1F
100
AcDbEntity
  8
0
  6
Continuous
 62
     7
370
    50
100
AcDbLine
 10
373.557418526
 20
178.702179023
 30
0.0
 11
374.794855393
 21
178.702179023
 31
0.0
  0
LINE
  5
534
330
1F
100
AcDbEntity
  8
0
  6
Continuous
 62
     7
370
    50
100
AcDbLine
 10
373.5644895938
 20
169.302179023
 30
0.0
 11
374.794855393
 21
169.302179023
 31
0.0
  0
LINE
  5
535
330
1F
100
AcDbEntity
  8
0
  6
Continuous
 62
     7
370
    50
100
AcDbLine
 10
373.557418526
 20
178.702179023
 30
0.0
 11
373.557418526
 21
169.302179023
 31
0.0
  0
LINE
  5
536
330
1F
100
AcDbEntity
  8
0
  6
Continuous
 62
     7
370
    50
100
AcDbLine
 10
374.794855393
 20
178.702179023
 30
0.0
 11
374.794855393
 21
169.302179023
 31
0.0
  0
LINE
  5
537
330
1F
100
AcDbEntity
  8
0
  6
Continuous
 62
     7
370
    50
100
AcDbLine
 10
393.4252211923
 20
180.552179023
 30
0.0
 11
373.5089261019
 21
180.552179023
 31
0.0
  0
SPLINE
  5
538
330
1F
100
AcDbEntity
  8
0
  6
Continuous
 62
     7
370
    50
100
AcDbSpline
210
0.0
220
0.0
230
1.0
 70
     8
 71
     3
 72
    14
 73
    10
 74
     0
 42
0.000000001
 43
0.00000001
 40
0.0
 40
0.0
 40
0.0
 40
0.0
 40
0.25
 40
0.25
 40
0.5
 40
0.5
 40
0.75
 40
0.75
 40
1.0
 40
1.0
 40
1.0
 40
1.0
 10
393.4252211923097
 20
180.5521790229736
 30
0.0
 10
393.5983400303048
 20
180.5521790229736
 30
0.0
 10
393.7713290870392
 20
180.50402847481
 30
0.0
 10
394.0914352098854
 20
180.318683841429
 30
0.0
 10
394.2383965813149
 20
180.1815626814102
 30
0.0
 10
394.484264057374
 20
179.8390904549271
 30
0.0
 10
394.5830748806399
 20
179.6338741366597
 30
0.0
 10
394.717836370105
 20
179.1864126090383
 30
0.0
 10
394.7537351366167
 20
178.9443871131717
 30
0.0
 10
394.7555869915743
 20
178.7021790229736
 30
0.0
  0
LINE
  5
539
330
1F
100
AcDbEntity
  8
0
  6
Continuous
 62
     7
370
    50
100
AcDbLine
 10
394.7555869916
 20
169.302179023
 30
0.0
 11
374.794855393
 21
169.302179023
 31
0.0
  0
LINE
  5
53A
330
1F
100
AcDbEntity
  8
0
  6
Continuous
 62
     7
370
    50
100
AcDbLine
 10
394.7555869916
 20
178.702179023
 30
0.0
 11
394.7555869916
 21
169.302179023
 31
0.0
  0
ARC
  5
53B
330
1F
100
AcDbEntity
  8
0
  6
Continuous
 62
     7
370
    50
100
AcDbCircle
 10
310.1252211923
 20
178.702179023
 30
0.0
 40
1.850000000000023
100
AcDbArc
 50
93.0985793398
 51
180.0
  0
LINE
  5
53C
330
1F
100
AcDbEntity
  8
0
  6
Continuous
 62
     7
370
    50
100
AcDbLine
 10
310.0252211923
 20
170.302179023
 30
0.0
 11
310.0252211923
 21
172.552179023
 31
0.0
  0
LINE
  5
53D
330
1F
100
AcDbEntity
  8
0
  6
Continuous
 62
     7
370
    50
100
AcDbLine
 10
308.2752211923
 20
170.302179023
 30
0.0
 11
310.0252211923
 21
170.302179023
 31
0.0
  0
LINE
  5
53E
330
1F
100
AcDbEntity
  8
0
  6
Continuous
 62
     7
370
    50
100
AcDbLine
 10
373.5403474582
 20
178.537179023
 30
0.0
 11
373.557418526
 21
178.5201079552
 31
0.0
  0
SPLINE
  5
53F
330
1F
100
AcDbEntity
  8
0
  6
Continuous
 62
     7
370
    50
100
AcDbSpline
210
0.0
220
0.0
230
1.0
 70
     8
 71
     3
 72
    14
 73
    10
 74
     0
 42
0.000000001
 43
0.00000001
 40
0.0
 40
0.0
 40
0.0
 40
0.0
 40
0.25
 40
0.25
 40
0.5
 40
0.5
 40
0.75
 40
0.75
 40
1.0
 40
1.0
 40
1.0
 40
1.0
 10
395.2752211923097
 20
178.7021790229736
 30
0.0
 10
395.2752211923097
 20
178.9443871131718
 30
0.0
 10
395.2270706441461
 20
179.1864126090383
 30
0.0
 10
395.0417260107651
 20
179.6338741366598
 30
0.0
 10
394.9046048507464
 20
179.8390904549272
 30
0.0
 10
394.5621326242633
 20
180.1815626814102
 30
0.0
 10
394.3569163059959
 20
180.318683841429
 30
0.0
 10
393.9094547783744
 20
180.50402847481
 30
0.0
 10
393.6674292825078
 20
180.5521790229736
 30
0.0
 10
393.4252211923097
 20
180.5521790229736
 30
0.0
  0
LINE
  5
540
330
1F
100
AcDbEntity
  8
0
  6
Continuous
 62
     7
370
    50
100
AcDbLine
 10
394.7555869916
 20
178.702179023
 30
0.0
 11
395.2752211923
 21
178.702179023
 31
0.0
  0
LINE
  5
541
330
1F
100
AcDbEntity
  8
0
  6
Continuous
 62
     7
370
    50
100
AcDbLine
 10
393.5252211923
 20
167.552179023
 30
0.0
 11
395.2752211923
 21
167.552179023
 31
0.0
  0
LINE
  5
542
330
1F
100
AcDbEntity
  8
0
  6
Continuous
 62
     7
370
    50
100
AcDbLine
 10
395.2752211923
 20
178.702179023
 30
0.0
 11
395.2752211923
 21
167.552179023
 31
0.0
  0
LINE
  5
543
330
1F
100
AcDbEntity
  8
0
  6
Continuous
 62
     7
370
    50
100
AcDbLine
 10
308.2752211923
 20
178.802179023
 30
0.0
 11
308.2779258721
 21
178.802179023
 31
0.0
  0
LINE
  5
544
330
1F
100
AcDbEntity
  8
0
  6
Continuous
 62
     7
370
    50
100
AcDbLine
 10
308.2752211923
 20
180.552179023
 30
0.0
 11
310.0252211923
 21
180.552179023
 31
0.0
  0
LINE
  5
545
330
1F
100
AcDbEntity
  8
0
  6
Continuous
 62
     8
370
    18
100
AcDbLine
 10
311.2871622627
 20
172.552179023
 30
0.0
 11
311.2871622627
 21
170.802179023
 31
0.0
  0
LINE
  5
546
330
1F
100
AcDbEntity
  8
0
  6
Continuous
 62
     8
370
    18
100
AcDbLine
 10
310.5517936909
 20
170.802179023
 30
0.0
 11
310.5517936909
 21
172.552179023
 31
0.0
  0
LINE
  5
547
330
1F
100
AcDbEntity
  8
0
  6
Continuous
 62
     8
370
    18
100
AcDbLine
 10
324.8688175602
 20
169.602179023
 30
0.0
 11
324.8688175602
 21
169.502179023
 31
0.0
  0
LINE
  5
548
330
1F
100
AcDbEntity
  8
0
  6
Continuous
 62
     8
370
    18
100
AcDbLine
 10
324.174276659
 20
169.502179023
 30
0.0
 11
324.174276659
 21
170.052179023
 31
0.0
  0
LINE
  5
549
330
1F
100
AcDbEntity
  8
0
  6
Continuous
 62
     8
370
    18
100
AcDbLine
 10
323.9321269461
 20
170.052179023
 30
0.0
 11
323.9321269461
 21
169.502179023
 31
0.0
  0
LINE
  5
54A
330
1F
100
AcDbEntity
  8
0
  6
Continuous
 62
     8
370
    18
100
AcDbLine
 10
320.6114149834
 20
169.502179023
 30
0.0
 11
320.6114149834
 21
170.052179023
 31
0.0
  0
LINE
  5
54B
330
1F
100
AcDbEntity
  8
0
  6
Continuous
 62
     8
370
    18
100
AcDbLine
 10
373.5403474582
 20
178.702179023
 30
0.0
 11
310.0252211923
 21
178.702179023
 31
0.0
  0
LINE
  5
54C
330
1F
100
AcDbEntity
  8
0
  6
Continuous
 62
     8
370
    18
100
AcDbLine
 10
394.7555869916
 20
178.702179023
 30
0.0
 11
374.794855393
 21
178.702179023
 31
0.0
  0
LINE
  5
54D
330
1F
100
AcDbEntity
  8
0
  6
Continuous
 62
     8
370
    18
100
AcDbLine
 10
310.0252211923
 20
178.702179023
 30
0.0
 11
308.2752211923
 21
178.702179023
 31
0.0
  0
DIMENSION
  5
54E
330
1F
100
AcDbEntity
  8
0
  6
Continuous
 62
     7
370
    18
100
AcDbDimension
  2
_D_32
 10
413.2796211923
 20
181.752179023
 30
0.0
 11
413.2796211923
 21
191.752179023
 31
0.0
 70
   160
  1
<>
 71
     2
 42
-1.0
  3
SLDDIMSTYLE4
100
AcDbAlignedDimension
 13
393.4252211923
 23
180.552179023
 33
0.0
 14
308.2752211923
 24
181.752179023
 34
0.0
 50
90.0
100
AcDbRotatedDimension
  0
DIMENSION
  5
55A
330
1F
100
AcDbEntity
  8
0
  6
Continuous
 62
     7
370
    18
100
AcDbDimension
  2
_D_33
 10
413.2796211923
 20
180.552179023
 30
0.0
 11
413.2796211923
 21
174.052179023
 31
0.0
 70
   160
  1
<>
 71
     2
 42
-1.0
  3
SLDDIMSTYLE0
100
AcDbAlignedDimension
 13
393.5252211923
 23
167.552179023
 33
0.0
 14
393.4252211923
 24
180.552179023
 34
0.0
 50
90.0
100
AcDbRotatedDimension
  0
ARC
  5
564
330
1F
100
AcDbEntity
  8
0
  6
Continuous
 62
     7
370
    50
100
AcDbCircle
 10
347.0380357674
 20
116.0811288251
 30
0.0
 40
0.3999999999999915
100
AcDbArc
 50
45.0
 51
90.0
  0
ARC
  5
565
330
1F
100
AcDbEntity
  8
0
  6
Continuous
 62
     7
370
    50
100
AcDbCircle
 10
383.5124066173
 20
116.0811288251
 30
0.0
 40
0.3999999999999992
100
AcDbArc
 50
90.0
 51
135.0
  0
LINE
  5
566
330
1F
100
AcDbEntity
  8
0
  6
Continuous
 62
     7
370
    50
100
AcDbLine
 10
347.3208784798
 20
116.3639715376
 30
0.0
 11
347.7865639048
 21
115.8982861126
 31
0.0
  0
LINE
  5
567
330
1F
100
AcDbEntity
  8
0
  6
Continuous
 62
     7
370
    50
100
AcDbLine
 10
382.7638784798
 20
115.8982861126
 30
0.0
 11
383.2295639048
 21
116.3639715376
 31
0.0
  0
ARC
  5
568
330
1F
100
AcDbEntity
  8
0
  6
Continuous
 62
     7
370
    50
100
AcDbCircle
 10
382.4810357674
 20
116.1811288251
 30
0.0
 40
0.3999999999999915
100
AcDbArc
 50
270.0
 51
315.0
  0
ARC
  5
569
330
1F
100
AcDbEntity
  8
0
  6
Continuous
 62
     7
370
    50
100
AcDbCircle
 10
348.0694066173
 20
116.1811288251
 30
0.0
 40
0.3999999999999992
100
AcDbArc
 50
225.0
 51
270.0
  0
LINE
  5
56A
330
1F
100
AcDbEntity
  8
0
  6
Continuous
 62
     7
370
    50
100
AcDbLine
 10
295.2752211923
 20
124.1011288251
 30
0.0
 11
304.2746526396
 21
117.0811288251
 31
0.0
  0
LINE
  5
56B
330
1F
100
AcDbEntity
  8
0
  6
Continuous
 62
     7
370
    50
100
AcDbLine
 10
302.2752211923
 20
127.5811288251
 30
0.0
 11
302.2752211923
 21
127.0811288251
 31
0.0
  0
LINE
  5
56C
330
1F
100
AcDbEntity
  8
0
  6
Continuous
 62
     7
370
    50
100
AcDbLine
 10
295.2752211923
 20
124.1011288251
 30
0.0
 11
304.2746526396
 21
117.0811288251
 31
0.0
  0
LINE
  5
56D
330
1F
100
AcDbEntity
  8
0
  6
Continuous
 62
     7
370
    50
100
AcDbLine
 10
331.7752211923
 20
118.4311288251
 30
0.0
 11
331.7752211923
 21
118.2311288251
 31
0.0
  0
LINE
  5
56E
330
1F
100
AcDbEntity
  8
0
  6
Continuous
 62
     7
370
    50
100
AcDbLine
 10
351.9652211923
 20
116.4811288251
 30
0.0
 11
337.3652211923
 21
116.4811288251
 31
0.0
  0
LINE
  5
56F
330
1F
100
AcDbEntity
  8
0
  6
Continuous
 62
     7
370
    50
100
AcDbLine
 10
337.3652211923
 20
118.2311288251
 30
0.0
 11
337.3652211923
 21
116.4811288251
 31
0.0
  0
LINE
  5
570
330
1F
100
AcDbEntity
  8
0
  6
Continuous
 62
     7
370
    50
100
AcDbLine
 10
351.9652211923
 20
118.2311288251
 30
0.0
 11
351.9652211923
 21
116.4811288251
 31
0.0
  0
LINE
  5
571
330
1F
100
AcDbEntity
  8
0
  6
Continuous
 62
     7
370
    50
100
AcDbLine
 10
351.9652211923
 20
118.2311288251
 30
0.0
 11
337.3652211923
 21
118.2311288251
 31
0.0
  0
LINE
  5
572
330
1F
100
AcDbEntity
  8
0
  6
Continuous
 62
     7
370
    50
100
AcDbLine
 10
332.1152211923
 20
116.4811288251
 30
0.0
 11
308.2752211923
 21
116.4811288251
 31
0.0
  0
LINE
  5
573
330
1F
100
AcDbEntity
  8
0
  6
Continuous
 62
     7
370
    50
100
AcDbLine
 10
332.1152211923
 20
118.2311288251
 30
0.0
 11
308.2752211923
 21
118.2311288251
 31
0.0
  0
LINE
  5
574
330
1F
100
AcDbEntity
  8
0
  6
Continuous
 62
     7
370
    50
100
AcDbLine
 10
332.1152211923
 20
118.2311288251
 30
0.0
 11
332.1152211923
 21
116.4811288251
 31
0.0
  0
LINE
  5
575
330
1F
100
AcDbEntity
  8
0
  6
Continuous
 62
     7
370
    50
100
AcDbLine
 10
375.7252211923
 20
118.2311288251
 30
0.0
 11
375.7252211923
 21
116.4811288251
 31
0.0
  0
LINE
  5
576
330
1F
100
AcDbEntity
  8
0
  6
Continuous
 62
     7
370
    50
100
AcDbLine
 10
393.5252211923
 20
118.2311288251
 30
0.0
 11
393.5252211923
 21
116.4811288251
 31
0.0
  0
LINE
  5
577
330
1F
100
AcDbEntity
  8
0
  6
Continuous
 62
     7
370
    50
100
AcDbLine
 10
375.7252211923
 20
116.4811288251
 30
0.0
 11
393.5252211923
 21
116.4811288251
 31
0.0
  0
LINE
  5
578
330
1F
100
AcDbEntity
  8
0
  6
Continuous
 62
     7
370
    50
100
AcDbLine
 10
351.9652211923
 20
116.4811288251
 30
0.0
 11
352.2752211923
 21
116.4811288251
 31
0.0
  0
LINE
  5
579
330
1F
100
AcDbEntity
  8
0
  6
Continuous
 62
     7
370
    50
100
AcDbLine
 10
373.5403474582
 20
116.4811288251
 30
0.0
 11
375.7252211923
 21
116.4811288251
 31
0.0
  0
LINE
  5
57A
330
1F
100
AcDbEntity
  8
0
  6
Continuous
 62
     7
370
    50
100
AcDbLine
 10
373.5403474582
 20
118.2311288251
 30
0.0
 11
373.5644895938
 21
118.2311288251
 31
0.0
  0
LINE
  5
57B
330
1F
100
AcDbEntity
  8
0
  6
Continuous
 62
     7
370
    50
100
AcDbLine
 10
332.1152211923
 20
116.4811288251
 30
0.0
 11
332.2752211923
 21
116.4811288251
 31
0.0
  0
LINE
  5
57C
330
1F
100
AcDbEntity
  8
0
  6
Continuous
 62
     7
370
    50
100
AcDbLine
 10
337.2752211923
 20
116.4811288251
 30
0.0
 11
337.3652211923
 21
116.4811288251
 31
0.0
  0
LINE
  5
57D
330
1F
100
AcDbEntity
  8
0
  6
Continuous
 62
     7
370
    50
100
AcDbLine
 10
332.1152211923
 20
118.2311288251
 30
0.0
 11
332.2752211923
 21
118.2311288251
 31
0.0
  0
LINE
  5
57E
330
1F
100
AcDbEntity
  8
0
  6
Continuous
 62
     7
370
    50
100
AcDbLine
 10
373.5403474582
 20
118.4961288251
 30
0.0
 11
373.557418526
 21
118.5131998929
 31
0.0
  0
LINE
  5
57F
330
1F
100
AcDbEntity
  8
0
  6
Continuous
 62
     7
370
    50
100
AcDbLine
 10
382.4810357674
 20
115.7811288251
 30
0.0
 11
348.0694066173
 21
115.7811288251
 31
0.0
  0
SPLINE
  5
580
330
1F
100
AcDbEntity
  8
0
  6
Continuous
 62
     7
370
    50
100
AcDbSpline
210
0.0
220
0.0
230
1.0
 70
     8
 71
     3
 72
    14
 73
    10
 74
     0
 42
0.000000001
 43
0.00000001
 40
0.0
 40
0.0
 40
0.0
 40
0.0
 40
0.25
 40
0.25
 40
0.5
 40
0.5
 40
0.75
 40
0.75
 40
1.0
 40
1.0
 40
1.0
 40
1.0
 10
373.5089261019195
 20
129.4811288251048
 30
0.0
 10
373.5115450203162
 20
129.4811288251048
 30
0.0
 10
373.5141629946257
 20
129.4329782769412
 30
0.0
 10
373.519399887332
 20
129.2476336435602
 30
0.0
 10
373.5220183336851
 20
129.1105124835414
 30
0.0
 10
373.5272552263913
 20
128.7680402570583
 30
0.0
 10
373.5298736727444
 20
128.5628239387909
 30
0.0
 10
373.5351105654506
 20
128.1153624111695
 30
0.0
 10
373.5377285397602
 20
127.873336915303
 30
0.0
 10
373.5403474581568
 20
127.6311288251048
 30
0.0
  0
LINE
  5
581
330
1F
100
AcDbEntity
  8
0
  6
Continuous
 62
     7
370
    50
100
AcDbLine
 10
310.0252211923
 20
127.6311288251
 30
0.0
 11
310.0252211923
 21
129.4811288251
 31
0.0
  0
LINE
  5
582
330
1F
100
AcDbEntity
  8
0
  6
Continuous
 62
     7
370
    50
100
AcDbLine
 10
373.5089261019
 20
129.4811288251
 30
0.0
 11
310.0252211923
 21
129.4811288251
 31
0.0
  0
LINE
  5
583
330
1F
100
AcDbEntity
  8
0
  6
Continuous
 62
     7
370
    50
100
AcDbLine
 10
373.5403474582
 20
116.4811288251
 30
0.0
 11
352.2752211923
 21
116.4811288251
 31
0.0
  0
LINE
  5
584
330
1F
100
AcDbEntity
  8
0
  6
Continuous
 62
     7
370
    50
100
AcDbLine
 10
352.2752211923
 20
116.4811288251
 30
0.0
 11
352.2752211923
 21
118.2311288251
 31
0.0
  0
LINE
  5
585
330
1F
100
AcDbEntity
  8
0
  6
Continuous
 62
     7
370
    50
100
AcDbLine
 10
352.2752211923
 20
118.2311288251
 30
0.0
 11
337.2752211923
 21
118.2311288251
 31
0.0
  0
LINE
  5
586
330
1F
100
AcDbEntity
  8
0
  6
Continuous
 62
     7
370
    50
100
AcDbLine
 10
337.2752211923
 20
118.2311288251
 30
0.0
 11
337.2752211923
 21
116.4811288251
 31
0.0
  0
LINE
  5
587
330
1F
100
AcDbEntity
  8
0
  6
Continuous
 62
     7
370
    50
100
AcDbLine
 10
337.2752211923
 20
116.4811288251
 30
0.0
 11
332.2752211923
 21
116.4811288251
 31
0.0
  0
LINE
  5
588
330
1F
100
AcDbEntity
  8
0
  6
Continuous
 62
     7
370
    50
100
AcDbLine
 10
332.2752211923
 20
116.4811288251
 30
0.0
 11
332.2752211923
 21
118.9811288251
 31
0.0
  0
LINE
  5
589
330
1F
100
AcDbEntity
  8
0
  6
Continuous
 62
     7
370
    50
100
AcDbLine
 10
332.2752211923
 20
118.9811288251
 30
0.0
 11
313.2752211923
 21
118.9811288251
 31
0.0
  0
LINE
  5
58A
330
1F
100
AcDbEntity
  8
0
  6
Continuous
 62
     7
370
    50
100
AcDbLine
 10
313.2752211923
 20
118.9811288251
 30
0.0
 11
313.2752211923
 21
121.4811288251
 31
0.0
  0
LINE
  5
58B
330
1F
100
AcDbEntity
  8
0
  6
Continuous
 62
     7
370
    50
100
AcDbLine
 10
313.2752211923
 20
121.4811288251
 30
0.0
 11
310.0252211923
 21
121.4811288251
 31
0.0
  0
LINE
  5
58C
330
1F
100
AcDbEntity
  8
0
  6
Continuous
 62
     7
370
    50
100
AcDbLine
 10
310.0252211923
 20
127.6311288251
 30
0.0
 11
310.0252211923
 21
121.4811288251
 31
0.0
  0
LINE
  5
58D
330
1F
100
AcDbEntity
  8
0
  6
Continuous
 62
     7
370
    50
100
AcDbLine
 10
373.5403474582
 20
127.6311288251
 30
0.0
 11
373.5403474582
 21
116.4811288251
 31
0.0
  0
SPLINE
  5
58E
330
1F
100
AcDbEntity
  8
0
  6
Continuous
 62
     7
370
    50
100
AcDbSpline
210
0.0
220
0.0
230
1.0
 70
     8
 71
     3
 72
    14
 73
    10
 74
     0
 42
0.000000001
 43
0.00000001
 40
0.0
 40
0.0
 40
0.0
 40
0.0
 40
0.25
 40
0.25
 40
0.5
 40
0.5
 40
0.75
 40
0.75
 40
1.0
 40
1.0
 40
1.0
 40
1.0
 10
374.7948553930452
 20
127.6311288251048
 30
0.0
 10
374.7967072480029
 20
127.873336915303
 30
0.0
 10
374.7645108562657
 20
128.1153624111695
 30
0.0
 10
374.6371554514904
 20
128.562823938791
 30
0.0
 10
374.5420476705695
 20
128.7680402570584
 30
0.0
 10
374.3035862792002
 20
129.1105124835414
 30
0.0
 10
374.1603279501156
 20
129.2476336435602
 30
0.0
 10
373.8476279119593
 20
129.4329782769412
 30
0.0
 10
373.6783412299993
 20
129.4811288251048
 30
0.0
 10
373.5089261019196
 20
129.4811288251048
 30
0.0
  0
LINE
  5
58F
330
1F
100
AcDbEntity
  8
0
  6
Continuous
 62
     7
370
    50
100
AcDbLine
 10
373.557418526
 20
127.6311288251
 30
0.0
 11
374.794855393
 21
127.6311288251
 31
0.0
  0
LINE
  5
590
330
1F
100
AcDbEntity
  8
0
  6
Continuous
 62
     7
370
    50
100
AcDbLine
 10
373.5644895938
 20
118.2311288251
 30
0.0
 11
374.794855393
 21
118.2311288251
 31
0.0
  0
LINE
  5
591
330
1F
100
AcDbEntity
  8
0
  6
Continuous
 62
     7
370
    50
100
AcDbLine
 10
373.557418526
 20
127.6311288251
 30
0.0
 11
373.557418526
 21
118.2311288251
 31
0.0
  0
LINE
  5
592
330
1F
100
AcDbEntity
  8
0
  6
Continuous
 62
     7
370
    50
100
AcDbLine
 10
374.794855393
 20
127.6311288251
 30
0.0
 11
374.794855393
 21
118.2311288251
 31
0.0
  0
LINE
  5
593
330
1F
100
AcDbEntity
  8
0
  6
Continuous
 62
     7
370
    50
100
AcDbLine
 10
393.4252211923
 20
129.4811288251
 30
0.0
 11
373.5089261019
 21
129.4811288251
 31
0.0
  0
SPLINE
  5
594
330
1F
100
AcDbEntity
  8
0
  6
Continuous
 62
     7
370
    50
100
AcDbSpline
210
0.0
220
0.0
230
1.0
 70
     8
 71
     3
 72
    14
 73
    10
 74
     0
 42
0.000000001
 43
0.00000001
 40
0.0
 40
0.0
 40
0.0
 40
0.0
 40
0.25
 40
0.25
 40
0.5
 40
0.5
 40
0.75
 40
0.75
 40
1.0
 40
1.0
 40
1.0
 40
1.0
 10
393.4252211923097
 20
129.4811288251048
 30
0.0
 10
393.5983400303048
 20
129.4811288251048
 30
0.0
 10
393.7713290870392
 20
129.4329782769412
 30
0.0
 10
394.0914352098854
 20
129.2476336435602
 30
0.0
 10
394.2383965813149
 20
129.1105124835415
 30
0.0
 10
394.484264057374
 20
128.7680402570584
 30
0.0
 10
394.5830748806398
 20
128.562823938791
 30
0.0
 10
394.717836370105
 20
128.1153624111695
 30
0.0
 10
394.7537351366166
 20
127.873336915303
 30
0.0
 10
394.7555869915743
 20
127.6311288251048
 30
0.0
  0
LINE
  5
595
330
1F
100
AcDbEntity
  8
0
  6
Continuous
 62
     7
370
    50
100
AcDbLine
 10
394.7555869916
 20
118.2311288251
 30
0.0
 11
374.794855393
 21
118.2311288251
 31
0.0
  0
LINE
  5
596
330
1F
100
AcDbEntity
  8
0
  6
Continuous
 62
     7
370
    50
100
AcDbLine
 10
394.7555869916
 20
127.6311288251
 30
0.0
 11
394.7555869916
 21
118.2311288251
 31
0.0
  0
ARC
  5
597
330
1F
100
AcDbEntity
  8
0
  6
Continuous
 62
     7
370
    50
100
AcDbCircle
 10
310.1252211923
 20
127.6311288251
 30
0.0
 40
1.850000000000023
100
AcDbArc
 50
93.0985793398
 51
180.0
  0
LINE
  5
598
330
1F
100
AcDbEntity
  8
0
  6
Continuous
 62
     7
370
    50
100
AcDbLine
 10
310.0252211923
 20
119.2311288251
 30
0.0
 11
310.0252211923
 21
121.4811288251
 31
0.0
  0
LINE
  5
599
330
1F
100
AcDbEntity
  8
0
  6
Continuous
 62
     7
370
    50
100
AcDbLine
 10
308.2752211923
 20
119.2311288251
 30
0.0
 11
310.0252211923
 21
119.2311288251
 31
0.0
  0
LINE
  5
59A
330
1F
100
AcDbEntity
  8
0
  6
Continuous
 62
     7
370
    50
100
AcDbLine
 10
373.5403474582
 20
127.4661288252
 30
0.0
 11
373.557418526
 21
127.4490577573
 31
0.0
  0
SPLINE
  5
59B
330
1F
100
AcDbEntity
  8
0
  6
Continuous
 62
     7
370
    50
100
AcDbSpline
210
0.0
220
0.0
230
1.0
 70
     8
 71
     3
 72
    14
 73
    10
 74
     0
 42
0.000000001
 43
0.00000001
 40
0.0
 40
0.0
 40
0.0
 40
0.0
 40
0.25
 40
0.25
 40
0.5
 40
0.5
 40
0.75
 40
0.75
 40
1.0
 40
1.0
 40
1.0
 40
1.0
 10
395.2752211923097
 20
127.6311288251049
 30
0.0
 10
395.2752211923097
 20
127.873336915303
 30
0.0
 10
395.2270706441461
 20
128.1153624111695
 30
0.0
 10
395.041726010765
 20
128.562823938791
 30
0.0
 10
394.9046048507463
 20
128.7680402570585
 30
0.0
 10
394.5621326242633
 20
129.1105124835415
 30
0.0
 10
394.3569163059959
 20
129.2476336435602
 30
0.0
 10
393.9094547783744
 20
129.4329782769412
 30
0.0
 10
393.6674292825078
 20
129.4811288251048
 30
0.0
 10
393.4252211923097
 20
129.4811288251048
 30
0.0
  0
LINE
  5
59C
330
1F
100
AcDbEntity
  8
0
  6
Continuous
 62
     7
370
    50
100
AcDbLine
 10
394.7555869916
 20
127.6311288251
 30
0.0
 11
395.2752211923
 21
127.6311288251
 31
0.0
  0
LINE
  5
59D
330
1F
100
AcDbEntity
  8
0
  6
Continuous
 62
     7
370
    50
100
AcDbLine
 10
393.5252211923
 20
116.4811288251
 30
0.0
 11
395.2752211923
 21
116.4811288251
 31
0.0
  0
LINE
  5
59E
330
1F
100
AcDbEntity
  8
0
  6
Continuous
 62
     7
370
    50
100
AcDbLine
 10
395.2752211923
 20
127.6311288251
 30
0.0
 11
395.2752211923
 21
116.4811288251
 31
0.0
  0
LINE
  5
59F
330
1F
100
AcDbEntity
  8
0
  6
Continuous
 62
     7
370
    50
100
AcDbLine
 10
308.2752211923
 20
127.7311288251
 30
0.0
 11
308.2779258721
 21
127.7311288251
 31
0.0
  0
LINE
  5
5A0
330
1F
100
AcDbEntity
  8
0
  6
Continuous
 62
     7
370
    50
100
AcDbLine
 10
308.2752211923
 20
129.4811288251
 30
0.0
 11
310.0252211923
 21
129.4811288251
 31
0.0
  0
LINE
  5
5A1
330
1F
100
AcDbEntity
  8
0
  6
Continuous
 62
     7
370
    50
100
AcDbLine
 10
373.5403474582
 20
121.5811288251
 30
0.0
 11
373.557418526
 21
121.5811288251
 31
0.0
  0
LINE
  5
5A2
330
1F
100
AcDbEntity
  8
0
  6
Continuous
 62
     7
370
    50
100
AcDbLine
 10
373.5403474582
 20
124.5811288251
 30
0.0
 11
373.557418526
 21
124.5811288251
 31
0.0
  0
LINE
  5
5A3
330
1F
100
AcDbEntity
  8
0
  6
Continuous
 62
     7
370
    50
100
AcDbLine
 10
313.2752211923
 20
119.5811288251
 30
0.0
 11
311.2871622627
 21
119.5811288251
 31
0.0
  0
LINE
  5
5A4
330
1F
100
AcDbEntity
  8
0
  6
Continuous
 62
     7
370
    50
100
AcDbLine
 10
311.2871622627
 20
119.5811288251
 30
0.0
 11
310.5517936909
 21
119.5811288251
 31
0.0
  0
LINE
  5
5A5
330
1F
100
AcDbEntity
  8
0
  6
Continuous
 62
     7
370
    50
100
AcDbLine
 10
310.5517936909
 20
119.5811288251
 30
0.0
 11
310.2752211923
 21
119.5811288251
 31
0.0
  0
LINE
  5
5A6
330
1F
100
AcDbEntity
  8
0
  6
Continuous
 62
     7
370
    50
100
AcDbLine
 10
332.2752211923
 20
118.4311288251
 30
0.0
 11
324.8688175602
 21
118.4311288251
 31
0.0
  0
LINE
  5
5A7
330
1F
100
AcDbEntity
  8
0
  6
Continuous
 62
     7
370
    50
100
AcDbLine
 10
324.8688175602
 20
118.4311288251
 30
0.0
 11
324.174276659
 21
118.4311288251
 31
0.0
  0
LINE
  5
5A8
330
1F
100
AcDbEntity
  8
0
  6
Continuous
 62
     7
370
    50
100
AcDbLine
 10
324.174276659
 20
118.4311288251
 30
0.0
 11
323.9321269461
 21
118.4311288251
 31
0.0
  0
LINE
  5
5A9
330
1F
100
AcDbEntity
  8
0
  6
Continuous
 62
     7
370
    50
100
AcDbLine
 10
323.519368964
 20
118.4311288251
 30
0.0
 11
323.519368964
 21
118.9811288251
 31
0.0
  0
LINE
  5
5AA
330
1F
100
AcDbEntity
  8
0
  6
Continuous
 62
     7
370
    50
100
AcDbLine
 10
323.9321269461
 20
118.4311288251
 30
0.0
 11
323.519368964
 21
118.4311288251
 31
0.0
  0
LINE
  5
5AB
330
1F
100
AcDbEntity
  8
0
  6
Continuous
 62
     7
370
    50
100
AcDbLine
 10
318.0449427299
 20
118.9811288251
 30
0.0
 11
318.0449427299
 21
118.4311288251
 31
0.0
  0
LINE
  5
5AC
330
1F
100
AcDbEntity
  8
0
  6
Continuous
 62
     7
370
    50
100
AcDbLine
 10
318.0449427299
 20
118.4311288251
 30
0.0
 11
320.6114149834
 21
118.4311288251
 31
0.0
  0
LINE
  5
5AD
330
1F
100
AcDbEntity
  8
0
  6
Continuous
 62
     7
370
    50
100
AcDbLine
 10
316.5260777414
 20
118.9811288251
 30
0.0
 11
316.5260777414
 21
118.4311288251
 31
0.0
  0
LINE
  5
5AE
330
1F
100
AcDbEntity
  8
0
  6
Continuous
 62
     7
370
    50
100
AcDbLine
 10
318.0449427299
 20
118.4311288251
 30
0.0
 11
316.5260777414
 21
118.4311288251
 31
0.0
  0
LINE
  5
5AF
330
1F
100
AcDbEntity
  8
0
  6
Continuous
 62
     7
370
    50
100
AcDbLine
 10
323.519368964
 20
118.4311288251
 30
0.0
 11
320.6114149834
 21
118.4311288251
 31
0.0
  0
LINE
  5
5B0
330
1F
100
AcDbEntity
  8
0
  6
Continuous
 62
     7
370
    50
100
AcDbLine
 10
295.6252211923
 20
126.7020258166
 30
0.0
 11
295.6252211923
 21
127.2311288251
 31
0.0
  0
LINE
  5
5B1
330
1F
100
AcDbEntity
  8
0
  6
Continuous
 62
     7
370
    50
100
AcDbLine
 10
295.6252211923
 20
127.2311288251
 30
0.0
 11
302.2752211923
 21
127.2311288251
 31
0.0
  0
LINE
  5
5B2
330
1F
100
AcDbEntity
  8
0
  6
Continuous
 62
     7
370
    50
100
AcDbLine
 10
316.5260777414
 20
118.4311288251
 30
0.0
 11
310.2752211923
 21
118.4311288251
 31
0.0
  0
LINE
  5
5B3
330
1F
100
AcDbEntity
  8
0
  6
Continuous
 62
     7
370
    50
100
AcDbLine
 10
373.557418526
 20
127.2311288251
 30
0.0
 11
373.5403474582
 21
127.2311288251
 31
0.0
  0
LINE
  5
5B4
330
1F
100
AcDbEntity
  8
0
  6
Continuous
 62
     7
370
    50
100
AcDbLine
 10
295.2752211923
 20
124.1011288251
 30
0.0
 11
295.2752211923
 21
124.5811288251
 31
0.0
  0
LINE
  5
5B5
330
1F
100
AcDbEntity
  8
0
  6
Continuous
 62
     7
370
    50
100
AcDbLine
 10
310.2752211923
 20
121.4811288251
 30
0.0
 11
310.2752211923
 21
118.2311288251
 31
0.0
  0
LINE
  5
5B6
330
1F
100
AcDbEntity
  8
0
  6
Continuous
 62
     7
370
    50
100
AcDbLine
 10
305.2752211923
 20
117.1090969526
 30
0.0
 11
295.2752211923
 21
124.1011288251
 31
0.0
  0
LINE
  5
5B7
330
1F
100
AcDbEntity
  8
0
  6
Continuous
 62
     7
370
    50
100
AcDbLine
 10
305.2752211923
 20
127.5811288251
 30
0.0
 11
302.2752211923
 21
127.5811288251
 31
0.0
  0
SPLINE
  5
5B8
330
1F
100
AcDbEntity
  8
0
  6
Continuous
 62
     7
370
    50
100
AcDbSpline
210
0.0
220
0.0
230
1.0
 70
    24
 71
     3
 72
    10
 73
     6
 74
     0
 42
0.000000001
 43
0.00000001
 40
0.0
 40
0.0
 40
0.0
 40
0.0
 40
0.1201667529185278
 40
0.5608340800119221
 40
0.9999999999999999
 40
0.9999999999999999
 40
0.9999999999999999
 40
0.9999999999999999
 10
304.330051970538
 20
117.0811288251049
 30
0.0
 10
304.3127516218161
 20
117.0811288251049
 30
0.0
 10
304.232008613258
 20
117.0811288251049
 30
0.0
 10
304.5412431462637
 20
117.0811288251049
 30
0.0
 10
305.0575221814772
 20
117.0811288251049
 30
0.0
 10
305.3152211923094
 20
117.0811288251049
 30
0.0
  0
LINE
  5
5B9
330
1F
100
AcDbEntity
  8
0
  6
Continuous
 62
     7
370
    50
100
AcDbLine
 10
297.7752211923
 20
127.0811288251
 30
0.0
 11
297.7752211923
 21
124.5811288251
 31
0.0
  0
LINE
  5
5BA
330
1F
100
AcDbEntity
  8
0
  6
Continuous
 62
     7
370
    50
100
AcDbLine
 10
305.2752211923
 20
124.5811288251
 30
0.0
 11
297.7752211923
 21
124.5811288251
 31
0.0
  0
LINE
  5
5BB
330
1F
100
AcDbEntity
  8
0
  6
Continuous
 62
     7
370
    50
100
AcDbLine
 10
305.2752211923
 20
127.0811288251
 30
0.0
 11
297.7752211923
 21
127.0811288251
 31
0.0
  0
LINE
  5
5BC
330
1F
100
AcDbEntity
  8
0
  6
Continuous
 62
     7
370
    50
100
AcDbLine
 10
295.2752211923
 20
124.5811288251
 30
0.0
 11
295.2752211923
 21
126.6403113733
 31
0.0
  0
LINE
  5
5BD
330
1F
100
AcDbEntity
  8
0
  6
Continuous
 62
     7
370
    50
100
AcDbLine
 10
297.7752211923
 20
127.0811288251
 30
0.0
 11
295.2752211923
 21
126.6403113733
 31
0.0
  0
LINE
  5
5BE
330
1F
100
AcDbEntity
  8
0
  6
Continuous
 62
     7
370
    50
100
AcDbLine
 10
297.7752211923
 20
124.5811288251
 30
0.0
 11
295.2752211923
 21
124.5811288251
 31
0.0
  0
LINE
  5
5BF
330
1F
100
AcDbEntity
  8
0
  6
Continuous
 62
     7
370
    50
100
AcDbLine
 10
373.5403474582
 20
127.0811288251
 30
0.0
 11
373.557418526
 21
127.0811288251
 31
0.0
  0
LINE
  5
5C0
330
1F
100
AcDbEntity
  8
0
  6
Continuous
 62
     7
370
    50
100
AcDbLine
 10
313.2752211923
 20
119.0845348282
 30
0.0
 11
312.4952211923
 21
119.0845348282
 31
0.0
  0
LINE
  5
5C1
330
1F
100
AcDbEntity
  8
0
  6
Continuous
 62
     7
370
    50
100
AcDbLine
 10
312.4952211923
 20
119.0845348282
 30
0.0
 11
312.4952211923
 21
119.5811288251
 31
0.0
  0
LINE
  5
5C2
330
1F
100
AcDbEntity
  8
0
  6
Continuous
 62
     7
370
    50
100
AcDbLine
 10
329.0429881453
 20
118.9811288251
 30
0.0
 11
329.0429881453
 21
118.5311288251
 31
0.0
  0
LINE
  5
5C3
330
1F
100
AcDbEntity
  8
0
  6
Continuous
 62
     7
370
    50
100
AcDbLine
 10
330.3370833708
 20
118.9811288251
 30
0.0
 11
330.3370833708
 21
118.5311288251
 31
0.0
  0
LINE
  5
5C4
330
1F
100
AcDbEntity
  8
0
  6
Continuous
 62
     7
370
    50
100
AcDbLine
 10
329.0429881453
 20
118.5311288251
 30
0.0
 11
330.3370833708
 21
118.5311288251
 31
0.0
  0
LINE
  5
5C5
330
1F
100
AcDbEntity
  8
0
  6
Continuous
 62
     7
370
    50
100
AcDbLine
 10
324.2133590138
 20
118.9811288251
 30
0.0
 11
324.2133590138
 21
118.5311288251
 31
0.0
  0
LINE
  5
5C6
330
1F
100
AcDbEntity
  8
0
  6
Continuous
 62
     7
370
    50
100
AcDbLine
 10
324.2133590138
 20
118.5311288251
 30
0.0
 11
329.0429881453
 21
118.5311288251
 31
0.0
  0
LINE
  5
5C7
330
1F
100
AcDbEntity
  8
0
  6
Continuous
 62
     7
370
    50
100
AcDbLine
 10
308.2752211923
 20
130.6811288251
 30
0.0
 11
305.2752211923
 21
130.6811288251
 31
0.0
  0
LINE
  5
5C8
330
1F
100
AcDbEntity
  8
0
  6
Continuous
 62
     7
370
    50
100
AcDbLine
 10
308.2752211923
 20
112.6811288251
 30
0.0
 11
305.2752211923
 21
112.6811288251
 31
0.0
  0
LINE
  5
5C9
330
1F
100
AcDbEntity
  8
0
  6
Continuous
 62
     7
370
    50
100
AcDbLine
 10
305.2752211923
 20
112.6811288251
 30
0.0
 11
305.2752211923
 21
130.6811288251
 31
0.0
  0
LINE
  5
5CA
330
1F
100
AcDbEntity
  8
0
  6
Continuous
 62
     7
370
    50
100
AcDbLine
 10
308.2752211923
 20
112.6811288251
 30
0.0
 11
308.2752211923
 21
130.6811288251
 31
0.0
  0
LINE
  5
5CB
330
1F
100
AcDbEntity
  8
0
  6
Continuous
 62
     8
370
    18
100
AcDbLine
 10
383.2295639048
 20
116.3639715376
 30
0.0
 11
347.3208784798
 21
116.3639715376
 31
0.0
  0
LINE
  5
5CC
330
1F
100
AcDbEntity
  8
0
  6
Continuous
 62
     8
370
    18
100
AcDbLine
 10
347.7865639048
 20
115.8982861126
 30
0.0
 11
382.7638784798
 21
115.8982861126
 31
0.0
  0
LINE
  5
5CD
330
1F
100
AcDbEntity
  8
0
  6
Continuous
 62
     8
370
    18
100
AcDbLine
 10
373.5403474582
 20
127.6311288251
 30
0.0
 11
310.0252211923
 21
127.6311288251
 31
0.0
  0
LINE
  5
5CE
330
1F
100
AcDbEntity
  8
0
  6
Continuous
 62
     8
370
    18
100
AcDbLine
 10
394.7555869916
 20
127.6311288251
 30
0.0
 11
374.794855393
 21
127.6311288251
 31
0.0
  0
LINE
  5
5CF
330
1F
100
AcDbEntity
  8
0
  6
Continuous
 62
     8
370
    18
100
AcDbLine
 10
310.0252211923
 20
127.6311288251
 30
0.0
 11
308.2752211923
 21
127.6311288251
 31
0.0
  0
LINE
  5
5D0
330
1F
100
AcDbEntity
  8
0
  6
Continuous
 62
     8
370
    18
100
AcDbLine
 10
311.2871622627
 20
121.4811288251
 30
0.0
 11
311.2871622627
 21
119.5811288251
 31
0.0
  0
LINE
  5
5D1
330
1F
100
AcDbEntity
  8
0
  6
Continuous
 62
     8
370
    18
100
AcDbLine
 10
310.5517936909
 20
119.5811288251
 30
0.0
 11
310.5517936909
 21
121.4811288251
 31
0.0
  0
LINE
  5
5D2
330
1F
100
AcDbEntity
  8
0
  6
Continuous
 62
     8
370
    18
100
AcDbLine
 10
324.8688175602
 20
118.5311288251
 30
0.0
 11
324.8688175602
 21
118.4311288251
 31
0.0
  0
LINE
  5
5D3
330
1F
100
AcDbEntity
  8
0
  6
Continuous
 62
     8
370
    18
100
AcDbLine
 10
324.174276659
 20
118.4311288251
 30
0.0
 11
324.174276659
 21
118.9811288251
 31
0.0
  0
LINE
  5
5D4
330
1F
100
AcDbEntity
  8
0
  6
Continuous
 62
     8
370
    18
100
AcDbLine
 10
323.9321269461
 20
118.9811288251
 30
0.0
 11
323.9321269461
 21
118.4311288251
 31
0.0
  0
LINE
  5
5D5
330
1F
100
AcDbEntity
  8
0
  6
Continuous
 62
     8
370
    18
100
AcDbLine
 10
320.6114149834
 20
118.4311288251
 30
0.0
 11
320.6114149834
 21
118.9811288251
 31
0.0
  0
DIMENSION
  5
5D6
330
1F
100
AcDbEntity
  8
0
  6
Continuous
 62
     7
370
    18
100
AcDbDimension
  2
_D_34
 10
413.2796211923
 20
129.4811288251
 30
0.0
 11
413.2796211923
 21
102.6811288251
 31
0.0
 70
   160
  1
<>
 71
     2
 42
-1.0
  3
SLDDIMSTYLE1
100
AcDbAlignedDimension
 13
382.4810357674
 23
115.7811288251
 33
0.0
 14
393.4252211923
 24
129.4811288251
 34
0.0
 50
90.0
100
AcDbRotatedDimension
  0
DIMENSION
  5
5E1
330
1F
100
AcDbEntity
  8
0
  6
Continuous
 62
     7
370
    18
100
AcDbDimension
  2
_D_35
 10
413.2796211923
 20
129.4811288251
 30
0.0
 11
413.2796211923
 21
140.6811288251
 31
0.0
 70
   160
  1
<>
 71
     2
 42
-1.0
  3
SLDDIMSTYLE1
100
AcDbAlignedDimension
 13
308.2752211923
 23
130.6811288251
 33
0.0
 14
393.4252211923
 24
129.4811288251
 34
0.0
 50
90.0
100
AcDbRotatedDimension
  0
DIMENSION
  5
5EC
330
1F
100
AcDbEntity
  8
0
  6
Continuous
 62
     7
370
    18
100
AcDbDimension
  2
_D_36
 10
348.0694066173
 20
102.6811288251
 30
0.0
 11
365.2752211923
 21
102.6811288251
 31
0.0
 70
   160
  1
%%c<>
 71
     2
 42
-1.0
  3
SLDDIMSTYLE0
100
AcDbAlignedDimension
 13
382.4810357674
 23
115.7811288251
 33
0.0
 14
348.0694066173
 24
115.7811288251
 34
0.0
100
AcDbRotatedDimension
  0
ENDSEC
  0
SECTION
  2
OBJECTS
  0
DICTIONARY
  5
C
330
0
100
AcDbDictionary
281
     1
  3
ACAD_GROUP
350
D
  3
ACAD_LAYOUT
350
1A
  3
ACAD_MLINESTYLE
350
17
  3
ACAD_PLOTSETTINGS
350
19
  3
ACAD_PLOTSTYLENAME
350
E
  3
ACAD_SCALELIST
350
47
  0
DICTIONARY
  5
D
102
{ACAD_REACTORS
330
C
102
}
330
C
100
AcDbDictionary
281
     1
  0
DICTIONARY
  5
1A
102
{ACAD_REACTORS
330
C
102
}
330
C
100
AcDbDictionary
281
     1
  3
Layout1
350
1E
  3
Layout2
350
26
  3
Model
350
22
  0
DICTIONARY
  5
17
102
{ACAD_REACTORS
330
C
102
}
330
C
100
AcDbDictionary
281
     1
  3
Standard
350
18
  0
DICTIONARY
  5
19
102
{ACAD_REACTORS
330
C
102
}
330
C
100
AcDbDictionary
281
     1
  0
ACDBDICTIONARYWDFLT
  5
E
102
{ACAD_REACTORS
330
C
102
}
330
C
100
AcDbDictionary
281
     1
  3
Normal
350
F
100
AcDbDictionaryWithDefault
340
F
  0
DICTIONARY
  5
47
102
{ACAD_REACTORS
330
C
102
}
330
C
100
AcDbDictionary
281
     1
  3
A0
350
48
  3
A1
350
49
  3
A2
350
4A
  3
A3
350
4B
  3
A4
350
4C
  3
A5
350
4D
  3
A6
350
4E
  3
A7
350
4F
  3
A8
350
50
  3
A9
350
51
  3
B0
350
52
  3
B1
350
53
  3
B2
350
54
  3
B3
350
55
  3
B4
350
56
  3
B5
350
57
  3
B6
350
58
  3
B7
350
59
  3
B8
350
5A
  3
B9
350
5B
  3
C0
350
5C
  3
C1
350
5D
  3
C2
350
5E
  3
C3
350
5F
  3
C4
350
60
  3
C5
350
61
  3
C6
350
62
  3
C7
350
63
  3
C8
350
64
  3
C9
350
65
  3
D0
350
66
  3
D1
350
67
  3
D2
350
68
  0
LAYOUT
  5
1E
102
{ACAD_REACTORS
330
1A
102
}
330
1A
100
AcDbPlotSettings
  1

  2
none_device
  4

  6

 40
0.0
 41
0.0
 42
0.0
 43
0.0
 44
0.0
 45
0.0
 46
0.0
 47
0.0
 48
0.0
 49
0.0
140
0.0
141
0.0
142
1.0
143
1.0
 70
   688
 72
     1
 73
     0
 74
     5
  7

 75
    16
147
1.0
148
0.0
149
0.0
100
AcDbLayout
  1
Layout1
 70
     1
 71
     1
 10
0.0
 20
0.0
 11
420.0
 21
297.0
 12
0.0
 22
0.0
 32
0.0
 14
1.0000000000E+20
 24
1.0000000000E+20
 34
1.0000000000E+20
 15
-1.0000000000E+20
 25
-1.0000000000E+20
 35
-1.0000000000E+20
146
0.0
 13
0.0
 23
0.0
 33
0.0
 16
1.0
 26
0.0
 36
0.0
 17
0.0
 27
1.0
 37
0.0
 76
     0
330
1B
  0
LAYOUT
  5
26
102
{ACAD_REACTORS
330
1A
102
}
330
1A
100
AcDbPlotSettings
  1

  2
none_device
  4

  6

 40
0.0
 41
0.0
 42
0.0
 43
0.0
 44
0.0
 45
0.0
 46
0.0
 47
0.0
 48
0.0
 49
0.0
140
0.0
141
0.0
142
1.0
143
1.0
 70
   688
 72
     1
 73
     0
 74
     5
  7

 75
    16
147
1.0
148
0.0
149
0.0
100
AcDbLayout
  1
Layout2
 70
     1
 71
     2
 10
0.0
 20
0.0
 11
0.0
 21
0.0
 12
0.0
 22
0.0
 32
0.0
 14
0.0
 24
0.0
 34
0.0
 15
0.0
 25
0.0
 35
0.0
146
0.0
 13
0.0
 23
0.0
 33
0.0
 16
1.0
 26
0.0
 36
0.0
 17
0.0
 27
1.0
 37
0.0
 76
     0
330
23
  0
LAYOUT
  5
22
102
{ACAD_REACTORS
330
1A
102
}
330
1A
100
AcDbPlotSettings
  1

  2
none_device
  4
Letter_(8.50_x_11.00_Inches)
  6

 40
6.35
 41
6.35
 42
6.35000508
 43
6.35000508
 44
215.9
 45
279.4
 46
0.0
 47
0.0
 48
0.0
 49
0.0
140
0.0
141
0.0
142
1.0
143
1.0
 70
  1712
 72
     1
 73
     0
 74
     0
  7

 75
     0
147
1.0
148
0.0
149
0.0
100
AcDbLayout
  1
Model
 70
     1
 71
     0
 10
0.0
 20
0.0
 11
841.0
 21
594.0
 12
0.0
 22
0.0
 32
0.0
 14
0.0
 24
0.0
 34
0.0
 15
841.0
 25
594.0
 35
0.0
146
0.0
 13
0.0
 23
0.0
 33
0.0
 16
1.0
 26
0.0
 36
0.0
 17
0.0
 27
1.0
 37
0.0
 76
     0
330
1F
331
29
  0
MLINESTYLE
  5
18
102
{ACAD_REACTORS
330
17
102
}
330
17
100
AcDbMlineStyle
  2
Standard
 70
     0
  3

 62
   256
 51
90.0
 52
90.0
 71
     2
 49
0.5
 62
   256
  6
BYLAYER
 49
-0.5
 62
   256
  6
BYLAYER
  0
ACDBPLACEHOLDER
  5
F
102
{ACAD_REACTORS
330
E
102
}
330
E
  0
SCALE
  5
48
102
{ACAD_REACTORS
330
47
102
}
330
47
100
AcDbScale
 70
     0
300
1:1
140
1.0
141
1.0
290
     1
  0
SCALE
  5
49
102
{ACAD_REACTORS
330
47
102
}
330
47
100
AcDbScale
 70
     0
300
1:2
140
1.0
141
2.0
290
     0
  0
SCALE
  5
4A
102
{ACAD_REACTORS
330
47
102
}
330
47
100
AcDbScale
 70
     0
300
1:4
140
1.0
141
4.0
290
     0
  0
SCALE
  5
4B
102
{ACAD_REACTORS
330
47
102
}
330
47
100
AcDbScale
 70
     0
300
1:5
140
1.0
141
5.0
290
     0
  0
SCALE
  5
4C
102
{ACAD_REACTORS
330
47
102
}
330
47
100
AcDbScale
 70
     0
300
1:8
140
1.0
141
8.0
290
     0
  0
SCALE
  5
4D
102
{ACAD_REACTORS
330
47
102
}
330
47
100
AcDbScale
 70
     0
300
1:10
140
1.0
141
10.0
290
     0
  0
SCALE
  5
4E
102
{ACAD_REACTORS
330
47
102
}
330
47
100
AcDbScale
 70
     0
300
1:16
140
1.0
141
16.0
290
     0
  0
SCALE
  5
4F
102
{ACAD_REACTORS
330
47
102
}
330
47
100
AcDbScale
 70
     0
300
1:20
140
1.0
141
20.0
290
     0
  0
SCALE
  5
50
102
{ACAD_REACTORS
330
47
102
}
330
47
100
AcDbScale
 70
     0
300
1:30
140
1.0
141
30.0
290
     0
  0
SCALE
  5
51
102
{ACAD_REACTORS
330
47
102
}
330
47
100
AcDbScale
 70
     0
300
1:40
140
1.0
141
40.0
290
     0
  0
SCALE
  5
52
102
{ACAD_REACTORS
330
47
102
}
330
47
100
AcDbScale
 70
     0
300
1:50
140
1.0
141
50.0
290
     0
  0
SCALE
  5
53
102
{ACAD_REACTORS
330
47
102
}
330
47
100
AcDbScale
 70
     0
300
1:100
140
1.0
141
100.0
290
     0
  0
SCALE
  5
54
102
{ACAD_REACTORS
330
47
102
}
330
47
100
AcDbScale
 70
     0
300
2:1
140
2.0
141
1.0
290
     0
  0
SCALE
  5
55
102
{ACAD_REACTORS
330
47
102
}
330
47
100
AcDbScale
 70
     0
300
4:1
140
4.0
141
1.0
290
     0
  0
SCALE
  5
56
102
{ACAD_REACTORS
330
47
102
}
330
47
100
AcDbScale
 70
     0
300
8:1
140
8.0
141
1.0
290
     0
  0
SCALE
  5
57
102
{ACAD_REACTORS
330
47
102
}
330
47
100
AcDbScale
 70
     0
300
10:1
140
10.0
141
1.0
290
     0
  0
SCALE
  5
58
102
{ACAD_REACTORS
330
47
102
}
330
47
100
AcDbScale
 70
     0
300
100:1
140
100.0
141
1.0
290
     0
  0
SCALE
  5
59
102
{ACAD_REACTORS
330
47
102
}
330
47
100
AcDbScale
 70
     0
300
1/128" = 1'-0"
140
0.0078125
141
12.0
290
     0
  0
SCALE
  5
5A
102
{ACAD_REACTORS
330
47
102
}
330
47
100
AcDbScale
 70
     0
300
1/64" = 1'-0"
140
0.015625
141
12.0
290
     0
  0
SCALE
  5
5B
102
{ACAD_REACTORS
330
47
102
}
330
47
100
AcDbScale
 70
     0
300
1/32" = 1'-0"
140
0.03125
141
12.0
290
     0
  0
SCALE
  5
5C
102
{ACAD_REACTORS
330
47
102
}
330
47
100
AcDbScale
 70
     0
300
1/16" = 1'-0"
140
0.0625
141
12.0
290
     0
  0
SCALE
  5
5D
102
{ACAD_REACTORS
330
47
102
}
330
47
100
AcDbScale
 70
     0
300
3/32" = 1'-0"
140
0.09375
141
12.0
290
     0
  0
SCALE
  5
5E
102
{ACAD_REACTORS
330
47
102
}
330
47
100
AcDbScale
 70
     0
300
1/8" = 1'-0"
140
0.125
141
12.0
290
     0
  0
SCALE
  5
5F
102
{ACAD_REACTORS
330
47
102
}
330
47
100
AcDbScale
 70
     0
300
3/16" = 1'-0"
140
0.1875
141
12.0
290
     0
  0
SCALE
  5
60
102
{ACAD_REACTORS
330
47
102
}
330
47
100
AcDbScale
 70
     0
300
1/4" = 1'-0"
140
0.25
141
12.0
290
     0
  0
SCALE
  5
61
102
{ACAD_REACTORS
330
47
102
}
330
47
100
AcDbScale
 70
     0
300
3/8" = 1'-0"
140
0.375
141
12.0
290
     0
  0
SCALE
  5
62
102
{ACAD_REACTORS
330
47
102
}
330
47
100
AcDbScale
 70
     0
300
1/2" = 1'-0"
140
0.5
141
12.0
290
     0
  0
SCALE
  5
63
102
{ACAD_REACTORS
330
47
102
}
330
47
100
AcDbScale
 70
     0
300
3/4" = 1'-0"
140
0.75
141
12.0
290
     0
  0
SCALE
  5
64
102
{ACAD_REACTORS
330
47
102
}
330
47
100
AcDbScale
 70
     0
300
1" = 1'-0"
140
1.0
141
12.0
290
     0
  0
SCALE
  5
65
102
{ACAD_REACTORS
330
47
102
}
330
47
100
AcDbScale
 70
     0
300
1-1/2" = 1'-0"
140
1.5
141
12.0
290
     0
  0
SCALE
  5
66
102
{ACAD_REACTORS
330
47
102
}
330
47
100
AcDbScale
 70
     0
300
3" = 1'-0"
140
3.0
141
12.0
290
     0
  0
SCALE
  5
67
102
{ACAD_REACTORS
330
47
102
}
330
47
100
AcDbScale
 70
     0
300
6" = 1'-0"
140
6.0
141
12.0
290
     0
  0
SCALE
  5
68
102
{ACAD_REACTORS
330
47
102
}
330
47
100
AcDbScale
 70
     0
300
1'-0" = 1'-0"
140
12.0
141
12.0
290
     0
  0
ENDSEC
  0
EOF
