  0
SECTION
  2
HEADER
  9
$ACADVER
  1
AC1015
  9
$ACADMAINTVER
 70
     6
  9
$DWGCODEPAGE
  3
ANSI_1252
  9
$INSBASE
 10
0.0
 20
0.0
 30
0.0
  9
$EXTMIN
 10
0.0
 20
0.0
 30
0.0
  9
$EXTMAX
 10
841.0
 20
594.0
 30
0.0
  9
$LIMMIN
 10
0.0
 20
0.0
  9
$LIMMAX
 10
841.0
 20
594.0
  9
$ORTHOMODE
 70
     0
  9
$REGENMODE
 70
     1
  9
$FILLMODE
 70
     1
  9
$QTEXTMODE
 70
     0
  9
$MIRRTEXT
 70
     1
  9
$LTSCALE
 40
1.0
  9
$ATTMODE
 70
     1
  9
$TEXTSIZE
 40
3.5
  9
$TRACEWID
 40
1.0
  9
$TEXTSTYLE
  7
Standard
  9
$CLAYER
  8
0
  9
$CELTYPE
  6
ByLayer
  9
$CECOLOR
 62
   256
  9
$CELTSCALE
 40
1.0
  9
$DISPSILH
 70
     0
  9
$DIMSCALE
 40
1.0
  9
$DIMASZ
 40
3.302
  9
$DIMEXO
 40
1.0
  9
$DIMDLI
 40
3.75
  9
$DIMRND
 40
0.0
  9
$DIMDLE
 40
0.0
  9
$DIMEXE
 40
1.0
  9
$DIMTP
 40
0.0
  9
$DIMTM
 40
0.0
  9
$DIMTXT
 40
3.5
  9
$DIMCEN
 40
2.5
  9
$DIMTSZ
 40
0.0
  9
$DIMTOL
 70
     0
  9
$DIMLIM
 70
     0
  9
$DIMTIH
 70
     1
  9
$DIMTOH
 70
     1
  9
$DIMSE1
 70
     0
  9
$DIMSE2
 70
     0
  9
$DIMTAD
 70
     1
  9
$DIMZIN
 70
     1
  9
$DIMBLK
  1

  9
$DIMASO
 70
     1
  9
$DIMSHO
 70
     1
  9
$DIMPOST
  1

  9
$DIMAPOST
  1

  9
$DIMALT
 70
     0
  9
$DIMALTD
 70
     3
  9
$DIMALTF
 40
0.0393700787
  9
$DIMLFAC
 40
1.0
  9
$DIMTOFL
 70
     1
  9
$DIMTVP
 40
0.0
  9
$DIMTIX
 70
     0
  9
$DIMSOXD
 70
     0
  9
$DIMSAH
 70
     0
  9
$DIMBLK1
  1

  9
$DIMBLK2
  1

  9
$DIMSTYLE
  2
ISO-25
  9
$DIMCLRD
 70
     0
  9
$DIMCLRE
 70
     0
  9
$DIMCLRT
 70
     0
  9
$DIMTFAC
 40
1.0
  9
$DIMGAP
 40
1.524
  9
$DIMJUST
 70
     0
  9
$DIMSD1
 70
     0
  9
$DIMSD2
 70
     0
  9
$DIMTOLJ
 70
     0
  9
$DIMTZIN
 70
     1
  9
$DIMALTZ
 70
     0
  9
$DIMALTTZ
 70
     0
  9
$DIMUPT
 70
     0
  9
$DIMDEC
 70
     0
  9
$DIMTDEC
 70
     2
  9
$DIMALTU
 70
     2
  9
$DIMALTTD
 70
     3
  9
$DIMTXSTY
  7
Standard
  9
$DIMAUNIT
 70
     0
  9
$DIMADEC
 70
     0
  9
$DIMALTRND
 40
0.0
  9
$DIMAZIN
 70
     0
  9
$DIMDSEP
 70
    44
  9
$DIMATFIT
 70
     3
  9
$DIMFRAC
 70
     0
  9
$DIMLDRBLK
  1

  9
$DIMLUNIT
 70
     2
  9
$DIMLWD
 70
    -2
  9
$DIMLWE
 70
    -2
  9
$DIMTMOVE
 70
     0
  9
$LUNITS
 70
     2
  9
$LUPREC
 70
     2
  9
$SKETCHINC
 40
1.0
  9
$FILLETRAD
 40
10.0
  9
$AUNITS
 70
     0
  9
$AUPREC
 70
     2
  9
$MENU
  1
.
  9
$ELEVATION
 40
0.0
  9
$PELEVATION
 40
0.0
  9
$THICKNESS
 40
0.0
  9
$LIMCHECK
 70
     0
  9
$CHAMFERA
 40
0.0
  9
$CHAMFERB
 40
0.0
  9
$CHAMFERC
 40
0.0
  9
$CHAMFERD
 40
0.0
  9
$SKPOLY
 70
     0
  9
$TDCREATE
 40
2459261.628928322
  9
$TDUCREATE
 40
2459261.587261655
  9
$TDUPDATE
 40
2459261.628930764
  9
$TDUUPDATE
 40
2459261.587264097
  9
$TDINDWG
 40
0.0000000116
  9
$TDUSRTIMER
 40
0.0000000116
  9
$USRTIMER
 70
     1
  9
$ANGBASE
 50
0.0
  9
$ANGDIR
 70
     0
  9
$PDMODE
 70
     0
  9
$PDSIZE
 40
-1.0
  9
$PLINEWID
 40
0.0
  9
$SPLFRAME
 70
     0
  9
$SPLINETYPE
 70
     6
  9
$SPLINESEGS
 70
     8
  9
$HANDSEED
  5
67D
  9
$SURFTAB1
 70
     6
  9
$SURFTAB2
 70
     6
  9
$SURFTYPE
 70
     6
  9
$SURFU
 70
     6
  9
$SURFV
 70
     6
  9
$UCSBASE
  2

  9
$UCSNAME
  2

  9
$UCSORG
 10
0.0
 20
0.0
 30
0.0
  9
$UCSXDIR
 10
1.0
 20
0.0
 30
0.0
  9
$UCSYDIR
 10
0.0
 20
1.0
 30
0.0
  9
$UCSORTHOREF
  2

  9
$UCSORTHOVIEW
 70
     0
  9
$UCSORGTOP
 10
0.0
 20
0.0
 30
0.0
  9
$UCSORGBOTTOM
 10
0.0
 20
0.0
 30
0.0
  9
$UCSORGLEFT
 10
0.0
 20
0.0
 30
0.0
  9
$UCSORGRIGHT
 10
0.0
 20
0.0
 30
0.0
  9
$UCSORGFRONT
 10
0.0
 20
0.0
 30
0.0
  9
$UCSORGBACK
 10
0.0
 20
0.0
 30
0.0
  9
$PUCSBASE
  2

  9
$PUCSNAME
  2

  9
$PUCSORG
 10
0.0
 20
0.0
 30
0.0
  9
$PUCSXDIR
 10
1.0
 20
0.0
 30
0.0
  9
$PUCSYDIR
 10
0.0
 20
1.0
 30
0.0
  9
$PUCSORTHOREF
  2

  9
$PUCSORTHOVIEW
 70
     0
  9
$PUCSORGTOP
 10
0.0
 20
0.0
 30
0.0
  9
$PUCSORGBOTTOM
 10
0.0
 20
0.0
 30
0.0
  9
$PUCSORGLEFT
 10
0.0
 20
0.0
 30
0.0
  9
$PUCSORGRIGHT
 10
0.0
 20
0.0
 30
0.0
  9
$PUCSORGFRONT
 10
0.0
 20
0.0
 30
0.0
  9
$PUCSORGBACK
 10
0.0
 20
0.0
 30
0.0
  9
$USERI1
 70
     0
  9
$USERI2
 70
     0
  9
$USERI3
 70
     0
  9
$USERI4
 70
     0
  9
$USERI5
 70
     0
  9
$USERR1
 40
0.0
  9
$USERR2
 40
0.0
  9
$USERR3
 40
0.0
  9
$USERR4
 40
0.0
  9
$USERR5
 40
0.0
  9
$WORLDVIEW
 70
     1
  9
$SHADEDGE
 70
     3
  9
$SHADEDIF
 70
    70
  9
$TILEMODE
 70
     1
  9
$MAXACTVP
 70
    64
  9
$PINSBASE
 10
0.0
 20
0.0
 30
0.0
  9
$PLIMCHECK
 70
     0
  9
$PEXTMIN
 10
1.0000000000E+20
 20
1.0000000000E+20
 30
1.0000000000E+20
  9
$PEXTMAX
 10
-1.0000000000E+20
 20
-1.0000000000E+20
 30
-1.0000000000E+20
  9
$PLIMMIN
 10
0.0
 20
0.0
  9
$PLIMMAX
 10
420.0
 20
297.0
  9
$UNITMODE
 70
     0
  9
$VISRETAIN
 70
     1
  9
$PLINEGEN
 70
     0
  9
$PSLTSCALE
 70
     1
  9
$TREEDEPTH
 70
  3020
  9
$CMLSTYLE
  2
Standard
  9
$CMLJUST
 70
     0
  9
$CMLSCALE
 40
20.0
  9
$PROXYGRAPHICS
 70
     1
  9
$MEASUREMENT
 70
     1
  9
$CELWEIGHT
370
    -1
  9
$ENDCAPS
280
     0
  9
$JOINSTYLE
280
     0
  9
$LWDISPLAY
290
     1
  9
$INSUNITS
 70
     4
  9
$HYPERLINKBASE
  1

  9
$STYLESHEET
  1

  9
$XEDIT
290
     1
  9
$CEPSNTYPE
380
     0
  9
$PSTYLEMODE
290
     1
  9
$FINGERPRINTGUID
  2
{838437fe-733a-4558-b090-6181bcaa5983}
  9
$VERSIONGUID
  2
{FAEB1C32-E019-11D5-929B-00C0DF256EC4}
  9
$EXTNAMES
290
     1
  9
$PSVPSCALE
 40
0.0
  9
$OLESTARTUP
290
     0
  0
ENDSEC
  0
SECTION
  2
CLASSES
  0
CLASS
  1
ACDBDICTIONARYWDFLT
  2
AcDbDictionaryWithDefault
  3
ObjectDBX Classes
 90
        0
280
     0
281
     0
  0
CLASS
  1
VISUALSTYLE
  2
AcDbVisualStyle
  3
ObjectDBX Classes
 90
     4095
280
     0
281
     0
  0
CLASS
  1
MATERIAL
  2
AcDbMaterial
  3
ObjectDBX Classes
 90
     1153
280
     0
281
     0
  0
CLASS
  1
SCALE
  2
AcDbScale
  3
ObjectDBX Classes
 90
     1153
280
     0
281
     0
  0
CLASS
  1
TABLESTYLE
  2
AcDbTableStyle
  3
ObjectDBX Classes
 90
     4095
280
     0
281
     0
  0
CLASS
  1
MLEADERSTYLE
  2
AcDbMLeaderStyle
  3
ACDB_MLEADERSTYLE_CLASS
 90
     4095
280
     0
281
     0
  0
CLASS
  1
SUN
  2
AcDbSun
  3
SCENEOE
 90
     1153
280
     0
281
     0
  0
CLASS
  1
ACDBPLACEHOLDER
  2
AcDbPlaceHolder
  3
ObjectDBX Classes
 90
        0
280
     0
281
     0
  0
CLASS
  1
LAYOUT
  2
AcDbLayout
  3
ObjectDBX Classes
 90
        0
280
     0
281
     0
  0
ENDSEC
  0
SECTION
  2
TABLES
  0
TABLE
  2
VPORT
  5
8
330
0
100
AcDbSymbolTable
 70
     1
  0
VPORT
  5
29
330
8
100
AcDbSymbolTableRecord
100
AcDbViewportTableRecord
  2
*Active
 70
     0
 10
0.0
 20
0.0
 11
1.0
 21
1.0
 12
420.5
 22
297.0
 13
0.0
 23
0.0
 14
10.0
 24
10.0
 15
10.0
 25
10.0
 16
0.0
 26
0.0
 36
1.0
 17
0.0
 27
0.0
 37
0.0
 40
594.0
 41
1.4158249158
 42
50.0
 43
0.0
 44
0.0
 50
0.0
 51
0.0
 71
     0
 72
  2000
 73
     1
 74
     3
 75
     0
 76
     0
 77
     0
 78
     0
281
     0
 65
     1
110
0.0
120
0.0
130
0.0
111
1.0
121
0.0
131
0.0
112
0.0
122
1.0
132
0.0
 79
     0
146
0.0
  0
ENDTAB
  0
TABLE
  2
LTYPE
  5
5
330
0
100
AcDbSymbolTable
 70
     6
  0
LTYPE
  5
14
330
5
100
AcDbSymbolTableRecord
100
AcDbLinetypeTableRecord
  2
ByBlock
 70
     0
  3

 72
    65
 73
     0
 40
0.0
  0
LTYPE
  5
15
330
5
100
AcDbSymbolTableRecord
100
AcDbLinetypeTableRecord
  2
ByLayer
 70
     0
  3

 72
    65
 73
     0
 40
0.0
  0
LTYPE
  5
16
330
5
100
AcDbSymbolTableRecord
100
AcDbLinetypeTableRecord
  2
Continuous
 70
     0
  3
Solid line
 72
    65
 73
     0
 40
0.0
  0
LTYPE
  5
6E
330
5
100
AcDbSymbolTableRecord
100
AcDbLinetypeTableRecord
  2
HIDDEN
 70
     0
  3
Hidden __ __ __ __ __ __ __ __ __ __ __ __ __ __
 72
    65
 73
     2
 40
1.905
 49
1.27
 74
     0
 49
-0.635
 74
     0
  0
LTYPE
  5
6F
330
5
100
AcDbSymbolTableRecord
100
AcDbLinetypeTableRecord
  2
PHANTOM
 70
     0
  3
Phantom ______  __  __  ______  __  __  ______
 72
    65
 73
     6
 40
12.7
 49
6.35
 74
     0
 49
-1.27
 74
     0
 49
1.27
 74
     0
 49
-1.27
 74
     0
 49
1.27
 74
     0
 49
-1.27
 74
     0
  0
LTYPE
  5
70
330
5
100
AcDbSymbolTableRecord
100
AcDbLinetypeTableRecord
  2
CENTER
 70
     0
  3
Center ____ _ ____ _ ____ _ ____ _ ____ _ ____
 72
    65
 73
     4
 40
10.16
 49
6.35
 74
     0
 49
-1.27
 74
     0
 49
1.27
 74
     0
 49
-1.27
 74
     0
  0
LTYPE
  5
71
330
5
100
AcDbSymbolTableRecord
100
AcDbLinetypeTableRecord
  2
CENTERX2
 70
     0
  3
Center (2x) ________  __  ________  __  _____
 72
    65
 73
     4
 40
20.32
 49
12.7
 74
     0
 49
-2.54
 74
     0
 49
2.54
 74
     0
 49
-2.54
 74
     0
  0
LTYPE
  5
72
330
5
100
AcDbSymbolTableRecord
100
AcDbLinetypeTableRecord
  2
DOT2
 70
     0
  3
Dot (.5x) ........................................
 72
    65
 73
     2
 40
0.635
 49
0.0
 74
     0
 49
-0.635
 74
     0
  0
ENDTAB
  0
TABLE
  2
LAYER
  5
2
330
0
100
AcDbSymbolTable
 70
     4
  0
LAYER
  5
10
330
2
100
AcDbSymbolTableRecord
100
AcDbLayerTableRecord
  2
0
 70
     0
 62
     7
  6
Continuous
370
    -3
390
F
  0
LAYER
  5
73
330
2
100
AcDbSymbolTableRecord
100
AcDbLayerTableRecord
  2
SLD-0
 70
     0
 62
   179
  6
Continuous
370
    -3
390
F
  0
LAYER
  5
74
330
2
100
AcDbSymbolTableRecord
100
AcDbLayerTableRecord
  2
BEM
 70
     0
 62
     2
  6
Continuous
370
    -3
390
F
  0
LAYER
  5
75
330
2
100
AcDbSymbolTableRecord
100
AcDbLayerTableRecord
  2
FORMAT
 70
     0
 62
   179
  6
Continuous
370
    -3
390
F
  0
ENDTAB
  0
TABLE
  2
STYLE
  5
3
330
0
100
AcDbSymbolTable
 70
     6
  0
STYLE
  5
11
330
3
100
AcDbSymbolTableRecord
100
AcDbTextStyleTableRecord
  2
Standard
 70
     0
 40
0.0
 41
1.0
 50
0.0
 71
     0
 42
3.5
  3
txt
  4

  0
STYLE
  5
581
330
3
100
AcDbSymbolTableRecord
100
AcDbTextStyleTableRecord
  2
SLDTEXTSTYLE0
 70
     0
 40
0.0
 41
1.0
 50
0.0
 71
     0
 42
3.5
  3
TXT
  4

  0
STYLE
  5
58C
330
3
100
AcDbSymbolTableRecord
100
AcDbTextStyleTableRecord
  2
SLDTEXTSTYLE1
 70
     0
 40
0.0
 41
0.96
 50
0.0
 71
     0
 42
3.5
  3
TXT
  4

  0
STYLE
  5
676
330
3
100
AcDbSymbolTableRecord
100
AcDbTextStyleTableRecord
  2
SLDTEXTSTYLE2
 70
     0
 40
0.0
 41
0.65625
 50
0.0
 71
     0
 42
3.5
  3
TXT
  4

  0
STYLE
  5
678
330
3
100
AcDbSymbolTableRecord
100
AcDbTextStyleTableRecord
  2
SLDTEXTSTYLE3
 70
     0
 40
0.0
 41
0.634375
 50
0.0
 71
     0
 42
3.5
  3
TXT
  4

  0
STYLE
  5
67A
330
3
100
AcDbSymbolTableRecord
100
AcDbTextStyleTableRecord
  2
SLDTEXTSTYLE4
 70
     0
 40
0.0
 41
0.7
 50
0.0
 71
     0
 42
3.5
  3
TXT
  4

  0
ENDTAB
  0
TABLE
  2
VIEW
  5
6
330
0
100
AcDbSymbolTable
 70
     0
  0
ENDTAB
  0
TABLE
  2
UCS
  5
7
330
0
100
AcDbSymbolTable
 70
     0
  0
ENDTAB
  0
TABLE
  2
APPID
  5
9
330
0
100
AcDbSymbolTable
 70
     1
  0
APPID
  5
12
330
9
100
AcDbSymbolTableRecord
100
AcDbRegAppTableRecord
  2
ACAD
 70
     0
  0
ENDTAB
  0
TABLE
  2
DIMSTYLE
  5
A
330
0
100
AcDbSymbolTable
 70
     5
100
AcDbDimStyleTable
  0
DIMSTYLE
105
27
330
A
100
AcDbSymbolTableRecord
100
AcDbDimStyleTableRecord
  2
ISO-25
 70
     0
 41
2.5
 42
0.625
 43
3.75
 44
1.25
 73
     0
 74
     0
 77
     1
 78
     8
140
2.5
141
2.5
143
0.0393700787
147
0.625
171
     3
172
     1
178
     0
271
     2
272
     2
274
     3
278
    44
283
     0
284
     8
340
11
  0
DIMSTYLE
105
582
102
{ACAD_REACTORS
330
580
330
590
330
59C
330
5A6
330
5BC
330
5C5
330
5D1
330
5DD
330
5E8
330
5F2
330
5FC
330
61D
330
629
330
636
330
640
330
64B
330
655
330
661
102
}
330
A
100
AcDbSymbolTableRecord
100
AcDbDimStyleTableRecord
  2
SLDDIMSTYLE0
 70
     0
 41
3.302
 44
0.0
 45
0.000000001
 73
     0
 74
     0
 77
     1
 78
    12
 79
     3
140
7.0
147
1.75
173
     1
178
     0
271
     0
276
     2
284
    12
340
581
341
583
343
583
344
583
  0
DIMSTYLE
105
5B3
102
{ACAD_REACTORS
330
5B2
102
}
330
A
100
AcDbSymbolTableRecord
100
AcDbDimStyleTableRecord
  2
SLDDIMSTYLE1
 70
     0
 41
3.302
 44
0.0
 45
0.000000001
 73
     0
 74
     0
 77
     1
 78
     4
 79
     1
140
7.0
147
1.75
173
     1
178
     0
276
     2
284
    12
340
581
341
583
343
583
344
583
  0
DIMSTYLE
105
607
102
{ACAD_REACTORS
330
606
102
}
330
A
100
AcDbSymbolTableRecord
100
AcDbDimStyleTableRecord
  2
SLDDIMSTYLE2
 70
     0
 41
3.302
 44
0.0
 73
     0
 74
     0
 77
     1
 78
    12
 79
     3
140
7.0
147
1.75
173
     1
178
     0
276
     2
284
    12
340
581
341
583
343
583
344
583
  0
DIMSTYLE
105
611
102
{ACAD_REACTORS
330
610
330
66B
102
}
330
A
100
AcDbSymbolTableRecord
100
AcDbDimStyleTableRecord
  2
SLDDIMSTYLE3
 70
     0
 41
3.302
 44
0.0
 45
0.000000001
 73
     0
 74
     0
 77
     1
 78
    12
 79
     3
140
7.0
147
1.75
173
     1
178
     0
271
     1
276
     2
284
    12
340
581
341
583
343
583
344
583
  0
ENDTAB
  0
TABLE
  2
BLOCK_RECORD
  5
1
330
0
100
AcDbSymbolTable
 70
    27
  0
BLOCK_RECORD
  5
1F
330
1
100
AcDbSymbolTableRecord
100
AcDbBlockTableRecord
  2
*Model_Space
340
22
  0
BLOCK_RECORD
  5
1B
330
1
100
AcDbSymbolTableRecord
100
AcDbBlockTableRecord
  2
*Paper_Space
340
1E
  0
BLOCK_RECORD
  5
23
330
1
100
AcDbSymbolTableRecord
100
AcDbBlockTableRecord
  2
*Paper_Space0
340
26
  0
BLOCK_RECORD
  5
76
330
1
100
AcDbSymbolTableRecord
100
AcDbBlockTableRecord
  2
SW_CENTERMARKSYMBOL_0
340
0
102
{BLKREFS
331
57E
102
}
  0
BLOCK_RECORD
  5
81
330
1
100
AcDbSymbolTableRecord
100
AcDbBlockTableRecord
  2
SW_CENTERMARKSYMBOL_1
340
0
102
{BLKREFS
331
57D
102
}
  0
BLOCK_RECORD
  5
8C
330
1
100
AcDbSymbolTableRecord
100
AcDbBlockTableRecord
  2
SW_CENTERMARKSYMBOL_2
340
0
102
{BLKREFS
331
57F
102
}
  0
BLOCK_RECORD
  5
583
330
1
100
AcDbSymbolTableRecord
100
AcDbBlockTableRecord
  2
_None
340
0
  0
BLOCK_RECORD
  5
586
330
1
100
AcDbSymbolTableRecord
100
AcDbBlockTableRecord
  2
_D
340
0
  0
BLOCK_RECORD
  5
591
330
1
100
AcDbSymbolTableRecord
100
AcDbBlockTableRecord
  2
_D_1
340
0
  0
BLOCK_RECORD
  5
59D
330
1
100
AcDbSymbolTableRecord
100
AcDbBlockTableRecord
  2
_D_2
340
0
  0
BLOCK_RECORD
  5
5A7
330
1
100
AcDbSymbolTableRecord
100
AcDbBlockTableRecord
  2
_D_3
340
0
  0
BLOCK_RECORD
  5
5B4
330
1
100
AcDbSymbolTableRecord
100
AcDbBlockTableRecord
  2
_D_4
340
0
  0
BLOCK_RECORD
  5
5BD
330
1
100
AcDbSymbolTableRecord
100
AcDbBlockTableRecord
  2
_D_5
340
0
  0
BLOCK_RECORD
  5
5C6
330
1
100
AcDbSymbolTableRecord
100
AcDbBlockTableRecord
  2
_D_6
340
0
  0
BLOCK_RECORD
  5
5D2
330
1
100
AcDbSymbolTableRecord
100
AcDbBlockTableRecord
  2
_D_7
340
0
  0
BLOCK_RECORD
  5
5DE
330
1
100
AcDbSymbolTableRecord
100
AcDbBlockTableRecord
  2
_D_8
340
0
  0
BLOCK_RECORD
  5
5E9
330
1
100
AcDbSymbolTableRecord
100
AcDbBlockTableRecord
  2
_D_9
340
0
  0
BLOCK_RECORD
  5
5F3
330
1
100
AcDbSymbolTableRecord
100
AcDbBlockTableRecord
  2
_D_10
340
0
  0
BLOCK_RECORD
  5
5FD
330
1
100
AcDbSymbolTableRecord
100
AcDbBlockTableRecord
  2
_D_11
340
0
  0
BLOCK_RECORD
  5
608
330
1
100
AcDbSymbolTableRecord
100
AcDbBlockTableRecord
  2
_D_12
340
0
  0
BLOCK_RECORD
  5
612
330
1
100
AcDbSymbolTableRecord
100
AcDbBlockTableRecord
  2
_D_13
340
0
  0
BLOCK_RECORD
  5
61E
330
1
100
AcDbSymbolTableRecord
100
AcDbBlockTableRecord
  2
_D_14
340
0
  0
BLOCK_RECORD
  5
62A
330
1
100
AcDbSymbolTableRecord
100
AcDbBlockTableRecord
  2
_D_15
340
0
  0
BLOCK_RECORD
  5
637
330
1
100
AcDbSymbolTableRecord
100
AcDbBlockTableRecord
  2
_D_16
340
0
  0
BLOCK_RECORD
  5
641
330
1
100
AcDbSymbolTableRecord
100
AcDbBlockTableRecord
  2
_D_17
340
0
  0
BLOCK_RECORD
  5
64C
330
1
100
AcDbSymbolTableRecord
100
AcDbBlockTableRecord
  2
_D_18
340
0
  0
BLOCK_RECORD
  5
656
330
1
100
AcDbSymbolTableRecord
100
AcDbBlockTableRecord
  2
_D_19
340
0
  0
BLOCK_RECORD
  5
662
330
1
100
AcDbSymbolTableRecord
100
AcDbBlockTableRecord
  2
_D_20
340
0
  0
BLOCK_RECORD
  5
66C
330
1
100
AcDbSymbolTableRecord
100
AcDbBlockTableRecord
  2
_D_21
340
0
  0
ENDTAB
  0
ENDSEC
  0
SECTION
  2
BLOCKS
  0
BLOCK
  5
20
330
1F
100
AcDbEntity
  8
0
100
AcDbBlockBegin
  2
*Model_Space
 70
     0
 10
0.0
 20
0.0
 30
0.0
  3
*Model_Space
  1

  0
ENDBLK
  5
21
330
1F
100
AcDbEntity
  8
0
100
AcDbBlockEnd
  0
BLOCK
  5
1C
330
1B
100
AcDbEntity
 67
     1
  8
0
100
AcDbBlockBegin
  2
*Paper_Space
 70
     0
 10
0.0
 20
0.0
 30
0.0
  3
*Paper_Space
  1

  0
ENDBLK
  5
1D
330
1B
100
AcDbEntity
 67
     1
  8
0
100
AcDbBlockEnd
  0
BLOCK
  5
24
330
23
100
AcDbEntity
  8
0
100
AcDbBlockBegin
  2
*Paper_Space0
 70
     0
 10
0.0
 20
0.0
 30
0.0
  3
*Paper_Space0
  1

  0
ENDBLK
  5
25
330
23
100
AcDbEntity
  8
0
100
AcDbBlockEnd
  0
BLOCK
  5
77
330
76
100
AcDbEntity
  8
0
100
AcDbBlockBegin
  2
SW_CENTERMARKSYMBOL_0
 70
     0
 10
0.0
 20
0.0
 30
0.0
  3
SW_CENTERMARKSYMBOL_0
  1

  0
LINE
  5
79
330
76
100
AcDbEntity
  8
SLD-0
  6
Continuous
 62
   179
100
AcDbLine
 10
0.0
 20
0.0
 30
0.0
 11
0.0
 21
0.1
 31
0.0
  0
LINE
  5
7A
330
76
100
AcDbEntity
  8
SLD-0
  6
Continuous
 62
   179
100
AcDbLine
 10
0.0
 20
0.0
 30
0.0
 11
-0.1
 21
0.0
 31
0.0
  0
LINE
  5
7B
330
76
100
AcDbEntity
  8
SLD-0
  6
Continuous
 62
   179
100
AcDbLine
 10
0.0
 20
0.0
 30
0.0
 11
0.0
 21
-0.1
 31
0.0
  0
LINE
  5
7C
330
76
100
AcDbEntity
  8
SLD-0
  6
Continuous
 62
   179
100
AcDbLine
 10
0.0
 20
0.0
 30
0.0
 11
0.1
 21
0.0
 31
0.0
  0
LINE
  5
7D
330
76
100
AcDbEntity
  8
SLD-0
  6
Continuous
 62
   179
100
AcDbLine
 10
0.0
 20
0.2
 30
0.0
 11
0.0
 21
5.1
 31
0.0
  0
LINE
  5
7E
330
76
100
AcDbEntity
  8
SLD-0
  6
Continuous
 62
   179
100
AcDbLine
 10
-0.2
 20
0.0
 30
0.0
 11
-5.1
 21
0.0
 31
0.0
  0
LINE
  5
7F
330
76
100
AcDbEntity
  8
SLD-0
  6
Continuous
 62
   179
100
AcDbLine
 10
0.0
 20
-0.2
 30
0.0
 11
0.0
 21
-5.1
 31
0.0
  0
LINE
  5
80
330
76
100
AcDbEntity
  8
SLD-0
  6
Continuous
 62
   179
100
AcDbLine
 10
0.2
 20
0.0
 30
0.0
 11
5.1
 21
0.0
 31
0.0
  0
ENDBLK
  5
78
330
76
100
AcDbEntity
  8
0
100
AcDbBlockEnd
  0
BLOCK
  5
82
330
81
100
AcDbEntity
  8
0
100
AcDbBlockBegin
  2
SW_CENTERMARKSYMBOL_1
 70
     0
 10
0.0
 20
0.0
 30
0.0
  3
SW_CENTERMARKSYMBOL_1
  1

  0
LINE
  5
84
330
81
100
AcDbEntity
  8
SLD-0
  6
Continuous
 62
   179
100
AcDbLine
 10
0.0
 20
0.0
 30
0.0
 11
0.0
 21
0.1
 31
0.0
  0
LINE
  5
85
330
81
100
AcDbEntity
  8
SLD-0
  6
Continuous
 62
   179
100
AcDbLine
 10
0.0
 20
0.0
 30
0.0
 11
-0.1
 21
0.0
 31
0.0
  0
LINE
  5
86
330
81
100
AcDbEntity
  8
SLD-0
  6
Continuous
 62
   179
100
AcDbLine
 10
0.0
 20
0.0
 30
0.0
 11
0.0
 21
-0.1
 31
0.0
  0
LINE
  5
87
330
81
100
AcDbEntity
  8
SLD-0
  6
Continuous
 62
   179
100
AcDbLine
 10
0.0
 20
0.0
 30
0.0
 11
0.1
 21
0.0
 31
0.0
  0
LINE
  5
88
330
81
100
AcDbEntity
  8
SLD-0
  6
Continuous
 62
   179
100
AcDbLine
 10
0.0
 20
0.2
 30
0.0
 11
0.0
 21
5.1
 31
0.0
  0
LINE
  5
89
330
81
100
AcDbEntity
  8
SLD-0
  6
Continuous
 62
   179
100
AcDbLine
 10
-0.2
 20
0.0
 30
0.0
 11
-5.1
 21
0.0
 31
0.0
  0
LINE
  5
8A
330
81
100
AcDbEntity
  8
SLD-0
  6
Continuous
 62
   179
100
AcDbLine
 10
0.0
 20
-0.2
 30
0.0
 11
0.0
 21
-5.1
 31
0.0
  0
LINE
  5
8B
330
81
100
AcDbEntity
  8
SLD-0
  6
Continuous
 62
   179
100
AcDbLine
 10
0.2
 20
0.0
 30
0.0
 11
5.1
 21
0.0
 31
0.0
  0
ENDBLK
  5
83
330
81
100
AcDbEntity
  8
0
100
AcDbBlockEnd
  0
BLOCK
  5
8D
330
8C
100
AcDbEntity
  8
0
100
AcDbBlockBegin
  2
SW_CENTERMARKSYMBOL_2
 70
     0
 10
0.0
 20
0.0
 30
0.0
  3
SW_CENTERMARKSYMBOL_2
  1

  0
LINE
  5
8F
330
8C
100
AcDbEntity
  8
SLD-0
  6
Continuous
 62
   179
100
AcDbLine
 10
0.0
 20
0.0
 30
0.0
 11
0.0
 21
0.1
 31
0.0
  0
LINE
  5
90
330
8C
100
AcDbEntity
  8
SLD-0
  6
Continuous
 62
   179
100
AcDbLine
 10
0.0
 20
0.0
 30
0.0
 11
-0.1
 21
0.0
 31
0.0
  0
LINE
  5
91
330
8C
100
AcDbEntity
  8
SLD-0
  6
Continuous
 62
   179
100
AcDbLine
 10
0.0
 20
0.0
 30
0.0
 11
0.0
 21
-0.1
 31
0.0
  0
LINE
  5
92
330
8C
100
AcDbEntity
  8
SLD-0
  6
Continuous
 62
   179
100
AcDbLine
 10
0.0
 20
0.0
 30
0.0
 11
0.1
 21
0.0
 31
0.0
  0
LINE
  5
93
330
8C
100
AcDbEntity
  8
SLD-0
  6
Continuous
 62
   179
100
AcDbLine
 10
0.0
 20
0.2
 30
0.0
 11
0.0
 21
5.1
 31
0.0
  0
LINE
  5
94
330
8C
100
AcDbEntity
  8
SLD-0
  6
Continuous
 62
   179
100
AcDbLine
 10
-0.2
 20
0.0
 30
0.0
 11
-5.1
 21
0.0
 31
0.0
  0
LINE
  5
95
330
8C
100
AcDbEntity
  8
SLD-0
  6
Continuous
 62
   179
100
AcDbLine
 10
0.0
 20
-0.2
 30
0.0
 11
0.0
 21
-5.1
 31
0.0
  0
LINE
  5
96
330
8C
100
AcDbEntity
  8
SLD-0
  6
Continuous
 62
   179
100
AcDbLine
 10
0.2
 20
0.0
 30
0.0
 11
5.1
 21
0.0
 31
0.0
  0
ENDBLK
  5
8E
330
8C
100
AcDbEntity
  8
0
100
AcDbBlockEnd
  0
BLOCK
  5
584
330
583
100
AcDbEntity
  8
0
100
AcDbBlockBegin
  2
_None
 70
     0
 10
0.0
 20
0.0
 30
0.0
  3
_None
  1

  0
ENDBLK
  5
585
330
583
100
AcDbEntity
  8
0
100
AcDbBlockEnd
  0
BLOCK
  5
587
330
586
100
AcDbEntity
  8
0
100
AcDbBlockBegin
  2
_D
 70
     0
 10
0.0
 20
0.0
 30
0.0
  3
_D
  1

  0
LINE
  5
589
330
586
100
AcDbEntity
  8
SLD-0
 62
     7
100
AcDbLine
 10
94.2229575183
 20
348.346876161
 30
0.0
 11
60.1832590145
 21
348.346876161
 31
0.0
  0
LINE
  5
58A
330
586
100
AcDbEntity
  8
SLD-0
 62
     7
100
AcDbLine
 10
94.2229575183
 20
383.346876161
 30
0.0
 11
60.1832590145
 21
383.346876161
 31
0.0
  0
LINE
  5
58B
330
586
100
AcDbEntity
  8
SLD-0
 62
     7
100
AcDbLine
 10
62.1832590145
 20
348.346876161
 30
0.0
 11
62.1832590145
 21
383.346876161
 31
0.0
  0
MTEXT
  5
58D
330
586
100
AcDbEntity
  8
SLD-0
 62
     7
100
AcDbMText
 10
53.2351661907
 20
359.5399948916
 30
0.0
 40
7.0
 41
0.0
 71
     1
 72
     1
  1
35
  7
SLDTEXTSTYLE1
 11
6.123233995736766E-17
 21
1.0
 31
0.0
 73
     1
 44
1.0
  0
SOLID
  5
58E
330
586
100
AcDbEntity
  8
SLD-0
 62
     7
100
AcDbTrace
 10
62.1832590145
 20
348.346876161
 30
0.0
 11
62.8032590145
 21
353.346876161
 31
0.0
 12
61.5632590145
 22
353.346876161
 32
0.0
 13
61.5632590145
 23
353.346876161
 33
0.0
  0
SOLID
  5
58F
330
586
100
AcDbEntity
  8
SLD-0
 62
     7
100
AcDbTrace
 10
62.1832590145
 20
383.346876161
 30
0.0
 11
61.5632590145
 21
378.346876161
 31
0.0
 12
62.8032590145
 22
378.346876161
 32
0.0
 13
62.8032590145
 23
378.346876161
 33
0.0
  0
ENDBLK
  5
588
330
586
100
AcDbEntity
  8
0
100
AcDbBlockEnd
  0
BLOCK
  5
592
330
591
100
AcDbEntity
  8
0
100
AcDbBlockBegin
  2
_D_1
 70
     0
 10
0.0
 20
0.0
 30
0.0
  3
_D_1
  1

  0
LINE
  5
594
330
591
100
AcDbEntity
  8
SLD-0
 62
     7
100
AcDbLine
 10
164.2229575183
 20
495.446876161
 30
0.0
 11
201.1551285993
 21
495.446876161
 31
0.0
  0
LINE
  5
595
330
591
100
AcDbEntity
  8
SLD-0
 62
     7
100
AcDbLine
 10
117.2229575183
 20
524.446876161
 30
0.0
 11
201.1551285993
 21
524.446876161
 31
0.0
  0
LINE
  5
596
330
591
100
AcDbEntity
  8
SLD-0
 62
     7
100
AcDbLine
 10
199.1551285993
 20
495.446876161
 30
0.0
 11
199.1551285993
 21
486.446876161
 31
0.0
  0
LINE
  5
597
330
591
100
AcDbEntity
  8
SLD-0
 62
     7
100
AcDbLine
 10
199.1551285993
 20
495.446876161
 30
0.0
 11
199.1551285993
 21
524.446876161
 31
0.0
  0
LINE
  5
598
330
591
100
AcDbEntity
  8
SLD-0
 62
     7
100
AcDbLine
 10
199.1551285993
 20
524.446876161
 30
0.0
 11
199.1551285993
 21
533.446876161
 31
0.0
  0
MTEXT
  5
599
330
591
100
AcDbEntity
  8
SLD-0
 62
     7
100
AcDbMText
 10
190.2070357755
 20
502.0587658321
 30
0.0
 40
7.0
 41
0.0
 71
     1
 72
     1
  1
29
  7
SLDTEXTSTYLE1
 11
6.123233995736766E-17
 21
1.0
 31
0.0
 73
     1
 44
1.0
  0
SOLID
  5
59A
330
591
100
AcDbEntity
  8
SLD-0
 62
     7
100
AcDbTrace
 10
199.1551285993
 20
495.446876161
 30
0.0
 11
198.5351285993
 21
490.446876161
 31
0.0
 12
199.7751285993
 22
490.446876161
 32
0.0
 13
199.7751285993
 23
490.446876161
 33
0.0
  0
SOLID
  5
59B
330
591
100
AcDbEntity
  8
SLD-0
 62
     7
100
AcDbTrace
 10
199.1551285993
 20
524.446876161
 30
0.0
 11
199.7751285993
 21
529.446876161
 31
0.0
 12
198.5351285993
 22
529.446876161
 32
0.0
 13
198.5351285993
 23
529.446876161
 33
0.0
  0
ENDBLK
  5
593
330
591
100
AcDbEntity
  8
0
100
AcDbBlockEnd
  0
BLOCK
  5
59E
330
59D
100
AcDbEntity
  8
0
100
AcDbBlockBegin
  2
_D_2
 70
     0
 10
0.0
 20
0.0
 30
0.0
  3
_D_2
  1

  0
LINE
  5
5A0
330
59D
100
AcDbEntity
  8
SLD-0
 62
     7
100
AcDbLine
 10
164.2229575183
 20
308.446876161
 30
0.0
 11
201.10645857
 21
308.446876161
 31
0.0
  0
LINE
  5
5A1
330
59D
100
AcDbEntity
  8
SLD-0
 62
     7
100
AcDbLine
 10
164.2229575183
 20
495.446876161
 30
0.0
 11
201.10645857
 21
495.446876161
 31
0.0
  0
LINE
  5
5A2
330
59D
100
AcDbEntity
  8
SLD-0
 62
     7
100
AcDbLine
 10
199.10645857
 20
308.446876161
 30
0.0
 11
199.10645857
 21
495.446876161
 31
0.0
  0
MTEXT
  5
5A3
330
59D
100
AcDbEntity
  8
SLD-0
 62
     7
100
AcDbMText
 10
190.1583657462
 20
428.314094809
 30
0.0
 40
7.0
 41
0.0
 71
     1
 72
     1
  1
187
  7
SLDTEXTSTYLE1
 11
6.123233995736766E-17
 21
1.0
 31
0.0
 73
     1
 44
1.0
  0
SOLID
  5
5A4
330
59D
100
AcDbEntity
  8
SLD-0
 62
     7
100
AcDbTrace
 10
199.10645857
 20
308.446876161
 30
0.0
 11
199.72645857
 21
313.446876161
 31
0.0
 12
198.48645857
 22
313.446876161
 32
0.0
 13
198.48645857
 23
313.446876161
 33
0.0
  0
SOLID
  5
5A5
330
59D
100
AcDbEntity
  8
SLD-0
 62
     7
100
AcDbTrace
 10
199.10645857
 20
495.446876161
 30
0.0
 11
198.48645857
 21
490.446876161
 31
0.0
 12
199.72645857
 22
490.446876161
 32
0.0
 13
199.72645857
 23
490.446876161
 33
0.0
  0
ENDBLK
  5
59F
330
59D
100
AcDbEntity
  8
0
100
AcDbBlockEnd
  0
BLOCK
  5
5A8
330
5A7
100
AcDbEntity
  8
0
100
AcDbBlockBegin
  2
_D_3
 70
     0
 10
0.0
 20
0.0
 30
0.0
  3
_D_3
  1

  0
LINE
  5
5AA
330
5A7
100
AcDbEntity
  8
SLD-0
 62
     7
100
AcDbLine
 10
149.2229575183
 20
339.446876161
 30
0.0
 11
149.2229575183
 21
249.0829760404
 31
0.0
  0
LINE
  5
5AB
330
5A7
100
AcDbEntity
  8
SLD-0
 62
     7
100
AcDbLine
 10
164.2229575183
 20
308.446876161
 30
0.0
 11
164.2229575183
 21
249.0829760404
 31
0.0
  0
LINE
  5
5AC
330
5A7
100
AcDbEntity
  8
SLD-0
 62
     7
100
AcDbLine
 10
149.2229575183
 20
251.0829760404
 30
0.0
 11
140.2229575183
 21
251.0829760404
 31
0.0
  0
LINE
  5
5AD
330
5A7
100
AcDbEntity
  8
SLD-0
 62
     7
100
AcDbLine
 10
149.2229575183
 20
251.0829760404
 30
0.0
 11
164.2229575183
 21
251.0829760404
 31
0.0
  0
LINE
  5
5AE
330
5A7
100
AcDbEntity
  8
SLD-0
 62
     7
100
AcDbLine
 10
164.2229575183
 20
251.0829760404
 30
0.0
 11
173.2229575183
 21
251.0829760404
 31
0.0
  0
MTEXT
  5
5AF
330
5A7
100
AcDbEntity
  8
SLD-0
 62
     7
100
AcDbMText
 10
151.5191901063
 20
260.0310688641
 30
0.0
 40
7.0
 41
0.0
 71
     1
 72
     1
  1
15
  7
SLDTEXTSTYLE1
 73
     1
 44
1.0
  0
SOLID
  5
5B0
330
5A7
100
AcDbEntity
  8
SLD-0
 62
     7
100
AcDbTrace
 10
149.2229575183
 20
251.0829760404
 30
0.0
 11
144.2229575183
 21
251.7029760404
 31
0.0
 12
144.2229575183
 22
250.4629760404
 32
0.0
 13
144.2229575183
 23
250.4629760404
 33
0.0
  0
SOLID
  5
5B1
330
5A7
100
AcDbEntity
  8
SLD-0
 62
     7
100
AcDbTrace
 10
164.2229575183
 20
251.0829760404
 30
0.0
 11
169.2229575183
 21
250.4629760404
 31
0.0
 12
169.2229575183
 22
251.7029760404
 32
0.0
 13
169.2229575183
 23
251.7029760404
 33
0.0
  0
ENDBLK
  5
5A9
330
5A7
100
AcDbEntity
  8
0
100
AcDbBlockEnd
  0
BLOCK
  5
5B5
330
5B4
100
AcDbEntity
  8
0
100
AcDbBlockBegin
  2
_D_4
 70
     0
 10
0.0
 20
0.0
 30
0.0
  3
_D_4
  1

  0
LINE
  5
5B7
330
5B4
100
AcDbEntity
  8
SLD-0
 62
     7
100
AcDbLine
 10
114.2229575183
 20
279.446876161
 30
0.0
 11
114.2229575183
 21
248.9922560808
 31
0.0
  0
LINE
  5
5B8
330
5B4
100
AcDbEntity
  8
SLD-0
 62
     7
100
AcDbLine
 10
149.2229575183
 20
339.446876161
 30
0.0
 11
149.2229575183
 21
248.9922560808
 31
0.0
  0
LINE
  5
5B9
330
5B4
100
AcDbEntity
  8
SLD-0
 62
     7
100
AcDbLine
 10
114.2229575183
 20
250.9922560808
 30
0.0
 11
149.2229575183
 21
250.9922560808
 31
0.0
  0
SOLID
  5
5BA
330
5B4
100
AcDbEntity
  8
SLD-0
 62
     7
100
AcDbTrace
 10
114.2229575183
 20
250.9922560808
 30
0.0
 11
119.2229575183
 21
250.3722560808
 31
0.0
 12
119.2229575183
 22
251.6122560808
 32
0.0
 13
119.2229575183
 23
251.6122560808
 33
0.0
  0
SOLID
  5
5BB
330
5B4
100
AcDbEntity
  8
SLD-0
 62
     7
100
AcDbTrace
 10
149.2229575183
 20
250.9922560808
 30
0.0
 11
144.2229575183
 21
251.6122560808
 31
0.0
 12
144.2229575183
 22
250.3722560808
 32
0.0
 13
144.2229575183
 23
250.3722560808
 33
0.0
  0
ENDBLK
  5
5B6
330
5B4
100
AcDbEntity
  8
0
100
AcDbBlockEnd
  0
BLOCK
  5
5BE
330
5BD
100
AcDbEntity
  8
0
100
AcDbBlockBegin
  2
_D_5
 70
     0
 10
0.0
 20
0.0
 30
0.0
  3
_D_5
  1

  0
LINE
  5
5C0
330
5BD
100
AcDbEntity
  8
SLD-0
 62
     7
100
AcDbLine
 10
93.2229575183
 20
382.346876161
 30
0.0
 11
93.2229575183
 21
394.4423722978
 31
0.0
  0
LINE
  5
5C1
330
5BD
100
AcDbEntity
  8
SLD-0
 62
     7
100
AcDbLine
 10
93.2229575183
 20
392.4423722978
 30
0.0
 11
114.2229575183
 21
392.4423722978
 31
0.0
  0
MTEXT
  5
5C2
330
5BD
100
AcDbEntity
  8
SLD-0
 62
     7
100
AcDbMText
 10
99.2005021604
 20
401.3904651216
 30
0.0
 40
7.0
 41
0.0
 71
     1
 72
     1
  1
21
  7
SLDTEXTSTYLE1
 73
     1
 44
1.0
  0
SOLID
  5
5C3
330
5BD
100
AcDbEntity
  8
SLD-0
 62
     7
100
AcDbTrace
 10
93.2229575183
 20
392.4423722978
 30
0.0
 11
98.2229575183
 21
391.8223722978
 31
0.0
 12
98.2229575183
 22
393.0623722978
 32
0.0
 13
98.2229575183
 23
393.0623722978
 33
0.0
  0
SOLID
  5
5C4
330
5BD
100
AcDbEntity
  8
SLD-0
 62
     7
100
AcDbTrace
 10
114.2229575183
 20
392.4423722978
 30
0.0
 11
109.2229575183
 21
393.0623722978
 31
0.0
 12
109.2229575183
 22
391.8223722978
 32
0.0
 13
109.2229575183
 23
391.8223722978
 33
0.0
  0
ENDBLK
  5
5BF
330
5BD
100
AcDbEntity
  8
0
100
AcDbBlockEnd
  0
BLOCK
  5
5C7
330
5C6
100
AcDbEntity
  8
0
100
AcDbBlockBegin
  2
_D_6
 70
     0
 10
0.0
 20
0.0
 30
0.0
  3
_D_6
  1

  0
LINE
  5
5C9
330
5C6
100
AcDbEntity
  8
SLD-0
 62
     7
100
AcDbLine
 10
149.2229575183
 20
339.446876161
 30
0.0
 11
183.9515885065
 21
339.446876161
 31
0.0
  0
LINE
  5
5CA
330
5C6
100
AcDbEntity
  8
SLD-0
 62
     7
100
AcDbLine
 10
164.2229575183
 20
308.446876161
 30
0.0
 11
183.9515885065
 21
308.446876161
 31
0.0
  0
LINE
  5
5CB
330
5C6
100
AcDbEntity
  8
SLD-0
 62
     7
100
AcDbLine
 10
181.9515885065
 20
339.446876161
 30
0.0
 11
181.9515885065
 21
348.446876161
 31
0.0
  0
LINE
  5
5CC
330
5C6
100
AcDbEntity
  8
SLD-0
 62
     7
100
AcDbLine
 10
181.9515885065
 20
339.446876161
 30
0.0
 11
181.9515885065
 21
308.446876161
 31
0.0
  0
LINE
  5
5CD
330
5C6
100
AcDbEntity
  8
SLD-0
 62
     7
100
AcDbLine
 10
181.9515885065
 20
308.446876161
 30
0.0
 11
181.9515885065
 21
299.446876161
 31
0.0
  0
MTEXT
  5
5CE
330
5C6
100
AcDbEntity
  8
SLD-0
 62
     7
100
AcDbMText
 10
173.0034956827
 20
318.6655400249
 30
0.0
 40
7.0
 41
0.0
 71
     1
 72
     1
  1
31
  7
SLDTEXTSTYLE1
 11
6.123233995736766E-17
 21
1.0
 31
0.0
 73
     1
 44
1.0
  0
SOLID
  5
5CF
330
5C6
100
AcDbEntity
  8
SLD-0
 62
     7
100
AcDbTrace
 10
181.9515885065
 20
339.446876161
 30
0.0
 11
182.5715885065
 21
344.446876161
 31
0.0
 12
181.3315885065
 22
344.446876161
 32
0.0
 13
181.3315885065
 23
344.446876161
 33
0.0
  0
SOLID
  5
5D0
330
5C6
100
AcDbEntity
  8
SLD-0
 62
     7
100
AcDbTrace
 10
181.9515885065
 20
308.446876161
 30
0.0
 11
181.3315885065
 21
303.446876161
 31
0.0
 12
182.5715885065
 22
303.446876161
 32
0.0
 13
182.5715885065
 23
303.446876161
 33
0.0
  0
ENDBLK
  5
5C8
330
5C6
100
AcDbEntity
  8
0
100
AcDbBlockEnd
  0
BLOCK
  5
5D3
330
5D2
100
AcDbEntity
  8
0
100
AcDbBlockBegin
  2
_D_7
 70
     0
 10
0.0
 20
0.0
 30
0.0
  3
_D_7
  1

  0
LINE
  5
5D5
330
5D2
100
AcDbEntity
  8
SLD-0
 62
     7
100
AcDbLine
 10
149.2229575183
 20
339.446876161
 30
0.0
 11
60.1832590145
 21
339.446876161
 31
0.0
  0
LINE
  5
5D6
330
5D2
100
AcDbEntity
  8
SLD-0
 62
     7
100
AcDbLine
 10
94.2229575183
 20
348.346876161
 30
0.0
 11
60.1832590145
 21
348.346876161
 31
0.0
  0
LINE
  5
5D7
330
5D2
100
AcDbEntity
  8
SLD-0
 62
     7
100
AcDbLine
 10
62.1832590145
 20
339.446876161
 30
0.0
 11
62.1832590145
 21
330.446876161
 31
0.0
  0
LINE
  5
5D8
330
5D2
100
AcDbEntity
  8
SLD-0
 62
     7
100
AcDbLine
 10
62.1832590145
 20
339.446876161
 30
0.0
 11
62.1832590145
 21
348.346876161
 31
0.0
  0
LINE
  5
5D9
330
5D2
100
AcDbEntity
  8
SLD-0
 62
     7
100
AcDbLine
 10
62.1832590145
 20
348.346876161
 30
0.0
 11
62.1832590145
 21
357.346876161
 31
0.0
  0
MTEXT
  5
5DA
330
5D2
100
AcDbEntity
  8
SLD-0
 62
     7
100
AcDbMText
 10
53.2351661907
 20
340.8239486082
 30
0.0
 40
7.0
 41
0.0
 71
     1
 72
     1
  1
9
  7
SLDTEXTSTYLE1
 11
6.123233995736766E-17
 21
1.0
 31
0.0
 73
     1
 44
1.0
  0
SOLID
  5
5DB
330
5D2
100
AcDbEntity
  8
SLD-0
 62
     7
100
AcDbTrace
 10
62.1832590145
 20
339.446876161
 30
0.0
 11
61.5632590145
 21
334.446876161
 31
0.0
 12
62.8032590145
 22
334.446876161
 32
0.0
 13
62.8032590145
 23
334.446876161
 33
0.0
  0
SOLID
  5
5DC
330
5D2
100
AcDbEntity
  8
SLD-0
 62
     7
100
AcDbTrace
 10
62.1832590145
 20
348.346876161
 30
0.0
 11
62.8032590145
 21
353.346876161
 31
0.0
 12
61.5632590145
 22
353.346876161
 32
0.0
 13
61.5632590145
 23
353.346876161
 33
0.0
  0
ENDBLK
  5
5D4
330
5D2
100
AcDbEntity
  8
0
100
AcDbBlockEnd
  0
BLOCK
  5
5DF
330
5DE
100
AcDbEntity
  8
0
100
AcDbBlockBegin
  2
_D_8
 70
     0
 10
0.0
 20
0.0
 30
0.0
  3
_D_8
  1

  0
LINE
  5
5E1
330
5DE
100
AcDbEntity
  8
SLD-0
 62
     7
100
AcDbLine
 10
105.5229575183
 20
468.446876161
 30
0.0
 11
105.5229575183
 21
434.0724027037
 31
0.0
  0
LINE
  5
5E2
330
5DE
100
AcDbEntity
  8
SLD-0
 62
     7
100
AcDbLine
 10
114.2229575183
 20
436.0724027037
 30
0.0
 11
123.2229575183
 21
436.0724027037
 31
0.0
  0
LINE
  5
5E3
330
5DE
100
AcDbEntity
  8
SLD-0
 62
     7
100
AcDbLine
 10
114.2229575183
 20
436.0724027037
 30
0.0
 11
105.5229575183
 21
436.0724027037
 31
0.0
  0
LINE
  5
5E4
330
5DE
100
AcDbEntity
  8
SLD-0
 62
     7
100
AcDbLine
 10
105.5229575183
 20
436.0724027037
 30
0.0
 11
73.0097421473
 21
436.0724027037
 31
0.0
  0
MTEXT
  5
5E5
330
5DE
100
AcDbEntity
  8
SLD-0
 62
     7
100
AcDbMText
 10
73.0097421473
 20
445.0204955275
 30
0.0
 40
7.0
 41
0.0
 71
     1
 72
     1
  1
2-9mm
  7
SLDTEXTSTYLE1
 73
     1
 44
1.0
  0
SOLID
  5
5E6
330
5DE
100
AcDbEntity
  8
SLD-0
 62
     7
100
AcDbTrace
 10
114.2229575183
 20
436.0724027037
 30
0.0
 11
119.2229575183
 21
435.4524027037
 31
0.0
 12
119.2229575183
 22
436.6924027037
 32
0.0
 13
119.2229575183
 23
436.6924027037
 33
0.0
  0
SOLID
  5
5E7
330
5DE
100
AcDbEntity
  8
SLD-0
 62
     7
100
AcDbTrace
 10
105.5229575183
 20
436.0724027037
 30
0.0
 11
100.5229575183
 21
436.6924027037
 31
0.0
 12
100.5229575183
 22
435.4524027037
 32
0.0
 13
100.5229575183
 23
435.4524027037
 33
0.0
  0
ENDBLK
  5
5E0
330
5DE
100
AcDbEntity
  8
0
100
AcDbBlockEnd
  0
BLOCK
  5
5EA
330
5E9
100
AcDbEntity
  8
0
100
AcDbBlockBegin
  2
_D_9
 70
     0
 10
0.0
 20
0.0
 30
0.0
  3
_D_9
  1

  0
LINE
  5
5EC
330
5E9
100
AcDbEntity
  8
SLD-0
 62
     7
100
AcDbLine
 10
94.2229575183
 20
383.346876161
 30
0.0
 11
59.5102231965
 21
383.346876161
 31
0.0
  0
LINE
  5
5ED
330
5E9
100
AcDbEntity
  8
SLD-0
 62
     7
100
AcDbLine
 10
110.557273938
 20
450.546876161
 30
0.0
 11
59.5102231965
 21
450.546876161
 31
0.0
  0
LINE
  5
5EE
330
5E9
100
AcDbEntity
  8
SLD-0
 62
     7
100
AcDbLine
 10
61.5102231965
 20
383.346876161
 30
0.0
 11
61.5102231965
 21
450.546876161
 31
0.0
  0
MTEXT
  5
5EF
330
5E9
100
AcDbEntity
  8
SLD-0
 62
     7
100
AcDbMText
 10
52.5621303727
 20
415.3127879359
 30
0.0
 40
7.0
 41
0.0
 71
     1
 72
     1
  1
67
  7
SLDTEXTSTYLE1
 11
6.123233995736766E-17
 21
1.0
 31
0.0
 73
     1
 44
1.0
  0
SOLID
  5
5F0
330
5E9
100
AcDbEntity
  8
SLD-0
 62
     7
100
AcDbTrace
 10
61.5102231965
 20
383.346876161
 30
0.0
 11
62.1302231965
 21
388.346876161
 31
0.0
 12
60.8902231965
 22
388.346876161
 32
0.0
 13
60.8902231965
 23
388.346876161
 33
0.0
  0
SOLID
  5
5F1
330
5E9
100
AcDbEntity
  8
SLD-0
 62
     7
100
AcDbTrace
 10
61.5102231965
 20
450.546876161
 30
0.0
 11
60.8902231965
 21
445.546876161
 31
0.0
 12
62.1302231965
 22
445.546876161
 32
0.0
 13
62.1302231965
 23
445.546876161
 33
0.0
  0
ENDBLK
  5
5EB
330
5E9
100
AcDbEntity
  8
0
100
AcDbBlockEnd
  0
BLOCK
  5
5F4
330
5F3
100
AcDbEntity
  8
0
100
AcDbBlockBegin
  2
_D_10
 70
     0
 10
0.0
 20
0.0
 30
0.0
  3
_D_10
  1

  0
LINE
  5
5F6
330
5F3
100
AcDbEntity
  8
SLD-0
 62
     7
100
AcDbLine
 10
110.557273938
 20
480.346876161
 30
0.0
 11
59.4056268177
 21
480.346876161
 31
0.0
  0
LINE
  5
5F7
330
5F3
100
AcDbEntity
  8
SLD-0
 62
     7
100
AcDbLine
 10
110.557273938
 20
450.546876161
 30
0.0
 11
59.4056268177
 21
450.546876161
 31
0.0
  0
LINE
  5
5F8
330
5F3
100
AcDbEntity
  8
SLD-0
 62
     7
100
AcDbLine
 10
61.4056268177
 20
480.346876161
 30
0.0
 11
61.4056268177
 21
450.546876161
 31
0.0
  0
MTEXT
  5
5F9
330
5F3
100
AcDbEntity
  8
SLD-0
 62
     7
100
AcDbMText
 10
52.4575339939
 20
460.9812714826
 30
0.0
 40
7.0
 41
0.0
 71
     1
 72
     1
  1
30
  7
SLDTEXTSTYLE1
 11
6.123233995736766E-17
 21
1.0
 31
0.0
 73
     1
 44
1.0
  0
SOLID
  5
5FA
330
5F3
100
AcDbEntity
  8
SLD-0
 62
     7
100
AcDbTrace
 10
61.4056268177
 20
480.346876161
 30
0.0
 11
60.7856268177
 21
475.346876161
 31
0.0
 12
62.0256268177
 22
475.346876161
 32
0.0
 13
62.0256268177
 23
475.346876161
 33
0.0
  0
SOLID
  5
5FB
330
5F3
100
AcDbEntity
  8
SLD-0
 62
     7
100
AcDbTrace
 10
61.4056268177
 20
450.546876161
 30
0.0
 11
62.0256268177
 21
455.546876161
 31
0.0
 12
60.7856268177
 22
455.546876161
 32
0.0
 13
60.7856268177
 23
455.546876161
 33
0.0
  0
ENDBLK
  5
5F5
330
5F3
100
AcDbEntity
  8
0
100
AcDbBlockEnd
  0
BLOCK
  5
5FE
330
5FD
100
AcDbEntity
  8
0
100
AcDbBlockBegin
  2
_D_11
 70
     0
 10
0.0
 20
0.0
 30
0.0
  3
_D_11
  1

  0
LINE
  5
600
330
5FD
100
AcDbEntity
  8
SLD-0
 62
     7
100
AcDbLine
 10
110.557273938
 20
480.346876161
 30
0.0
 11
59.4056268177
 21
480.346876161
 31
0.0
  0
LINE
  5
601
330
5FD
100
AcDbEntity
  8
SLD-0
 62
     7
100
AcDbLine
 10
114.2229575183
 20
524.446876161
 30
0.0
 11
59.4056268177
 21
524.446876161
 31
0.0
  0
LINE
  5
602
330
5FD
100
AcDbEntity
  8
SLD-0
 62
     7
100
AcDbLine
 10
61.4056268177
 20
480.346876161
 30
0.0
 11
61.4056268177
 21
524.446876161
 31
0.0
  0
MTEXT
  5
603
330
5FD
100
AcDbEntity
  8
SLD-0
 62
     7
100
AcDbMText
 10
52.4575339939
 20
502.0575408135
 30
0.0
 40
7.0
 41
0.0
 71
     1
 72
     1
  1
44
  7
SLDTEXTSTYLE1
 11
6.123233995736766E-17
 21
1.0
 31
0.0
 73
     1
 44
1.0
  0
SOLID
  5
604
330
5FD
100
AcDbEntity
  8
SLD-0
 62
     7
100
AcDbTrace
 10
61.4056268177
 20
480.346876161
 30
0.0
 11
62.0256268177
 21
485.346876161
 31
0.0
 12
60.7856268177
 22
485.346876161
 32
0.0
 13
60.7856268177
 23
485.346876161
 33
0.0
  0
SOLID
  5
605
330
5FD
100
AcDbEntity
  8
SLD-0
 62
     7
100
AcDbTrace
 10
61.4056268177
 20
524.446876161
 30
0.0
 11
60.7856268177
 21
519.446876161
 31
0.0
 12
62.0256268177
 22
519.446876161
 32
0.0
 13
62.0256268177
 23
519.446876161
 33
0.0
  0
ENDBLK
  5
5FF
330
5FD
100
AcDbEntity
  8
0
100
AcDbBlockEnd
  0
BLOCK
  5
609
330
608
100
AcDbEntity
  8
0
100
AcDbBlockBegin
  2
_D_12
 70
     0
 10
0.0
 20
0.0
 30
0.0
  3
_D_12
  1

  0
ARC
  5
60B
330
608
100
AcDbEntity
  8
SLD-0
 62
     7
100
AcDbCircle
 10
117.2229575183
 20
168.4567833151
 30
0.0
 40
31.79394822878683
100
AcDbArc
 50
270.0
 51
0.0
  0
LINE
  5
60C
330
608
100
AcDbEntity
  8
SLD-0
 62
     7
100
AcDbLine
 10
117.2229575183
 20
156.5067833151
 30
0.0
 11
117.2229575183
 21
134.6628350863
 31
0.0
  0
MTEXT
  5
60D
330
608
100
AcDbEntity
  8
SLD-0
 62
     7
100
AcDbMText
 10
129.9918486353
 20
148.2476111748
 30
0.0
 40
7.0
 41
0.0
 71
     1
 72
     1
  1
90°
  7
SLDTEXTSTYLE1
 11
0.6506872960069936
 21
0.7593457992345168
 31
0.0
 73
     1
 44
1.0
  0
SOLID
  5
60E
330
608
100
AcDbEntity
  8
SLD-0
 62
     7
100
AcDbTrace
 10
117.2229575183
 20
136.6628350863
 30
0.0
 11
122.2560645022
 21
136.4342873044
 31
0.0
 12
122.1594517636
 22
137.6705178569
 32
0.0
 13
122.1594517636
 23
137.6705178569
 33
0.0
  0
SOLID
  5
60F
330
608
100
AcDbEntity
  8
SLD-0
 62
     7
100
AcDbTrace
 10
149.0169057471
 20
168.4567833151
 30
0.0
 11
148.0092229766
 21
163.5202890698
 31
0.0
 12
149.245453529
 22
163.4236763312
 32
0.0
 13
149.245453529
 23
163.4236763312
 33
0.0
  0
ENDBLK
  5
60A
330
608
100
AcDbEntity
  8
0
100
AcDbBlockEnd
  0
BLOCK
  5
613
330
612
100
AcDbEntity
  8
0
100
AcDbBlockBegin
  2
_D_13
 70
     0
 10
0.0
 20
0.0
 30
0.0
  3
_D_13
  1

  0
LINE
  5
615
330
612
100
AcDbEntity
  8
SLD-0
 62
     7
100
AcDbLine
 10
164.2229575183
 20
174.9067833151
 30
0.0
 11
179.0649893314
 21
174.9067833151
 31
0.0
  0
LINE
  5
616
330
612
100
AcDbEntity
  8
SLD-0
 62
     7
100
AcDbLine
 10
164.2229575183
 20
176.4067833151
 30
0.0
 11
179.0649893314
 21
176.4067833151
 31
0.0
  0
LINE
  5
617
330
612
100
AcDbEntity
  8
SLD-0
 62
     7
100
AcDbLine
 10
177.0649893314
 20
174.9067833151
 30
0.0
 11
177.0649893314
 21
165.9067833151
 31
0.0
  0
LINE
  5
618
330
612
100
AcDbEntity
  8
SLD-0
 62
     7
100
AcDbLine
 10
177.0649893314
 20
174.9067833151
 30
0.0
 11
177.0649893314
 21
176.4067833151
 31
0.0
  0
LINE
  5
619
330
612
100
AcDbEntity
  8
SLD-0
 62
     7
100
AcDbLine
 10
177.0649893314
 20
176.4067833151
 30
0.0
 11
177.0649893314
 21
195.009437061
 31
0.0
  0
MTEXT
  5
61A
330
612
100
AcDbEntity
  8
SLD-0
 62
     7
100
AcDbMText
 10
168.1168965076
 20
178.9051317978
 30
0.0
 40
7.0
 41
0.0
 71
     1
 72
     1
  1
1,5
  7
SLDTEXTSTYLE1
 11
6.123233995736766E-17
 21
1.0
 31
0.0
 73
     1
 44
1.0
  0
SOLID
  5
61B
330
612
100
AcDbEntity
  8
SLD-0
 62
     7
100
AcDbTrace
 10
177.0649893314
 20
174.9067833151
 30
0.0
 11
176.4449893314
 21
169.9067833151
 31
0.0
 12
177.6849893314
 22
169.9067833151
 32
0.0
 13
177.6849893314
 23
169.9067833151
 33
0.0
  0
SOLID
  5
61C
330
612
100
AcDbEntity
  8
SLD-0
 62
     7
100
AcDbTrace
 10
177.0649893314
 20
176.4067833151
 30
0.0
 11
177.6849893314
 21
181.4067833151
 31
0.0
 12
176.4449893314
 22
181.4067833151
 32
0.0
 13
176.4449893314
 23
181.4067833151
 33
0.0
  0
ENDBLK
  5
614
330
612
100
AcDbEntity
  8
0
100
AcDbBlockEnd
  0
BLOCK
  5
61F
330
61E
100
AcDbEntity
  8
0
100
AcDbBlockBegin
  2
_D_14
 70
     0
 10
0.0
 20
0.0
 30
0.0
  3
_D_14
  1

  0
LINE
  5
621
330
61E
100
AcDbEntity
  8
SLD-0
 62
     7
100
AcDbLine
 10
114.2229575183
 20
180.5067833151
 30
0.0
 11
114.2229575183
 21
204.8350102181
 31
0.0
  0
LINE
  5
622
330
61E
100
AcDbEntity
  8
SLD-0
 62
     7
100
AcDbLine
 10
117.2229575183
 20
180.5067833151
 30
0.0
 11
117.2229575183
 21
204.8350102181
 31
0.0
  0
LINE
  5
623
330
61E
100
AcDbEntity
  8
SLD-0
 62
     7
100
AcDbLine
 10
114.2229575183
 20
202.8350102181
 30
0.0
 11
105.2229575183
 21
202.8350102181
 31
0.0
  0
LINE
  5
624
330
61E
100
AcDbEntity
  8
SLD-0
 62
     7
100
AcDbLine
 10
114.2229575183
 20
202.8350102181
 30
0.0
 11
117.2229575183
 21
202.8350102181
 31
0.0
  0
LINE
  5
625
330
61E
100
AcDbEntity
  8
SLD-0
 62
     7
100
AcDbLine
 10
117.2229575183
 20
202.8350102181
 30
0.0
 11
133.6989391519
 21
202.8350102181
 31
0.0
  0
MTEXT
  5
626
330
61E
100
AcDbEntity
  8
SLD-0
 62
     7
100
AcDbMText
 10
125.3565654677
 20
211.7831030419
 30
0.0
 40
7.0
 41
0.0
 71
     1
 72
     1
  1
3
  7
SLDTEXTSTYLE1
 73
     1
 44
1.0
  0
SOLID
  5
627
330
61E
100
AcDbEntity
  8
SLD-0
 62
     7
100
AcDbTrace
 10
114.2229575183
 20
202.8350102181
 30
0.0
 11
109.2229575183
 21
203.4550102181
 31
0.0
 12
109.2229575183
 22
202.2150102181
 32
0.0
 13
109.2229575183
 23
202.2150102181
 33
0.0
  0
SOLID
  5
628
330
61E
100
AcDbEntity
  8
SLD-0
 62
     7
100
AcDbTrace
 10
117.2229575183
 20
202.8350102181
 30
0.0
 11
122.2229575183
 21
202.2150102181
 31
0.0
 12
122.2229575183
 22
203.4550102181
 32
0.0
 13
122.2229575183
 23
203.4550102181
 33
0.0
  0
ENDBLK
  5
620
330
61E
100
AcDbEntity
  8
0
100
AcDbBlockEnd
  0
BLOCK
  5
62B
330
62A
100
AcDbEntity
  8
0
100
AcDbBlockBegin
  2
_D_15
 70
     0
 10
0.0
 20
0.0
 30
0.0
  3
_D_15
  1

  0
LINE
  5
62D
330
62A
100
AcDbEntity
  8
SLD-0
 62
     7
100
AcDbLine
 10
144.1411011735
 20
176.7067833151
 30
0.0
 11
175.5409893314
 21
176.7067833151
 31
0.0
  0
LINE
  5
62E
330
62A
100
AcDbEntity
  8
SLD-0
 62
     7
100
AcDbLine
 10
178.5889893314
 20
176.7067833151
 30
0.0
 11
200.9641783005
 21
176.7067833151
 31
0.0
  0
LINE
  5
62F
330
62A
100
AcDbEntity
  8
SLD-0
 62
     7
100
AcDbLine
 10
150.8229575183
 20
160.7567833151
 30
0.0
 11
200.9641783005
 21
160.7567833151
 31
0.0
  0
LINE
  5
630
330
62A
100
AcDbEntity
  8
SLD-0
 62
     7
100
AcDbLine
 10
198.9641783005
 20
176.7067833151
 30
0.0
 11
198.9641783005
 21
185.7067833151
 31
0.0
  0
LINE
  5
631
330
62A
100
AcDbEntity
  8
SLD-0
 62
     7
100
AcDbLine
 10
198.9641783005
 20
176.7067833151
 30
0.0
 11
198.9641783005
 21
160.7567833151
 31
0.0
  0
LINE
  5
632
330
62A
100
AcDbEntity
  8
SLD-0
 62
     7
100
AcDbLine
 10
198.9641783005
 20
160.7567833151
 30
0.0
 11
198.9641783005
 21
151.7567833151
 31
0.0
  0
MTEXT
  5
633
330
62A
100
AcDbEntity
  8
SLD-0
 62
     7
100
AcDbMText
 10
190.0160854767
 20
163.4320039784
 30
0.0
 40
7.0
 41
0.0
 71
     1
 72
     1
  1
16
  7
SLDTEXTSTYLE1
 11
6.123233995736766E-17
 21
1.0
 31
0.0
 73
     1
 44
1.0
  0
SOLID
  5
634
330
62A
100
AcDbEntity
  8
SLD-0
 62
     7
100
AcDbTrace
 10
198.9641783005
 20
176.7067833151
 30
0.0
 11
199.5841783005
 21
181.7067833151
 31
0.0
 12
198.3441783005
 22
181.7067833151
 32
0.0
 13
198.3441783005
 23
181.7067833151
 33
0.0
  0
SOLID
  5
635
330
62A
100
AcDbEntity
  8
SLD-0
 62
     7
100
AcDbTrace
 10
198.9641783005
 20
160.7567833151
 30
0.0
 11
198.3441783005
 21
155.7567833151
 31
0.0
 12
199.5841783005
 22
155.7567833151
 32
0.0
 13
199.5841783005
 23
155.7567833151
 33
0.0
  0
ENDBLK
  5
62C
330
62A
100
AcDbEntity
  8
0
100
AcDbBlockEnd
  0
BLOCK
  5
638
330
637
100
AcDbEntity
  8
0
100
AcDbBlockBegin
  2
_D_16
 70
     0
 10
0.0
 20
0.0
 30
0.0
  3
_D_16
  1

  0
LINE
  5
63A
330
637
100
AcDbEntity
  8
SLD-0
 62
     7
100
AcDbLine
 10
330.5173079531
 20
279.446876161
 30
0.0
 11
377.2520877566
 21
279.446876161
 31
0.0
  0
LINE
  5
63B
330
637
100
AcDbEntity
  8
SLD-0
 62
     7
100
AcDbLine
 10
330.5173079531
 20
524.446876161
 30
0.0
 11
377.2520877566
 21
524.446876161
 31
0.0
  0
LINE
  5
63C
330
637
100
AcDbEntity
  8
SLD-0
 62
     7
100
AcDbLine
 10
375.2520877566
 20
279.446876161
 30
0.0
 11
375.2520877566
 21
524.446876161
 31
0.0
  0
MTEXT
  5
63D
330
637
100
AcDbEntity
  8
SLD-0
 62
     7
100
AcDbMText
 10
366.3039949328
 20
398.3830091008
 30
0.0
 40
7.0
 41
0.0
 71
     1
 72
     1
  1
245
  7
SLDTEXTSTYLE1
 11
6.123233995736766E-17
 21
1.0
 31
0.0
 73
     1
 44
1.0
  0
SOLID
  5
63E
330
637
100
AcDbEntity
  8
SLD-0
 62
     7
100
AcDbTrace
 10
375.2520877566
 20
279.446876161
 30
0.0
 11
375.8720877566
 21
284.446876161
 31
0.0
 12
374.6320877566
 22
284.446876161
 32
0.0
 13
374.6320877566
 23
284.446876161
 33
0.0
  0
SOLID
  5
63F
330
637
100
AcDbEntity
  8
SLD-0
 62
     7
100
AcDbTrace
 10
375.2520877566
 20
524.446876161
 30
0.0
 11
374.6320877566
 21
519.446876161
 31
0.0
 12
375.8720877566
 22
519.446876161
 32
0.0
 13
375.8720877566
 23
519.446876161
 33
0.0
  0
ENDBLK
  5
639
330
637
100
AcDbEntity
  8
0
100
AcDbBlockEnd
  0
BLOCK
  5
642
330
641
100
AcDbEntity
  8
0
100
AcDbBlockBegin
  2
_D_17
 70
     0
 10
0.0
 20
0.0
 30
0.0
  3
_D_17
  1

  0
LINE
  5
644
330
641
100
AcDbEntity
  8
SLD-0
 62
     7
100
AcDbLine
 10
306.5173079531
 20
279.446876161
 30
0.0
 11
306.5173079531
 21
248.9230629216
 31
0.0
  0
LINE
  5
645
330
641
100
AcDbEntity
  8
SLD-0
 62
     7
100
AcDbLine
 10
330.5173079531
 20
279.446876161
 30
0.0
 11
330.5173079531
 21
248.9230629216
 31
0.0
  0
LINE
  5
646
330
641
100
AcDbEntity
  8
SLD-0
 62
     7
100
AcDbLine
 10
306.5173079531
 20
250.9230629216
 30
0.0
 11
330.5173079531
 21
250.9230629216
 31
0.0
  0
LINE
  5
647
330
641
100
AcDbEntity
  8
SLD-0
 62
     7
100
AcDbLine
 10
330.5173079531
 20
250.9230629216
 30
0.0
 11
393.4276783771
 21
250.9230629216
 31
0.0
  0
MTEXT
  5
648
330
641
100
AcDbEntity
  8
SLD-0
 62
     7
100
AcDbMText
 10
336.6293994297
 20
259.8711557454
 30
0.0
 40
7.0
 41
0.0
 71
     1
 72
     1
  1
16/20/22/24
  7
SLDTEXTSTYLE1
 73
     1
 44
1.0
  0
SOLID
  5
649
330
641
100
AcDbEntity
  8
SLD-0
 62
     7
100
AcDbTrace
 10
306.5173079531
 20
250.9230629216
 30
0.0
 11
311.5173079531
 21
250.3030629216
 31
0.0
 12
311.5173079531
 22
251.5430629216
 32
0.0
 13
311.5173079531
 23
251.5430629216
 33
0.0
  0
SOLID
  5
64A
330
641
100
AcDbEntity
  8
SLD-0
 62
     7
100
AcDbTrace
 10
330.5173079531
 20
250.9230629216
 30
0.0
 11
325.5173079531
 21
251.5430629216
 31
0.0
 12
325.5173079531
 22
250.3030629216
 32
0.0
 13
325.5173079531
 23
250.3030629216
 33
0.0
  0
ENDBLK
  5
643
330
641
100
AcDbEntity
  8
0
100
AcDbBlockEnd
  0
BLOCK
  5
64D
330
64C
100
AcDbEntity
  8
0
100
AcDbBlockBegin
  2
_D_18
 70
     0
 10
0.0
 20
0.0
 30
0.0
  3
_D_18
  1

  0
LINE
  5
64F
330
64C
100
AcDbEntity
  8
SLD-0
 62
     7
100
AcDbLine
 10
318.5173079531
 20
512.446876161
 30
0.0
 11
356.1543933965
 21
512.446876161
 31
0.0
  0
LINE
  5
650
330
64C
100
AcDbEntity
  8
SLD-0
 62
     7
100
AcDbLine
 10
318.5173079531
 20
291.446876161
 30
0.0
 11
356.1543933965
 21
291.446876161
 31
0.0
  0
LINE
  5
651
330
64C
100
AcDbEntity
  8
SLD-0
 62
     7
100
AcDbLine
 10
354.1543933965
 20
512.446876161
 30
0.0
 11
354.1543933965
 21
291.446876161
 31
0.0
  0
MTEXT
  5
652
330
64C
100
AcDbEntity
  8
SLD-0
 62
     7
100
AcDbMText
 10
345.2063005727
 20
398.3830091008
 30
0.0
 40
7.0
 41
0.0
 71
     1
 72
     1
  1
221
  7
SLDTEXTSTYLE1
 11
6.123233995736766E-17
 21
1.0
 31
0.0
 73
     1
 44
1.0
  0
SOLID
  5
653
330
64C
100
AcDbEntity
  8
SLD-0
 62
     7
100
AcDbTrace
 10
354.1543933965
 20
512.446876161
 30
0.0
 11
353.5343933965
 21
507.446876161
 31
0.0
 12
354.7743933965
 22
507.446876161
 32
0.0
 13
354.7743933965
 23
507.446876161
 33
0.0
  0
SOLID
  5
654
330
64C
100
AcDbEntity
  8
SLD-0
 62
     7
100
AcDbTrace
 10
354.1543933965
 20
291.446876161
 30
0.0
 11
354.7743933965
 21
296.446876161
 31
0.0
 12
353.5343933965
 22
296.446876161
 32
0.0
 13
353.5343933965
 23
296.446876161
 33
0.0
  0
ENDBLK
  5
64E
330
64C
100
AcDbEntity
  8
0
100
AcDbBlockEnd
  0
BLOCK
  5
657
330
656
100
AcDbEntity
  8
0
100
AcDbBlockBegin
  2
_D_19
 70
     0
 10
0.0
 20
0.0
 30
0.0
  3
_D_19
  1

  0
LINE
  5
659
330
656
100
AcDbEntity
  8
SLD-0
 62
     7
100
AcDbLine
 10
318.5173079531
 20
512.446876161
 30
0.0
 11
356.0992739234
 21
512.446876161
 31
0.0
  0
LINE
  5
65A
330
656
100
AcDbEntity
  8
SLD-0
 62
     7
100
AcDbLine
 10
329.5173079531
 20
524.446876161
 30
0.0
 11
356.0992739234
 21
524.446876161
 31
0.0
  0
LINE
  5
65B
330
656
100
AcDbEntity
  8
SLD-0
 62
     7
100
AcDbLine
 10
354.0992739234
 20
512.446876161
 30
0.0
 11
354.0992739234
 21
503.446876161
 31
0.0
  0
LINE
  5
65C
330
656
100
AcDbEntity
  8
SLD-0
 62
     7
100
AcDbLine
 10
354.0992739234
 20
512.446876161
 30
0.0
 11
354.0992739234
 21
524.446876161
 31
0.0
  0
LINE
  5
65D
330
656
100
AcDbEntity
  8
SLD-0
 62
     7
100
AcDbLine
 10
354.0992739234
 20
524.446876161
 30
0.0
 11
354.0992739234
 21
533.446876161
 31
0.0
  0
MTEXT
  5
65E
330
656
100
AcDbEntity
  8
SLD-0
 62
     7
100
AcDbMText
 10
345.1511810996
 20
513.2168874573
 30
0.0
 40
7.0
 41
0.0
 71
     1
 72
     1
  1
12
  7
SLDTEXTSTYLE1
 11
6.123233995736766E-17
 21
1.0
 31
0.0
 73
     1
 44
1.0
  0
SOLID
  5
65F
330
656
100
AcDbEntity
  8
SLD-0
 62
     7
100
AcDbTrace
 10
354.0992739234
 20
512.446876161
 30
0.0
 11
353.4792739234
 21
507.446876161
 31
0.0
 12
354.7192739234
 22
507.446876161
 32
0.0
 13
354.7192739234
 23
507.446876161
 33
0.0
  0
SOLID
  5
660
330
656
100
AcDbEntity
  8
SLD-0
 62
     7
100
AcDbTrace
 10
354.0992739234
 20
524.446876161
 30
0.0
 11
354.7192739234
 21
529.446876161
 31
0.0
 12
353.4792739234
 22
529.446876161
 32
0.0
 13
353.4792739234
 23
529.446876161
 33
0.0
  0
ENDBLK
  5
658
330
656
100
AcDbEntity
  8
0
100
AcDbBlockEnd
  0
BLOCK
  5
663
330
662
100
AcDbEntity
  8
0
100
AcDbBlockBegin
  2
_D_20
 70
     0
 10
0.0
 20
0.0
 30
0.0
  3
_D_20
  1

  0
LINE
  5
665
330
662
100
AcDbEntity
  8
SLD-0
 62
     7
100
AcDbLine
 10
314.5673079531
 20
362.8293957205
 30
0.0
 11
285.3277004097
 21
362.8293957205
 31
0.0
  0
LINE
  5
666
330
662
100
AcDbEntity
  8
SLD-0
 62
     7
100
AcDbLine
 10
314.5673079531
 20
362.8293957205
 30
0.0
 11
322.5673079531
 21
362.8293957205
 31
0.0
  0
LINE
  5
667
330
662
100
AcDbEntity
  8
SLD-0
 62
     7
100
AcDbLine
 10
322.5673079531
 20
362.8293957205
 30
0.0
 11
331.5673079531
 21
362.8293957205
 31
0.0
  0
MTEXT
  5
668
330
662
100
AcDbEntity
  8
SLD-0
 62
     7
100
AcDbMText
 10
288.5027004097
 20
371.7774885443
 30
0.0
 40
7.0
 41
0.0
 71
     1
 72
     1
  1
8
  7
SLDTEXTSTYLE1
 73
     1
 44
1.0
  0
SOLID
  5
669
330
662
100
AcDbEntity
  8
SLD-0
 62
     7
100
AcDbTrace
 10
314.5673079531
 20
362.8293957205
 30
0.0
 11
309.5673079531
 21
363.4493957205
 31
0.0
 12
309.5673079531
 22
362.2093957205
 32
0.0
 13
309.5673079531
 23
362.2093957205
 33
0.0
  0
SOLID
  5
66A
330
662
100
AcDbEntity
  8
SLD-0
 62
     7
100
AcDbTrace
 10
322.5673079531
 20
362.8293957205
 30
0.0
 11
327.5673079531
 21
362.2093957205
 31
0.0
 12
327.5673079531
 22
363.4493957205
 32
0.0
 13
327.5673079531
 23
363.4493957205
 33
0.0
  0
ENDBLK
  5
664
330
662
100
AcDbEntity
  8
0
100
AcDbBlockEnd
  0
BLOCK
  5
66D
330
66C
100
AcDbEntity
  8
0
100
AcDbBlockBegin
  2
_D_21
 70
     0
 10
0.0
 20
0.0
 30
0.0
  3
_D_21
  1

  0
LINE
  5
66F
330
66C
100
AcDbEntity
  8
SLD-0
 62
     7
100
AcDbLine
 10
312.8173079531
 20
468.446876161
 30
0.0
 11
312.8173079531
 21
488.9985369473
 31
0.0
  0
LINE
  5
670
330
66C
100
AcDbEntity
  8
SLD-0
 62
     7
100
AcDbLine
 10
324.2173079531
 20
468.446876161
 30
0.0
 11
324.2173079531
 21
488.9985369473
 31
0.0
  0
LINE
  5
671
330
66C
100
AcDbEntity
  8
SLD-0
 62
     7
100
AcDbLine
 10
312.8173079531
 20
486.9985369473
 30
0.0
 11
280.960652363
 21
486.9985369473
 31
0.0
  0
LINE
  5
672
330
66C
100
AcDbEntity
  8
SLD-0
 62
     7
100
AcDbLine
 10
312.8173079531
 20
486.9985369473
 30
0.0
 11
324.2173079531
 21
486.9985369473
 31
0.0
  0
MTEXT
  5
673
330
66C
100
AcDbEntity
  8
SLD-0
 62
     7
100
AcDbMText
 10
280.960652363
 20
495.9466297711
 30
0.0
 40
7.0
 41
0.0
 71
     1
 72
     1
  1
11,5
  7
SLDTEXTSTYLE1
 73
     1
 44
1.0
  0
SOLID
  5
674
330
66C
100
AcDbEntity
  8
SLD-0
 62
     7
100
AcDbTrace
 10
312.8173079531
 20
486.9985369473
 30
0.0
 11
317.8173079531
 21
486.3785369473
 31
0.0
 12
317.8173079531
 22
487.6185369473
 32
0.0
 13
317.8173079531
 23
487.6185369473
 33
0.0
  0
SOLID
  5
675
330
66C
100
AcDbEntity
  8
SLD-0
 62
     7
100
AcDbTrace
 10
324.2173079531
 20
486.9985369473
 30
0.0
 11
319.2173079531
 21
487.6185369473
 31
0.0
 12
319.2173079531
 22
486.3785369473
 32
0.0
 13
319.2173079531
 23
486.3785369473
 33
0.0
  0
ENDBLK
  5
66E
330
66C
100
AcDbEntity
  8
0
100
AcDbBlockEnd
  0
ENDSEC
  0
SECTION
  2
ENTITIES
  0
LINE
  5
97
330
1F
100
AcDbEntity
  8
SLD-0
  6
Continuous
 62
     7
100
AcDbLine
 10
113.222958472
 20
461.9468753265
 30
0.0
 11
113.222958472
 21
462.0468770193
 31
0.0
  0
LINE
  5
98
330
1F
100
AcDbEntity
  8
SLD-0
  6
Continuous
 62
     7
100
AcDbLine
 10
113.222958472
 20
474.8468757646
 30
0.0
 11
113.222958472
 21
474.9468755948
 31
0.0
  0
LINE
  5
99
330
1F
100
AcDbEntity
  8
SLD-0
  6
Continuous
 62
     7
100
AcDbLine
 10
109.2229578163
 20
474.9468755948
 30
0.0
 11
109.2229578163
 21
474.8468757646
 31
0.0
  0
LINE
  5
9A
330
1F
100
AcDbEntity
  8
SLD-0
  6
Continuous
 62
     7
100
AcDbLine
 10
109.2229578163
 20
462.0468770193
 30
0.0
 11
109.2229578163
 21
461.9468753265
 31
0.0
  0
LINE
  5
9B
330
1F
100
AcDbEntity
  8
SLD-0
  6
Continuous
 62
     7
100
AcDbLine
 10
106.1229574945
 20
454.846874349
 30
0.0
 11
106.1229574945
 21
453.0406412708
 31
0.0
  0
LINE
  5
9C
330
1F
100
AcDbEntity
  8
SLD-0
  6
Continuous
 62
     7
100
AcDbLine
 10
106.1229574945
 20
461.9468753265
 30
0.0
 11
106.1229574945
 21
459.0468746649
 31
0.0
  0
LINE
  5
9D
330
1F
100
AcDbEntity
  8
SLD-0
  6
Continuous
 62
     7
100
AcDbLine
 10
106.1229574945
 20
477.8531123924
 30
0.0
 11
106.1229574945
 21
474.9468755949
 31
0.0
  0
LINE
  5
9E
330
1F
100
AcDbEntity
  8
SLD-0
  6
Continuous
 62
     7
100
AcDbLine
 10
107.4088606503
 20
479.6246946829
 30
0.0
 11
107.1947235134
 21
479.2955894994
 31
0.0
  0
LINE
  5
9F
330
1F
100
AcDbEntity
  8
SLD-0
  6
Continuous
 62
     7
100
AcDbLine
 10
141.0229578134
 20
461.6968748199
 30
0.0
 11
143.3229576316
 21
461.6968748199
 31
0.0
  0
LINE
  5
A0
330
1F
100
AcDbEntity
  8
SLD-0
  6
Continuous
 62
     7
100
AcDbLine
 10
143.3229576316
 20
469.1968769806
 30
0.0
 11
141.0229578134
 21
469.1968769806
 31
0.0
  0
LINE
  5
A1
330
1F
100
AcDbEntity
  8
SLD-0
  6
Continuous
 62
     7
100
AcDbLine
 10
154.2930090319
 20
464.1468753146
 30
0.0
 11
154.5800752457
 21
464.5498623179
 31
0.0
  0
LINE
  5
A2
330
1F
100
AcDbEntity
  8
SLD-0
  6
Continuous
 62
     7
100
AcDbLine
 10
154.5800752457
 20
464.5498623179
 30
0.0
 11
155.0762615617
 21
465.2631306129
 31
0.0
  0
LINE
  5
A3
330
1F
100
AcDbEntity
  8
SLD-0
  6
Continuous
 62
     7
100
AcDbLine
 10
155.0762615617
 20
465.2631306129
 30
0.0
 11
155.3597459089
 21
465.6748739111
 31
0.0
  0
LINE
  5
A4
330
1F
100
AcDbEntity
  8
SLD-0
  6
Continuous
 62
     7
100
AcDbLine
 10
154.5352460336
 20
466.2407361942
 30
0.0
 11
154.2517728623
 21
465.8290096598
 31
0.0
  0
LINE
  5
A5
330
1F
100
AcDbEntity
  8
SLD-0
  6
Continuous
 62
     7
100
AcDbLine
 10
155.3597431163
 20
465.6748701265
 30
0.0
 11
156.0955568681
 21
466.7468876025
 31
0.0
  0
LINE
  5
A6
330
1F
100
AcDbEntity
  8
SLD-0
  6
Continuous
 62
     7
100
AcDbLine
 10
154.8826517057
 20
466.7468764859
 30
0.0
 11
154.5352637287
 21
466.2407622712
 31
0.0
  0
LINE
  5
A7
330
1F
100
AcDbEntity
  8
SLD-0
  6
Continuous
 62
     7
100
AcDbLine
 10
153.0729578327
 20
485.2328668388
 30
0.0
 11
152.6978676658
 21
485.6021176132
 31
0.0
  0
LINE
  5
A8
330
1F
100
AcDbEntity
  8
SLD-0
  6
Continuous
 62
     7
100
AcDbLine
 10
151.9963293787
 20
484.8894863429
 30
0.0
 11
153.0729578327
 21
483.8296170386
 31
0.0
  0
LINE
  5
A9
330
1F
100
AcDbEntity
  8
SLD-0
  6
Continuous
 62
     7
100
AcDbLine
 10
145.3729569431
 20
485.4194703551
 30
0.0
 11
150.579214048
 21
485.4627880307
 31
0.0
  0
LINE
  5
AA
330
1F
100
AcDbEntity
  8
SLD-0
  6
Continuous
 62
     7
100
AcDbLine
 10
150.5708936122
 20
486.4627537356
 30
0.0
 11
145.3729569431
 21
486.4195049779
 31
0.0
  0
LINE
  5
AB
330
1F
100
AcDbEntity
  8
SLD-0
  6
Continuous
 62
     7
100
AcDbLine
 10
159.546630409
 20
445.2705499732
 30
0.0
 11
159.7229577285
 21
445.4468754137
 31
0.0
  0
LINE
  5
AC
330
1F
100
AcDbEntity
  8
SLD-0
  6
Continuous
 62
     7
100
AcDbLine
 10
157.5466305633
 20
445.2705499732
 30
0.0
 11
159.546630409
 21
445.2705499732
 31
0.0
  0
LINE
  5
AD
330
1F
100
AcDbEntity
  8
SLD-0
  6
Continuous
 62
     7
100
AcDbLine
 10
157.5466305633
 20
445.2705499732
 30
0.0
 11
157.7229574007
 21
445.4468754137
 31
0.0
  0
LINE
  5
AE
330
1F
100
AcDbEntity
  8
SLD-0
  6
Continuous
 62
     7
100
AcDbLine
 10
157.7229574007
 20
445.4468754137
 30
0.0
 11
159.7229577285
 21
445.4468754137
 31
0.0
  0
LINE
  5
AF
330
1F
100
AcDbEntity
  8
SLD-0
  6
Continuous
 62
     7
100
AcDbLine
 10
156.8992845234
 20
444.6232025551
 30
0.0
 11
156.722957686
 21
444.4468771147
 31
0.0
  0
LINE
  5
B0
330
1F
100
AcDbEntity
  8
SLD-0
  6
Continuous
 62
     7
100
AcDbLine
 10
156.8992845234
 20
444.6232025551
 30
0.0
 11
156.8992845234
 21
442.6697646307
 31
0.0
  0
LINE
  5
B1
330
1F
100
AcDbEntity
  8
SLD-0
  6
Continuous
 62
     7
100
AcDbLine
 10
156.845012166
 20
442.5689321982
 30
0.0
 11
156.722957686
 21
442.4468767869
 31
0.0
  0
LINE
  5
B2
330
1F
100
AcDbEntity
  8
SLD-0
  6
Continuous
 62
     7
100
AcDbLine
 10
156.722957686
 20
444.4468771147
 30
0.0
 11
156.722957686
 21
442.4468767869
 31
0.0
  0
LINE
  5
B3
330
1F
100
AcDbEntity
  8
SLD-0
  6
Continuous
 62
     7
100
AcDbLine
 10
154.8992841955
 20
444.6232025551
 30
0.0
 11
154.7229578238
 21
444.4468771147
 31
0.0
  0
LINE
  5
B4
330
1F
100
AcDbEntity
  8
SLD-0
  6
Continuous
 62
     7
100
AcDbLine
 10
154.8992841955
 20
444.6232025551
 30
0.0
 11
156.8992845234
 21
444.6232025551
 31
0.0
  0
LINE
  5
B5
330
1F
100
AcDbEntity
  8
SLD-0
  6
Continuous
 62
     7
100
AcDbLine
 10
154.7229578238
 20
444.4468771147
 30
0.0
 11
156.722957686
 21
444.4468771147
 31
0.0
  0
LINE
  5
B6
330
1F
100
AcDbEntity
  8
SLD-0
  6
Continuous
 62
     7
100
AcDbLine
 10
157.6009029042
 20
442.5689321982
 30
0.0
 11
157.7229573842
 21
442.4468767869
 31
0.0
  0
LINE
  5
B7
330
1F
100
AcDbEntity
  8
SLD-0
  6
Continuous
 62
     7
100
AcDbLine
 10
157.5466305468
 20
444.6232025551
 30
0.0
 11
157.5466305468
 21
442.6697646307
 31
0.0
  0
LINE
  5
B8
330
1F
100
AcDbEntity
  8
SLD-0
  6
Continuous
 62
     7
100
AcDbLine
 10
157.5466305468
 20
444.6232025551
 30
0.0
 11
157.7229573842
 21
444.4468771147
 31
0.0
  0
LINE
  5
B9
330
1F
100
AcDbEntity
  8
SLD-0
  6
Continuous
 62
     7
100
AcDbLine
 10
157.7229573842
 20
444.4468771147
 30
0.0
 11
157.7229573842
 21
442.4468767869
 31
0.0
  0
LINE
  5
BA
330
1F
100
AcDbEntity
  8
SLD-0
  6
Continuous
 62
     7
100
AcDbLine
 10
157.6009029207
 20
447.3248203324
 30
0.0
 11
157.7229574007
 21
447.4468757438
 31
0.0
  0
LINE
  5
BB
330
1F
100
AcDbEntity
  8
SLD-0
  6
Continuous
 62
     7
100
AcDbLine
 10
156.845012166
 20
447.3248203324
 30
0.0
 11
156.722957686
 21
447.4468757438
 31
0.0
  0
LINE
  5
BC
330
1F
100
AcDbEntity
  8
SLD-0
  6
Continuous
 62
     7
100
AcDbLine
 10
156.722957686
 20
447.4468757438
 30
0.0
 11
157.7229574007
 21
447.4468757438
 31
0.0
  0
LINE
  5
BD
330
1F
100
AcDbEntity
  8
SLD-0
  6
Continuous
 62
     7
100
AcDbLine
 10
156.722957686
 20
447.4468757438
 30
0.0
 11
156.722957686
 21
445.446875416
 31
0.0
  0
LINE
  5
BE
330
1F
100
AcDbEntity
  8
SLD-0
  6
Continuous
 62
     7
100
AcDbLine
 10
154.7229578238
 20
445.446875416
 30
0.0
 11
156.722957686
 21
445.446875416
 31
0.0
  0
LINE
  5
BF
330
1F
100
AcDbEntity
  8
SLD-0
  6
Continuous
 62
     7
100
AcDbLine
 10
154.7229578238
 20
445.446875416
 30
0.0
 11
154.7229578238
 21
444.4468771147
 31
0.0
  0
LINE
  5
C0
330
1F
100
AcDbEntity
  8
SLD-0
  6
Continuous
 62
     7
100
AcDbLine
 10
156.722957686
 20
442.4468767869
 30
0.0
 11
157.7229573842
 21
442.4468767869
 31
0.0
  0
LINE
  5
C1
330
1F
100
AcDbEntity
  8
SLD-0
  6
Continuous
 62
     7
100
AcDbLine
 10
157.7229573842
 20
444.4468771147
 30
0.0
 11
159.722957712
 21
444.4468771147
 31
0.0
  0
LINE
  5
C2
330
1F
100
AcDbEntity
  8
SLD-0
  6
Continuous
 62
     7
100
AcDbLine
 10
159.7229577285
 20
445.4468754137
 30
0.0
 11
159.722957712
 21
444.4468771147
 31
0.0
  0
LINE
  5
C3
330
1F
100
AcDbEntity
  8
SLD-0
  6
Continuous
 62
     7
100
AcDbLine
 10
157.7229574007
 20
447.4468757438
 30
0.0
 11
157.7229574007
 21
445.4468754137
 31
0.0
  0
LINE
  5
C4
330
1F
100
AcDbEntity
  8
SLD-0
  6
Continuous
 62
     7
100
AcDbLine
 10
157.5466305468
 20
444.6232025551
 30
0.0
 11
159.546630409
 21
444.6232025551
 31
0.0
  0
LINE
  5
C5
330
1F
100
AcDbEntity
  8
SLD-0
  6
Continuous
 62
     7
100
AcDbLine
 10
159.546630409
 20
444.6232025551
 30
0.0
 11
159.722957712
 21
444.4468771147
 31
0.0
  0
LINE
  5
C6
330
1F
100
AcDbEntity
  8
SLD-0
  6
Continuous
 62
     7
100
AcDbLine
 10
156.8992845234
 20
445.2705499755
 30
0.0
 11
156.722957686
 21
445.446875416
 31
0.0
  0
LINE
  5
C7
330
1F
100
AcDbEntity
  8
SLD-0
  6
Continuous
 62
     7
100
AcDbLine
 10
154.8992841955
 20
445.2705499755
 30
0.0
 11
156.8992845234
 21
445.2705499755
 31
0.0
  0
LINE
  5
C8
330
1F
100
AcDbEntity
  8
SLD-0
  6
Continuous
 62
     7
100
AcDbLine
 10
154.8992841955
 20
445.2705499755
 30
0.0
 11
154.7229578238
 21
445.446875416
 31
0.0
  0
LINE
  5
C9
330
1F
100
AcDbEntity
  8
SLD-0
  6
Continuous
 62
     7
100
AcDbLine
 10
156.8992845234
 20
447.2239878999
 30
0.0
 11
156.8992845234
 21
445.2705499755
 31
0.0
  0
LINE
  5
CA
330
1F
100
AcDbEntity
  8
SLD-0
  6
Continuous
 62
     7
100
AcDbLine
 10
157.5466305633
 20
447.2239878976
 30
0.0
 11
157.5466305633
 21
445.2705499732
 31
0.0
  0
LINE
  5
CB
330
1F
100
AcDbEntity
  8
SLD-0
  6
Continuous
 62
     7
100
AcDbLine
 10
154.8992841955
 20
445.2705499755
 30
0.0
 11
154.8992841955
 21
444.6232025551
 31
0.0
  0
LINE
  5
CC
330
1F
100
AcDbEntity
  8
SLD-0
  6
Continuous
 62
     7
100
AcDbLine
 10
159.546630409
 20
445.2705499732
 30
0.0
 11
159.546630409
 21
444.6232025551
 31
0.0
  0
LINE
  5
CD
330
1F
100
AcDbEntity
  8
SLD-0
  6
Continuous
 62
     7
100
AcDbLine
 10
136.8450130787
 20
316.5248190092
 30
0.0
 11
136.7229576673
 21
316.6468744206
 31
0.0
  0
LINE
  5
CE
330
1F
100
AcDbEntity
  8
SLD-0
  6
Continuous
 62
     7
100
AcDbLine
 10
136.8992849704
 20
316.4239828514
 30
0.0
 11
136.8992849704
 21
314.470544927
 31
0.0
  0
LINE
  5
CF
330
1F
100
AcDbEntity
  8
SLD-0
  6
Continuous
 62
     7
100
AcDbLine
 10
136.8992849704
 20
314.470544927
 30
0.0
 11
136.7229576673
 21
314.6468703674
 31
0.0
  0
LINE
  5
D0
330
1F
100
AcDbEntity
  8
SLD-0
  6
Continuous
 62
     7
100
AcDbLine
 10
136.7229576673
 20
316.6468744206
 30
0.0
 11
136.7229576673
 21
314.6468703674
 31
0.0
  0
LINE
  5
D1
330
1F
100
AcDbEntity
  8
SLD-0
  6
Continuous
 62
     7
100
AcDbLine
 10
134.7229573395
 20
314.6468703674
 30
0.0
 11
136.7229576673
 21
314.6468703674
 31
0.0
  0
LINE
  5
D2
330
1F
100
AcDbEntity
  8
SLD-0
  6
Continuous
 62
     7
100
AcDbLine
 10
134.7229573395
 20
314.6468703674
 30
0.0
 11
134.7229573395
 21
313.646883242
 31
0.0
  0
LINE
  5
D3
330
1F
100
AcDbEntity
  8
SLD-0
  6
Continuous
 62
     7
100
AcDbLine
 10
134.7229573395
 20
313.646883242
 30
0.0
 11
136.7229576673
 21
313.646883242
 31
0.0
  0
LINE
  5
D4
330
1F
100
AcDbEntity
  8
SLD-0
  6
Continuous
 62
     7
100
AcDbLine
 10
136.7229576673
 20
313.646883242
 30
0.0
 11
136.7229576673
 21
311.6468791889
 31
0.0
  0
LINE
  5
D5
330
1F
100
AcDbEntity
  8
SLD-0
  6
Continuous
 62
     7
100
AcDbLine
 10
136.7229576673
 20
311.6468791889
 30
0.0
 11
137.7229578313
 21
311.6468791889
 31
0.0
  0
LINE
  5
D6
330
1F
100
AcDbEntity
  8
SLD-0
  6
Continuous
 62
     7
100
AcDbLine
 10
137.7229578313
 20
313.646883242
 30
0.0
 11
137.7229578313
 21
311.6468791889
 31
0.0
  0
LINE
  5
D7
330
1F
100
AcDbEntity
  8
SLD-0
  6
Continuous
 62
     7
100
AcDbLine
 10
137.7229578313
 20
313.646883242
 30
0.0
 11
139.7229581591
 21
313.646883242
 31
0.0
  0
LINE
  5
D8
330
1F
100
AcDbEntity
  8
SLD-0
  6
Continuous
 62
     7
100
AcDbLine
 10
139.7229583855
 20
314.6468703352
 30
0.0
 11
139.7229581591
 21
313.646883242
 31
0.0
  0
LINE
  5
D9
330
1F
100
AcDbEntity
  8
SLD-0
  6
Continuous
 62
     7
100
AcDbLine
 10
137.7229580577
 20
314.6468703352
 30
0.0
 11
139.7229583855
 21
314.6468703352
 31
0.0
  0
LINE
  5
DA
330
1F
100
AcDbEntity
  8
SLD-0
  6
Continuous
 62
     7
100
AcDbLine
 10
137.7229580577
 20
316.6468744206
 30
0.0
 11
137.7229580577
 21
314.6468703352
 31
0.0
  0
LINE
  5
DB
330
1F
100
AcDbEntity
  8
SLD-0
  6
Continuous
 62
     7
100
AcDbLine
 10
136.7229576673
 20
316.6468744206
 30
0.0
 11
137.7229580577
 21
316.6468744206
 31
0.0
  0
LINE
  5
DC
330
1F
100
AcDbEntity
  8
SLD-0
  6
Continuous
 62
     7
100
AcDbLine
 10
134.8992846426
 20
313.8232086824
 30
0.0
 11
134.7229573395
 21
313.646883242
 31
0.0
  0
LINE
  5
DD
330
1F
100
AcDbEntity
  8
SLD-0
  6
Continuous
 62
     7
100
AcDbLine
 10
134.8992846426
 20
313.8232086824
 30
0.0
 11
136.8992849704
 21
313.8232086824
 31
0.0
  0
LINE
  5
DE
330
1F
100
AcDbEntity
  8
SLD-0
  6
Continuous
 62
     7
100
AcDbLine
 10
136.8992849704
 20
313.8232086824
 30
0.0
 11
136.7229576673
 21
313.646883242
 31
0.0
  0
LINE
  5
DF
330
1F
100
AcDbEntity
  8
SLD-0
  6
Continuous
 62
     7
100
AcDbLine
 10
134.8992846426
 20
314.470544927
 30
0.0
 11
134.7229573395
 21
314.6468703674
 31
0.0
  0
LINE
  5
E0
330
1F
100
AcDbEntity
  8
SLD-0
  6
Continuous
 62
     7
100
AcDbLine
 10
134.8992846426
 20
314.470544927
 30
0.0
 11
134.8992846426
 21
313.8232086824
 31
0.0
  0
LINE
  5
E1
330
1F
100
AcDbEntity
  8
SLD-0
  6
Continuous
 62
     7
100
AcDbLine
 10
137.5466305282
 20
313.8232086824
 30
0.0
 11
137.7229578313
 21
313.646883242
 31
0.0
  0
LINE
  5
E2
330
1F
100
AcDbEntity
  8
SLD-0
  6
Continuous
 62
     7
100
AcDbLine
 10
137.5466305282
 20
313.8232086824
 30
0.0
 11
139.546630856
 21
313.8232086824
 31
0.0
  0
LINE
  5
E3
330
1F
100
AcDbEntity
  8
SLD-0
  6
Continuous
 62
     7
100
AcDbLine
 10
139.546630856
 20
313.8232086824
 30
0.0
 11
139.7229581591
 21
313.646883242
 31
0.0
  0
LINE
  5
E4
330
1F
100
AcDbEntity
  8
SLD-0
  6
Continuous
 62
     7
100
AcDbLine
 10
139.546630856
 20
314.4705448948
 30
0.0
 11
139.7229583855
 21
314.6468703352
 31
0.0
  0
LINE
  5
E5
330
1F
100
AcDbEntity
  8
SLD-0
  6
Continuous
 62
     7
100
AcDbLine
 10
137.5466307546
 20
314.4705448948
 30
0.0
 11
139.546630856
 21
314.4705448948
 31
0.0
  0
LINE
  5
E6
330
1F
100
AcDbEntity
  8
SLD-0
  6
Continuous
 62
     7
100
AcDbLine
 10
137.5466307546
 20
314.4705448948
 30
0.0
 11
137.7229580577
 21
314.6468703352
 31
0.0
  0
LINE
  5
E7
330
1F
100
AcDbEntity
  8
SLD-0
  6
Continuous
 62
     7
100
AcDbLine
 10
134.8992846426
 20
314.470544927
 30
0.0
 11
136.8992849704
 21
314.470544927
 31
0.0
  0
LINE
  5
E8
330
1F
100
AcDbEntity
  8
SLD-0
  6
Continuous
 62
     7
100
AcDbLine
 10
137.6009026463
 20
316.5248190092
 30
0.0
 11
137.7229580577
 21
316.6468744206
 31
0.0
  0
LINE
  5
E9
330
1F
100
AcDbEntity
  8
SLD-0
  6
Continuous
 62
     7
100
AcDbLine
 10
137.5466307546
 20
316.4239828192
 30
0.0
 11
137.5466307546
 21
314.4705448948
 31
0.0
  0
LINE
  5
EA
330
1F
100
AcDbEntity
  8
SLD-0
  6
Continuous
 62
     7
100
AcDbLine
 10
136.8450130787
 20
311.7689346003
 30
0.0
 11
136.7229576673
 21
311.6468791889
 31
0.0
  0
LINE
  5
EB
330
1F
100
AcDbEntity
  8
SLD-0
  6
Continuous
 62
     7
100
AcDbLine
 10
137.6009024199
 20
311.7689346003
 30
0.0
 11
137.7229578313
 21
311.6468791889
 31
0.0
  0
LINE
  5
EC
330
1F
100
AcDbEntity
  8
SLD-0
  6
Continuous
 62
     7
100
AcDbLine
 10
137.5466305282
 20
313.8232086824
 30
0.0
 11
137.5466305282
 21
311.8697707581
 31
0.0
  0
LINE
  5
ED
330
1F
100
AcDbEntity
  8
SLD-0
  6
Continuous
 62
     7
100
AcDbLine
 10
136.8992849704
 20
313.8232086824
 30
0.0
 11
136.8992849704
 21
311.8697707581
 31
0.0
  0
LINE
  5
EE
330
1F
100
AcDbEntity
  8
SLD-0
  6
Continuous
 62
     7
100
AcDbLine
 10
139.546630856
 20
314.4705448948
 30
0.0
 11
139.546630856
 21
313.8232086824
 31
0.0
  0
LINE
  5
EF
330
1F
100
AcDbEntity
  8
SLD-0
  6
Continuous
 62
     7
100
AcDbLine
 10
145.8450126912
 20
393.0689324664
 30
0.0
 11
145.7229572799
 21
392.9468770551
 31
0.0
  0
LINE
  5
F0
330
1F
100
AcDbEntity
  8
SLD-0
  6
Continuous
 62
     7
100
AcDbLine
 10
146.6009020325
 20
393.0689324664
 30
0.0
 11
146.7229574438
 21
392.9468770551
 31
0.0
  0
LINE
  5
F1
330
1F
100
AcDbEntity
  8
SLD-0
  6
Continuous
 62
     7
100
AcDbLine
 10
145.7229572799
 20
392.9468770551
 30
0.0
 11
146.7229574438
 21
392.9468770551
 31
0.0
  0
LINE
  5
F2
330
1F
100
AcDbEntity
  8
SLD-0
  6
Continuous
 62
     7
100
AcDbLine
 10
145.899284583
 20
395.1232065486
 30
0.0
 11
145.7229572799
 21
394.9468736576
 31
0.0
  0
LINE
  5
F3
330
1F
100
AcDbEntity
  8
SLD-0
  6
Continuous
 62
     7
100
AcDbLine
 10
145.899284583
 20
395.1232065486
 30
0.0
 11
145.899284583
 21
393.1697611736
 31
0.0
  0
LINE
  5
F4
330
1F
100
AcDbEntity
  8
SLD-0
  6
Continuous
 62
     7
100
AcDbLine
 10
145.7229572799
 20
394.9468736576
 30
0.0
 11
145.7229572799
 21
392.9468770551
 31
0.0
  0
LINE
  5
F5
330
1F
100
AcDbEntity
  8
SLD-0
  6
Continuous
 62
     7
100
AcDbLine
 10
148.5466304686
 20
395.7705502656
 30
0.0
 11
148.7229576183
 21
395.946875706
 31
0.0
  0
LINE
  5
F6
330
1F
100
AcDbEntity
  8
SLD-0
  6
Continuous
 62
     7
100
AcDbLine
 10
146.5466299875
 20
395.7705502656
 30
0.0
 11
148.5466304686
 21
395.7705502656
 31
0.0
  0
LINE
  5
F7
330
1F
100
AcDbEntity
  8
SLD-0
  6
Continuous
 62
     7
100
AcDbLine
 10
146.5466299875
 20
395.7705502656
 30
0.0
 11
146.7229572905
 21
395.946875706
 31
0.0
  0
LINE
  5
F8
330
1F
100
AcDbEntity
  8
SLD-0
  6
Continuous
 62
     7
100
AcDbLine
 10
146.7229572905
 20
395.946875706
 30
0.0
 11
148.7229576183
 21
395.946875706
 31
0.0
  0
LINE
  5
F9
330
1F
100
AcDbEntity
  8
SLD-0
  6
Continuous
 62
     7
100
AcDbLine
 10
145.8450126912
 20
397.8248243259
 30
0.0
 11
145.7229572799
 21
397.9468797373
 31
0.0
  0
LINE
  5
FA
330
1F
100
AcDbEntity
  8
SLD-0
  6
Continuous
 62
     7
100
AcDbLine
 10
145.899284583
 20
397.7239881682
 30
0.0
 11
145.899284583
 21
395.7705502438
 31
0.0
  0
LINE
  5
FB
330
1F
100
AcDbEntity
  8
SLD-0
  6
Continuous
 62
     7
100
AcDbLine
 10
145.899284583
 20
395.7705502438
 30
0.0
 11
145.7229572799
 21
395.9468756842
 31
0.0
  0
LINE
  5
FC
330
1F
100
AcDbEntity
  8
SLD-0
  6
Continuous
 62
     7
100
AcDbLine
 10
145.7229572799
 20
397.9468797373
 30
0.0
 11
145.7229572799
 21
395.9468756842
 31
0.0
  0
LINE
  5
FD
330
1F
100
AcDbEntity
  8
SLD-0
  6
Continuous
 62
     7
100
AcDbLine
 10
146.5466301408
 20
395.1232065486
 30
0.0
 11
146.7229574438
 21
394.9468736576
 31
0.0
  0
LINE
  5
FE
330
1F
100
AcDbEntity
  8
SLD-0
  6
Continuous
 62
     7
100
AcDbLine
 10
146.5466301408
 20
395.1232065486
 30
0.0
 11
148.5466304686
 21
395.1232065486
 31
0.0
  0
LINE
  5
FF
330
1F
100
AcDbEntity
  8
SLD-0
  6
Continuous
 62
     7
100
AcDbLine
 10
148.5466304686
 20
395.1232065486
 30
0.0
 11
148.7229577716
 21
394.9468736576
 31
0.0
  0
LINE
  5
100
330
1F
100
AcDbEntity
  8
SLD-0
  6
Continuous
 62
     7
100
AcDbLine
 10
146.7229574438
 20
394.9468736576
 30
0.0
 11
148.7229577716
 21
394.9468736576
 31
0.0
  0
LINE
  5
101
330
1F
100
AcDbEntity
  8
SLD-0
  6
Continuous
 62
     7
100
AcDbLine
 10
143.8992842551
 20
395.7705502438
 30
0.0
 11
145.899284583
 21
395.7705502438
 31
0.0
  0
LINE
  5
102
330
1F
100
AcDbEntity
  8
SLD-0
  6
Continuous
 62
     7
100
AcDbLine
 10
143.8992842551
 20
395.7705502438
 30
0.0
 11
143.7229569521
 21
395.9468756842
 31
0.0
  0
LINE
  5
103
330
1F
100
AcDbEntity
  8
SLD-0
  6
Continuous
 62
     7
100
AcDbLine
 10
143.7229569521
 20
395.9468756842
 30
0.0
 11
145.7229572799
 21
395.9468756842
 31
0.0
  0
LINE
  5
104
330
1F
100
AcDbEntity
  8
SLD-0
  6
Continuous
 62
     7
100
AcDbLine
 10
143.8992842551
 20
395.1232065486
 30
0.0
 11
143.7229569521
 21
394.9468736576
 31
0.0
  0
LINE
  5
105
330
1F
100
AcDbEntity
  8
SLD-0
  6
Continuous
 62
     7
100
AcDbLine
 10
143.8992842551
 20
395.1232065486
 30
0.0
 11
145.899284583
 21
395.1232065486
 31
0.0
  0
LINE
  5
106
330
1F
100
AcDbEntity
  8
SLD-0
  6
Continuous
 62
     7
100
AcDbLine
 10
143.7229569521
 20
394.9468736576
 30
0.0
 11
145.7229572799
 21
394.9468736576
 31
0.0
  0
LINE
  5
107
330
1F
100
AcDbEntity
  8
SLD-0
  6
Continuous
 62
     7
100
AcDbLine
 10
148.5466304686
 20
395.7705502656
 30
0.0
 11
148.5466304686
 21
395.1232065486
 31
0.0
  0
LINE
  5
108
330
1F
100
AcDbEntity
  8
SLD-0
  6
Continuous
 62
     7
100
AcDbLine
 10
148.7229576183
 20
395.946875706
 30
0.0
 11
148.7229577716
 21
394.9468736576
 31
0.0
  0
LINE
  5
109
330
1F
100
AcDbEntity
  8
SLD-0
  6
Continuous
 62
     7
100
AcDbLine
 10
143.7229569521
 20
395.9468756842
 30
0.0
 11
143.7229569521
 21
394.9468736576
 31
0.0
  0
LINE
  5
10A
330
1F
100
AcDbEntity
  8
SLD-0
  6
Continuous
 62
     7
100
AcDbLine
 10
146.7229574438
 20
394.9468736576
 30
0.0
 11
146.7229574438
 21
392.9468770551
 31
0.0
  0
LINE
  5
10B
330
1F
100
AcDbEntity
  8
SLD-0
  6
Continuous
 62
     7
100
AcDbLine
 10
146.7229572905
 20
397.9468797373
 30
0.0
 11
146.7229572905
 21
395.946875706
 31
0.0
  0
LINE
  5
10C
330
1F
100
AcDbEntity
  8
SLD-0
  6
Continuous
 62
     7
100
AcDbLine
 10
145.7229572799
 20
397.9468797373
 30
0.0
 11
146.7229572905
 21
397.9468797373
 31
0.0
  0
LINE
  5
10D
330
1F
100
AcDbEntity
  8
SLD-0
  6
Continuous
 62
     7
100
AcDbLine
 10
146.6009018791
 20
397.824824326
 30
0.0
 11
146.7229572905
 21
397.9468797373
 31
0.0
  0
LINE
  5
10E
330
1F
100
AcDbEntity
  8
SLD-0
  6
Continuous
 62
     7
100
AcDbLine
 10
146.5466299875
 20
397.72398819
 30
0.0
 11
146.5466299875
 21
395.7705502656
 31
0.0
  0
LINE
  5
10F
330
1F
100
AcDbEntity
  8
SLD-0
  6
Continuous
 62
     7
100
AcDbLine
 10
143.8992842551
 20
395.7705502438
 30
0.0
 11
143.8992842551
 21
395.1232065486
 31
0.0
  0
LINE
  5
110
330
1F
100
AcDbEntity
  8
SLD-0
  6
Continuous
 62
     7
100
AcDbLine
 10
146.5466301408
 20
395.1232065486
 30
0.0
 11
146.5466301408
 21
393.1697611736
 31
0.0
  0
LINE
  5
111
330
1F
100
AcDbEntity
  8
SLD-0
  6
Continuous
 62
     7
100
AcDbLine
 10
137.6009026463
 20
490.824821409
 30
0.0
 11
137.7229580577
 21
490.9468763547
 31
0.0
  0
LINE
  5
112
330
1F
100
AcDbEntity
  8
SLD-0
  6
Continuous
 62
     7
100
AcDbLine
 10
136.8450130787
 20
490.824821409
 30
0.0
 11
136.7229576673
 21
490.9468763547
 31
0.0
  0
LINE
  5
113
330
1F
100
AcDbEntity
  8
SLD-0
  6
Continuous
 62
     7
100
AcDbLine
 10
136.7229576673
 20
490.9468763547
 30
0.0
 11
137.7229580577
 21
490.9468763547
 31
0.0
  0
LINE
  5
114
330
1F
100
AcDbEntity
  8
SLD-0
  6
Continuous
 62
     7
100
AcDbLine
 10
136.7229576673
 20
490.9468763547
 30
0.0
 11
136.7229576673
 21
488.9468760269
 31
0.0
  0
LINE
  5
115
330
1F
100
AcDbEntity
  8
SLD-0
  6
Continuous
 62
     7
100
AcDbLine
 10
134.7229573395
 20
488.9468760269
 30
0.0
 11
136.7229576673
 21
488.9468760269
 31
0.0
  0
LINE
  5
116
330
1F
100
AcDbEntity
  8
SLD-0
  6
Continuous
 62
     7
100
AcDbLine
 10
134.7229573395
 20
488.9468760269
 30
0.0
 11
134.7229573395
 21
487.9468763286
 31
0.0
  0
LINE
  5
117
330
1F
100
AcDbEntity
  8
SLD-0
  6
Continuous
 62
     7
100
AcDbLine
 10
134.7229573395
 20
487.9468763286
 30
0.0
 11
136.7229576673
 21
487.9468763286
 31
0.0
  0
LINE
  5
118
330
1F
100
AcDbEntity
  8
SLD-0
  6
Continuous
 62
     7
100
AcDbLine
 10
136.7229576673
 20
487.9468763286
 30
0.0
 11
136.7229576673
 21
485.9468764665
 31
0.0
  0
LINE
  5
119
330
1F
100
AcDbEntity
  8
SLD-0
  6
Continuous
 62
     7
100
AcDbLine
 10
136.7229576673
 20
485.9468764665
 30
0.0
 11
137.7229578313
 21
485.9468764665
 31
0.0
  0
LINE
  5
11A
330
1F
100
AcDbEntity
  8
SLD-0
  6
Continuous
 62
     7
100
AcDbLine
 10
137.7229578313
 20
487.9468763286
 30
0.0
 11
137.7229578313
 21
485.9468764665
 31
0.0
  0
LINE
  5
11B
330
1F
100
AcDbEntity
  8
SLD-0
  6
Continuous
 62
     7
100
AcDbLine
 10
137.7229578313
 20
487.9468763286
 30
0.0
 11
139.7229581591
 21
487.9468763286
 31
0.0
  0
LINE
  5
11C
330
1F
100
AcDbEntity
  8
SLD-0
  6
Continuous
 62
     7
100
AcDbLine
 10
139.7229583855
 20
488.9468759947
 30
0.0
 11
139.7229581591
 21
487.9468763286
 31
0.0
  0
LINE
  5
11D
330
1F
100
AcDbEntity
  8
SLD-0
  6
Continuous
 62
     7
100
AcDbLine
 10
137.7229580577
 20
488.9468759947
 30
0.0
 11
139.7229583855
 21
488.9468759947
 31
0.0
  0
LINE
  5
11E
330
1F
100
AcDbEntity
  8
SLD-0
  6
Continuous
 62
     7
100
AcDbLine
 10
137.7229580577
 20
490.9468763547
 30
0.0
 11
137.7229580577
 21
488.9468759947
 31
0.0
  0
LINE
  5
11F
330
1F
100
AcDbEntity
  8
SLD-0
  6
Continuous
 62
     7
100
AcDbLine
 10
139.546630856
 20
488.123203166
 30
0.0
 11
139.7229581591
 21
487.9468763286
 31
0.0
  0
LINE
  5
120
330
1F
100
AcDbEntity
  8
SLD-0
  6
Continuous
 62
     7
100
AcDbLine
 10
139.546630856
 20
488.7705491573
 30
0.0
 11
139.546630856
 21
488.123203166
 31
0.0
  0
LINE
  5
121
330
1F
100
AcDbEntity
  8
SLD-0
  6
Continuous
 62
     7
100
AcDbLine
 10
139.546630856
 20
488.7705491573
 30
0.0
 11
139.7229583855
 21
488.9468759947
 31
0.0
  0
LINE
  5
122
330
1F
100
AcDbEntity
  8
SLD-0
  6
Continuous
 62
     7
100
AcDbLine
 10
136.8992849704
 20
490.7239875796
 30
0.0
 11
136.8992849704
 21
488.7705491895
 31
0.0
  0
LINE
  5
123
330
1F
100
AcDbEntity
  8
SLD-0
  6
Continuous
 62
     7
100
AcDbLine
 10
136.8992849704
 20
488.7705491895
 30
0.0
 11
136.7229576673
 21
488.9468760269
 31
0.0
  0
LINE
  5
124
330
1F
100
AcDbEntity
  8
SLD-0
  6
Continuous
 62
     7
100
AcDbLine
 10
136.8450130787
 20
486.0689309465
 30
0.0
 11
136.7229576673
 21
485.9468764665
 31
0.0
  0
LINE
  5
125
330
1F
100
AcDbEntity
  8
SLD-0
  6
Continuous
 62
     7
100
AcDbLine
 10
137.6009024199
 20
486.0689309465
 30
0.0
 11
137.7229578313
 21
485.9468764665
 31
0.0
  0
LINE
  5
126
330
1F
100
AcDbEntity
  8
SLD-0
  6
Continuous
 62
     7
100
AcDbLine
 10
134.8992846426
 20
488.7705491895
 30
0.0
 11
136.8992849704
 21
488.7705491895
 31
0.0
  0
LINE
  5
127
330
1F
100
AcDbEntity
  8
SLD-0
  6
Continuous
 62
     7
100
AcDbLine
 10
134.8992846426
 20
488.7705491895
 30
0.0
 11
134.7229573395
 21
488.9468760269
 31
0.0
  0
LINE
  5
128
330
1F
100
AcDbEntity
  8
SLD-0
  6
Continuous
 62
     7
100
AcDbLine
 10
137.5466307546
 20
488.7705491573
 30
0.0
 11
139.546630856
 21
488.7705491573
 31
0.0
  0
LINE
  5
129
330
1F
100
AcDbEntity
  8
SLD-0
  6
Continuous
 62
     7
100
AcDbLine
 10
137.5466307546
 20
488.7705491573
 30
0.0
 11
137.7229580577
 21
488.9468759947
 31
0.0
  0
LINE
  5
12A
330
1F
100
AcDbEntity
  8
SLD-0
  6
Continuous
 62
     7
100
AcDbLine
 10
137.5466305282
 20
488.123203166
 30
0.0
 11
137.7229578313
 21
487.9468763286
 31
0.0
  0
LINE
  5
12B
330
1F
100
AcDbEntity
  8
SLD-0
  6
Continuous
 62
     7
100
AcDbLine
 10
137.5466305282
 20
488.123203166
 30
0.0
 11
139.546630856
 21
488.123203166
 31
0.0
  0
LINE
  5
12C
330
1F
100
AcDbEntity
  8
SLD-0
  6
Continuous
 62
     7
100
AcDbLine
 10
136.8992849704
 20
488.123203166
 30
0.0
 11
136.7229576673
 21
487.9468763286
 31
0.0
  0
LINE
  5
12D
330
1F
100
AcDbEntity
  8
SLD-0
  6
Continuous
 62
     7
100
AcDbLine
 10
136.8992849704
 20
488.123203166
 30
0.0
 11
136.8992849704
 21
486.1697652417
 31
0.0
  0
LINE
  5
12E
330
1F
100
AcDbEntity
  8
SLD-0
  6
Continuous
 62
     7
100
AcDbLine
 10
134.8992846426
 20
488.7705491895
 30
0.0
 11
134.8992846426
 21
488.123203166
 31
0.0
  0
LINE
  5
12F
330
1F
100
AcDbEntity
  8
SLD-0
  6
Continuous
 62
     7
100
AcDbLine
 10
134.8992846426
 20
488.123203166
 30
0.0
 11
134.7229573395
 21
487.9468763286
 31
0.0
  0
LINE
  5
130
330
1F
100
AcDbEntity
  8
SLD-0
  6
Continuous
 62
     7
100
AcDbLine
 10
137.5466307546
 20
490.7239875474
 30
0.0
 11
137.5466307546
 21
488.7705491573
 31
0.0
  0
LINE
  5
131
330
1F
100
AcDbEntity
  8
SLD-0
  6
Continuous
 62
     7
100
AcDbLine
 10
134.8992846426
 20
488.123203166
 30
0.0
 11
136.8992849704
 21
488.123203166
 31
0.0
  0
LINE
  5
132
330
1F
100
AcDbEntity
  8
SLD-0
  6
Continuous
 62
     7
100
AcDbLine
 10
137.5466305282
 20
488.123203166
 30
0.0
 11
137.5466305282
 21
486.1697652417
 31
0.0
  0
LINE
  5
133
330
1F
100
AcDbEntity
  8
SLD-0
  6
Continuous
 62
     7
100
AcDbLine
 10
155.2639980992
 20
442.5538603235
 30
0.0
 11
155.1084281137
 21
442.2844026257
 31
0.0
  0
LINE
  5
134
330
1F
100
AcDbEntity
  8
SLD-0
  6
Continuous
 62
     7
100
AcDbLine
 10
153.8599231909
 20
444.446876161
 30
0.0
 11
154.1641838536
 21
444.4468771147
 31
0.0
  0
LINE
  5
135
330
1F
100
AcDbEntity
  8
SLD-0
  6
Continuous
 62
     7
100
AcDbLine
 10
140.2817309078
 20
487.9468764086
 30
0.0
 11
140.5859921303
 21
487.9468764086
 31
0.0
  0
LINE
  5
136
330
1F
100
AcDbEntity
  8
SLD-0
  6
Continuous
 62
     7
100
AcDbLine
 10
139.3374876233
 20
485.7844029852
 30
0.0
 11
139.1853580218
 21
486.0479007514
 31
0.0
  0
LINE
  5
137
330
1F
100
AcDbEntity
  8
SLD-0
  6
Continuous
 62
     7
100
AcDbLine
 10
136.1265835517
 20
491.3458518718
 30
0.0
 11
135.9744538718
 21
491.6093495708
 31
0.0
  0
LINE
  5
138
330
1F
100
AcDbEntity
  8
SLD-0
  6
Continuous
 62
     7
100
AcDbLine
 10
138.4714622195
 20
491.6093493368
 30
0.0
 11
138.3124964279
 21
491.3340131792
 31
0.0
  0
LINE
  5
139
330
1F
100
AcDbEntity
  8
SLD-0
  6
Continuous
 62
     7
100
AcDbLine
 10
154.1641833818
 20
445.4468754861
 30
0.0
 11
153.8599230906
 21
445.4468754861
 31
0.0
  0
LINE
  5
13A
330
1F
100
AcDbEntity
  8
SLD-0
  6
Continuous
 62
     7
100
AcDbLine
 10
155.1084276611
 20
447.6093493368
 30
0.0
 11
155.2605582089
 21
447.3458533215
 31
0.0
  0
LINE
  5
13B
330
1F
100
AcDbEntity
  8
SLD-0
  6
Continuous
 62
     7
100
AcDbLine
 10
139.1853580078
 20
490.8458515865
 30
0.0
 11
139.3374876877
 21
491.1093492856
 31
0.0
  0
LINE
  5
13C
330
1F
100
AcDbEntity
  8
SLD-0
  6
Continuous
 62
     7
100
AcDbLine
 10
140.5859920935
 20
488.946876161
 30
0.0
 11
140.2817314457
 21
488.9468760269
 31
0.0
  0
LINE
  5
13D
330
1F
100
AcDbEntity
  8
SLD-0
  6
Continuous
 62
     7
100
AcDbLine
 10
133.8599234051
 20
313.646876161
 30
0.0
 11
134.1641845148
 21
313.646883242
 31
0.0
  0
LINE
  5
13E
330
1F
100
AcDbEntity
  8
SLD-0
  6
Continuous
 62
     7
100
AcDbLine
 10
135.2639982444
 20
311.7538546251
 30
0.0
 11
135.1084278753
 21
311.4844029852
 31
0.0
  0
LINE
  5
13F
330
1F
100
AcDbEntity
  8
SLD-0
  6
Continuous
 62
     7
100
AcDbLine
 10
135.9744532791
 20
310.9844029852
 30
0.0
 11
136.126583625
 21
311.247900598
 31
0.0
  0
LINE
  5
140
330
1F
100
AcDbEntity
  8
SLD-0
  6
Continuous
 62
     7
100
AcDbLine
 10
138.3193323356
 20
311.247900598
 30
0.0
 11
138.4714622195
 21
310.9844029852
 31
0.0
  0
LINE
  5
141
330
1F
100
AcDbEntity
  8
SLD-0
  6
Continuous
 62
     7
100
AcDbLine
 10
138.3193325171
 20
485.5479002097
 30
0.0
 11
138.471462197
 21
485.2844029763
 31
0.0
  0
LINE
  5
142
330
1F
100
AcDbEntity
  8
SLD-0
  6
Continuous
 62
     7
100
AcDbLine
 10
135.9744532791
 20
485.2844029852
 30
0.0
 11
136.126583625
 21
485.5479006695
 31
0.0
  0
LINE
  5
143
330
1F
100
AcDbEntity
  8
SLD-0
  6
Continuous
 62
     7
100
AcDbLine
 10
119.7229567435
 20
310.1468835997
 30
0.0
 11
117.2229591277
 21
310.1468835997
 31
0.0
  0
LINE
  5
144
330
1F
100
AcDbEntity
  8
SLD-0
  6
Continuous
 62
     7
100
AcDbLine
 10
117.2229548019
 20
493.7468761385
 30
0.0
 11
119.7229524177
 21
493.7468761385
 31
0.0
  0
LINE
  5
145
330
1F
100
AcDbEntity
  8
SLD-0
  6
Continuous
 62
     7
100
AcDbLine
 10
164.2229531925
 20
310.1468835997
 30
0.0
 11
164.2229531925
 21
493.7468761385
 31
0.0
  0
LINE
  5
146
330
1F
100
AcDbEntity
  8
SLD-0
  6
Continuous
 62
     7
100
AcDbLine
 10
151.7229575183
 20
310.446876161
 30
0.0
 11
146.7229575183
 21
310.446876161
 31
0.0
  0
LINE
  5
147
330
1F
100
AcDbEntity
  8
SLD-0
  6
Continuous
 62
     7
100
AcDbLine
 10
137.4729575183
 20
324.996876161
 30
0.0
 11
137.4729573246
 21
321.8968813347
 31
0.0
  0
LINE
  5
148
330
1F
100
AcDbEntity
  8
SLD-0
  6
Continuous
 62
     7
100
AcDbLine
 10
137.6729574214
 20
321.6968760641
 30
0.0
 11
139.7729570459
 21
321.6968778522
 31
0.0
  0
LINE
  5
149
330
1F
100
AcDbEntity
  8
SLD-0
  6
Continuous
 62
     7
100
AcDbLine
 10
139.9729565274
 20
321.8968769582
 30
0.0
 11
139.9729558122
 21
324.9968750032
 31
0.0
  0
LINE
  5
14A
330
1F
100
AcDbEntity
  8
SLD-0
  6
Continuous
 62
     7
100
AcDbLine
 10
139.7729575183
 20
325.196876161
 30
0.0
 11
137.6729575183
 21
325.196876161
 31
0.0
  0
LINE
  5
14B
330
1F
100
AcDbEntity
  8
SLD-0
  6
Continuous
 62
     7
100
AcDbLine
 10
152.9729572751
 20
477.4468768891
 30
0.0
 11
154.6229572662
 21
477.4468768891
 31
0.0
  0
LINE
  5
14C
330
1F
100
AcDbEntity
  8
SLD-0
  6
Continuous
 62
     7
100
AcDbLine
 10
154.8229573346
 20
477.6468765017
 30
0.0
 11
154.8229574702
 21
486.2468762976
 31
0.0
  0
LINE
  5
14D
330
1F
100
AcDbEntity
  8
SLD-0
  6
Continuous
 62
     7
100
AcDbLine
 10
154.6229574024
 20
486.4468765695
 30
0.0
 11
152.9729578159
 21
486.4468769569
 31
0.0
  0
LINE
  5
14E
330
1F
100
AcDbEntity
  8
SLD-0
  6
Continuous
 62
     7
100
AcDbLine
 10
145.4729582629
 20
486.4468761187
 30
0.0
 11
143.8229575268
 21
486.4468765061
 31
0.0
  0
LINE
  5
14F
330
1F
100
AcDbEntity
  8
SLD-0
  6
Continuous
 62
     7
100
AcDbLine
 10
143.6229580692
 20
486.2468763124
 30
0.0
 11
143.6229576729
 21
477.6468767475
 31
0.0
  0
LINE
  5
150
330
1F
100
AcDbEntity
  8
SLD-0
  6
Continuous
 62
     7
100
AcDbLine
 10
143.8229578711
 20
477.4468761142
 30
0.0
 11
145.4729571261
 21
477.4468768891
 31
0.0
  0
LINE
  5
151
330
1F
100
AcDbEntity
  8
SLD-0
  6
Continuous
 62
     7
100
AcDbLine
 10
147.6729573189
 20
473.7239736941
 30
0.0
 11
147.6729565619
 21
472.7468752336
 31
0.0
  0
LINE
  5
152
330
1F
100
AcDbEntity
  8
SLD-0
  6
Continuous
 62
     7
100
AcDbLine
 10
147.8729569404
 20
472.5468754094
 30
0.0
 11
150.5729568451
 21
472.5468751948
 31
0.0
  0
LINE
  5
153
330
1F
100
AcDbEntity
  8
SLD-0
  6
Continuous
 62
     7
100
AcDbLine
 10
150.7729570477
 20
472.7468753021
 30
0.0
 11
150.7729566126
 21
473.7239736896
 31
0.0
  0
LINE
  5
154
330
1F
100
AcDbEntity
  8
SLD-0
  6
Continuous
 62
     7
100
AcDbLine
 10
152.9729570713
 20
406.4468746113
 30
0.0
 11
152.9729570713
 21
409.9468742537
 31
0.0
  0
LINE
  5
155
330
1F
100
AcDbEntity
  8
SLD-0
  6
Continuous
 62
     7
100
AcDbLine
 10
145.4729575183
 20
409.946876161
 30
0.0
 11
145.4729567733
 21
406.4468746113
 31
0.0
  0
LINE
  5
156
330
1F
100
AcDbEntity
  8
SLD-0
  6
Continuous
 62
     7
100
AcDbLine
 10
145.4729567733
 20
456.4468753563
 30
0.0
 11
145.4729567733
 21
452.946875714
 31
0.0
  0
LINE
  5
157
330
1F
100
AcDbEntity
  8
SLD-0
  6
Continuous
 62
     7
100
AcDbLine
 10
152.9729575183
 20
452.946876161
 30
0.0
 11
152.9729570713
 21
456.4468753563
 31
0.0
  0
LINE
  5
158
330
1F
100
AcDbEntity
  8
SLD-0
  6
Continuous
 62
     7
100
AcDbLine
 10
144.1229581352
 20
332.5222884344
 30
0.0
 11
144.1229581352
 21
319.4468771147
 31
0.0
  0
LINE
  5
159
330
1F
100
AcDbEntity
  8
SLD-0
  6
Continuous
 62
     7
100
AcDbLine
 10
154.3229575183
 20
319.446876161
 30
0.0
 11
154.3229575183
 21
332.5222884344
 31
0.0
  0
LINE
  5
15A
330
1F
100
AcDbEntity
  8
SLD-0
  6
Continuous
 62
     7
100
AcDbLine
 10
140.4147619911
 20
366.946876255
 30
0.0
 11
151.790907824
 21
366.9468766126
 31
0.0
  0
LINE
  5
15B
330
1F
100
AcDbEntity
  8
SLD-0
  6
Continuous
 62
     7
100
AcDbLine
 10
152.2239207644
 20
366.6968765232
 30
0.0
 11
153.4559711812
 21
364.5628997061
 31
0.0
  0
LINE
  5
15C
330
1F
100
AcDbEntity
  8
SLD-0
  6
Continuous
 62
     7
100
AcDbLine
 10
153.5229575183
 20
364.3129015648
 30
0.0
 11
153.5229570683
 21
362.9468833136
 31
0.0
  0
LINE
  5
15D
330
1F
100
AcDbEntity
  8
SLD-0
  6
Continuous
 62
     7
100
AcDbLine
 10
153.5229570683
 20
362.9468833136
 30
0.0
 11
159.8229575422
 21
362.9468833136
 31
0.0
  0
LINE
  5
15E
330
1F
100
AcDbEntity
  8
SLD-0
  6
Continuous
 62
     7
100
AcDbLine
 10
159.8229575422
 20
362.9468833136
 30
0.0
 11
159.8229575422
 21
375.9468798565
 31
0.0
  0
LINE
  5
15F
330
1F
100
AcDbEntity
  8
SLD-0
  6
Continuous
 62
     7
100
AcDbLine
 10
159.8229575422
 20
375.9468798565
 30
0.0
 11
132.6229590442
 21
375.9468798565
 31
0.0
  0
LINE
  5
160
330
1F
100
AcDbEntity
  8
SLD-0
  6
Continuous
 62
     7
100
AcDbLine
 10
132.6229590442
 20
375.9468798565
 30
0.0
 11
132.6229590442
 21
362.9468833136
 31
0.0
  0
LINE
  5
161
330
1F
100
AcDbEntity
  8
SLD-0
  6
Continuous
 62
     7
100
AcDbLine
 10
132.6229590442
 20
362.9468833136
 30
0.0
 11
133.0412942436
 21
362.9468833136
 31
0.0
  0
LINE
  5
162
330
1F
100
AcDbEntity
  8
SLD-0
  6
Continuous
 62
     7
100
AcDbLine
 10
138.5046216692
 20
362.9468834517
 30
0.0
 11
138.9229587312
 21
362.9468834517
 31
0.0
  0
LINE
  5
163
330
1F
100
AcDbEntity
  8
SLD-0
  6
Continuous
 62
     7
100
AcDbLine
 10
138.9229587312
 20
362.9468834517
 30
0.0
 11
138.9229587312
 21
365.2648931858
 31
0.0
  0
LINE
  5
164
330
1F
100
AcDbEntity
  8
SLD-0
  6
Continuous
 62
     7
100
AcDbLine
 10
139.0399364936
 20
365.5862849427
 30
0.0
 11
140.0317397695
 21
366.7682700598
 31
0.0
  0
LINE
  5
165
330
1F
100
AcDbEntity
  8
SLD-0
  6
Continuous
 62
     7
100
AcDbLine
 10
154.9729573991
 20
400.3968765067
 30
0.0
 11
159.9729572874
 21
400.3968765067
 31
0.0
  0
LINE
  5
166
330
1F
100
AcDbEntity
  8
SLD-0
  6
Continuous
 62
     7
100
AcDbLine
 10
159.9729572874
 20
400.3968765067
 30
0.0
 11
159.9729572874
 21
402.6968781876
 31
0.0
  0
LINE
  5
167
330
1F
100
AcDbEntity
  8
SLD-0
  6
Continuous
 62
     7
100
AcDbLine
 10
159.9729572874
 20
402.6968781876
 30
0.0
 11
154.9729573991
 21
402.6968781876
 31
0.0
  0
LINE
  5
168
330
1F
100
AcDbEntity
  8
SLD-0
  6
Continuous
 62
     7
100
AcDbLine
 10
154.9729573991
 20
402.6968781876
 30
0.0
 11
154.9729573991
 21
400.3968765067
 31
0.0
  0
LINE
  5
169
330
1F
100
AcDbEntity
  8
SLD-0
  6
Continuous
 62
     7
100
AcDbLine
 10
160.2229585808
 20
464.3468753936
 30
0.0
 11
160.2229583908
 21
466.5468760582
 31
0.0
  0
LINE
  5
16A
330
1F
100
AcDbEntity
  8
SLD-0
  6
Continuous
 62
     7
100
AcDbLine
 10
160.0229571845
 20
466.7468763815
 30
0.0
 11
143.8229564484
 21
466.7468767064
 31
0.0
  0
LINE
  5
16B
330
1F
100
AcDbEntity
  8
SLD-0
  6
Continuous
 62
     7
100
AcDbLine
 10
143.3229572978
 20
467.246875857
 30
0.0
 11
143.8229564484
 21
466.7468767064
 31
0.0
  0
LINE
  5
16C
330
1F
100
AcDbEntity
  8
SLD-0
  6
Continuous
 62
     7
100
AcDbLine
 10
143.3229572978
 20
467.246875857
 30
0.0
 11
143.3229572978
 21
472.2468766766
 31
0.0
  0
LINE
  5
16D
330
1F
100
AcDbEntity
  8
SLD-0
  6
Continuous
 62
     7
100
AcDbLine
 10
142.8229572411
 20
472.7468764381
 30
0.0
 11
141.5229566868
 21
472.7468758838
 31
0.0
  0
LINE
  5
16E
330
1F
100
AcDbEntity
  8
SLD-0
  6
Continuous
 62
     7
100
AcDbLine
 10
141.0229575183
 20
472.246876161
 30
0.0
 11
141.0229578134
 21
458.6468753444
 31
0.0
  0
LINE
  5
16F
330
1F
100
AcDbEntity
  8
SLD-0
  6
Continuous
 62
     7
100
AcDbLine
 10
141.5229576658
 20
458.1468763085
 30
0.0
 11
142.8229567658
 21
458.1468744786
 31
0.0
  0
LINE
  5
170
330
1F
100
AcDbEntity
  8
SLD-0
  6
Continuous
 62
     7
100
AcDbLine
 10
143.3229585808
 20
458.6468753936
 30
0.0
 11
143.3229586941
 21
463.6468735339
 31
0.0
  0
LINE
  5
171
330
1F
100
AcDbEntity
  8
SLD-0
  6
Continuous
 62
     7
100
AcDbLine
 10
143.8229578447
 20
464.1468745472
 30
0.0
 11
143.3229586941
 21
463.6468735339
 31
0.0
  0
LINE
  5
172
330
1F
100
AcDbEntity
  8
SLD-0
  6
Continuous
 62
     7
100
AcDbLine
 10
143.8229578447
 20
464.1468745472
 30
0.0
 11
160.0229585808
 21
464.1468753936
 31
0.0
  0
LINE
  5
173
330
1F
100
AcDbEntity
  8
SLD-0
  6
Continuous
 62
     7
100
AcDbLine
 10
157.7729572993
 20
315.1968722271
 30
0.0
 11
157.7729572993
 21
313.0968813824
 31
0.0
  0
LINE
  5
174
330
1F
100
AcDbEntity
  8
SLD-0
  6
Continuous
 62
     7
100
AcDbLine
 10
157.9729574088
 20
312.8968760515
 30
0.0
 11
161.2729572978
 21
312.8968778873
 31
0.0
  0
LINE
  5
175
330
1F
100
AcDbEntity
  8
SLD-0
  6
Continuous
 62
     7
100
AcDbLine
 10
161.4729564909
 20
313.0968769694
 30
0.0
 11
161.4729564909
 21
315.1968730355
 31
0.0
  0
LINE
  5
176
330
1F
100
AcDbEntity
  8
SLD-0
  6
Continuous
 62
     7
100
AcDbLine
 10
161.2729571346
 20
315.3968765447
 30
0.0
 11
157.9729570415
 21
315.3968759963
 31
0.0
  0
LINE
  5
177
330
1F
100
AcDbEntity
  8
SLD-0
  6
Continuous
 62
     7
100
AcDbLine
 10
157.7729572993
 20
456.4968762027
 30
0.0
 11
157.7729572993
 21
454.3968779074
 31
0.0
  0
LINE
  5
178
330
1F
100
AcDbEntity
  8
SLD-0
  6
Continuous
 62
     7
100
AcDbLine
 10
157.9729574088
 20
454.1968760515
 30
0.0
 11
161.2729572978
 21
454.1968744124
 31
0.0
  0
LINE
  5
179
330
1F
100
AcDbEntity
  8
SLD-0
  6
Continuous
 62
     7
100
AcDbLine
 10
161.4729582283
 20
454.3968752319
 30
0.0
 11
161.4729582283
 21
456.4968752736
 31
0.0
  0
LINE
  5
17A
330
1F
100
AcDbEntity
  8
SLD-0
  6
Continuous
 62
     7
100
AcDbLine
 10
161.2729572598
 20
456.6968764195
 30
0.0
 11
157.9729571667
 21
456.6968761215
 31
0.0
  0
LINE
  5
17B
330
1F
100
AcDbEntity
  8
SLD-0
  6
Continuous
 62
     7
100
AcDbLine
 10
144.9744528917
 20
392.2844029852
 30
0.0
 11
145.1265828502
 21
392.5478984641
 31
0.0
  0
LINE
  5
17C
330
1F
100
AcDbEntity
  8
SLD-0
  6
Continuous
 62
     7
100
AcDbLine
 10
147.3193315607
 20
392.5478984641
 30
0.0
 11
147.4714618321
 21
392.2844029852
 31
0.0
  0
LINE
  5
17D
330
1F
100
AcDbEntity
  8
SLD-0
  6
Continuous
 62
     7
100
AcDbLine
 10
140.5859920935
 20
314.646876161
 30
0.0
 11
140.2817314457
 21
314.6468703674
 31
0.0
  0
LINE
  5
17E
330
1F
100
AcDbEntity
  8
SLD-0
  6
Continuous
 62
     7
100
AcDbLine
 10
139.1853580218
 20
316.5458445477
 30
0.0
 11
139.3374876233
 21
316.8093493368
 31
0.0
  0
LINE
  5
17F
330
1F
100
AcDbEntity
  8
SLD-0
  6
Continuous
 62
     7
100
AcDbLine
 10
155.9744530649
 20
441.7844029852
 30
0.0
 11
156.1265838951
 21
442.0479019212
 31
0.0
  0
LINE
  5
180
330
1F
100
AcDbEntity
  8
SLD-0
  6
Continuous
 62
     7
100
AcDbLine
 10
158.3193316743
 20
442.0479019212
 30
0.0
 11
158.4714620053
 21
441.7844029852
 31
0.0
  0
LINE
  5
181
330
1F
100
AcDbEntity
  8
SLD-0
  6
Continuous
 62
     7
100
AcDbLine
 10
159.1853568949
 20
447.3458533215
 30
0.0
 11
159.3374874091
 21
447.6093493368
 31
0.0
  0
LINE
  5
182
330
1F
100
AcDbEntity
  8
SLD-0
  6
Continuous
 62
     7
100
AcDbLine
 10
160.5859918793
 20
445.446876161
 30
0.0
 11
160.2817312502
 21
445.446875416
 31
0.0
  0
LINE
  5
183
330
1F
100
AcDbEntity
  8
SLD-0
  6
Continuous
 62
     7
100
AcDbLine
 10
159.3374874091
 20
442.2844029852
 30
0.0
 11
159.1853568949
 21
442.5478992092
 31
0.0
  0
LINE
  5
184
330
1F
100
AcDbEntity
  8
SLD-0
  6
Continuous
 62
     7
100
AcDbLine
 10
160.2817312502
 20
444.4468771147
 30
0.0
 11
160.5859918793
 21
444.446876161
 31
0.0
  0
LINE
  5
185
330
1F
100
AcDbEntity
  8
SLD-0
  6
Continuous
 62
     7
100
AcDbLine
 10
149.5859917061
 20
395.946876161
 30
0.0
 11
149.2817306709
 21
395.9468756842
 31
0.0
  0
LINE
  5
186
330
1F
100
AcDbEntity
  8
SLD-0
  6
Continuous
 62
     7
100
AcDbLine
 10
148.185357247
 20
397.8458498644
 30
0.0
 11
148.3374872359
 21
398.1093493368
 31
0.0
  0
LINE
  5
187
330
1F
100
AcDbEntity
  8
SLD-0
  6
Continuous
 62
     7
100
AcDbLine
 10
144.2639974695
 20
393.0538599419
 30
0.0
 11
144.1084274879
 21
392.7844029852
 31
0.0
  0
LINE
  5
188
330
1F
100
AcDbEntity
  8
SLD-0
  6
Continuous
 62
     7
100
AcDbLine
 10
142.8599230177
 20
394.946876161
 30
0.0
 11
143.16418374
 21
394.9468736576
 31
0.0
  0
LINE
  5
189
330
1F
100
AcDbEntity
  8
SLD-0
  6
Continuous
 62
     7
100
AcDbLine
 10
149.2817306709
 20
394.9468736576
 30
0.0
 11
149.5859917061
 21
394.946876161
 31
0.0
  0
LINE
  5
18A
330
1F
100
AcDbEntity
  8
SLD-0
  6
Continuous
 62
     7
100
AcDbLine
 10
148.3374872359
 20
392.7844029852
 30
0.0
 11
148.185357247
 21
393.0478994774
 31
0.0
  0
LINE
  5
18B
330
1F
100
AcDbEntity
  8
SLD-0
  6
Continuous
 62
     7
100
AcDbLine
 10
140.2817314457
 20
313.646883242
 30
0.0
 11
140.5859920935
 21
313.646876161
 31
0.0
  0
LINE
  5
18C
330
1F
100
AcDbEntity
  8
SLD-0
  6
Continuous
 62
     7
100
AcDbLine
 10
139.3374876233
 20
311.4844029852
 30
0.0
 11
139.1853580218
 21
311.7478941607
 31
0.0
  0
LINE
  5
18D
330
1F
100
AcDbEntity
  8
SLD-0
  6
Continuous
 62
     7
100
AcDbLine
 10
135.1084278753
 20
316.8093493368
 30
0.0
 11
135.2605579388
 21
316.5458445477
 31
0.0
  0
LINE
  5
18E
330
1F
100
AcDbEntity
  8
SLD-0
  6
Continuous
 62
     7
100
AcDbLine
 10
134.1641845148
 20
314.6468703674
 30
0.0
 11
133.8599234051
 21
314.646876161
 31
0.0
  0
LINE
  5
18F
330
1F
100
AcDbEntity
  8
SLD-0
  6
Continuous
 62
     7
100
AcDbLine
 10
138.4714622195
 20
317.3093493368
 30
0.0
 11
138.3124964279
 21
317.0340065884
 31
0.0
  0
LINE
  5
190
330
1F
100
AcDbEntity
  8
SLD-0
  6
Continuous
 62
     7
100
AcDbLine
 10
136.126583625
 20
317.0458530115
 30
0.0
 11
135.9744532791
 21
317.3093493368
 31
0.0
  0
LINE
  5
191
330
1F
100
AcDbEntity
  8
SLD-0
  6
Continuous
 62
     7
100
AcDbLine
 10
145.1265828502
 20
398.3458508777
 30
0.0
 11
144.9744528917
 21
398.6093493368
 31
0.0
  0
LINE
  5
192
330
1F
100
AcDbEntity
  8
SLD-0
  6
Continuous
 62
     7
100
AcDbLine
 10
147.4714618321
 20
398.6093493368
 30
0.0
 11
147.312495653
 21
398.3340119051
 31
0.0
  0
LINE
  5
193
330
1F
100
AcDbEntity
  8
SLD-0
  6
Continuous
 62
     7
100
AcDbLine
 10
143.16418374
 20
395.9468756842
 30
0.0
 11
142.8599230177
 21
395.946876161
 31
0.0
  0
LINE
  5
194
330
1F
100
AcDbEntity
  8
SLD-0
  6
Continuous
 62
     7
100
AcDbLine
 10
144.1084274879
 20
398.1093493368
 30
0.0
 11
144.2605571639
 21
397.8458498644
 31
0.0
  0
LINE
  5
195
330
1F
100
AcDbEntity
  8
SLD-0
  6
Continuous
 62
     7
100
AcDbLine
 10
158.4714620053
 20
448.1093493368
 30
0.0
 11
158.3124966979
 21
447.8340116369
 31
0.0
  0
LINE
  5
196
330
1F
100
AcDbEntity
  8
SLD-0
  6
Continuous
 62
     7
100
AcDbLine
 10
156.1265838951
 20
447.8458506095
 30
0.0
 11
155.9744530649
 21
448.1093493368
 31
0.0
  0
LINE
  5
197
330
1F
100
AcDbEntity
  8
SLD-0
  6
Continuous
 62
     7
100
AcDbLine
 10
133.8599234051
 20
487.946876161
 30
0.0
 11
134.1641845148
 21
487.9468763286
 31
0.0
  0
LINE
  5
198
330
1F
100
AcDbEntity
  8
SLD-0
  6
Continuous
 62
     7
100
AcDbLine
 10
135.2639982444
 20
486.053858422
 30
0.0
 11
135.1084278753
 21
485.7844029852
 31
0.0
  0
LINE
  5
199
330
1F
100
AcDbEntity
  8
SLD-0
  6
Continuous
 62
     7
100
AcDbLine
 10
135.1084278753
 20
491.1093493368
 30
0.0
 11
135.2605579388
 21
490.8458516041
 31
0.0
  0
LINE
  5
19A
330
1F
100
AcDbEntity
  8
SLD-0
  6
Continuous
 62
     7
100
AcDbLine
 10
134.1641845148
 20
488.9468760269
 30
0.0
 11
133.8599234051
 21
488.946876161
 31
0.0
  0
LINE
  5
19B
330
1F
100
AcDbEntity
  8
SLD-0
  6
Continuous
 62
     7
100
AcDbLine
 10
119.7229524177
 20
495.446876161
 30
0.0
 11
119.7229524177
 21
493.7468761385
 31
0.0
  0
LINE
  5
19C
330
1F
100
AcDbEntity
  8
SLD-0
  6
Continuous
 62
     7
100
AcDbLine
 10
119.7229524177
 20
495.446876161
 30
0.0
 11
164.2229531925
 21
495.446876161
 31
0.0
  0
LINE
  5
19D
330
1F
100
AcDbEntity
  8
SLD-0
  6
Continuous
 62
     7
100
AcDbLine
 10
164.2229531925
 20
493.7468761385
 30
0.0
 11
164.2229531925
 21
495.446876161
 31
0.0
  0
LINE
  5
19E
330
1F
100
AcDbEntity
  8
SLD-0
  6
Continuous
 62
     7
100
AcDbLine
 10
145.7229611931
 20
308.4468697237
 30
0.0
 11
119.7229567435
 21
308.4468697237
 31
0.0
  0
LINE
  5
19F
330
1F
100
AcDbEntity
  8
SLD-0
  6
Continuous
 62
     7
100
AcDbLine
 10
119.7229567435
 20
310.1468835997
 30
0.0
 11
119.7229567435
 21
308.4468697237
 31
0.0
  0
LINE
  5
1A0
330
1F
100
AcDbEntity
  8
SLD-0
  6
Continuous
 62
     7
100
AcDbLine
 10
145.7229611931
 20
309.4468701523
 30
0.0
 11
145.7229611931
 21
308.4468697237
 31
0.0
  0
LINE
  5
1A1
330
1F
100
AcDbEntity
  8
SLD-0
  6
Continuous
 62
     7
100
AcDbLine
 10
164.2229531925
 20
308.4468679572
 30
0.0
 11
152.7229531702
 21
308.4468679572
 31
0.0
  0
LINE
  5
1A2
330
1F
100
AcDbEntity
  8
SLD-0
  6
Continuous
 62
     7
100
AcDbLine
 10
152.7229531702
 20
308.4468679572
 30
0.0
 11
152.7229531702
 21
309.4468699838
 31
0.0
  0
LINE
  5
1A3
330
1F
100
AcDbEntity
  8
SLD-0
  6
Continuous
 62
     7
100
AcDbLine
 10
164.2229531925
 20
308.4468679572
 30
0.0
 11
164.2229531925
 21
310.1468835997
 31
0.0
  0
LINE
  5
1A4
330
1F
100
AcDbEntity
  8
SLD-0
  6
Continuous
 62
     7
100
AcDbLine
 10
113.713921931
 20
474.8468757646
 30
0.0
 11
114.2229567733
 21
474.8468757646
 31
0.0
  0
LINE
  5
1A5
330
1F
100
AcDbEntity
  8
SLD-0
  6
Continuous
 62
     7
100
AcDbLine
 10
106.5104607718
 20
474.846876161
 30
0.0
 11
113.713921931
 21
474.8468757646
 31
0.0
  0
LINE
  5
1A6
330
1F
100
AcDbEntity
  8
SLD-0
  6
Continuous
 62
     7
100
AcDbLine
 10
113.713921931
 20
462.0468770193
 30
0.0
 11
114.2229567733
 21
462.0468770193
 31
0.0
  0
LINE
  5
1A7
330
1F
100
AcDbEntity
  8
SLD-0
  6
Continuous
 62
     7
100
AcDbLine
 10
106.5104607718
 20
462.046876161
 30
0.0
 11
113.713921931
 21
462.0468770193
 31
0.0
  0
LINE
  5
1A8
330
1F
100
AcDbEntity
  8
SLD-0
  6
Continuous
 62
     7
100
AcDbLine
 10
114.2229567732
 20
450.4468743729
 30
0.0
 11
112.7941775585
 21
450.4468743729
 31
0.0
  0
LINE
  5
1A9
330
1F
100
AcDbEntity
  8
SLD-0
  6
Continuous
 62
     7
100
AcDbLine
 10
112.7941775586
 20
480.4468764963
 30
0.0
 11
114.2229567733
 21
480.4468764963
 31
0.0
  0
LINE
  5
1AA
330
1F
100
AcDbEntity
  8
SLD-0
  6
Continuous
 62
     7
100
AcDbLine
 10
110.5572748449
 20
461.9468753265
 30
0.0
 11
114.2229567733
 21
461.9468753265
 31
0.0
  0
LINE
  5
1AB
330
1F
100
AcDbEntity
  8
SLD-0
  6
Continuous
 62
     7
100
AcDbLine
 10
114.2229567733
 20
474.9468755949
 30
0.0
 11
110.5572748449
 21
474.9468755949
 31
0.0
  0
LINE
  5
1AC
330
1F
100
AcDbEntity
  8
SLD-0
  6
Continuous
 62
     7
100
AcDbLine
 10
112.7941775585
 20
450.4468743729
 30
0.0
 11
110.570328262
 21
450.4468743729
 31
0.0
  0
LINE
  5
1AD
330
1F
100
AcDbEntity
  8
SLD-0
  6
Continuous
 62
     7
100
AcDbLine
 10
110.5703282621
 20
480.4468764963
 30
0.0
 11
112.7941775586
 21
480.4468764963
 31
0.0
  0
LINE
  5
1AE
330
1F
100
AcDbEntity
  8
SLD-0
  6
Continuous
 62
     7
100
AcDbLine
 10
106.1229574945
 20
461.9468753265
 30
0.0
 11
110.5572748449
 21
461.9468753265
 31
0.0
  0
LINE
  5
1AF
330
1F
100
AcDbEntity
  8
SLD-0
  6
Continuous
 62
     7
100
AcDbLine
 10
110.5572748449
 20
474.9468755949
 30
0.0
 11
106.1229574945
 21
474.9468755949
 31
0.0
  0
LINE
  5
1B0
330
1F
100
AcDbEntity
  8
SLD-0
  6
Continuous
 62
     7
100
AcDbLine
 10
110.570328262
 20
450.4468743729
 30
0.0
 11
110.1049240197
 21
450.4468743729
 31
0.0
  0
LINE
  5
1B1
330
1F
100
AcDbEntity
  8
SLD-0
  6
Continuous
 62
     7
100
AcDbLine
 10
110.1049240198
 20
480.4468764963
 30
0.0
 11
110.5703282621
 21
480.4468764963
 31
0.0
  0
LINE
  5
1B2
330
1F
100
AcDbEntity
  8
SLD-0
  6
Continuous
 62
     7
100
AcDbLine
 10
148.8229576018
 20
466.6968756395
 30
0.0
 11
150.8229579296
 21
466.6968756395
 31
0.0
  0
LINE
  5
1B3
330
1F
100
AcDbEntity
  8
SLD-0
  6
Continuous
 62
     7
100
AcDbLine
 10
150.8229579296
 20
466.6968756395
 30
0.0
 11
150.8229579296
 21
466.3968761491
 31
0.0
  0
LINE
  5
1B4
330
1F
100
AcDbEntity
  8
SLD-0
  6
Continuous
 62
     7
100
AcDbLine
 10
148.8229576018
 20
466.3968761491
 30
0.0
 11
148.8229576018
 21
466.6968756395
 31
0.0
  0
LINE
  5
1B5
330
1F
100
AcDbEntity
  8
SLD-0
  6
Continuous
 62
     7
100
AcDbLine
 10
150.8229579296
 20
464.4968756514
 30
0.0
 11
150.8229579296
 21
466.3968761491
 31
0.0
  0
LINE
  5
1B6
330
1F
100
AcDbEntity
  8
SLD-0
  6
Continuous
 62
     7
100
AcDbLine
 10
148.8229576018
 20
464.4968756514
 30
0.0
 11
148.8229576018
 21
466.3968761491
 31
0.0
  0
LINE
  5
1B7
330
1F
100
AcDbEntity
  8
SLD-0
  6
Continuous
 62
     7
100
AcDbLine
 10
150.8229579296
 20
464.196876161
 30
0.0
 11
148.8229576018
 21
464.196876161
 31
0.0
  0
LINE
  5
1B8
330
1F
100
AcDbEntity
  8
SLD-0
  6
Continuous
 62
     7
100
AcDbLine
 10
148.8229576018
 20
464.196876161
 30
0.0
 11
148.8229576018
 21
464.4968756514
 31
0.0
  0
LINE
  5
1B9
330
1F
100
AcDbEntity
  8
SLD-0
  6
Continuous
 62
     7
100
AcDbLine
 10
150.8229579296
 20
464.4968756514
 30
0.0
 11
150.8229579296
 21
464.196876161
 31
0.0
  0
LINE
  5
1BA
330
1F
100
AcDbEntity
  8
SLD-0
  6
Continuous
 62
     7
100
AcDbLine
 10
148.8229576018
 20
464.1468753146
 30
0.0
 11
148.8229576018
 21
464.196876161
 31
0.0
  0
LINE
  5
1BB
330
1F
100
AcDbEntity
  8
SLD-0
  6
Continuous
 62
     7
100
AcDbLine
 10
150.8229579296
 20
464.1468753146
 30
0.0
 11
150.8229579296
 21
464.196876161
 31
0.0
  0
LINE
  5
1BC
330
1F
100
AcDbEntity
  8
SLD-0
  6
Continuous
 62
     7
100
AcDbLine
 10
148.8229576018
 20
466.6968756395
 30
0.0
 11
148.8229576018
 21
466.7468764859
 31
0.0
  0
LINE
  5
1BD
330
1F
100
AcDbEntity
  8
SLD-0
  6
Continuous
 62
     7
100
AcDbLine
 10
150.8229579296
 20
466.6968756395
 30
0.0
 11
150.8229579296
 21
466.7468764859
 31
0.0
  0
LINE
  5
1BE
330
1F
100
AcDbEntity
  8
SLD-0
  6
Continuous
 62
     7
100
AcDbLine
 10
152.8229573261
 20
464.1468753146
 30
0.0
 11
152.8229573261
 21
466.7468764859
 31
0.0
  0
LINE
  5
1BF
330
1F
100
AcDbEntity
  8
SLD-0
  6
Continuous
 62
     7
100
AcDbLine
 10
148.7229577716
 20
464.1468753146
 30
0.0
 11
148.7229577716
 21
466.7468764859
 31
0.0
  0
LINE
  5
1C0
330
1F
100
AcDbEntity
  8
SLD-0
  6
Continuous
 62
     7
100
AcDbLine
 10
139.8729569729
 20
322.3200594114
 30
0.0
 11
139.8729569729
 21
322.0213805365
 31
0.0
  0
LINE
  5
1C1
330
1F
100
AcDbEntity
  8
SLD-0
  6
Continuous
 62
     7
100
AcDbLine
 10
139.8729569729
 20
325.0723783897
 30
0.0
 11
139.8729569729
 21
324.7736846136
 31
0.0
  0
LINE
  5
1C2
330
1F
100
AcDbEntity
  8
SLD-0
  6
Continuous
 62
     7
100
AcDbLine
 10
137.6229580011
 20
324.7736846136
 30
0.0
 11
137.6229580011
 21
325.0723783897
 31
0.0
  0
LINE
  5
1C3
330
1F
100
AcDbEntity
  8
SLD-0
  6
Continuous
 62
     7
100
AcDbLine
 10
137.6229580011
 20
322.3200594114
 30
0.0
 11
137.6229580011
 21
324.7736846136
 31
0.0
  0
LINE
  5
1C4
330
1F
100
AcDbEntity
  8
SLD-0
  6
Continuous
 62
     7
100
AcDbLine
 10
139.8729569729
 20
322.3200594114
 30
0.0
 11
139.8729569729
 21
324.7736846136
 31
0.0
  0
LINE
  5
1C5
330
1F
100
AcDbEntity
  8
SLD-0
  6
Continuous
 62
     7
100
AcDbLine
 10
139.8229579892
 20
321.8968813347
 30
0.0
 11
139.8729569729
 21
321.8968813347
 31
0.0
  0
LINE
  5
1C6
330
1F
100
AcDbEntity
  8
SLD-0
  6
Continuous
 62
     7
100
AcDbLine
 10
139.8729569729
 20
321.8968813347
 30
0.0
 11
139.8729569729
 21
322.0213805365
 31
0.0
  0
LINE
  5
1C7
330
1F
100
AcDbEntity
  8
SLD-0
  6
Continuous
 62
     7
100
AcDbLine
 10
137.6229580011
 20
325.0723783897
 30
0.0
 11
137.6229580011
 21
325.1905296969
 31
0.0
  0
LINE
  5
1C8
330
1F
100
AcDbEntity
  8
SLD-0
  6
Continuous
 62
     7
100
AcDbLine
 10
139.8729569729
 20
325.0723783897
 30
0.0
 11
139.8729569729
 21
325.1700853037
 31
0.0
  0
LINE
  5
1C9
330
1F
100
AcDbEntity
  8
SLD-0
  6
Continuous
 62
     7
100
AcDbLine
 10
137.6229580011
 20
321.7032258438
 30
0.0
 11
137.6229580011
 21
321.7968796419
 31
0.0
  0
LINE
  5
1CA
330
1F
100
AcDbEntity
  8
SLD-0
  6
Continuous
 62
     7
100
AcDbLine
 10
139.8729569729
 20
321.723670237
 30
0.0
 11
139.8729569729
 21
321.8968813347
 31
0.0
  0
LINE
  5
1CB
330
1F
100
AcDbEntity
  8
SLD-0
  6
Continuous
 62
     7
100
AcDbLine
 10
137.5729571547
 20
321.9213788437
 30
0.0
 11
137.5729571547
 21
322.2200726198
 31
0.0
  0
LINE
  5
1CC
330
1F
100
AcDbEntity
  8
SLD-0
  6
Continuous
 62
     7
100
AcDbLine
 10
139.8229579892
 20
322.2200726198
 30
0.0
 11
139.8229579892
 21
321.9213788437
 31
0.0
  0
LINE
  5
1CD
330
1F
100
AcDbEntity
  8
SLD-0
  6
Continuous
 62
     7
100
AcDbLine
 10
137.5729571547
 20
324.6736829208
 30
0.0
 11
137.5729571547
 21
324.972376697
 31
0.0
  0
LINE
  5
1CE
330
1F
100
AcDbEntity
  8
SLD-0
  6
Continuous
 62
     7
100
AcDbLine
 10
137.5729571547
 20
322.2200726198
 30
0.0
 11
137.5729571547
 21
324.6736829208
 31
0.0
  0
LINE
  5
1CF
330
1F
100
AcDbEntity
  8
SLD-0
  6
Continuous
 62
     7
100
AcDbLine
 10
139.8229579892
 20
322.2200726198
 30
0.0
 11
139.8229579892
 21
324.6736829208
 31
0.0
  0
LINE
  5
1D0
330
1F
100
AcDbEntity
  8
SLD-0
  6
Continuous
 62
     7
100
AcDbLine
 10
137.5729571547
 20
325.0968758987
 30
0.0
 11
137.6229580011
 21
325.0968758987
 31
0.0
  0
LINE
  5
1D1
330
1F
100
AcDbEntity
  8
SLD-0
  6
Continuous
 62
     7
100
AcDbLine
 10
137.5729571547
 20
324.972376697
 30
0.0
 11
137.5729571547
 21
325.0968758987
 31
0.0
  0
LINE
  5
1D2
330
1F
100
AcDbEntity
  8
SLD-0
  6
Continuous
 62
     7
100
AcDbLine
 10
137.5729571547
 20
321.7968796419
 30
0.0
 11
139.8229579892
 21
321.7968796419
 31
0.0
  0
LINE
  5
1D3
330
1F
100
AcDbEntity
  8
SLD-0
  6
Continuous
 62
     7
100
AcDbLine
 10
137.5729571547
 20
321.7968796419
 30
0.0
 11
137.5729571547
 21
321.9213788437
 31
0.0
  0
LINE
  5
1D4
330
1F
100
AcDbEntity
  8
SLD-0
  6
Continuous
 62
     7
100
AcDbLine
 10
139.8229579892
 20
321.7968796419
 30
0.0
 11
139.8229579892
 21
321.9213788437
 31
0.0
  0
LINE
  5
1D5
330
1F
100
AcDbEntity
  8
SLD-0
  6
Continuous
 62
     7
100
AcDbLine
 10
137.5729571547
 20
321.723670237
 30
0.0
 11
137.5729571547
 21
321.7968796419
 31
0.0
  0
LINE
  5
1D6
330
1F
100
AcDbEntity
  8
SLD-0
  6
Continuous
 62
     7
100
AcDbLine
 10
139.8229579892
 20
321.7032258438
 30
0.0
 11
139.8229579892
 21
321.7968796419
 31
0.0
  0
LINE
  5
1D7
330
1F
100
AcDbEntity
  8
SLD-0
  6
Continuous
 62
     7
100
AcDbLine
 10
137.5729571547
 20
325.0968758987
 30
0.0
 11
137.5729571547
 21
325.1700853037
 31
0.0
  0
LINE
  5
1D8
330
1F
100
AcDbEntity
  8
SLD-0
  6
Continuous
 62
     7
100
AcDbLine
 10
114.2229567733
 20
524.4468753265
 30
0.0
 11
117.2229591277
 21
524.4468753265
 31
0.0
  0
LINE
  5
1D9
330
1F
100
AcDbEntity
  8
SLD-0
  6
Continuous
 62
     7
100
AcDbLine
 10
117.2229591277
 20
524.4468753265
 30
0.0
 11
117.2229591277
 21
279.4468705582
 31
0.0
  0
LINE
  5
1DA
330
1F
100
AcDbEntity
  8
SLD-0
  6
Continuous
 62
     7
100
AcDbLine
 10
114.2229567733
 20
279.4468705582
 30
0.0
 11
117.2229591277
 21
279.4468705582
 31
0.0
  0
LINE
  5
1DB
330
1F
100
AcDbEntity
  8
SLD-0
  6
Continuous
 62
     7
100
AcDbLine
 10
114.2229567733
 20
524.4468753265
 30
0.0
 11
114.2229567733
 21
279.4468705582
 31
0.0
  0
LINE
  5
1DC
330
1F
100
AcDbEntity
  8
SLD-0
  6
Continuous
 62
     7
100
AcDbLine
 10
155.2229579058
 20
402.4468739556
 30
0.0
 11
155.2229579058
 21
400.9468783664
 31
0.0
  0
LINE
  5
1DD
330
1F
100
AcDbEntity
  8
SLD-0
  6
Continuous
 62
     7
100
AcDbLine
 10
159.722957712
 20
402.4468739556
 30
0.0
 11
155.2229579058
 21
402.4468739556
 31
0.0
  0
LINE
  5
1DE
330
1F
100
AcDbEntity
  8
SLD-0
  6
Continuous
 62
     7
100
AcDbLine
 10
159.722957712
 20
400.9468783664
 30
0.0
 11
159.722957712
 21
402.4468739556
 31
0.0
  0
LINE
  5
1DF
330
1F
100
AcDbEntity
  8
SLD-0
  6
Continuous
 62
     7
100
AcDbLine
 10
155.2229579058
 20
400.9468783664
 30
0.0
 11
159.722957712
 21
400.9468783664
 31
0.0
  0
LINE
  5
1E0
330
1F
100
AcDbEntity
  8
SLD-0
  6
Continuous
 62
     7
100
AcDbLine
 10
118.7229584422
 20
308.4468697237
 30
0.0
 11
117.2229591277
 21
308.4468697237
 31
0.0
  0
LINE
  5
1E1
330
1F
100
AcDbEntity
  8
SLD-0
  6
Continuous
 62
     7
100
AcDbLine
 10
118.7229584422
 20
308.4468697237
 30
0.0
 11
118.7229584422
 21
310.1468835997
 31
0.0
  0
LINE
  5
1E2
330
1F
100
AcDbEntity
  8
SLD-0
  6
Continuous
 62
     7
100
AcDbLine
 10
118.7229541164
 20
493.7468761385
 30
0.0
 11
118.7229541164
 21
495.446876161
 31
0.0
  0
LINE
  5
1E3
330
1F
100
AcDbEntity
  8
SLD-0
  6
Continuous
 62
     7
100
AcDbLine
 10
118.7229541164
 20
495.446876161
 30
0.0
 11
117.2229548019
 21
495.446876161
 31
0.0
  0
LINE
  5
1E4
330
1F
100
AcDbEntity
  8
SLD-0
  6
Continuous
 62
     7
100
AcDbLine
 10
159.9729572874
 20
402.4468739556
 30
0.0
 11
159.722957712
 21
402.4468739556
 31
0.0
  0
LINE
  5
1E5
330
1F
100
AcDbEntity
  8
SLD-0
  6
Continuous
 62
     7
100
AcDbLine
 10
159.722957712
 20
400.9468783664
 30
0.0
 11
159.9729572874
 21
400.9468783664
 31
0.0
  0
LINE
  5
1E6
330
1F
100
AcDbEntity
  8
SLD-0
  6
Continuous
 62
     7
100
AcDbLine
 10
118.9229581025
 20
308.4468697237
 30
0.0
 11
118.7229584422
 21
308.4468697237
 31
0.0
  0
LINE
  5
1E7
330
1F
100
AcDbEntity
  8
SLD-0
  6
Continuous
 62
     7
100
AcDbLine
 10
155.2229579058
 20
402.4468739556
 30
0.0
 11
155.2229579058
 21
402.6468773412
 31
0.0
  0
LINE
  5
1E8
330
1F
100
AcDbEntity
  8
SLD-0
  6
Continuous
 62
     7
100
AcDbLine
 10
118.7229541164
 20
495.446876161
 30
0.0
 11
118.9229537767
 21
495.446876161
 31
0.0
  0
LINE
  5
1E9
330
1F
100
AcDbEntity
  8
SLD-0
  6
Continuous
 62
     7
100
AcDbLine
 10
153.5229570683
 20
363.3468751835
 30
0.0
 11
156.722957686
 21
363.3468751835
 31
0.0
  0
LINE
  5
1EA
330
1F
100
AcDbEntity
  8
SLD-0
  6
Continuous
 62
     7
100
AcDbLine
 10
156.7229575183
 20
368.546876161
 30
0.0
 11
143.2729567852
 21
368.5468738007
 31
0.0
  0
LINE
  5
1EB
330
1F
100
AcDbEntity
  8
SLD-0
  6
Continuous
 62
     7
100
AcDbLine
 10
157.8729575951
 20
315.0468771385
 30
0.0
 11
157.8729575951
 21
313.246876471
 31
0.0
  0
LINE
  5
1EC
330
1F
100
AcDbEntity
  8
SLD-0
  6
Continuous
 62
     7
100
AcDbLine
 10
158.0729575567
 20
313.0468761994
 30
0.0
 11
161.1729576156
 21
313.0468731238
 31
0.0
  0
LINE
  5
1ED
330
1F
100
AcDbEntity
  8
SLD-0
  6
Continuous
 62
     7
100
AcDbLine
 10
161.3729590945
 20
313.2468746616
 30
0.0
 11
161.3729590945
 21
315.0468756391
 31
0.0
  0
LINE
  5
1EE
330
1F
100
AcDbEntity
  8
SLD-0
  6
Continuous
 62
     7
100
AcDbLine
 10
161.1729597382
 20
315.246873941
 30
0.0
 11
158.0729599409
 21
315.2468783041
 31
0.0
  0
LINE
  5
1EF
330
1F
100
AcDbEntity
  8
SLD-0
  6
Continuous
 62
     7
100
AcDbLine
 10
157.8729575951
 20
456.3468773889
 30
0.0
 11
157.8729575951
 21
454.5468767213
 31
0.0
  0
LINE
  5
1F0
330
1F
100
AcDbEntity
  8
SLD-0
  6
Continuous
 62
     7
100
AcDbLine
 10
158.0729575567
 20
454.3468761994
 30
0.0
 11
161.1729576156
 21
454.3468770994
 31
0.0
  0
LINE
  5
1F1
330
1F
100
AcDbEntity
  8
SLD-0
  6
Continuous
 62
     7
100
AcDbLine
 10
161.3729571067
 20
454.5468766494
 30
0.0
 11
161.3729571067
 21
456.3468778773
 31
0.0
  0
LINE
  5
1F2
330
1F
100
AcDbEntity
  8
SLD-0
  6
Continuous
 62
     7
100
AcDbLine
 10
161.1729580007
 20
456.5468756785
 30
0.0
 11
158.0729582034
 21
456.5468765666
 31
0.0
  0
LINE
  5
1F3
330
1F
100
AcDbEntity
  8
SLD-0
  6
Continuous
 62
     7
100
AcDbLine
 10
155.2229579058
 20
400.9468783664
 30
0.0
 11
155.2229579058
 21
400.3968765067
 31
0.0
  0
LINE
  5
1F4
330
1F
100
AcDbEntity
  8
SLD-0
  6
Continuous
 62
     7
100
AcDbLine
 10
118.9229581025
 20
308.4468697237
 30
0.0
 11
119.7229567435
 21
308.4468697237
 31
0.0
  0
LINE
  5
1F5
330
1F
100
AcDbEntity
  8
SLD-0
  6
Continuous
 62
     7
100
AcDbLine
 10
119.7229524177
 20
495.446876161
 30
0.0
 11
118.9229537767
 21
495.446876161
 31
0.0
  0
LINE
  5
1F6
330
1F
100
AcDbEntity
  8
SLD-0
  6
Continuous
 62
     7
100
AcDbLine
 10
145.5229575183
 20
409.996876161
 30
0.0
 11
145.5229575183
 21
406.496876161
 31
0.0
  0
LINE
  5
1F7
330
1F
100
AcDbEntity
  8
SLD-0
  6
Continuous
 62
     7
100
AcDbLine
 10
143.2729567852
 20
366.9468765186
 30
0.0
 11
143.2729567852
 21
375.9468798565
 31
0.0
  0
LINE
  5
1F8
330
1F
100
AcDbEntity
  8
SLD-0
  6
Continuous
 62
     7
100
AcDbLine
 10
138.572959448
 20
369.3468740317
 30
0.0
 11
132.6229611735
 21
369.3468740317
 31
0.0
  0
LINE
  5
1F9
330
1F
100
AcDbEntity
  8
SLD-0
  6
Continuous
 62
     7
100
AcDbLine
 10
138.7729572486
 20
363.0468698355
 30
0.0
 11
138.7729572486
 21
363.4468766066
 31
0.0
  0
LINE
  5
1FA
330
1F
100
AcDbEntity
  8
SLD-0
  6
Continuous
 62
     7
100
AcDbLine
 10
138.7729572486
 20
368.546873531
 30
0.0
 11
138.772957788
 21
369.1468758913
 31
0.0
  0
LINE
  5
1FB
330
1F
100
AcDbEntity
  8
SLD-0
  6
Continuous
 62
     7
100
AcDbLine
 10
132.7729578581
 20
368.5468738007
 30
0.0
 11
132.7729575183
 21
363.446876161
 31
0.0
  0
LINE
  5
1FC
330
1F
100
AcDbEntity
  8
SLD-0
  6
Continuous
 62
     7
100
AcDbLine
 10
138.4729576584
 20
368.8468787091
 30
0.0
 11
133.0729576882
 21
368.8468759911
 31
0.0
  0
LINE
  5
1FD
330
1F
100
AcDbEntity
  8
SLD-0
  6
Continuous
 62
     7
100
AcDbLine
 10
138.7729572486
 20
363.4468766066
 30
0.0
 11
138.7729572486
 21
368.546873531
 31
0.0
  0
LINE
  5
1FE
330
1F
100
AcDbEntity
  8
SLD-0
  6
Continuous
 62
     7
100
AcDbLine
 10
133.3729575183
 20
362.846876161
 30
0.0
 11
138.1729575183
 21
362.846876161
 31
0.0
  0
LINE
  5
1FF
330
1F
100
AcDbEntity
  8
SLD-0
  6
Continuous
 62
     7
100
AcDbLine
 10
132.8847575452
 20
362.9468833136
 30
0.0
 11
132.6562407877
 21
363.0739157127
 31
0.0
  0
LINE
  5
200
330
1F
100
AcDbEntity
  8
SLD-0
  6
Continuous
 62
     7
100
AcDbLine
 10
132.6562407877
 20
363.0739157127
 30
0.0
 11
132.6229590442
 21
363.1062661337
 31
0.0
  0
LINE
  5
201
330
1F
100
AcDbEntity
  8
SLD-0
  6
Continuous
 62
     7
100
AcDbLine
 10
138.7650817152
 20
363.0046402144
 30
0.0
 11
138.6611591544
 21
362.9468833136
 31
0.0
  0
LINE
  5
202
330
1F
100
AcDbEntity
  8
SLD-0
  6
Continuous
 62
     7
100
AcDbLine
 10
94.2229572203
 20
383.3468784618
 30
0.0
 11
114.2229567733
 21
383.3468784618
 31
0.0
  0
LINE
  5
203
330
1F
100
AcDbEntity
  8
SLD-0
  6
Continuous
 62
     7
100
AcDbLine
 10
93.2229551937
 20
349.346876614
 30
0.0
 11
93.2229551937
 21
382.3468764351
 31
0.0
  0
LINE
  5
204
330
1F
100
AcDbEntity
  8
SLD-0
  6
Continuous
 62
     7
100
AcDbLine
 10
114.2229567733
 20
348.3468745875
 30
0.0
 11
94.2229572203
 21
348.3468745875
 31
0.0
  0
LINE
  5
205
330
1F
100
AcDbEntity
  8
SLD-0
  6
Continuous
 62
     7
100
AcDbLine
 10
154.5729571473
 20
481.3968758138
 30
0.0
 11
153.0729578327
 21
481.3968758138
 31
0.0
  0
LINE
  5
206
330
1F
100
AcDbEntity
  8
SLD-0
  6
Continuous
 62
     7
100
AcDbLine
 10
153.0729578327
 20
481.9968757259
 30
0.0
 11
153.0729578327
 21
481.3968758138
 31
0.0
  0
LINE
  5
207
330
1F
100
AcDbEntity
  8
SLD-0
  6
Continuous
 62
     7
100
AcDbLine
 10
153.0729578327
 20
481.9968757259
 30
0.0
 11
154.5729571473
 21
481.9968757259
 31
0.0
  0
LINE
  5
208
330
1F
100
AcDbEntity
  8
SLD-0
  6
Continuous
 62
     7
100
AcDbLine
 10
143.6729579683
 20
480.3968765812
 30
0.0
 11
143.6729579683
 21
480.9968764933
 31
0.0
  0
LINE
  5
209
330
1F
100
AcDbEntity
  8
SLD-0
  6
Continuous
 62
     7
100
AcDbLine
 10
143.6729579683
 20
480.9968764933
 30
0.0
 11
143.8729576286
 21
480.9968764933
 31
0.0
  0
LINE
  5
20A
330
1F
100
AcDbEntity
  8
SLD-0
  6
Continuous
 62
     7
100
AcDbLine
 10
143.8729576286
 20
480.3968765812
 30
0.0
 11
143.6729579683
 21
480.3968765812
 31
0.0
  0
LINE
  5
20B
330
1F
100
AcDbEntity
  8
SLD-0
  6
Continuous
 62
     7
100
AcDbLine
 10
143.8729576286
 20
481.9968757259
 30
0.0
 11
145.3729569431
 21
481.9968757259
 31
0.0
  0
LINE
  5
20C
330
1F
100
AcDbEntity
  8
SLD-0
  6
Continuous
 62
     7
100
AcDbLine
 10
145.3729569431
 20
481.3968758138
 30
0.0
 11
145.3729569431
 21
481.9968757259
 31
0.0
  0
LINE
  5
20D
330
1F
100
AcDbEntity
  8
SLD-0
  6
Continuous
 62
     7
100
AcDbLine
 10
145.3729569431
 20
481.3968758138
 30
0.0
 11
143.8729576286
 21
481.3968758138
 31
0.0
  0
LINE
  5
20E
330
1F
100
AcDbEntity
  8
SLD-0
  6
Continuous
 62
     7
100
AcDbLine
 10
143.6729579683
 20
481.3968758138
 30
0.0
 11
143.6729579683
 21
481.9968757259
 31
0.0
  0
LINE
  5
20F
330
1F
100
AcDbEntity
  8
SLD-0
  6
Continuous
 62
     7
100
AcDbLine
 10
143.6729579683
 20
481.9968757259
 30
0.0
 11
143.8729576286
 21
481.9968757259
 31
0.0
  0
LINE
  5
210
330
1F
100
AcDbEntity
  8
SLD-0
  6
Continuous
 62
     7
100
AcDbLine
 10
143.8729576286
 20
481.3968758138
 30
0.0
 11
143.6729579683
 21
481.3968758138
 31
0.0
  0
LINE
  5
211
330
1F
100
AcDbEntity
  8
SLD-0
  6
Continuous
 62
     7
100
AcDbLine
 10
143.8729576286
 20
482.9968758898
 30
0.0
 11
145.3729569431
 21
482.9968758898
 31
0.0
  0
LINE
  5
212
330
1F
100
AcDbEntity
  8
SLD-0
  6
Continuous
 62
     7
100
AcDbLine
 10
145.3729569431
 20
482.3968759777
 30
0.0
 11
145.3729569431
 21
482.9968758898
 31
0.0
  0
LINE
  5
213
330
1F
100
AcDbEntity
  8
SLD-0
  6
Continuous
 62
     7
100
AcDbLine
 10
145.3729569431
 20
482.3968759777
 30
0.0
 11
143.8729576286
 21
482.3968759777
 31
0.0
  0
LINE
  5
214
330
1F
100
AcDbEntity
  8
SLD-0
  6
Continuous
 62
     7
100
AcDbLine
 10
154.772957496
 20
480.9968764933
 30
0.0
 11
154.772957496
 21
480.3968765812
 31
0.0
  0
LINE
  5
215
330
1F
100
AcDbEntity
  8
SLD-0
  6
Continuous
 62
     7
100
AcDbLine
 10
154.772957496
 20
480.3968765812
 30
0.0
 11
154.5729571473
 21
480.3968765812
 31
0.0
  0
LINE
  5
216
330
1F
100
AcDbEntity
  8
SLD-0
  6
Continuous
 62
     7
100
AcDbLine
 10
154.5729571473
 20
480.9968764933
 30
0.0
 11
154.772957496
 21
480.9968764933
 31
0.0
  0
LINE
  5
217
330
1F
100
AcDbEntity
  8
SLD-0
  6
Continuous
 62
     7
100
AcDbLine
 10
153.0729578327
 20
483.7468764784
 30
0.0
 11
153.0729578327
 21
483.3968761416
 31
0.0
  0
LINE
  5
218
330
1F
100
AcDbEntity
  8
SLD-0
  6
Continuous
 62
     7
100
AcDbLine
 10
154.5729571473
 20
483.3968761416
 30
0.0
 11
153.0729578327
 21
483.3968761416
 31
0.0
  0
LINE
  5
219
330
1F
100
AcDbEntity
  8
SLD-0
  6
Continuous
 62
     7
100
AcDbLine
 10
154.772957496
 20
483.7468764784
 30
0.0
 11
154.772957496
 21
483.3968761416
 31
0.0
  0
LINE
  5
21A
330
1F
100
AcDbEntity
  8
SLD-0
  6
Continuous
 62
     7
100
AcDbLine
 10
154.772957496
 20
483.3968761416
 30
0.0
 11
154.5729571473
 21
483.3968761416
 31
0.0
  0
LINE
  5
21B
330
1F
100
AcDbEntity
  8
SLD-0
  6
Continuous
 62
     7
100
AcDbLine
 10
143.6729579683
 20
482.3968759777
 30
0.0
 11
143.6729579683
 21
482.9968758898
 31
0.0
  0
LINE
  5
21C
330
1F
100
AcDbEntity
  8
SLD-0
  6
Continuous
 62
     7
100
AcDbLine
 10
143.6729579683
 20
482.9968758898
 30
0.0
 11
143.8729576286
 21
482.9968758898
 31
0.0
  0
LINE
  5
21D
330
1F
100
AcDbEntity
  8
SLD-0
  6
Continuous
 62
     7
100
AcDbLine
 10
143.8729576286
 20
482.3968759777
 30
0.0
 11
143.6729579683
 21
482.3968759777
 31
0.0
  0
LINE
  5
21E
330
1F
100
AcDbEntity
  8
SLD-0
  6
Continuous
 62
     7
100
AcDbLine
 10
153.0729578327
 20
482.9968758898
 30
0.0
 11
153.0729578327
 21
482.3968759777
 31
0.0
  0
LINE
  5
21F
330
1F
100
AcDbEntity
  8
SLD-0
  6
Continuous
 62
     7
100
AcDbLine
 10
154.5729571473
 20
482.3968759777
 30
0.0
 11
153.0729578327
 21
482.3968759777
 31
0.0
  0
LINE
  5
220
330
1F
100
AcDbEntity
  8
SLD-0
  6
Continuous
 62
     7
100
AcDbLine
 10
153.0729578327
 20
482.9968758898
 30
0.0
 11
154.5729571473
 21
482.9968758898
 31
0.0
  0
LINE
  5
221
330
1F
100
AcDbEntity
  8
SLD-0
  6
Continuous
 62
     7
100
AcDbLine
 10
154.772957496
 20
481.9968757259
 30
0.0
 11
154.772957496
 21
481.3968758138
 31
0.0
  0
LINE
  5
222
330
1F
100
AcDbEntity
  8
SLD-0
  6
Continuous
 62
     7
100
AcDbLine
 10
154.772957496
 20
481.3968758138
 30
0.0
 11
154.5729571473
 21
481.3968758138
 31
0.0
  0
LINE
  5
223
330
1F
100
AcDbEntity
  8
SLD-0
  6
Continuous
 62
     7
100
AcDbLine
 10
154.5729571473
 20
481.9968757259
 30
0.0
 11
154.772957496
 21
481.9968757259
 31
0.0
  0
LINE
  5
224
330
1F
100
AcDbEntity
  8
SLD-0
  6
Continuous
 62
     7
100
AcDbLine
 10
143.6729579683
 20
483.3968761416
 30
0.0
 11
143.6729579683
 21
483.7468764784
 31
0.0
  0
LINE
  5
225
330
1F
100
AcDbEntity
  8
SLD-0
  6
Continuous
 62
     7
100
AcDbLine
 10
143.8729576286
 20
483.3968761416
 30
0.0
 11
143.6729579683
 21
483.3968761416
 31
0.0
  0
LINE
  5
226
330
1F
100
AcDbEntity
  8
SLD-0
  6
Continuous
 62
     7
100
AcDbLine
 10
143.8729576286
 20
483.946875711
 30
0.0
 11
145.3729569431
 21
483.946875711
 31
0.0
  0
LINE
  5
227
330
1F
100
AcDbEntity
  8
SLD-0
  6
Continuous
 62
     7
100
AcDbLine
 10
145.3729569431
 20
483.946875711
 30
0.0
 11
145.3729569431
 21
483.7468764784
 31
0.0
  0
LINE
  5
228
330
1F
100
AcDbEntity
  8
SLD-0
  6
Continuous
 62
     7
100
AcDbLine
 10
154.5729571473
 20
480.3968765812
 30
0.0
 11
153.0729578327
 21
480.3968765812
 31
0.0
  0
LINE
  5
229
330
1F
100
AcDbEntity
  8
SLD-0
  6
Continuous
 62
     7
100
AcDbLine
 10
153.0729578327
 20
480.9968764933
 30
0.0
 11
153.0729578327
 21
480.3968765812
 31
0.0
  0
LINE
  5
22A
330
1F
100
AcDbEntity
  8
SLD-0
  6
Continuous
 62
     7
100
AcDbLine
 10
153.0729578327
 20
480.9968764933
 30
0.0
 11
154.5729571473
 21
480.9968764933
 31
0.0
  0
LINE
  5
22B
330
1F
100
AcDbEntity
  8
SLD-0
  6
Continuous
 62
     7
100
AcDbLine
 10
153.0729578327
 20
483.9468761387
 30
0.0
 11
154.5729575183
 21
483.9468761387
 31
0.0
  0
LINE
  5
22C
330
1F
100
AcDbEntity
  8
SLD-0
  6
Continuous
 62
     7
100
AcDbLine
 10
153.0729578327
 20
483.7468764784
 30
0.0
 11
153.0729578327
 21
483.9468761387
 31
0.0
  0
LINE
  5
22D
330
1F
100
AcDbEntity
  8
SLD-0
  6
Continuous
 62
     7
100
AcDbLine
 10
145.3729569431
 20
480.3968765812
 30
0.0
 11
145.3729569431
 21
480.9968764933
 31
0.0
  0
LINE
  5
22E
330
1F
100
AcDbEntity
  8
SLD-0
  6
Continuous
 62
     7
100
AcDbLine
 10
145.3729569431
 20
480.3968765812
 30
0.0
 11
143.8729576286
 21
480.3968765812
 31
0.0
  0
LINE
  5
22F
330
1F
100
AcDbEntity
  8
SLD-0
  6
Continuous
 62
     7
100
AcDbLine
 10
143.8729576286
 20
480.9968764933
 30
0.0
 11
145.3729569431
 21
480.9968764933
 31
0.0
  0
LINE
  5
230
330
1F
100
AcDbEntity
  8
SLD-0
  6
Continuous
 62
     7
100
AcDbLine
 10
154.772957496
 20
482.9968758898
 30
0.0
 11
154.772957496
 21
482.3968759777
 31
0.0
  0
LINE
  5
231
330
1F
100
AcDbEntity
  8
SLD-0
  6
Continuous
 62
     7
100
AcDbLine
 10
154.772957496
 20
482.3968759777
 30
0.0
 11
154.5729571473
 21
482.3968759777
 31
0.0
  0
LINE
  5
232
330
1F
100
AcDbEntity
  8
SLD-0
  6
Continuous
 62
     7
100
AcDbLine
 10
154.5729571473
 20
482.9968758898
 30
0.0
 11
154.772957496
 21
482.9968758898
 31
0.0
  0
LINE
  5
233
330
1F
100
AcDbEntity
  8
SLD-0
  6
Continuous
 62
     7
100
AcDbLine
 10
145.3729569431
 20
483.3968761416
 30
0.0
 11
145.3729569431
 21
483.7468764784
 31
0.0
  0
LINE
  5
234
330
1F
100
AcDbEntity
  8
SLD-0
  6
Continuous
 62
     7
100
AcDbLine
 10
145.3729569431
 20
483.3968761416
 30
0.0
 11
143.8729576286
 21
483.3968761416
 31
0.0
  0
LINE
  5
235
330
1F
100
AcDbEntity
  8
SLD-0
  6
Continuous
 62
     7
100
AcDbLine
 10
145.3729569431
 20
477.6468765961
 30
0.0
 11
145.3729569431
 21
477.4468769359
 31
0.0
  0
LINE
  5
236
330
1F
100
AcDbEntity
  8
SLD-0
  6
Continuous
 62
     7
100
AcDbLine
 10
153.0729578327
 20
477.4468769359
 30
0.0
 11
153.0729578327
 21
477.6468765961
 31
0.0
  0
LINE
  5
237
330
1F
100
AcDbEntity
  8
SLD-0
  6
Continuous
 62
     7
100
AcDbLine
 10
154.772957496
 20
477.9968769329
 30
0.0
 11
154.772957496
 21
477.6468765961
 31
0.0
  0
LINE
  5
238
330
1F
100
AcDbEntity
  8
SLD-0
  6
Continuous
 62
     7
100
AcDbLine
 10
154.5729571473
 20
477.9968769329
 30
0.0
 11
154.772957496
 21
477.9968769329
 31
0.0
  0
LINE
  5
239
330
1F
100
AcDbEntity
  8
SLD-0
  6
Continuous
 62
     7
100
AcDbLine
 10
143.6729575183
 20
477.646876161
 30
0.0
 11
143.6729579683
 21
477.9968769329
 31
0.0
  0
LINE
  5
23A
330
1F
100
AcDbEntity
  8
SLD-0
  6
Continuous
 62
     7
100
AcDbLine
 10
143.6729579683
 20
477.9968769329
 30
0.0
 11
143.8729576286
 21
477.9968769329
 31
0.0
  0
LINE
  5
23B
330
1F
100
AcDbEntity
  8
SLD-0
  6
Continuous
 62
     7
100
AcDbLine
 10
154.772957496
 20
478.9968752342
 30
0.0
 11
154.772957496
 21
478.3968762534
 31
0.0
  0
LINE
  5
23C
330
1F
100
AcDbEntity
  8
SLD-0
  6
Continuous
 62
     7
100
AcDbLine
 10
154.772957496
 20
478.3968762534
 30
0.0
 11
154.5729571473
 21
478.3968762534
 31
0.0
  0
LINE
  5
23D
330
1F
100
AcDbEntity
  8
SLD-0
  6
Continuous
 62
     7
100
AcDbLine
 10
154.5729571473
 20
478.9968752342
 30
0.0
 11
154.772957496
 21
478.9968752342
 31
0.0
  0
LINE
  5
23E
330
1F
100
AcDbEntity
  8
SLD-0
  6
Continuous
 62
     7
100
AcDbLine
 10
143.6729579683
 20
479.3968764173
 30
0.0
 11
143.6729579683
 21
479.9968763294
 31
0.0
  0
LINE
  5
23F
330
1F
100
AcDbEntity
  8
SLD-0
  6
Continuous
 62
     7
100
AcDbLine
 10
143.6729579683
 20
479.9968763294
 30
0.0
 11
143.8729576286
 21
479.9968763294
 31
0.0
  0
LINE
  5
240
330
1F
100
AcDbEntity
  8
SLD-0
  6
Continuous
 62
     7
100
AcDbLine
 10
143.8729576286
 20
479.3968764173
 30
0.0
 11
143.6729579683
 21
479.3968764173
 31
0.0
  0
LINE
  5
241
330
1F
100
AcDbEntity
  8
SLD-0
  6
Continuous
 62
     7
100
AcDbLine
 10
154.5729571473
 20
478.3968762534
 30
0.0
 11
153.0729578327
 21
478.3968762534
 31
0.0
  0
LINE
  5
242
330
1F
100
AcDbEntity
  8
SLD-0
  6
Continuous
 62
     7
100
AcDbLine
 10
153.0729578327
 20
478.9968752342
 30
0.0
 11
154.5729571473
 21
478.9968752342
 31
0.0
  0
LINE
  5
243
330
1F
100
AcDbEntity
  8
SLD-0
  6
Continuous
 62
     7
100
AcDbLine
 10
153.0729578327
 20
478.9968752342
 30
0.0
 11
153.0729578327
 21
478.3968762534
 31
0.0
  0
LINE
  5
244
330
1F
100
AcDbEntity
  8
SLD-0
  6
Continuous
 62
     7
100
AcDbLine
 10
153.0729578327
 20
477.9968769329
 30
0.0
 11
154.5729571473
 21
477.9968769329
 31
0.0
  0
LINE
  5
245
330
1F
100
AcDbEntity
  8
SLD-0
  6
Continuous
 62
     7
100
AcDbLine
 10
153.0729578327
 20
477.9968769329
 30
0.0
 11
153.0729578327
 21
477.6468765961
 31
0.0
  0
LINE
  5
246
330
1F
100
AcDbEntity
  8
SLD-0
  6
Continuous
 62
     7
100
AcDbLine
 10
154.772957496
 20
479.9968763294
 30
0.0
 11
154.772957496
 21
479.3968764173
 31
0.0
  0
LINE
  5
247
330
1F
100
AcDbEntity
  8
SLD-0
  6
Continuous
 62
     7
100
AcDbLine
 10
154.772957496
 20
479.3968764173
 30
0.0
 11
154.5729571473
 21
479.3968764173
 31
0.0
  0
LINE
  5
248
330
1F
100
AcDbEntity
  8
SLD-0
  6
Continuous
 62
     7
100
AcDbLine
 10
154.5729571473
 20
479.9968763294
 30
0.0
 11
154.772957496
 21
479.9968763294
 31
0.0
  0
LINE
  5
249
330
1F
100
AcDbEntity
  8
SLD-0
  6
Continuous
 62
     7
100
AcDbLine
 10
143.6729579683
 20
478.3968762534
 30
0.0
 11
143.6729579683
 21
478.9968752342
 31
0.0
  0
LINE
  5
24A
330
1F
100
AcDbEntity
  8
SLD-0
  6
Continuous
 62
     7
100
AcDbLine
 10
143.8729576286
 20
478.3968762534
 30
0.0
 11
143.6729579683
 21
478.3968762534
 31
0.0
  0
LINE
  5
24B
330
1F
100
AcDbEntity
  8
SLD-0
  6
Continuous
 62
     7
100
AcDbLine
 10
143.6729579683
 20
478.9968752342
 30
0.0
 11
143.8729576286
 21
478.9968752342
 31
0.0
  0
LINE
  5
24C
330
1F
100
AcDbEntity
  8
SLD-0
  6
Continuous
 62
     7
100
AcDbLine
 10
145.3729569431
 20
478.3968762534
 30
0.0
 11
143.8729576286
 21
478.3968762534
 31
0.0
  0
LINE
  5
24D
330
1F
100
AcDbEntity
  8
SLD-0
  6
Continuous
 62
     7
100
AcDbLine
 10
143.8729576286
 20
478.9968752342
 30
0.0
 11
145.3729569431
 21
478.9968752342
 31
0.0
  0
LINE
  5
24E
330
1F
100
AcDbEntity
  8
SLD-0
  6
Continuous
 62
     7
100
AcDbLine
 10
145.3729569431
 20
478.3968762534
 30
0.0
 11
145.3729569431
 21
478.9968752342
 31
0.0
  0
LINE
  5
24F
330
1F
100
AcDbEntity
  8
SLD-0
  6
Continuous
 62
     7
100
AcDbLine
 10
154.5729571473
 20
479.3968764173
 30
0.0
 11
153.0729578327
 21
479.3968764173
 31
0.0
  0
LINE
  5
250
330
1F
100
AcDbEntity
  8
SLD-0
  6
Continuous
 62
     7
100
AcDbLine
 10
153.0729578327
 20
479.9968763294
 30
0.0
 11
154.5729571473
 21
479.9968763294
 31
0.0
  0
LINE
  5
251
330
1F
100
AcDbEntity
  8
SLD-0
  6
Continuous
 62
     7
100
AcDbLine
 10
153.0729578327
 20
479.9968763294
 30
0.0
 11
153.0729578327
 21
479.3968764173
 31
0.0
  0
LINE
  5
252
330
1F
100
AcDbEntity
  8
SLD-0
  6
Continuous
 62
     7
100
AcDbLine
 10
145.3729569431
 20
479.3968764173
 30
0.0
 11
143.8729576286
 21
479.3968764173
 31
0.0
  0
LINE
  5
253
330
1F
100
AcDbEntity
  8
SLD-0
  6
Continuous
 62
     7
100
AcDbLine
 10
143.8729576286
 20
479.9968763294
 30
0.0
 11
145.3729569431
 21
479.9968763294
 31
0.0
  0
LINE
  5
254
330
1F
100
AcDbEntity
  8
SLD-0
  6
Continuous
 62
     7
100
AcDbLine
 10
145.3729569431
 20
479.3968764173
 30
0.0
 11
145.3729569431
 21
479.9968763294
 31
0.0
  0
LINE
  5
255
330
1F
100
AcDbEntity
  8
SLD-0
  6
Continuous
 62
     7
100
AcDbLine
 10
143.8729576286
 20
477.9968769329
 30
0.0
 11
145.3729569431
 21
477.9968769329
 31
0.0
  0
LINE
  5
256
330
1F
100
AcDbEntity
  8
SLD-0
  6
Continuous
 62
     7
100
AcDbLine
 10
145.3729569431
 20
477.6468765961
 30
0.0
 11
145.3729569431
 21
477.9968769329
 31
0.0
  0
LINE
  5
257
330
1F
100
AcDbEntity
  8
SLD-0
  6
Continuous
 62
     7
100
AcDbLine
 10
143.6729579683
 20
482.3968759777
 30
0.0
 11
143.6729579683
 21
481.9968757259
 31
0.0
  0
LINE
  5
258
330
1F
100
AcDbEntity
  8
SLD-0
  6
Continuous
 62
     7
100
AcDbLine
 10
145.3729569431
 20
481.9968757259
 30
0.0
 11
145.3729569431
 21
482.3968759777
 31
0.0
  0
LINE
  5
259
330
1F
100
AcDbEntity
  8
SLD-0
  6
Continuous
 62
     7
100
AcDbLine
 10
154.772957496
 20
479.9968763294
 30
0.0
 11
154.772957496
 21
480.3968765812
 31
0.0
  0
LINE
  5
25A
330
1F
100
AcDbEntity
  8
SLD-0
  6
Continuous
 62
     7
100
AcDbLine
 10
153.0729578327
 20
480.3968765812
 30
0.0
 11
153.0729578327
 21
479.9968763294
 31
0.0
  0
LINE
  5
25B
330
1F
100
AcDbEntity
  8
SLD-0
  6
Continuous
 62
     7
100
AcDbLine
 10
154.772957496
 20
481.9968757259
 30
0.0
 11
154.772957496
 21
482.3968759777
 31
0.0
  0
LINE
  5
25C
330
1F
100
AcDbEntity
  8
SLD-0
  6
Continuous
 62
     7
100
AcDbLine
 10
153.0729578327
 20
482.3968759777
 30
0.0
 11
153.0729578327
 21
481.9968757259
 31
0.0
  0
LINE
  5
25D
330
1F
100
AcDbEntity
  8
SLD-0
  6
Continuous
 62
     7
100
AcDbLine
 10
143.6729579683
 20
483.3968761416
 30
0.0
 11
143.6729579683
 21
482.9968758898
 31
0.0
  0
LINE
  5
25E
330
1F
100
AcDbEntity
  8
SLD-0
  6
Continuous
 62
     7
100
AcDbLine
 10
145.3729569431
 20
482.9968758898
 30
0.0
 11
145.3729569431
 21
483.3968761416
 31
0.0
  0
LINE
  5
25F
330
1F
100
AcDbEntity
  8
SLD-0
  6
Continuous
 62
     7
100
AcDbLine
 10
154.772957496
 20
482.9968758898
 30
0.0
 11
154.772957496
 21
483.3968761416
 31
0.0
  0
LINE
  5
260
330
1F
100
AcDbEntity
  8
SLD-0
  6
Continuous
 62
     7
100
AcDbLine
 10
153.0729578327
 20
483.3968761416
 30
0.0
 11
153.0729578327
 21
482.9968758898
 31
0.0
  0
LINE
  5
261
330
1F
100
AcDbEntity
  8
SLD-0
  6
Continuous
 62
     7
100
AcDbLine
 10
154.772957496
 20
480.9968764933
 30
0.0
 11
154.772957496
 21
481.3968758138
 31
0.0
  0
LINE
  5
262
330
1F
100
AcDbEntity
  8
SLD-0
  6
Continuous
 62
     7
100
AcDbLine
 10
153.0729578327
 20
481.3968758138
 30
0.0
 11
153.0729578327
 21
480.9968764933
 31
0.0
  0
LINE
  5
263
330
1F
100
AcDbEntity
  8
SLD-0
  6
Continuous
 62
     7
100
AcDbLine
 10
143.6729579683
 20
481.3968758138
 30
0.0
 11
143.6729579683
 21
480.9968764933
 31
0.0
  0
LINE
  5
264
330
1F
100
AcDbEntity
  8
SLD-0
  6
Continuous
 62
     7
100
AcDbLine
 10
145.3729569431
 20
480.9968764933
 30
0.0
 11
145.3729569431
 21
481.3968758138
 31
0.0
  0
LINE
  5
265
330
1F
100
AcDbEntity
  8
SLD-0
  6
Continuous
 62
     7
100
AcDbLine
 10
143.6729579683
 20
480.3968765812
 30
0.0
 11
143.6729579683
 21
479.9968763294
 31
0.0
  0
LINE
  5
266
330
1F
100
AcDbEntity
  8
SLD-0
  6
Continuous
 62
     7
100
AcDbLine
 10
145.3729569431
 20
479.9968763294
 30
0.0
 11
145.3729569431
 21
480.3968765812
 31
0.0
  0
LINE
  5
267
330
1F
100
AcDbEntity
  8
SLD-0
  6
Continuous
 62
     7
100
AcDbLine
 10
150.5229575079
 20
472.6468757766
 30
0.0
 11
147.922957268
 21
472.6468757766
 31
0.0
  0
LINE
  5
268
330
1F
100
AcDbEntity
  8
SLD-0
  6
Continuous
 62
     7
100
AcDbLine
 10
150.7229571682
 20
472.8468754368
 30
0.0
 11
150.7229571682
 21
473.901104558
 31
0.0
  0
LINE
  5
269
330
1F
100
AcDbEntity
  8
SLD-0
  6
Continuous
 62
     7
100
AcDbLine
 10
147.7229576078
 20
473.9011046516
 30
0.0
 11
147.7229576078
 21
472.8468754368
 31
0.0
  0
LINE
  5
26A
330
1F
100
AcDbEntity
  8
SLD-0
  6
Continuous
 62
     7
100
AcDbLine
 10
154.772957496
 20
477.9968769329
 30
0.0
 11
154.772957496
 21
478.3968762534
 31
0.0
  0
LINE
  5
26B
330
1F
100
AcDbEntity
  8
SLD-0
  6
Continuous
 62
     7
100
AcDbLine
 10
153.0729578327
 20
478.3968762534
 30
0.0
 11
153.0729578327
 21
477.9968769329
 31
0.0
  0
LINE
  5
26C
330
1F
100
AcDbEntity
  8
SLD-0
  6
Continuous
 62
     7
100
AcDbLine
 10
154.772957496
 20
478.9968752342
 30
0.0
 11
154.772957496
 21
479.3968764173
 31
0.0
  0
LINE
  5
26D
330
1F
100
AcDbEntity
  8
SLD-0
  6
Continuous
 62
     7
100
AcDbLine
 10
153.0729578327
 20
479.3968764173
 30
0.0
 11
153.0729578327
 21
478.9968752342
 31
0.0
  0
LINE
  5
26E
330
1F
100
AcDbEntity
  8
SLD-0
  6
Continuous
 62
     7
100
AcDbLine
 10
143.6729579683
 20
479.3968764173
 30
0.0
 11
143.6729579683
 21
478.9968752342
 31
0.0
  0
LINE
  5
26F
330
1F
100
AcDbEntity
  8
SLD-0
  6
Continuous
 62
     7
100
AcDbLine
 10
145.3729569431
 20
478.9968752342
 30
0.0
 11
145.3729569431
 21
479.3968764173
 31
0.0
  0
LINE
  5
270
330
1F
100
AcDbEntity
  8
SLD-0
  6
Continuous
 62
     7
100
AcDbLine
 10
143.6729579683
 20
478.3968762534
 30
0.0
 11
143.6729579683
 21
477.9968769329
 31
0.0
  0
LINE
  5
271
330
1F
100
AcDbEntity
  8
SLD-0
  6
Continuous
 62
     7
100
AcDbLine
 10
145.3729569431
 20
477.9968769329
 30
0.0
 11
145.3729569431
 21
478.3968762534
 31
0.0
  0
LINE
  5
272
330
1F
100
AcDbEntity
  8
SLD-0
  6
Continuous
 62
     7
100
AcDbLine
 10
150.7229571682
 20
473.901104558
 30
0.0
 11
150.8249602732
 21
473.9460073446
 31
0.0
  0
LINE
  5
273
330
1F
100
AcDbEntity
  8
SLD-0
  6
Continuous
 62
     7
100
AcDbLine
 10
147.6209554342
 20
473.9460074382
 30
0.0
 11
147.7229576078
 21
473.9011046516
 31
0.0
  0
LINE
  5
274
330
1F
100
AcDbEntity
  8
SLD-0
  6
Continuous
 62
     7
100
AcDbLine
 10
145.3729569431
 20
486.4468761207
 30
0.0
 11
145.3729569431
 21
483.946875711
 31
0.0
  0
LINE
  5
275
330
1F
100
AcDbEntity
  8
SLD-0
  6
Continuous
 62
     7
100
AcDbLine
 10
153.0729578327
 20
483.9468761387
 30
0.0
 11
153.0729578327
 21
486.4468765484
 31
0.0
  0
LINE
  5
276
330
1F
100
AcDbEntity
  8
SLD-0
  6
Continuous
 62
     7
100
AcDbLine
 10
119.7229567435
 20
310.1468835997
 30
0.0
 11
146.0088146754
 21
310.146876161
 31
0.0
  0
LINE
  5
277
330
1F
100
AcDbEntity
  8
SLD-0
  6
Continuous
 62
     7
100
AcDbLine
 10
164.2229531925
 20
493.7468761385
 30
0.0
 11
119.7229524177
 21
493.7468761385
 31
0.0
  0
LINE
  5
278
330
1F
100
AcDbEntity
  8
SLD-0
  6
Continuous
 62
     7
100
AcDbLine
 10
152.4371003612
 20
310.146876161
 30
0.0
 11
164.2229531925
 21
310.1468835997
 31
0.0
  0
LINE
  5
279
330
1F
100
AcDbEntity
  8
SLD-0
  6
Continuous
 62
     7
100
AcDbLine
 10
113.8162817325
 20
474.6968769508
 30
0.0
 11
114.2229567733
 21
474.6968769508
 31
0.0
  0
LINE
  5
27A
330
1F
100
AcDbEntity
  8
SLD-0
  6
Continuous
 62
     7
100
AcDbLine
 10
106.3168116045
 20
474.696876161
 30
0.0
 11
113.8162817325
 21
474.6968769508
 31
0.0
  0
LINE
  5
27B
330
1F
100
AcDbEntity
  8
SLD-0
  6
Continuous
 62
     7
100
AcDbLine
 10
113.8162817325
 20
462.1968758332
 30
0.0
 11
114.2229567733
 21
462.1968758332
 31
0.0
  0
LINE
  5
27C
330
1F
100
AcDbEntity
  8
SLD-0
  6
Continuous
 62
     7
100
AcDbLine
 10
106.3168116045
 20
462.196876161
 30
0.0
 11
113.8162817325
 21
462.1968758332
 31
0.0
  0
LINE
  5
27D
330
1F
100
AcDbEntity
  8
SLD-0
  6
Continuous
 62
     7
100
AcDbLine
 10
110.5572748449
 20
450.5468760656
 30
0.0
 11
112.7811278668
 21
450.5468760656
 31
0.0
  0
LINE
  5
27E
330
1F
100
AcDbEntity
  8
SLD-0
  6
Continuous
 62
     7
100
AcDbLine
 10
110.5572748449
 20
450.5468760656
 30
0.0
 11
110.5572748449
 21
461.9468753265
 31
0.0
  0
LINE
  5
27F
330
1F
100
AcDbEntity
  8
SLD-0
  6
Continuous
 62
     7
100
AcDbLine
 10
110.5572748449
 20
474.9468755949
 30
0.0
 11
110.5572748449
 21
480.3468757349
 31
0.0
  0
LINE
  5
280
330
1F
100
AcDbEntity
  8
SLD-0
  6
Continuous
 62
     7
100
AcDbLine
 10
112.7811278667
 20
480.3468757349
 30
0.0
 11
110.5572748449
 21
480.3468757349
 31
0.0
  0
LINE
  5
281
330
1F
100
AcDbEntity
  8
SLD-0
  6
Continuous
 62
     7
100
AcDbLine
 10
110.0825611021
 20
450.5468760656
 30
0.0
 11
110.5572748449
 21
450.5468760656
 31
0.0
  0
LINE
  5
282
330
1F
100
AcDbEntity
  8
SLD-0
  6
Continuous
 62
     7
100
AcDbLine
 10
107.4187438455
 20
479.5552087056
 30
0.0
 11
107.268249568
 21
479.3310766148
 31
0.0
  0
LINE
  5
283
330
1F
100
AcDbEntity
  8
SLD-0
  6
Continuous
 62
     7
100
AcDbLine
 10
107.268249568
 20
479.3310766148
 30
0.0
 11
106.5873745348
 21
478.4164079504
 31
0.0
  0
LINE
  5
284
330
1F
100
AcDbEntity
  8
SLD-0
  6
Continuous
 62
     7
100
AcDbLine
 10
106.5873745348
 20
478.4164079504
 30
0.0
 11
106.2537934151
 21
478.0043182003
 31
0.0
  0
LINE
  5
285
330
1F
100
AcDbEntity
  8
SLD-0
  6
Continuous
 62
     7
100
AcDbLine
 10
106.2537934151
 20
478.0043182003
 30
0.0
 11
106.1231325831
 21
477.8470867353
 31
0.0
  0
LINE
  5
286
330
1F
100
AcDbEntity
  8
SLD-0
  6
Continuous
 62
     7
100
AcDbLine
 10
106.1231325831
 20
477.8470867353
 30
0.0
 11
106.128135648
 21
477.8531123923
 31
0.0
  0
LINE
  5
287
330
1F
100
AcDbEntity
  8
SLD-0
  6
Continuous
 62
     7
100
AcDbLine
 10
110.5572748449
 20
480.3468757349
 30
0.0
 11
110.0825611022
 21
480.3468757349
 31
0.0
  0
LINE
  5
288
330
1F
100
AcDbEntity
  8
SLD-0
  6
Continuous
 62
     7
100
AcDbLine
 10
150.8229579296
 20
466.3968761491
 30
0.0
 11
148.8229576018
 21
466.3968761491
 31
0.0
  0
LINE
  5
289
330
1F
100
AcDbEntity
  8
SLD-0
  6
Continuous
 62
     7
100
AcDbLine
 10
148.8229576018
 20
464.4968756514
 30
0.0
 11
150.8229579296
 21
464.4968756514
 31
0.0
  0
LINE
  5
28A
330
1F
100
AcDbEntity
  8
SLD-0
  6
Continuous
 62
     7
100
AcDbLine
 10
137.6229580011
 20
322.3200594114
 30
0.0
 11
139.8729569729
 21
322.3200594114
 31
0.0
  0
LINE
  5
28B
330
1F
100
AcDbEntity
  8
SLD-0
  6
Continuous
 62
     7
100
AcDbLine
 10
139.8729569729
 20
322.0213805365
 30
0.0
 11
139.8229579892
 21
322.0213805365
 31
0.0
  0
LINE
  5
28C
330
1F
100
AcDbEntity
  8
SLD-0
  6
Continuous
 62
     7
100
AcDbLine
 10
137.6229580011
 20
325.0723783897
 30
0.0
 11
139.8729569729
 21
325.0723783897
 31
0.0
  0
LINE
  5
28D
330
1F
100
AcDbEntity
  8
SLD-0
  6
Continuous
 62
     7
100
AcDbLine
 10
139.8729569729
 20
324.7736846136
 30
0.0
 11
137.6229580011
 21
324.7736846136
 31
0.0
  0
LINE
  5
28E
330
1F
100
AcDbEntity
  8
SLD-0
  6
Continuous
 62
     7
100
AcDbLine
 10
137.5729571547
 20
322.2200726198
 30
0.0
 11
139.8229579892
 21
322.2200726198
 31
0.0
  0
LINE
  5
28F
330
1F
100
AcDbEntity
  8
SLD-0
  6
Continuous
 62
     7
100
AcDbLine
 10
139.8229579892
 20
321.9213788437
 30
0.0
 11
137.5729571547
 21
321.9213788437
 31
0.0
  0
LINE
  5
290
330
1F
100
AcDbEntity
  8
SLD-0
  6
Continuous
 62
     7
100
AcDbLine
 10
137.5729571547
 20
324.972376697
 30
0.0
 11
137.6229580011
 21
324.972376697
 31
0.0
  0
LINE
  5
291
330
1F
100
AcDbEntity
  8
SLD-0
  6
Continuous
 62
     7
100
AcDbLine
 10
139.8229579892
 20
324.6736829208
 30
0.0
 11
137.5729571547
 21
324.6736829208
 31
0.0
  0
LINE
  5
292
330
1F
100
AcDbEntity
  8
SLD-0
  6
Continuous
 62
     7
100
AcDbLine
 10
118.9229581025
 20
310.1468835997
 30
0.0
 11
118.9229581025
 21
308.4468697237
 31
0.0
  0
LINE
  5
293
330
1F
100
AcDbEntity
  8
SLD-0
  6
Continuous
 62
     7
100
AcDbLine
 10
155.2229579058
 20
402.6468773412
 30
0.0
 11
159.9729572874
 21
402.6468773412
 31
0.0
  0
LINE
  5
294
330
1F
100
AcDbEntity
  8
SLD-0
  6
Continuous
 62
     7
100
AcDbLine
 10
118.9229537767
 20
495.446876161
 30
0.0
 11
118.9229537767
 21
493.7468761385
 31
0.0
  0
LINE
  5
295
330
1F
100
AcDbEntity
  8
SLD-0
  6
Continuous
 62
     7
100
AcDbLine
 10
133.0729576882
 20
369.346876161
 30
0.0
 11
133.0729576882
 21
368.8468759911
 31
0.0
  0
LINE
  5
296
330
1F
100
AcDbEntity
  8
SLD-0
  6
Continuous
 62
     7
100
AcDbLine
 10
132.6229590442
 20
368.5468738007
 30
0.0
 11
132.7729578581
 21
368.5468738007
 31
0.0
  0
LINE
  5
297
330
1F
100
AcDbEntity
  8
SLD-0
  6
Continuous
 62
     7
100
AcDbLine
 10
138.4729576584
 20
369.3468722718
 30
0.0
 11
138.4729576584
 21
368.8468787091
 31
0.0
  0
LINE
  5
298
330
1F
100
AcDbEntity
  8
SLD-0
  6
Continuous
 62
     7
100
AcDbLine
 10
132.6229590442
 20
363.4468768763
 30
0.0
 11
132.7729575183
 21
363.446876161
 31
0.0
  0
LINE
  5
299
330
1F
100
AcDbEntity
  8
SLD-0
  6
Continuous
 62
     7
100
AcDbLine
 10
138.4729576584
 20
369.3468722718
 30
0.0
 11
138.6290305581
 21
369.3315091746
 31
0.0
  0
LINE
  5
29A
330
1F
100
AcDbEntity
  8
SLD-0
  6
Continuous
 62
     7
100
AcDbLine
 10
138.6290305581
 20
369.3315091746
 30
0.0
 11
138.6683957007
 21
369.3226429837
 31
0.0
  0
LINE
  5
29B
330
1F
100
AcDbEntity
  8
SLD-0
  6
Continuous
 62
     7
100
AcDbLine
 10
94.2229572203
 20
383.3468784618
 30
0.0
 11
94.2229572203
 21
383.0468733835
 31
0.0
  0
LINE
  5
29C
330
1F
100
AcDbEntity
  8
SLD-0
  6
Continuous
 62
     7
100
AcDbLine
 10
114.2229567733
 20
383.0468733835
 30
0.0
 11
94.2229572203
 21
383.0468733835
 31
0.0
  0
LINE
  5
29D
330
1F
100
AcDbEntity
  8
SLD-0
  6
Continuous
 62
     7
100
AcDbLine
 10
94.2229572203
 20
348.6468796659
 30
0.0
 11
114.2229567733
 21
348.6468796659
 31
0.0
  0
LINE
  5
29E
330
1F
100
AcDbEntity
  8
SLD-0
  6
Continuous
 62
     7
100
AcDbLine
 10
94.2229572203
 20
383.0468733835
 30
0.0
 11
94.2229572203
 21
348.6468796659
 31
0.0
  0
LINE
  5
29F
330
1F
100
AcDbEntity
  8
SLD-0
  6
Continuous
 62
     7
100
AcDbLine
 10
94.2229572203
 20
348.3468745875
 30
0.0
 11
94.2229572203
 21
348.6468796659
 31
0.0
  0
LINE
  5
2A0
330
1F
100
AcDbEntity
  8
SLD-0
  6
Continuous
 62
     7
100
AcDbLine
 10
154.5729571473
 20
481.3968758138
 30
0.0
 11
154.5729571473
 21
481.9968757259
 31
0.0
  0
LINE
  5
2A1
330
1F
100
AcDbEntity
  8
SLD-0
  6
Continuous
 62
     7
100
AcDbLine
 10
143.8729576286
 20
480.9968764933
 30
0.0
 11
143.8729576286
 21
480.3968765812
 31
0.0
  0
LINE
  5
2A2
330
1F
100
AcDbEntity
  8
SLD-0
  6
Continuous
 62
     7
100
AcDbLine
 10
143.8729576286
 20
481.9968757259
 30
0.0
 11
143.8729576286
 21
481.3968758138
 31
0.0
  0
LINE
  5
2A3
330
1F
100
AcDbEntity
  8
SLD-0
  6
Continuous
 62
     7
100
AcDbLine
 10
143.8729576286
 20
482.9968758898
 30
0.0
 11
143.8729576286
 21
482.3968759777
 31
0.0
  0
LINE
  5
2A4
330
1F
100
AcDbEntity
  8
SLD-0
  6
Continuous
 62
     7
100
AcDbLine
 10
154.5729571473
 20
480.3968765812
 30
0.0
 11
154.5729571473
 21
480.9968764933
 31
0.0
  0
LINE
  5
2A5
330
1F
100
AcDbEntity
  8
SLD-0
  6
Continuous
 62
     7
100
AcDbLine
 10
154.5729575183
 20
483.746876161
 30
0.0
 11
153.0729578327
 21
483.7468764784
 31
0.0
  0
LINE
  5
2A6
330
1F
100
AcDbEntity
  8
SLD-0
  6
Continuous
 62
     7
100
AcDbLine
 10
154.5729571473
 20
483.3968761416
 30
0.0
 11
154.5729575183
 21
483.746876161
 31
0.0
  0
LINE
  5
2A7
330
1F
100
AcDbEntity
  8
SLD-0
  6
Continuous
 62
     7
100
AcDbLine
 10
154.772957496
 20
483.7468764784
 30
0.0
 11
154.5729575183
 21
483.746876161
 31
0.0
  0
LINE
  5
2A8
330
1F
100
AcDbEntity
  8
SLD-0
  6
Continuous
 62
     7
100
AcDbLine
 10
154.5729571473
 20
482.3968759777
 30
0.0
 11
154.5729571473
 21
482.9968758898
 31
0.0
  0
LINE
  5
2A9
330
1F
100
AcDbEntity
  8
SLD-0
  6
Continuous
 62
     7
100
AcDbLine
 10
143.6729579683
 20
483.7468764784
 30
0.0
 11
143.8729575183
 21
483.746876161
 31
0.0
  0
LINE
  5
2AA
330
1F
100
AcDbEntity
  8
SLD-0
  6
Continuous
 62
     7
100
AcDbLine
 10
143.8729575183
 20
483.746876161
 30
0.0
 11
143.8729576286
 21
483.3968761416
 31
0.0
  0
LINE
  5
2AB
330
1F
100
AcDbEntity
  8
SLD-0
  6
Continuous
 62
     7
100
AcDbLine
 10
145.3729569431
 20
483.7468764784
 30
0.0
 11
143.8729575183
 21
483.746876161
 31
0.0
  0
LINE
  5
2AC
330
1F
100
AcDbEntity
  8
SLD-0
  6
Continuous
 62
     7
100
AcDbLine
 10
143.8729576286
 20
483.946875711
 30
0.0
 11
143.8729575183
 21
483.746876161
 31
0.0
  0
LINE
  5
2AD
330
1F
100
AcDbEntity
  8
SLD-0
  6
Continuous
 62
     7
100
AcDbLine
 10
154.5729575183
 20
483.9468761387
 30
0.0
 11
154.5729575183
 21
483.746876161
 31
0.0
  0
LINE
  5
2AE
330
1F
100
AcDbEntity
  8
SLD-0
  6
Continuous
 62
     7
100
AcDbLine
 10
143.8729575183
 20
477.646876161
 30
0.0
 11
145.3729569431
 21
477.6468765961
 31
0.0
  0
LINE
  5
2AF
330
1F
100
AcDbEntity
  8
SLD-0
  6
Continuous
 62
     7
100
AcDbLine
 10
143.8729575183
 20
477.446876161
 30
0.0
 11
143.8729575183
 21
477.646876161
 31
0.0
  0
LINE
  5
2B0
330
1F
100
AcDbEntity
  8
SLD-0
  6
Continuous
 62
     7
100
AcDbLine
 10
153.0729578327
 20
477.6468765961
 30
0.0
 11
154.5729575183
 21
477.646876161
 31
0.0
  0
LINE
  5
2B1
330
1F
100
AcDbEntity
  8
SLD-0
  6
Continuous
 62
     7
100
AcDbLine
 10
154.5729575183
 20
477.4468761833
 30
0.0
 11
154.5729575183
 21
477.646876161
 31
0.0
  0
LINE
  5
2B2
330
1F
100
AcDbEntity
  8
SLD-0
  6
Continuous
 62
     7
100
AcDbLine
 10
143.6729575183
 20
477.646876161
 30
0.0
 11
143.8729575183
 21
477.646876161
 31
0.0
  0
LINE
  5
2B3
330
1F
100
AcDbEntity
  8
SLD-0
  6
Continuous
 62
     7
100
AcDbLine
 10
154.772957496
 20
477.6468765961
 30
0.0
 11
154.5729575183
 21
477.646876161
 31
0.0
  0
LINE
  5
2B4
330
1F
100
AcDbEntity
  8
SLD-0
  6
Continuous
 62
     7
100
AcDbLine
 10
154.5729575183
 20
477.646876161
 30
0.0
 11
154.5729571473
 21
477.9968769329
 31
0.0
  0
LINE
  5
2B5
330
1F
100
AcDbEntity
  8
SLD-0
  6
Continuous
 62
     7
100
AcDbLine
 10
143.8729576286
 20
477.9968769329
 30
0.0
 11
143.8729575183
 21
477.646876161
 31
0.0
  0
LINE
  5
2B6
330
1F
100
AcDbEntity
  8
SLD-0
  6
Continuous
 62
     7
100
AcDbLine
 10
154.5729571473
 20
478.3968762534
 30
0.0
 11
154.5729571473
 21
478.9968752342
 31
0.0
  0
LINE
  5
2B7
330
1F
100
AcDbEntity
  8
SLD-0
  6
Continuous
 62
     7
100
AcDbLine
 10
143.8729576286
 20
479.9968763294
 30
0.0
 11
143.8729576286
 21
479.3968764173
 31
0.0
  0
LINE
  5
2B8
330
1F
100
AcDbEntity
  8
SLD-0
  6
Continuous
 62
     7
100
AcDbLine
 10
154.5729571473
 20
479.3968764173
 30
0.0
 11
154.5729571473
 21
479.9968763294
 31
0.0
  0
LINE
  5
2B9
330
1F
100
AcDbEntity
  8
SLD-0
  6
Continuous
 62
     7
100
AcDbLine
 10
143.8729576286
 20
478.9968752342
 30
0.0
 11
143.8729576286
 21
478.3968762534
 31
0.0
  0
LINE
  5
2BA
330
1F
100
AcDbEntity
  8
SLD-0
  6
Continuous
 62
     7
100
AcDbLine
 10
147.7229576078
 20
472.8468754368
 30
0.0
 11
150.7229571682
 21
472.8468754368
 31
0.0
  0
LINE
  5
2BB
330
1F
100
AcDbEntity
  8
SLD-0
  6
CENTERX2
 62
     7
100
AcDbLine
 10
127.0146185753
 20
512.446876161
 30
0.0
 11
102.3603156154
 21
512.446876161
 31
0.0
  0
LINE
  5
2BC
330
1F
100
AcDbEntity
  8
SLD-0
  6
CENTERX2
 62
     7
100
AcDbLine
 10
127.0146185753
 20
291.446876161
 30
0.0
 11
102.3603156154
 21
291.446876161
 31
0.0
  0
LINE
  5
2BD
330
1F
100
AcDbEntity
  8
SLD-0
  6
Continuous
 62
     7
100
AcDbLine
 10
157.322957598
 20
174.9067833021
 30
0.0
 11
157.322957598
 21
171.1080579858
 31
0.0
  0
LINE
  5
2BE
330
1F
100
AcDbEntity
  8
SLD-0
  6
Continuous
 62
     7
100
AcDbLine
 10
157.322957598
 20
171.8954399999
 30
0.0
 11
155.8229578178
 21
171.9995478939
 31
0.0
  0
LINE
  5
2BF
330
1F
100
AcDbEntity
  8
SLD-0
  6
Continuous
 62
     7
100
AcDbLine
 10
155.8229578178
 20
170.9971421237
 30
0.0
 11
156.3767026629
 21
170.9587092351
 31
0.0
  0
LINE
  5
2C0
330
1F
100
AcDbEntity
  8
SLD-0
  6
Continuous
 62
     7
100
AcDbLine
 10
144.141100299
 20
176.60678331
 30
0.0
 11
144.141100299
 21
176.7067833294
 31
0.0
  0
LINE
  5
2C1
330
1F
100
AcDbEntity
  8
SLD-0
  6
Continuous
 62
     7
100
AcDbLine
 10
132.3106642332
 20
176.7067833294
 30
0.0
 11
132.3106642332
 21
176.4067833151
 31
0.0
  0
LINE
  5
2C2
330
1F
100
AcDbEntity
  8
SLD-0
  6
Continuous
 62
     7
100
AcDbLine
 10
119.7229574737
 20
162.6067835184
 30
0.0
 11
164.222958323
 21
162.6067835184
 31
0.0
  0
LINE
  5
2C3
330
1F
100
AcDbEntity
  8
SLD-0
  6
Continuous
 62
     7
100
AcDbLine
 10
148.7229583379
 20
170.906783359
 30
0.0
 11
156.7229585056
 21
170.906783359
 31
0.0
  0
LINE
  5
2C4
330
1F
100
AcDbEntity
  8
SLD-0
  6
Continuous
 62
     7
100
AcDbLine
 10
147.7229583379
 20
174.906783346
 30
0.0
 11
147.7229583379
 21
171.906783359
 31
0.0
  0
LINE
  5
2C5
330
1F
100
AcDbEntity
  8
SLD-0
  6
Continuous
 62
     7
100
AcDbLine
 10
157.722958323
 20
171.9067833441
 30
0.0
 11
157.7229581889
 21
174.9067833311
 31
0.0
  0
LINE
  5
2C6
330
1F
100
AcDbEntity
  8
SLD-0
  6
Continuous
 62
     7
100
AcDbLine
 10
157.7229581889
 20
174.9067833311
 30
0.0
 11
164.222958323
 21
174.9067833311
 31
0.0
  0
LINE
  5
2C7
330
1F
100
AcDbEntity
  8
SLD-0
  6
Continuous
 62
     7
100
AcDbLine
 10
119.7229574737
 20
174.906783346
 30
0.0
 11
119.7229574737
 21
162.6067835184
 31
0.0
  0
LINE
  5
2C8
330
1F
100
AcDbEntity
  8
SLD-0
  6
Continuous
 62
     7
100
AcDbLine
 10
164.222958323
 20
174.9067833311
 30
0.0
 11
164.222958323
 21
162.6067835184
 31
0.0
  0
LINE
  5
2C9
330
1F
100
AcDbEntity
  8
SLD-0
  6
Continuous
 62
     7
100
AcDbLine
 10
119.7229574737
 20
174.906783346
 30
0.0
 11
147.7229583379
 21
174.906783346
 31
0.0
  0
LINE
  5
2CA
330
1F
100
AcDbEntity
  8
SLD-0
  6
Continuous
 62
     7
100
AcDbLine
 10
119.7229574737
 20
162.6067835184
 30
0.0
 11
119.7229574737
 21
160.9067836123
 31
0.0
  0
LINE
  5
2CB
330
1F
100
AcDbEntity
  8
SLD-0
  6
Continuous
 62
     7
100
AcDbLine
 10
164.222958323
 20
160.9067836123
 30
0.0
 11
119.7229574737
 21
160.9067836123
 31
0.0
  0
LINE
  5
2CC
330
1F
100
AcDbEntity
  8
SLD-0
  6
Continuous
 62
     7
100
AcDbLine
 10
164.222958323
 20
160.9067836123
 30
0.0
 11
164.222958323
 21
162.6067835184
 31
0.0
  0
LINE
  5
2CD
330
1F
100
AcDbEntity
  8
SLD-0
  6
Continuous
 62
     7
100
AcDbLine
 10
117.2229598579
 20
160.9067836123
 30
0.0
 11
119.7229574737
 21
160.9067836123
 31
0.0
  0
LINE
  5
2CE
330
1F
100
AcDbEntity
  8
SLD-0
  6
Continuous
 62
     7
100
AcDbLine
 10
118.7229592534
 20
162.406782883
 30
0.0
 11
119.7229575547
 21
162.406782883
 31
0.0
  0
LINE
  5
2CF
330
1F
100
AcDbEntity
  8
SLD-0
  6
Continuous
 62
     7
100
AcDbLine
 10
110.0825611463
 20
173.4776482784
 30
0.0
 11
110.08299328
 21
173.4757756216
 31
0.0
  0
LINE
  5
2D0
330
1F
100
AcDbEntity
  8
SLD-0
  6
Continuous
 62
     7
100
AcDbLine
 10
110.08299328
 20
173.4757756216
 30
0.0
 11
110.084263604
 21
173.47022913
 31
0.0
  0
LINE
  5
2D1
330
1F
100
AcDbEntity
  8
SLD-0
  6
Continuous
 62
     7
100
AcDbLine
 10
110.084263604
 20
173.47022913
 30
0.0
 11
110.0863311401
 21
173.4612220765
 31
0.0
  0
LINE
  5
2D2
330
1F
100
AcDbEntity
  8
SLD-0
  6
Continuous
 62
     7
100
AcDbLine
 10
110.0863311401
 20
173.4612220765
 30
0.0
 11
110.089113932
 21
173.4491006804
 31
0.0
  0
LINE
  5
2D3
330
1F
100
AcDbEntity
  8
SLD-0
  6
Continuous
 62
     7
100
AcDbLine
 10
110.089113932
 20
173.4491006804
 30
0.0
 11
110.0925002209
 21
173.4343308357
 31
0.0
  0
LINE
  5
2D4
330
1F
100
AcDbEntity
  8
SLD-0
  6
Continuous
 62
     7
100
AcDbLine
 10
110.0925002209
 20
173.4343308357
 30
0.0
 11
110.0963670722
 21
173.4174797178
 31
0.0
  0
LINE
  5
2D5
330
1F
100
AcDbEntity
  8
SLD-0
  6
Continuous
 62
     7
100
AcDbLine
 10
110.0963670722
 20
173.4174797178
 30
0.0
 11
110.1005617491
 21
173.3991955274
 31
0.0
  0
LINE
  5
2D6
330
1F
100
AcDbEntity
  8
SLD-0
  6
Continuous
 62
     7
100
AcDbLine
 10
110.1005617491
 20
173.3991955274
 30
0.0
 11
110.1049239594
 21
173.3801809373
 31
0.0
  0
LINE
  5
2D7
330
1F
100
AcDbEntity
  8
SLD-0
  6
Continuous
 62
     7
100
AcDbLine
 10
107.4187438455
 20
171.9035411093
 30
0.0
 11
107.4087079134
 21
171.8869486663
 31
0.0
  0
LINE
  5
2D8
330
1F
100
AcDbEntity
  8
SLD-0
  6
Continuous
 62
     7
100
AcDbLine
 10
107.4087079134
 20
171.8869486663
 30
0.0
 11
107.4047032263
 21
171.8667906548
 31
0.0
  0
LINE
  5
2D9
330
1F
100
AcDbEntity
  8
SLD-0
  6
Continuous
 62
     7
100
AcDbLine
 10
107.4047032263
 20
171.8667906548
 30
0.0
 11
107.4070166316
 21
171.8445045713
 31
0.0
  0
LINE
  5
2DA
330
1F
100
AcDbEntity
  8
SLD-0
  6
Continuous
 62
     7
100
AcDbLine
 10
107.4070166316
 20
171.8445045713
 30
0.0
 11
107.4154879417
 21
171.8216792519
 31
0.0
  0
LINE
  5
2DB
330
1F
100
AcDbEntity
  8
SLD-0
  6
Continuous
 62
     7
100
AcDbLine
 10
107.4154879417
 20
171.8216792519
 30
0.0
 11
107.4295062091
 21
171.7999417174
 31
0.0
  0
LINE
  5
2DC
330
1F
100
AcDbEntity
  8
SLD-0
  6
Continuous
 62
     7
100
AcDbLine
 10
107.4295062091
 20
171.7999417174
 30
0.0
 11
107.448073056
 21
171.7808416884
 31
0.0
  0
LINE
  5
2DD
330
1F
100
AcDbEntity
  8
SLD-0
  6
Continuous
 62
     7
100
AcDbLine
 10
107.448073056
 20
171.7808416884
 30
0.0
 11
107.4698697295
 21
171.7657402928
 31
0.0
  0
LINE
  5
2DE
330
1F
100
AcDbEntity
  8
SLD-0
  6
Continuous
 62
     7
100
AcDbLine
 10
107.4698697295
 20
171.7657402928
 30
0.0
 11
107.4933353331
 21
171.7557146053
 31
0.0
  0
LINE
  5
2DF
330
1F
100
AcDbEntity
  8
SLD-0
  6
Continuous
 62
     7
100
AcDbLine
 10
107.4187438454
 20
165.1100258182
 30
0.0
 11
107.4087079134
 21
165.1266182612
 31
0.0
  0
LINE
  5
2E0
330
1F
100
AcDbEntity
  8
SLD-0
  6
Continuous
 62
     7
100
AcDbLine
 10
107.4087079134
 20
165.1266182612
 30
0.0
 11
107.4047032263
 21
165.146775807
 31
0.0
  0
LINE
  5
2E1
330
1F
100
AcDbEntity
  8
SLD-0
  6
Continuous
 62
     7
100
AcDbLine
 10
107.4047032263
 20
165.146775807
 30
0.0
 11
107.4070166316
 21
165.1690623562
 31
0.0
  0
LINE
  5
2E2
330
1F
100
AcDbEntity
  8
SLD-0
  6
Continuous
 62
     7
100
AcDbLine
 10
107.4070166316
 20
165.1690623562
 30
0.0
 11
107.4154879417
 21
165.1918872099
 31
0.0
  0
LINE
  5
2E3
330
1F
100
AcDbEntity
  8
SLD-0
  6
Continuous
 62
     7
100
AcDbLine
 10
107.4154879417
 20
165.1918872099
 30
0.0
 11
107.4295062091
 21
165.2136252101
 31
0.0
  0
LINE
  5
2E4
330
1F
100
AcDbEntity
  8
SLD-0
  6
Continuous
 62
     7
100
AcDbLine
 10
107.4295062091
 20
165.2136252101
 30
0.0
 11
107.448073056
 21
165.2327247734
 31
0.0
  0
LINE
  5
2E5
330
1F
100
AcDbEntity
  8
SLD-0
  6
Continuous
 62
     7
100
AcDbLine
 10
107.448073056
 20
165.2327247734
 30
0.0
 11
107.4698697295
 21
165.247826169
 31
0.0
  0
LINE
  5
2E6
330
1F
100
AcDbEntity
  8
SLD-0
  6
Continuous
 62
     7
100
AcDbLine
 10
107.4698697295
 20
165.247826169
 30
0.0
 11
107.4933353331
 21
165.2578518565
 31
0.0
  0
LINE
  5
2E7
330
1F
100
AcDbEntity
  8
SLD-0
  6
Continuous
 62
     7
100
AcDbLine
 10
110.0825611464
 20
163.535918714
 30
0.0
 11
110.0829932801
 21
163.5377916037
 31
0.0
  0
LINE
  5
2E8
330
1F
100
AcDbEntity
  8
SLD-0
  6
Continuous
 62
     7
100
AcDbLine
 10
110.0829932801
 20
163.5377916037
 30
0.0
 11
110.0842636041
 21
163.5433376297
 31
0.0
  0
LINE
  5
2E9
330
1F
100
AcDbEntity
  8
SLD-0
  6
Continuous
 62
     7
100
AcDbLine
 10
110.0842636041
 20
163.5433376297
 30
0.0
 11
110.0863311402
 21
163.5523444503
 31
0.0
  0
LINE
  5
2EA
330
1F
100
AcDbEntity
  8
SLD-0
  6
Continuous
 62
     7
100
AcDbLine
 10
110.0863311402
 20
163.5523444503
 30
0.0
 11
110.0891139321
 21
163.5644665449
 31
0.0
  0
LINE
  5
2EB
330
1F
100
AcDbEntity
  8
SLD-0
  6
Continuous
 62
     7
100
AcDbLine
 10
110.0891139321
 20
163.5644665449
 30
0.0
 11
110.092500221
 21
163.5792363896
 31
0.0
  0
LINE
  5
2EC
330
1F
100
AcDbEntity
  8
SLD-0
  6
Continuous
 62
     7
100
AcDbLine
 10
110.092500221
 20
163.5792363896
 30
0.0
 11
110.0963670723
 21
163.596086809
 31
0.0
  0
LINE
  5
2ED
330
1F
100
AcDbEntity
  8
SLD-0
  6
Continuous
 62
     7
100
AcDbLine
 10
110.0963670723
 20
163.596086809
 30
0.0
 11
110.1005617492
 21
163.6143714651
 31
0.0
  0
LINE
  5
2EE
330
1F
100
AcDbEntity
  8
SLD-0
  6
Continuous
 62
     7
100
AcDbLine
 10
110.1005617492
 20
163.6143714651
 30
0.0
 11
110.104923996
 21
163.6333859811
 31
0.0
  0
LINE
  5
2EF
330
1F
100
AcDbEntity
  8
SLD-0
  6
Continuous
 62
     7
100
AcDbLine
 10
112.7941775328
 20
173.7567837373
 30
0.0
 11
110.5703265314
 21
173.4640079663
 31
0.0
  0
LINE
  5
2F0
330
1F
100
AcDbEntity
  8
SLD-0
  6
Continuous
 62
     7
100
AcDbLine
 10
114.2229567475
 20
173.991911488
 30
0.0
 11
113.9568853385
 21
173.9481253572
 31
0.0
  0
LINE
  5
2F1
330
1F
100
AcDbEntity
  8
SLD-0
  6
Continuous
 62
     7
100
AcDbLine
 10
113.9568853385
 20
173.9481253572
 30
0.0
 11
113.3869233734
 21
173.8543288339
 31
0.0
  0
LINE
  5
2F2
330
1F
100
AcDbEntity
  8
SLD-0
  6
Continuous
 62
     7
100
AcDbLine
 10
113.3869233734
 20
173.8543288339
 30
0.0
 11
112.7941775328
 21
173.7567837373
 31
0.0
  0
LINE
  5
2F3
330
1F
100
AcDbEntity
  8
SLD-0
  6
Continuous
 62
     7
100
AcDbLine
 10
118.7229584422
 20
174.2567832421
 30
0.0
 11
119.7229567435
 21
174.2567832421
 31
0.0
  0
LINE
  5
2F4
330
1F
100
AcDbEntity
  8
SLD-0
  6
Continuous
 62
     7
100
AcDbLine
 10
112.7811278409
 20
173.8559281476
 30
0.0
 11
113.3738699562
 21
173.9339643646
 31
0.0
  0
LINE
  5
2F5
330
1F
100
AcDbEntity
  8
SLD-0
  6
Continuous
 62
     7
100
AcDbLine
 10
113.3738699562
 20
173.9339643646
 30
0.0
 11
113.9438356466
 21
174.0090014901
 31
0.0
  0
LINE
  5
2F6
330
1F
100
AcDbEntity
  8
SLD-0
  6
Continuous
 62
     7
100
AcDbLine
 10
113.9438356466
 20
174.0090014901
 30
0.0
 11
114.2229567475
 21
174.0457489178
 31
0.0
  0
LINE
  5
2F7
330
1F
100
AcDbEntity
  8
SLD-0
  6
Continuous
 62
     7
100
AcDbLine
 10
112.7811278409
 20
173.8559281476
 30
0.0
 11
112.7813774354
 21
173.8540231273
 31
0.0
  0
LINE
  5
2F8
330
1F
100
AcDbEntity
  8
SLD-0
  6
Continuous
 62
     7
100
AcDbLine
 10
112.7813774354
 20
173.8540231273
 30
0.0
 11
112.7821187682
 21
173.8483811751
 31
0.0
  0
LINE
  5
2F9
330
1F
100
AcDbEntity
  8
SLD-0
  6
Continuous
 62
     7
100
AcDbLine
 10
112.7821187682
 20
173.8483811751
 30
0.0
 11
112.7833257622
 21
173.8392192893
 31
0.0
  0
LINE
  5
2FA
330
1F
100
AcDbEntity
  8
SLD-0
  6
Continuous
 62
     7
100
AcDbLine
 10
112.7833257622
 20
173.8392192893
 30
0.0
 11
112.7849499888
 21
173.8268895097
 31
0.0
  0
LINE
  5
2FB
330
1F
100
AcDbEntity
  8
SLD-0
  6
Continuous
 62
     7
100
AcDbLine
 10
112.7849499888
 20
173.8268895097
 30
0.0
 11
112.7869281179
 21
173.811865414
 31
0.0
  0
LINE
  5
2FC
330
1F
100
AcDbEntity
  8
SLD-0
  6
Continuous
 62
     7
100
AcDbLine
 10
112.7869281179
 20
173.811865414
 30
0.0
 11
112.7891819186
 21
173.7947246548
 31
0.0
  0
LINE
  5
2FD
330
1F
100
AcDbEntity
  8
SLD-0
  6
Continuous
 62
     7
100
AcDbLine
 10
112.7891819186
 20
173.7947246548
 30
0.0
 11
112.7916331596
 21
173.7761256773
 31
0.0
  0
LINE
  5
2FE
330
1F
100
AcDbEntity
  8
SLD-0
  6
Continuous
 62
     7
100
AcDbLine
 10
112.7916331596
 20
173.7761256773
 30
0.0
 11
112.7941775328
 21
173.7567837373
 31
0.0
  0
LINE
  5
2FF
330
1F
100
AcDbEntity
  8
SLD-0
  6
Continuous
 62
     7
100
AcDbLine
 10
110.5572748191
 20
173.5631524608
 30
0.0
 11
112.7811278409
 21
173.8559281476
 31
0.0
  0
LINE
  5
300
330
1F
100
AcDbEntity
  8
SLD-0
  6
Continuous
 62
     7
100
AcDbLine
 10
110.5572748191
 20
173.5631524608
 30
0.0
 11
110.5575244135
 21
173.5612474404
 31
0.0
  0
LINE
  5
301
330
1F
100
AcDbEntity
  8
SLD-0
  6
Continuous
 62
     7
100
AcDbLine
 10
110.5575244135
 20
173.5612474404
 30
0.0
 11
110.5582657463
 21
173.5556054883
 31
0.0
  0
LINE
  5
302
330
1F
100
AcDbEntity
  8
SLD-0
  6
Continuous
 62
     7
100
AcDbLine
 10
110.5582657463
 20
173.5556054883
 30
0.0
 11
110.5594727403
 21
173.5464436025
 31
0.0
  0
LINE
  5
303
330
1F
100
AcDbEntity
  8
SLD-0
  6
Continuous
 62
     7
100
AcDbLine
 10
110.5594727403
 20
173.5464436025
 30
0.0
 11
110.5610969669
 21
173.5341135901
 31
0.0
  0
LINE
  5
304
330
1F
100
AcDbEntity
  8
SLD-0
  6
Continuous
 62
     7
100
AcDbLine
 10
110.5610969669
 20
173.5341135901
 30
0.0
 11
110.5630750961
 21
173.5190897271
 31
0.0
  0
LINE
  5
305
330
1F
100
AcDbEntity
  8
SLD-0
  6
Continuous
 62
     7
100
AcDbLine
 10
110.5630750961
 20
173.5190897271
 30
0.0
 11
110.565332622
 21
173.501948968
 31
0.0
  0
LINE
  5
306
330
1F
100
AcDbEntity
  8
SLD-0
  6
Continuous
 62
     7
100
AcDbLine
 10
110.565332622
 20
173.501948968
 30
0.0
 11
110.5677801377
 21
173.4833499905
 31
0.0
  0
LINE
  5
307
330
1F
100
AcDbEntity
  8
SLD-0
  6
Continuous
 62
     7
100
AcDbLine
 10
110.5677801377
 20
173.4833499905
 30
0.0
 11
110.5703265314
 21
173.4640079663
 31
0.0
  0
LINE
  5
308
330
1F
100
AcDbEntity
  8
SLD-0
  6
Continuous
 62
     7
100
AcDbLine
 10
110.5572748191
 20
163.4504145305
 30
0.0
 11
110.5575244135
 21
163.4523190851
 31
0.0
  0
LINE
  5
309
330
1F
100
AcDbEntity
  8
SLD-0
  6
Continuous
 62
     7
100
AcDbLine
 10
110.5575244135
 20
163.4523190851
 30
0.0
 11
110.5582657463
 21
163.4579610373
 31
0.0
  0
LINE
  5
30A
330
1F
100
AcDbEntity
  8
SLD-0
  6
Continuous
 62
     7
100
AcDbLine
 10
110.5582657463
 20
163.4579610373
 30
0.0
 11
110.5594727403
 21
163.4671233888
 31
0.0
  0
LINE
  5
30B
330
1F
100
AcDbEntity
  8
SLD-0
  6
Continuous
 62
     7
100
AcDbLine
 10
110.5594727403
 20
163.4671233888
 30
0.0
 11
110.5610969669
 21
163.4794531684
 31
0.0
  0
LINE
  5
30C
330
1F
100
AcDbEntity
  8
SLD-0
  6
Continuous
 62
     7
100
AcDbLine
 10
110.5610969669
 20
163.4794531684
 30
0.0
 11
110.5630750961
 21
163.4944772641
 31
0.0
  0
LINE
  5
30D
330
1F
100
AcDbEntity
  8
SLD-0
  6
Continuous
 62
     7
100
AcDbLine
 10
110.5630750961
 20
163.4944772641
 30
0.0
 11
110.565332622
 21
163.5116182561
 31
0.0
  0
LINE
  5
30E
330
1F
100
AcDbEntity
  8
SLD-0
  6
Continuous
 62
     7
100
AcDbLine
 10
110.565332622
 20
163.5116182561
 30
0.0
 11
110.5677801377
 21
163.5302167679
 31
0.0
  0
LINE
  5
30F
330
1F
100
AcDbEntity
  8
SLD-0
  6
Continuous
 62
     7
100
AcDbLine
 10
110.5677801377
 20
163.5302167679
 30
0.0
 11
110.5703265314
 21
163.5495589605
 31
0.0
  0
LINE
  5
310
330
1F
100
AcDbEntity
  8
SLD-0
  6
Continuous
 62
     7
100
AcDbLine
 10
112.7811278409
 20
163.157638378
 30
0.0
 11
110.5572748191
 21
163.4504145305
 31
0.0
  0
LINE
  5
311
330
1F
100
AcDbEntity
  8
SLD-0
  6
Continuous
 62
     7
100
AcDbLine
 10
110.5703265314
 20
163.5495589605
 30
0.0
 11
112.7941775328
 21
163.256783254
 31
0.0
  0
LINE
  5
312
330
1F
100
AcDbEntity
  8
SLD-0
  6
Continuous
 62
     7
100
AcDbLine
 10
112.7811278409
 20
163.157638378
 30
0.0
 11
112.7813774354
 21
163.159543864
 31
0.0
  0
LINE
  5
313
330
1F
100
AcDbEntity
  8
SLD-0
  6
Continuous
 62
     7
100
AcDbLine
 10
112.7813774354
 20
163.159543864
 30
0.0
 11
112.7821187682
 21
163.1651858161
 31
0.0
  0
LINE
  5
314
330
1F
100
AcDbEntity
  8
SLD-0
  6
Continuous
 62
     7
100
AcDbLine
 10
112.7821187682
 20
163.1651858161
 30
0.0
 11
112.7833257622
 21
163.1743472363
 31
0.0
  0
LINE
  5
315
330
1F
100
AcDbEntity
  8
SLD-0
  6
Continuous
 62
     7
100
AcDbLine
 10
112.7833257622
 20
163.1743472363
 30
0.0
 11
112.7849499888
 21
163.1866779472
 31
0.0
  0
LINE
  5
316
330
1F
100
AcDbEntity
  8
SLD-0
  6
Continuous
 62
     7
100
AcDbLine
 10
112.7849499888
 20
163.1866779472
 30
0.0
 11
112.7869281179
 21
163.2017011116
 31
0.0
  0
LINE
  5
317
330
1F
100
AcDbEntity
  8
SLD-0
  6
Continuous
 62
     7
100
AcDbLine
 10
112.7869281179
 20
163.2017011116
 30
0.0
 11
112.7891819186
 21
163.2188421036
 31
0.0
  0
LINE
  5
318
330
1F
100
AcDbEntity
  8
SLD-0
  6
Continuous
 62
     7
100
AcDbLine
 10
112.7891819186
 20
163.2188421036
 30
0.0
 11
112.7916331596
 21
163.2374415468
 31
0.0
  0
LINE
  5
319
330
1F
100
AcDbEntity
  8
SLD-0
  6
Continuous
 62
     7
100
AcDbLine
 10
112.7916331596
 20
163.2374415468
 30
0.0
 11
112.7941775328
 21
163.256783254
 31
0.0
  0
LINE
  5
31A
330
1F
100
AcDbEntity
  8
SLD-0
  6
Continuous
 62
     7
100
AcDbLine
 10
119.7229567435
 20
162.7567832197
 30
0.0
 11
118.7229584422
 21
162.7567832197
 31
0.0
  0
LINE
  5
31B
330
1F
100
AcDbEntity
  8
SLD-0
  6
Continuous
 62
     7
100
AcDbLine
 10
112.7941775328
 20
163.256783254
 30
0.0
 11
113.3217754967
 21
163.1699588443
 31
0.0
  0
LINE
  5
31C
330
1F
100
AcDbEntity
  8
SLD-0
  6
Continuous
 62
     7
100
AcDbLine
 10
113.3217754967
 20
163.1699588443
 30
0.0
 11
113.833339811
 21
163.0857728715
 31
0.0
  0
LINE
  5
31D
330
1F
100
AcDbEntity
  8
SLD-0
  6
Continuous
 62
     7
100
AcDbLine
 10
113.833339811
 20
163.0857728715
 30
0.0
 11
114.2229567475
 21
163.0216550375
 31
0.0
  0
LINE
  5
31E
330
1F
100
AcDbEntity
  8
SLD-0
  6
Continuous
 62
     7
100
AcDbLine
 10
114.2229567475
 20
162.9678180735
 30
0.0
 11
113.8202863938
 21
163.0208308171
 31
0.0
  0
LINE
  5
31F
330
1F
100
AcDbEntity
  8
SLD-0
  6
Continuous
 62
     7
100
AcDbLine
 10
113.8202863938
 20
163.0208308171
 30
0.0
 11
113.3087220795
 21
163.0881794091
 31
0.0
  0
LINE
  5
320
330
1F
100
AcDbEntity
  8
SLD-0
  6
Continuous
 62
     7
100
AcDbLine
 10
113.3087220795
 20
163.0881794091
 30
0.0
 11
112.7811278409
 21
163.157638378
 31
0.0
  0
LINE
  5
321
330
1F
100
AcDbEntity
  8
SLD-0
  6
Continuous
 62
     7
100
AcDbLine
 10
150.8229579296
 20
160.7567828919
 30
0.0
 11
148.8229576018
 21
160.7567828919
 31
0.0
  0
LINE
  5
322
330
1F
100
AcDbEntity
  8
SLD-0
  6
Continuous
 62
     7
100
AcDbLine
 10
150.8229579296
 20
160.9067835684
 30
0.0
 11
150.8229579296
 21
160.7567828919
 31
0.0
  0
LINE
  5
323
330
1F
100
AcDbEntity
  8
SLD-0
  6
Continuous
 62
     7
100
AcDbLine
 10
148.8229576018
 20
160.7567828919
 30
0.0
 11
148.8229576018
 21
160.9067835684
 31
0.0
  0
LINE
  5
324
330
1F
100
AcDbEntity
  8
SLD-0
  6
Continuous
 62
     7
100
AcDbLine
 10
159.8229575422
 20
176.9067833389
 30
0.0
 11
161.7729574893
 21
176.9067833389
 31
0.0
  0
LINE
  5
325
330
1F
100
AcDbEntity
  8
SLD-0
  6
Continuous
 62
     7
100
AcDbLine
 10
157.8729575951
 20
176.9067833389
 30
0.0
 11
159.8229575422
 21
176.9067833389
 31
0.0
  0
LINE
  5
326
330
1F
100
AcDbEntity
  8
SLD-0
  6
Continuous
 62
     7
100
AcDbLine
 10
139.8729569729
 20
177.621764627
 30
0.0
 11
137.6229580011
 21
177.621764627
 31
0.0
  0
LINE
  5
327
330
1F
100
AcDbEntity
  8
SLD-0
  6
Continuous
 62
     7
100
AcDbLine
 10
137.6229580011
 20
177.4067833626
 30
0.0
 11
137.6229580011
 21
177.621764627
 31
0.0
  0
LINE
  5
328
330
1F
100
AcDbEntity
  8
SLD-0
  6
Continuous
 62
     7
100
AcDbLine
 10
139.8729569729
 20
176.7067833294
 30
0.0
 11
139.8729569729
 21
177.621764627
 31
0.0
  0
LINE
  5
329
330
1F
100
AcDbEntity
  8
SLD-0
  6
Continuous
 62
     7
100
AcDbLine
 10
137.6229580011
 20
177.9067833281
 30
0.0
 11
139.8729569729
 21
177.9067833281
 31
0.0
  0
LINE
  5
32A
330
1F
100
AcDbEntity
  8
SLD-0
  6
Continuous
 62
     7
100
AcDbLine
 10
137.6229580011
 20
177.621764627
 30
0.0
 11
137.6229580011
 21
177.9067833281
 31
0.0
  0
LINE
  5
32B
330
1F
100
AcDbEntity
  8
SLD-0
  6
Continuous
 62
     7
100
AcDbLine
 10
139.8729569729
 20
177.9067833281
 30
0.0
 11
139.8729569729
 21
177.621764627
 31
0.0
  0
LINE
  5
32C
330
1F
100
AcDbEntity
  8
SLD-0
  6
Continuous
 62
     7
100
AcDbLine
 10
114.2229567733
 20
156.5067835923
 30
0.0
 11
117.2229591277
 21
156.5067835923
 31
0.0
  0
LINE
  5
32D
330
1F
100
AcDbEntity
  8
SLD-0
  6
Continuous
 62
     7
100
AcDbLine
 10
114.2229567733
 20
180.5067833352
 30
0.0
 11
114.2229567733
 21
156.5067835923
 31
0.0
  0
LINE
  5
32E
330
1F
100
AcDbEntity
  8
SLD-0
  6
Continuous
 62
     7
100
AcDbLine
 10
117.2229591277
 20
180.5067833352
 30
0.0
 11
114.2229567733
 21
180.5067833352
 31
0.0
  0
LINE
  5
32F
330
1F
100
AcDbEntity
  8
SLD-0
  6
Continuous
 62
     7
100
AcDbLine
 10
117.2229591277
 20
156.5067835923
 30
0.0
 11
117.2229591277
 21
180.5067833352
 31
0.0
  0
LINE
  5
330
330
1F
100
AcDbEntity
  8
SLD-0
  6
Continuous
 62
     7
100
AcDbLine
 10
164.222958323
 20
174.9067833311
 30
0.0
 11
118.9229589072
 21
174.9067833311
 31
0.0
  0
LINE
  5
331
330
1F
100
AcDbEntity
  8
SLD-0
  6
Continuous
 62
     7
100
AcDbLine
 10
118.9229589072
 20
174.9067833311
 30
0.0
 11
118.9229589072
 21
176.4067825329
 31
0.0
  0
LINE
  5
332
330
1F
100
AcDbEntity
  8
SLD-0
  6
Continuous
 62
     7
100
AcDbLine
 10
164.222958323
 20
176.4067825329
 30
0.0
 11
118.9229589072
 21
176.4067825329
 31
0.0
  0
LINE
  5
333
330
1F
100
AcDbEntity
  8
SLD-0
  6
Continuous
 62
     7
100
AcDbLine
 10
164.222958323
 20
174.9067833311
 30
0.0
 11
164.222958323
 21
176.4067825329
 31
0.0
  0
LINE
  5
334
330
1F
100
AcDbEntity
  8
SLD-0
  6
Continuous
 62
     7
100
AcDbLine
 10
118.7229583295
 20
174.7067833151
 30
0.0
 11
117.2229591277
 21
174.7067833151
 31
0.0
  0
LINE
  5
335
330
1F
100
AcDbEntity
  8
SLD-0
  6
Continuous
 62
     7
100
AcDbLine
 10
118.7229592534
 20
162.406782883
 30
0.0
 11
117.2229599389
 21
162.406782883
 31
0.0
  0
LINE
  5
336
330
1F
100
AcDbEntity
  8
SLD-0
  6
Continuous
 62
     7
100
AcDbLine
 10
118.7229592534
 20
162.406782883
 30
0.0
 11
118.7229583295
 21
174.7067833151
 31
0.0
  0
LINE
  5
337
330
1F
100
AcDbEntity
  8
SLD-0
  6
Continuous
 62
     7
100
AcDbLine
 10
117.7229572203
 20
175.9109419704
 30
0.0
 11
117.7229572203
 21
176.4067825329
 31
0.0
  0
LINE
  5
338
330
1F
100
AcDbEntity
  8
SLD-0
  6
Continuous
 62
     7
100
AcDbLine
 10
117.7229572203
 20
176.4067825329
 30
0.0
 11
118.9229589072
 21
176.4067825329
 31
0.0
  0
LINE
  5
339
330
1F
100
AcDbEntity
  8
SLD-0
  6
Continuous
 62
     7
100
AcDbLine
 10
94.2229572203
 20
172.1567830841
 30
0.0
 11
94.2229572203
 21
164.7567835476
 31
0.0
  0
LINE
  5
33A
330
1F
100
AcDbEntity
  8
SLD-0
  6
Continuous
 62
     7
100
AcDbLine
 10
93.2229551937
 20
165.4567832898
 30
0.0
 11
93.2229551937
 21
171.4567833419
 31
0.0
  0
LINE
  5
33B
330
1F
100
AcDbEntity
  8
SLD-0
  6
Continuous
 62
     7
100
AcDbLine
 10
94.2229572203
 20
172.1567830841
 30
0.0
 11
94.2229572203
 21
172.4567835059
 31
0.0
  0
LINE
  5
33C
330
1F
100
AcDbEntity
  8
SLD-0
  6
Continuous
 62
     7
100
AcDbLine
 10
94.2229572203
 20
172.4567835059
 30
0.0
 11
107.1135159101
 21
172.4567835059
 31
0.0
  0
LINE
  5
33D
330
1F
100
AcDbEntity
  8
SLD-0
  6
Continuous
 62
     7
100
AcDbLine
 10
94.2229572203
 20
164.7567835476
 30
0.0
 11
94.2229572203
 21
164.4567831259
 31
0.0
  0
LINE
  5
33E
330
1F
100
AcDbEntity
  8
SLD-0
  6
Continuous
 62
     7
100
AcDbLine
 10
107.2120349374
 20
164.4567831259
 30
0.0
 11
94.2229572203
 21
164.4567831259
 31
0.0
  0
LINE
  5
33F
330
1F
100
AcDbEntity
  8
SLD-0
  6
Continuous
 62
     7
100
AcDbLine
 10
141.4469908442
 20
176.7067833294
 30
0.0
 11
144.141100299
 21
176.7067833294
 31
0.0
  0
LINE
  5
340
330
1F
100
AcDbEntity
  8
SLD-0
  6
Continuous
 62
     7
100
AcDbLine
 10
134.3769430634
 20
176.7067833294
 30
0.0
 11
135.2729573365
 21
176.7067833294
 31
0.0
  0
LINE
  5
341
330
1F
100
AcDbEntity
  8
SLD-0
  6
Continuous
 62
     7
100
AcDbLine
 10
139.1729581621
 20
176.7067833294
 30
0.0
 11
141.4469908442
 21
176.7067833294
 31
0.0
  0
LINE
  5
342
330
1F
100
AcDbEntity
  8
SLD-0
  6
Continuous
 62
     7
100
AcDbLine
 10
132.3106642332
 20
176.7067833294
 30
0.0
 11
134.3769430634
 21
176.7067833294
 31
0.0
  0
LINE
  5
343
330
1F
100
AcDbEntity
  8
SLD-0
  6
Continuous
 62
     7
100
AcDbLine
 10
155.8229578178
 20
174.9067833021
 30
0.0
 11
155.8229578178
 21
170.9067833449
 31
0.0
  0
LINE
  5
344
330
1F
100
AcDbEntity
  8
SLD-0
  6
Continuous
 62
     7
100
AcDbLine
 10
143.8729576286
 20
176.6067833677
 30
0.0
 11
143.8729576286
 21
176.4067833151
 31
0.0
  0
LINE
  5
345
330
1F
100
AcDbEntity
  8
SLD-0
  6
Continuous
 62
     7
100
AcDbLine
 10
143.8729576286
 20
176.6067833677
 30
0.0
 11
145.3729569431
 21
176.6067833677
 31
0.0
  0
LINE
  5
346
330
1F
100
AcDbEntity
  8
SLD-0
  6
Continuous
 62
     7
100
AcDbLine
 10
145.3729569431
 20
176.6067833677
 30
0.0
 11
145.3729569431
 21
176.4067833728
 31
0.0
  0
LINE
  5
347
330
1F
100
AcDbEntity
  8
SLD-0
  6
Continuous
 62
     7
100
AcDbLine
 10
154.5729575183
 20
176.6067833151
 30
0.0
 11
154.5729575183
 21
176.4067833151
 31
0.0
  0
LINE
  5
348
330
1F
100
AcDbEntity
  8
SLD-0
  6
Continuous
 62
     7
100
AcDbLine
 10
153.0729578327
 20
176.6067833151
 30
0.0
 11
154.5729575183
 21
176.6067833151
 31
0.0
  0
LINE
  5
349
330
1F
100
AcDbEntity
  8
SLD-0
  6
Continuous
 62
     7
100
AcDbLine
 10
153.0729578327
 20
176.4067833202
 30
0.0
 11
153.0729578327
 21
176.6067833151
 31
0.0
  0
LINE
  5
34A
330
1F
100
AcDbEntity
  8
SLD-0
  6
Continuous
 62
     7
100
AcDbLine
 10
145.3729569431
 20
160.8067837383
 30
0.0
 11
143.8729575183
 21
160.8067833151
 31
0.0
  0
LINE
  5
34B
330
1F
100
AcDbEntity
  8
SLD-0
  6
Continuous
 62
     7
100
AcDbLine
 10
145.3729569431
 20
160.9067835684
 30
0.0
 11
145.3729569431
 21
160.8067837383
 31
0.0
  0
LINE
  5
34C
330
1F
100
AcDbEntity
  8
SLD-0
  6
Continuous
 62
     7
100
AcDbLine
 10
154.5729571473
 20
160.8067837383
 30
0.0
 11
153.0729578327
 21
160.8067837383
 31
0.0
  0
LINE
  5
34D
330
1F
100
AcDbEntity
  8
SLD-0
  6
Continuous
 62
     7
100
AcDbLine
 10
153.0729578327
 20
160.8067837383
 30
0.0
 11
153.0729578327
 21
160.9067835684
 31
0.0
  0
LINE
  5
34E
330
1F
100
AcDbEntity
  8
SLD-0
  6
Continuous
 62
     7
100
AcDbLine
 10
147.7229576077
 20
176.5067833126
 30
0.0
 11
147.7229576077
 21
176.4067833151
 31
0.0
  0
LINE
  5
34F
330
1F
100
AcDbEntity
  8
SLD-0
  6
Continuous
 62
     7
100
AcDbLine
 10
150.7229571681
 20
176.5067833126
 30
0.0
 11
147.7229576077
 21
176.5067833126
 31
0.0
  0
LINE
  5
350
330
1F
100
AcDbEntity
  8
SLD-0
  6
Continuous
 62
     7
100
AcDbLine
 10
150.7229571681
 20
176.5067833126
 30
0.0
 11
150.7229571681
 21
176.4067833151
 31
0.0
  0
LINE
  5
351
330
1F
100
AcDbEntity
  8
SLD-0
  6
Continuous
 62
     7
100
AcDbLine
 10
110.1049239594
 20
173.3801809373
 30
0.0
 11
114.2229567129
 21
173.3801809373
 31
0.0
  0
LINE
  5
352
330
1F
100
AcDbEntity
  8
SLD-0
  6
Continuous
 62
     7
100
AcDbLine
 10
118.7229584422
 20
173.3801805253
 30
0.0
 11
119.7229567435
 21
173.3801805253
 31
0.0
  0
LINE
  5
353
330
1F
100
AcDbEntity
  8
SLD-0
  6
Continuous
 62
     7
100
AcDbLine
 10
119.7229567435
 20
173.756783393
 30
0.0
 11
118.7229584422
 21
173.756783393
 31
0.0
  0
LINE
  5
354
330
1F
100
AcDbEntity
  8
SLD-0
  6
Continuous
 62
     7
100
AcDbLine
 10
114.2229567475
 20
173.7567837373
 30
0.0
 11
112.7941775328
 21
173.7567837373
 31
0.0
  0
LINE
  5
355
330
1F
100
AcDbEntity
  8
SLD-0
  6
Continuous
 62
     7
100
AcDbLine
 10
119.7229567435
 20
171.7557146053
 30
0.0
 11
118.7229584422
 21
171.7557146053
 31
0.0
  0
LINE
  5
356
330
1F
100
AcDbEntity
  8
SLD-0
  6
Continuous
 62
     7
100
AcDbLine
 10
114.2229567733
 20
171.7557146053
 30
0.0
 11
107.4933353331
 21
171.7557146053
 31
0.0
  0
LINE
  5
357
330
1F
100
AcDbEntity
  8
SLD-0
  6
Continuous
 62
     7
100
AcDbLine
 10
119.7229567435
 20
163.6333859365
 30
0.0
 11
118.7229584422
 21
163.6333859365
 31
0.0
  0
LINE
  5
358
330
1F
100
AcDbEntity
  8
SLD-0
  6
Continuous
 62
     7
100
AcDbLine
 10
114.2229567495
 20
163.6333859811
 30
0.0
 11
110.104923996
 21
163.6333859811
 31
0.0
  0
LINE
  5
359
330
1F
100
AcDbEntity
  8
SLD-0
  6
Continuous
 62
     7
100
AcDbLine
 10
107.4933353331
 20
165.2578518565
 30
0.0
 11
114.2229567733
 21
165.2578518565
 31
0.0
  0
LINE
  5
35A
330
1F
100
AcDbEntity
  8
SLD-0
  6
Continuous
 62
     7
100
AcDbLine
 10
118.7229584422
 20
165.2578518565
 30
0.0
 11
119.7229567435
 21
165.2578518565
 31
0.0
  0
LINE
  5
35B
330
1F
100
AcDbEntity
  8
SLD-0
  6
Continuous
 62
     7
100
AcDbLine
 10
112.7941775328
 20
163.256783254
 30
0.0
 11
114.2229567475
 21
163.256783254
 31
0.0
  0
LINE
  5
35C
330
1F
100
AcDbEntity
  8
SLD-0
  6
Continuous
 62
     7
100
AcDbLine
 10
118.7229584422
 20
163.2567833017
 30
0.0
 11
119.7229567435
 21
163.2567833017
 31
0.0
  0
LINE
  5
35D
330
1F
100
AcDbEntity
  8
SLD-0
  6
Continuous
 62
     7
100
AcDbLine
 10
106.844888952
 20
172.1567830841
 30
0.0
 11
94.2229572203
 21
172.1567830841
 31
0.0
  0
LINE
  5
35E
330
1F
100
AcDbEntity
  8
SLD-0
  6
Continuous
 62
     7
100
AcDbLine
 10
94.2229572203
 20
164.7567835476
 30
0.0
 11
106.9302316275
 21
164.7567835476
 31
0.0
  0
LINE
  5
35F
330
1F
100
AcDbEntity
  8
SLD-0
  6
Continuous
 62
     7
100
AcDbLine
 10
141.4469908442
 20
176.7067833294
 30
0.0
 11
141.4469908442
 21
176.4067833151
 31
0.0
  0
LINE
  5
360
330
1F
100
AcDbEntity
  8
SLD-0
  6
Continuous
 62
     7
100
AcDbLine
 10
134.3769430634
 20
176.7067833294
 30
0.0
 11
134.3769430634
 21
176.4067833151
 31
0.0
  0
LINE
  5
361
330
1F
100
AcDbEntity
  8
SLD-0
  6
Continuous
 62
     7
100
AcDbLine
 10
153.3229574081
 20
170.9067833449
 30
0.0
 11
153.3229574081
 21
174.9067833021
 31
0.0
  0
LINE
  5
362
330
1F
100
AcDbEntity
  8
SLD-0
  6
Continuous
 62
     7
100
AcDbLine
 10
143.8729576286
 20
160.9067835684
 30
0.0
 11
143.8729575183
 21
160.8067833151
 31
0.0
  0
LINE
  5
363
330
1F
100
AcDbEntity
  8
SLD-0
  6
Continuous
 62
     7
100
AcDbLine
 10
154.5729571473
 20
160.9067835684
 30
0.0
 11
154.5729571473
 21
160.8067837383
 31
0.0
  0
LINE
  5
364
330
1F
100
AcDbEntity
  8
SLD-0
  6
CENTERX2
 62
     7
100
AcDbLine
 10
171.4830864682
 20
168.4567833151
 30
0.0
 11
85.0440939061
 21
168.4567833151
 31
0.0
  0
LINE
  5
365
330
1F
100
AcDbEntity
  8
SLD-0
  6
Continuous
 62
     7
100
AcDbLine
 10
320.5173078994
 20
461.9468753265
 30
0.0
 11
320.5173078994
 21
462.0468770193
 31
0.0
  0
LINE
  5
366
330
1F
100
AcDbEntity
  8
SLD-0
  6
Continuous
 62
     7
100
AcDbLine
 10
320.5173078994
 20
474.8468757646
 30
0.0
 11
320.5173078994
 21
474.9468755948
 31
0.0
  0
LINE
  5
367
330
1F
100
AcDbEntity
  8
SLD-0
  6
Continuous
 62
     7
100
AcDbLine
 10
316.5173081751
 20
474.9468755948
 30
0.0
 11
316.5173081751
 21
474.8468757646
 31
0.0
  0
LINE
  5
368
330
1F
100
AcDbEntity
  8
SLD-0
  6
Continuous
 62
     7
100
AcDbLine
 10
316.5173081751
 20
462.0468770193
 30
0.0
 11
316.5173081751
 21
461.9468753265
 31
0.0
  0
LINE
  5
369
330
1F
100
AcDbEntity
  8
SLD-0
  6
Continuous
 62
     7
100
AcDbLine
 10
319.9020501296
 20
317.6468764471
 30
0.0
 11
317.1314423043
 21
317.6468764471
 31
0.0
  0
LINE
  5
36A
330
1F
100
AcDbEntity
  8
SLD-0
  6
Continuous
 62
     7
100
AcDbLine
 10
314.5673077624
 20
379.3468778061
 30
0.0
 11
314.4673079322
 21
379.3468778061
 31
0.0
  0
LINE
  5
36B
330
1F
100
AcDbEntity
  8
SLD-0
  6
Continuous
 62
     7
100
AcDbLine
 10
314.4673079322
 20
376.346879177
 30
0.0
 11
314.5673077624
 21
376.346879177
 31
0.0
  0
LINE
  5
36C
330
1F
100
AcDbEntity
  8
SLD-0
  6
Continuous
 62
     7
100
AcDbLine
 10
314.5673077624
 20
368.3468704151
 30
0.0
 11
314.4673079322
 21
368.3468704151
 31
0.0
  0
LINE
  5
36D
330
1F
100
AcDbEntity
  8
SLD-0
  6
Continuous
 62
     7
100
AcDbLine
 10
314.4673079322
 20
363.3468751835
 30
0.0
 11
314.5673077624
 21
363.3468751835
 31
0.0
  0
LINE
  5
36E
330
1F
100
AcDbEntity
  8
SLD-0
  6
Continuous
 62
     7
100
AcDbLine
 10
314.4673079322
 20
373.5468764829
 30
0.0
 11
314.5673077624
 21
373.5468764829
 31
0.0
  0
LINE
  5
36F
330
1F
100
AcDbEntity
  8
SLD-0
  6
Continuous
 62
     7
100
AcDbLine
 10
316.950341973
 20
478.4468752371
 30
0.0
 11
316.8673080462
 21
478.4468752371
 31
0.0
  0
LINE
  5
370
330
1F
100
AcDbEntity
  8
SLD-0
  6
Continuous
 62
     7
100
AcDbLine
 10
320.1673075627
 20
478.4468752371
 30
0.0
 11
316.950341973
 21
478.4468752371
 31
0.0
  0
LINE
  5
371
330
1F
100
AcDbEntity
  8
SLD-0
  6
Continuous
 62
     7
100
AcDbLine
 10
313.8048112066
 20
474.846876161
 30
0.0
 11
323.2298046996
 21
474.846876161
 31
0.0
  0
LINE
  5
372
330
1F
100
AcDbEntity
  8
SLD-0
  6
Continuous
 62
     7
100
AcDbLine
 10
313.8048112066
 20
462.046876161
 30
0.0
 11
323.2298046996
 21
462.046876161
 31
0.0
  0
LINE
  5
373
330
1F
100
AcDbEntity
  8
SLD-0
  6
Continuous
 62
     7
100
AcDbLine
 10
315.1205501589
 20
479.5552087056
 30
0.0
 11
315.1371426018
 21
479.5735632109
 31
0.0
  0
LINE
  5
374
330
1F
100
AcDbEntity
  8
SLD-0
  6
Continuous
 62
     7
100
AcDbLine
 10
315.1371426018
 20
479.5735632109
 30
0.0
 11
315.1573006133
 21
479.590606414
 31
0.0
  0
LINE
  5
375
330
1F
100
AcDbEntity
  8
SLD-0
  6
Continuous
 62
     7
100
AcDbLine
 10
315.1573006133
 20
479.590606414
 30
0.0
 11
315.1795866968
 21
479.6051275956
 31
0.0
  0
LINE
  5
376
330
1F
100
AcDbEntity
  8
SLD-0
  6
Continuous
 62
     7
100
AcDbLine
 10
315.1795866968
 20
479.6051275956
 30
0.0
 11
315.2024120161
 21
479.6160911249
 31
0.0
  0
LINE
  5
377
330
1F
100
AcDbEntity
  8
SLD-0
  6
Continuous
 62
     7
100
AcDbLine
 10
315.2024120161
 20
479.6160911249
 30
0.0
 11
315.2241495507
 21
479.6227128284
 31
0.0
  0
LINE
  5
378
330
1F
100
AcDbEntity
  8
SLD-0
  6
Continuous
 62
     7
100
AcDbLine
 10
315.2241495507
 20
479.6227128284
 30
0.0
 11
315.2432495797
 21
479.6245233195
 31
0.0
  0
LINE
  5
379
330
1F
100
AcDbEntity
  8
SLD-0
  6
Continuous
 62
     7
100
AcDbLine
 10
315.2432495797
 20
479.6245233195
 30
0.0
 11
315.2583509753
 21
479.621392213
 31
0.0
  0
LINE
  5
37A
330
1F
100
AcDbEntity
  8
SLD-0
  6
Continuous
 62
     7
100
AcDbLine
 10
315.2583509753
 20
479.621392213
 30
0.0
 11
315.2683766628
 21
479.6135430264
 31
0.0
  0
LINE
  5
37B
330
1F
100
AcDbEntity
  8
SLD-0
  6
Continuous
 62
     7
100
AcDbLine
 10
321.9140654499
 20
479.5552087056
 30
0.0
 11
321.8974730069
 21
479.5735632109
 31
0.0
  0
LINE
  5
37C
330
1F
100
AcDbEntity
  8
SLD-0
  6
Continuous
 62
     7
100
AcDbLine
 10
321.8974730069
 20
479.5735632109
 30
0.0
 11
321.8773154611
 21
479.590606414
 31
0.0
  0
LINE
  5
37D
330
1F
100
AcDbEntity
  8
SLD-0
  6
Continuous
 62
     7
100
AcDbLine
 10
321.8773154611
 20
479.590606414
 30
0.0
 11
321.8550289119
 21
479.6051275956
 31
0.0
  0
LINE
  5
37E
330
1F
100
AcDbEntity
  8
SLD-0
  6
Continuous
 62
     7
100
AcDbLine
 10
321.8550289119
 20
479.6051275956
 30
0.0
 11
321.8322040582
 21
479.6160911249
 31
0.0
  0
LINE
  5
37F
330
1F
100
AcDbEntity
  8
SLD-0
  6
Continuous
 62
     7
100
AcDbLine
 10
321.8322040582
 20
479.6160911249
 30
0.0
 11
321.810466058
 21
479.6227128284
 31
0.0
  0
LINE
  5
380
330
1F
100
AcDbEntity
  8
SLD-0
  6
Continuous
 62
     7
100
AcDbLine
 10
321.810466058
 20
479.6227128284
 30
0.0
 11
321.7913664946
 21
479.6245233195
 31
0.0
  0
LINE
  5
381
330
1F
100
AcDbEntity
  8
SLD-0
  6
Continuous
 62
     7
100
AcDbLine
 10
321.7913664946
 20
479.6245233195
 30
0.0
 11
321.7762650991
 21
479.621392213
 31
0.0
  0
LINE
  5
382
330
1F
100
AcDbEntity
  8
SLD-0
  6
Continuous
 62
     7
100
AcDbLine
 10
321.7762650991
 20
479.621392213
 30
0.0
 11
321.7662394116
 21
479.6135430264
 31
0.0
  0
LINE
  5
383
330
1F
100
AcDbEntity
  8
SLD-0
  6
Continuous
 62
     7
100
AcDbLine
 10
321.91406545
 20
451.3385412322
 30
0.0
 11
321.897473007
 21
451.3201904522
 31
0.0
  0
LINE
  5
384
330
1F
100
AcDbEntity
  8
SLD-0
  6
Continuous
 62
     7
100
AcDbLine
 10
321.897473007
 20
451.3201904522
 30
0.0
 11
321.8773154612
 21
451.3031435238
 31
0.0
  0
LINE
  5
385
330
1F
100
AcDbEntity
  8
SLD-0
  6
Continuous
 62
     7
100
AcDbLine
 10
321.8773154612
 20
451.3031435238
 30
0.0
 11
321.855028912
 21
451.2886260675
 31
0.0
  0
LINE
  5
386
330
1F
100
AcDbEntity
  8
SLD-0
  6
Continuous
 62
     7
100
AcDbLine
 10
321.855028912
 20
451.2886260675
 30
0.0
 11
321.8322040583
 21
451.2776625382
 31
0.0
  0
LINE
  5
387
330
1F
100
AcDbEntity
  8
SLD-0
  6
Continuous
 62
     7
100
AcDbLine
 10
321.8322040583
 20
451.2776625382
 30
0.0
 11
321.8104660581
 21
451.2710389721
 31
0.0
  0
LINE
  5
388
330
1F
100
AcDbEntity
  8
SLD-0
  6
Continuous
 62
     7
100
AcDbLine
 10
321.8104660581
 20
451.2710389721
 30
0.0
 11
321.7913664947
 21
451.269228481
 31
0.0
  0
LINE
  5
389
330
1F
100
AcDbEntity
  8
SLD-0
  6
Continuous
 62
     7
100
AcDbLine
 10
321.7913664947
 20
451.269228481
 30
0.0
 11
321.7762650992
 21
451.2723614501
 31
0.0
  0
LINE
  5
38A
330
1F
100
AcDbEntity
  8
SLD-0
  6
Continuous
 62
     7
100
AcDbLine
 10
321.7762650992
 20
451.2723614501
 30
0.0
 11
321.7662394117
 21
451.2802106368
 31
0.0
  0
LINE
  5
38B
330
1F
100
AcDbEntity
  8
SLD-0
  6
Continuous
 62
     7
100
AcDbLine
 10
315.1205501589
 20
451.3385412322
 30
0.0
 11
315.1371426019
 21
451.3201904522
 31
0.0
  0
LINE
  5
38C
330
1F
100
AcDbEntity
  8
SLD-0
  6
Continuous
 62
     7
100
AcDbLine
 10
315.1371426019
 20
451.3201904522
 30
0.0
 11
315.1573006134
 21
451.3031435238
 31
0.0
  0
LINE
  5
38D
330
1F
100
AcDbEntity
  8
SLD-0
  6
Continuous
 62
     7
100
AcDbLine
 10
315.1573006134
 20
451.3031435238
 30
0.0
 11
315.1795866969
 21
451.2886260675
 31
0.0
  0
LINE
  5
38E
330
1F
100
AcDbEntity
  8
SLD-0
  6
Continuous
 62
     7
100
AcDbLine
 10
315.1795866969
 20
451.2886260675
 30
0.0
 11
315.2024120162
 21
451.2776625382
 31
0.0
  0
LINE
  5
38F
330
1F
100
AcDbEntity
  8
SLD-0
  6
Continuous
 62
     7
100
AcDbLine
 10
315.2024120162
 20
451.2776625382
 30
0.0
 11
315.2241495508
 21
451.2710389721
 31
0.0
  0
LINE
  5
390
330
1F
100
AcDbEntity
  8
SLD-0
  6
Continuous
 62
     7
100
AcDbLine
 10
315.2241495508
 20
451.2710389721
 30
0.0
 11
315.2432495798
 21
451.269228481
 31
0.0
  0
LINE
  5
391
330
1F
100
AcDbEntity
  8
SLD-0
  6
Continuous
 62
     7
100
AcDbLine
 10
315.2432495798
 20
451.269228481
 30
0.0
 11
315.2583509754
 21
451.2723614501
 31
0.0
  0
LINE
  5
392
330
1F
100
AcDbEntity
  8
SLD-0
  6
Continuous
 62
     7
100
AcDbLine
 10
315.2583509754
 20
451.2723614501
 30
0.0
 11
315.2683766629
 21
451.2802106367
 31
0.0
  0
LINE
  5
393
330
1F
100
AcDbEntity
  8
SLD-0
  6
Continuous
 62
     7
100
AcDbLine
 10
323.5736766899
 20
480.3468757348
 30
0.0
 11
323.4881728957
 21
480.3468757348
 31
0.0
  0
LINE
  5
394
330
1F
100
AcDbEntity
  8
SLD-0
  6
Continuous
 62
     7
100
AcDbLine
 10
323.5736766899
 20
474.9468755948
 30
0.0
 11
323.5736766899
 21
480.3468757348
 31
0.0
  0
LINE
  5
395
330
1F
100
AcDbEntity
  8
SLD-0
  6
Continuous
 62
     7
100
AcDbLine
 10
313.4609391516
 20
474.9468755948
 30
0.0
 11
313.4609391516
 21
480.3468757349
 31
0.0
  0
LINE
  5
396
330
1F
100
AcDbEntity
  8
SLD-0
  6
Continuous
 62
     7
100
AcDbLine
 10
313.5464429459
 20
480.3468757349
 30
0.0
 11
313.4609391516
 21
480.3468757349
 31
0.0
  0
LINE
  5
397
330
1F
100
AcDbEntity
  8
SLD-0
  6
Continuous
 62
     7
100
AcDbLine
 10
323.5736766899
 20
474.9468755948
 30
0.0
 11
313.4609391516
 21
474.9468755948
 31
0.0
  0
LINE
  5
398
330
1F
100
AcDbEntity
  8
SLD-0
  6
Continuous
 62
     7
100
AcDbLine
 10
313.4609391517
 20
450.5468760656
 30
0.0
 11
313.5464429459
 21
450.5468760656
 31
0.0
  0
LINE
  5
399
330
1F
100
AcDbEntity
  8
SLD-0
  6
Continuous
 62
     7
100
AcDbLine
 10
313.4609391517
 20
450.5468760656
 30
0.0
 11
313.4609391517
 21
461.9468753265
 31
0.0
  0
LINE
  5
39A
330
1F
100
AcDbEntity
  8
SLD-0
  6
Continuous
 62
     7
100
AcDbLine
 10
323.5736766899
 20
450.5468760656
 30
0.0
 11
323.5736766899
 21
461.9468753265
 31
0.0
  0
LINE
  5
39B
330
1F
100
AcDbEntity
  8
SLD-0
  6
Continuous
 62
     7
100
AcDbLine
 10
323.4881728957
 20
450.5468760656
 30
0.0
 11
323.5736766899
 21
450.5468760656
 31
0.0
  0
LINE
  5
39C
330
1F
100
AcDbEntity
  8
SLD-0
  6
Continuous
 62
     7
100
AcDbLine
 10
313.4609391517
 20
461.9468753265
 30
0.0
 11
323.5736766899
 21
461.9468753265
 31
0.0
  0
LINE
  5
39D
330
1F
100
AcDbEntity
  8
SLD-0
  6
Continuous
 62
     7
100
AcDbLine
 10
313.5600835621
 20
480.4468764963
 30
0.0
 11
313.6439107428
 21
480.4468764963
 31
0.0
  0
LINE
  5
39E
330
1F
100
AcDbEntity
  8
SLD-0
  6
Continuous
 62
     7
100
AcDbLine
 10
323.3907053316
 20
480.4468764963
 30
0.0
 11
323.4745318139
 21
480.4468764963
 31
0.0
  0
LINE
  5
39F
330
1F
100
AcDbEntity
  8
SLD-0
  6
Continuous
 62
     7
100
AcDbLine
 10
313.6439107428
 20
450.4468743729
 30
0.0
 11
313.5600835621
 21
450.4468743729
 31
0.0
  0
LINE
  5
3A0
330
1F
100
AcDbEntity
  8
SLD-0
  6
Continuous
 62
     7
100
AcDbLine
 10
323.4745318139
 20
450.4468743729
 30
0.0
 11
323.3907053316
 21
450.4468743729
 31
0.0
  0
LINE
  5
3A1
330
1F
100
AcDbEntity
  8
SLD-0
  6
Continuous
 62
     7
100
AcDbLine
 10
312.7681634459
 20
461.9468753265
 30
0.0
 11
312.7681634459
 21
450.9468753862
 31
0.0
  0
LINE
  5
3A2
330
1F
100
AcDbEntity
  8
SLD-0
  6
Continuous
 62
     7
100
AcDbLine
 10
313.1681634649
 20
450.5468760656
 30
0.0
 11
313.4609391517
 21
450.5468760656
 31
0.0
  0
LINE
  5
3A3
330
1F
100
AcDbEntity
  8
SLD-0
  6
Continuous
 62
     7
100
AcDbLine
 10
312.7681634459
 20
461.9468753265
 30
0.0
 11
313.4609391517
 21
461.9468753265
 31
0.0
  0
LINE
  5
3A4
330
1F
100
AcDbEntity
  8
SLD-0
  6
Continuous
 62
     7
100
AcDbLine
 10
313.4609391516
 20
480.3468757349
 30
0.0
 11
313.1681634648
 21
480.3468757349
 31
0.0
  0
LINE
  5
3A5
330
1F
100
AcDbEntity
  8
SLD-0
  6
Continuous
 62
     7
100
AcDbLine
 10
312.7681634458
 20
479.9468764143
 30
0.0
 11
312.7681634458
 21
474.9468755948
 31
0.0
  0
LINE
  5
3A6
330
1F
100
AcDbEntity
  8
SLD-0
  6
Continuous
 62
     7
100
AcDbLine
 10
313.4609391516
 20
474.9468755948
 30
0.0
 11
312.7681634458
 21
474.9468755948
 31
0.0
  0
LINE
  5
3A7
330
1F
100
AcDbEntity
  8
SLD-0
  6
Continuous
 62
     7
100
AcDbLine
 10
313.5600835621
 20
450.4468743729
 30
0.0
 11
313.2673078752
 21
450.4468743729
 31
0.0
  0
LINE
  5
3A8
330
1F
100
AcDbEntity
  8
SLD-0
  6
Continuous
 62
     7
100
AcDbLine
 10
313.2673078752
 20
480.4468764963
 30
0.0
 11
313.5600835621
 21
480.4468764963
 31
0.0
  0
LINE
  5
3A9
330
1F
100
AcDbEntity
  8
SLD-0
  6
Continuous
 62
     7
100
AcDbLine
 10
323.5736766899
 20
450.5468760656
 30
0.0
 11
323.8664528424
 21
450.5468760656
 31
0.0
  0
LINE
  5
3AA
330
1F
100
AcDbEntity
  8
SLD-0
  6
Continuous
 62
     7
100
AcDbLine
 10
323.7673079665
 20
450.4468743729
 30
0.0
 11
323.4745318139
 21
450.4468743729
 31
0.0
  0
LINE
  5
3AB
330
1F
100
AcDbEntity
  8
SLD-0
  6
Continuous
 62
     7
100
AcDbLine
 10
323.8664528424
 20
480.3468757348
 30
0.0
 11
323.5736766899
 21
480.3468757348
 31
0.0
  0
LINE
  5
3AC
330
1F
100
AcDbEntity
  8
SLD-0
  6
Continuous
 62
     7
100
AcDbLine
 10
323.4745318139
 20
480.4468764963
 30
0.0
 11
323.7673079664
 21
480.4468764963
 31
0.0
  0
LINE
  5
3AD
330
1F
100
AcDbEntity
  8
SLD-0
  6
Continuous
 62
     7
100
AcDbLine
 10
324.2664521629
 20
474.9468755948
 30
0.0
 11
324.2664521629
 21
479.9468764144
 31
0.0
  0
LINE
  5
3AE
330
1F
100
AcDbEntity
  8
SLD-0
  6
Continuous
 62
     7
100
AcDbLine
 10
324.2664521629
 20
474.9468755948
 30
0.0
 11
323.5736766899
 21
474.9468755948
 31
0.0
  0
LINE
  5
3AF
330
1F
100
AcDbEntity
  8
SLD-0
  6
Continuous
 62
     7
100
AcDbLine
 10
324.2664521629
 20
450.9468753862
 30
0.0
 11
324.2664521629
 21
461.9468753265
 31
0.0
  0
LINE
  5
3B0
330
1F
100
AcDbEntity
  8
SLD-0
  6
Continuous
 62
     7
100
AcDbLine
 10
323.5736766899
 20
461.9468753265
 30
0.0
 11
324.2664521629
 21
461.9468753265
 31
0.0
  0
LINE
  5
3B1
330
1F
100
AcDbEntity
  8
SLD-0
  6
Continuous
 62
     7
100
AcDbLine
 10
312.7681634459
 20
450.9468753862
 30
0.0
 11
312.7673080261
 21
450.9468753862
 31
0.0
  0
LINE
  5
3B2
330
1F
100
AcDbEntity
  8
SLD-0
  6
Continuous
 62
     7
100
AcDbLine
 10
312.7681634458
 20
479.9468764143
 30
0.0
 11
312.7673080261
 21
479.9468764143
 31
0.0
  0
LINE
  5
3B3
330
1F
100
AcDbEntity
  8
SLD-0
  6
Continuous
 62
     7
100
AcDbLine
 10
324.2664521629
 20
450.9468753862
 30
0.0
 11
324.2673080484
 21
450.9468753862
 31
0.0
  0
LINE
  5
3B4
330
1F
100
AcDbEntity
  8
SLD-0
  6
Continuous
 62
     7
100
AcDbLine
 10
324.2664521629
 20
479.9468764144
 30
0.0
 11
324.2673080484
 21
479.9468764144
 31
0.0
  0
LINE
  5
3B5
330
1F
100
AcDbEntity
  8
SLD-0
  6
Continuous
 62
     7
100
AcDbLine
 10
312.7673080261
 20
474.9468755948
 30
0.0
 11
312.7673080261
 21
479.9468764143
 31
0.0
  0
LINE
  5
3B6
330
1F
100
AcDbEntity
  8
SLD-0
  6
Continuous
 62
     7
100
AcDbLine
 10
312.7681634458
 20
474.9468755948
 30
0.0
 11
312.7673080261
 21
474.9468755948
 31
0.0
  0
LINE
  5
3B7
330
1F
100
AcDbEntity
  8
SLD-0
  6
Continuous
 62
     7
100
AcDbLine
 10
312.7673080261
 20
450.9468753862
 30
0.0
 11
312.7673080261
 21
461.9468753265
 31
0.0
  0
LINE
  5
3B8
330
1F
100
AcDbEntity
  8
SLD-0
  6
Continuous
 62
     7
100
AcDbLine
 10
312.7673080261
 20
461.9468753265
 30
0.0
 11
312.7681634459
 21
461.9468753265
 31
0.0
  0
LINE
  5
3B9
330
1F
100
AcDbEntity
  8
SLD-0
  6
Continuous
 62
     7
100
AcDbLine
 10
324.2673080484
 20
479.9468764144
 30
0.0
 11
324.2673080484
 21
474.9468755948
 31
0.0
  0
LINE
  5
3BA
330
1F
100
AcDbEntity
  8
SLD-0
  6
Continuous
 62
     7
100
AcDbLine
 10
324.2673080484
 20
474.9468755948
 30
0.0
 11
324.2664521629
 21
474.9468755948
 31
0.0
  0
LINE
  5
3BB
330
1F
100
AcDbEntity
  8
SLD-0
  6
Continuous
 62
     7
100
AcDbLine
 10
324.2673080484
 20
461.9468753265
 30
0.0
 11
324.2673080484
 21
450.9468753862
 31
0.0
  0
LINE
  5
3BC
330
1F
100
AcDbEntity
  8
SLD-0
  6
Continuous
 62
     7
100
AcDbLine
 10
324.2664521629
 20
461.9468753265
 30
0.0
 11
324.2673080484
 21
461.9468753265
 31
0.0
  0
LINE
  5
3BD
330
1F
100
AcDbEntity
  8
SLD-0
  6
Continuous
 62
     7
100
AcDbLine
 10
324.2673080484
 20
462.5540194141
 30
0.0
 11
324.2673080484
 21
461.9468753265
 31
0.0
  0
LINE
  5
3BE
330
1F
100
AcDbEntity
  8
SLD-0
  6
Continuous
 62
     7
100
AcDbLine
 10
312.7673080261
 20
461.9468753265
 30
0.0
 11
312.7673080261
 21
462.5540194141
 31
0.0
  0
LINE
  5
3BF
330
1F
100
AcDbEntity
  8
SLD-0
  6
Continuous
 62
     7
100
AcDbLine
 10
324.2673080484
 20
474.9468755948
 30
0.0
 11
324.2673080484
 21
474.3397333699
 31
0.0
  0
LINE
  5
3C0
330
1F
100
AcDbEntity
  8
SLD-0
  6
Continuous
 62
     7
100
AcDbLine
 10
312.7673080261
 20
474.3397333699
 30
0.0
 11
312.7673080261
 21
474.9468755948
 31
0.0
  0
LINE
  5
3C1
330
1F
100
AcDbEntity
  8
SLD-0
  6
Continuous
 62
     7
100
AcDbLine
 10
324.2673080484
 20
462.5540194141
 30
0.0
 11
324.2673080484
 21
474.3397333699
 31
0.0
  0
LINE
  5
3C2
330
1F
100
AcDbEntity
  8
SLD-0
  6
Continuous
 62
     7
100
AcDbLine
 10
312.7673080261
 20
462.5540194141
 30
0.0
 11
312.7673080261
 21
474.3397333699
 31
0.0
  0
LINE
  5
3C3
330
1F
100
AcDbEntity
  8
SLD-0
  6
Continuous
 62
     7
100
AcDbLine
 10
324.3673078786
 20
469.6968761312
 30
0.0
 11
324.2673080485
 21
469.6968761312
 31
0.0
  0
LINE
  5
3C4
330
1F
100
AcDbEntity
  8
SLD-0
  6
Continuous
 62
     7
100
AcDbLine
 10
312.6673079632
 20
461.1968775319
 30
0.0
 11
312.7673080261
 21
461.1968775319
 31
0.0
  0
LINE
  5
3C5
330
1F
100
AcDbEntity
  8
SLD-0
  6
Continuous
 62
     7
100
AcDbLine
 10
324.2673080485
 20
461.1968775319
 30
0.0
 11
324.3673078786
 21
461.1968775319
 31
0.0
  0
LINE
  5
3C6
330
1F
100
AcDbEntity
  8
SLD-0
  6
Continuous
 62
     7
100
AcDbLine
 10
316.5173081751
 20
452.3109761106
 30
0.0
 11
316.5173081751
 21
452.4468747007
 31
0.0
  0
LINE
  5
3C7
330
1F
100
AcDbEntity
  8
SLD-0
  6
Continuous
 62
     7
100
AcDbLine
 10
317.3626072775
 20
456.9468763696
 30
0.0
 11
317.9399578902
 21
455.9468743431
 31
0.0
  0
LINE
  5
3C8
330
1F
100
AcDbEntity
  8
SLD-0
  6
Continuous
 62
     7
100
AcDbLine
 10
317.9399578902
 20
455.9468743431
 30
0.0
 11
319.09465865
 21
455.9468743431
 31
0.0
  0
LINE
  5
3C9
330
1F
100
AcDbEntity
  8
SLD-0
  6
Continuous
 62
     7
100
AcDbLine
 10
319.09465865
 20
455.9468743431
 30
0.0
 11
319.6720087971
 21
456.9468763696
 31
0.0
  0
LINE
  5
3CA
330
1F
100
AcDbEntity
  8
SLD-0
  6
Continuous
 62
     7
100
AcDbLine
 10
319.6720087971
 20
456.9468763696
 30
0.0
 11
319.09465865
 21
457.9468746709
 31
0.0
  0
LINE
  5
3CB
330
1F
100
AcDbEntity
  8
SLD-0
  6
Continuous
 62
     7
100
AcDbLine
 10
319.09465865
 20
457.9468746709
 30
0.0
 11
317.9399578902
 21
457.9468746709
 31
0.0
  0
LINE
  5
3CC
330
1F
100
AcDbEntity
  8
SLD-0
  6
Continuous
 62
     7
100
AcDbLine
 10
317.9399578902
 20
457.9468746709
 30
0.0
 11
317.3626072775
 21
456.9468763696
 31
0.0
  0
LINE
  5
3CD
330
1F
100
AcDbEntity
  8
SLD-0
  6
Continuous
 62
     7
100
AcDbLine
 10
315.6173078413
 20
320.546880834
 30
0.0
 11
315.7831531088
 21
321.4874272274
 31
0.0
  0
LINE
  5
3CE
330
1F
100
AcDbEntity
  8
SLD-0
  6
Continuous
 62
     7
100
AcDbLine
 10
315.7831531088
 20
321.4874272274
 30
0.0
 11
316.035503808
 21
322.0046763348
 31
0.0
  0
LINE
  5
3CF
330
1F
100
AcDbEntity
  8
SLD-0
  6
Continuous
 62
     7
100
AcDbLine
 10
321.1173078115
 20
320.4468791412
 30
0.0
 11
321.1173078115
 21
319.0046702551
 31
0.0
  0
LINE
  5
3D0
330
1F
100
AcDbEntity
  8
SLD-0
  6
Continuous
 62
     7
100
AcDbLine
 10
315.6173078413
 20
320.4468791412
 30
0.0
 11
315.7831531088
 21
321.3874255346
 31
0.0
  0
LINE
  5
3D1
330
1F
100
AcDbEntity
  8
SLD-0
  6
Continuous
 62
     7
100
AcDbLine
 10
315.7831531088
 20
321.3874255346
 30
0.0
 11
316.1490874435
 21
322.0722978043
 31
0.0
  0
LINE
  5
3D2
330
1F
100
AcDbEntity
  8
SLD-0
  6
Continuous
 62
     7
100
AcDbLine
 10
315.6173078413
 20
319.0810834097
 30
0.0
 11
315.6173078413
 21
320.4468791412
 31
0.0
  0
LINE
  5
3D3
330
1F
100
AcDbEntity
  8
SLD-0
  6
Continuous
 62
     7
100
AcDbLine
 10
314.4673079322
 20
383.4468727039
 30
0.0
 11
314.4673079322
 21
348.3468745874
 31
0.0
  0
LINE
  5
3D4
330
1F
100
AcDbEntity
  8
SLD-0
  6
Continuous
 62
     7
100
AcDbLine
 10
314.4673079322
 20
348.3468745874
 30
0.0
 11
314.8673081841
 21
348.3468745874
 31
0.0
  0
LINE
  5
3D5
330
1F
100
AcDbEntity
  8
SLD-0
  6
Continuous
 62
     7
100
AcDbLine
 10
322.2673077206
 20
348.3468745874
 30
0.0
 11
322.5673081423
 21
348.3468745874
 31
0.0
  0
LINE
  5
3D6
330
1F
100
AcDbEntity
  8
SLD-0
  6
Continuous
 62
     7
100
AcDbLine
 10
322.5673081423
 20
348.3468745874
 30
0.0
 11
322.5673081423
 21
348.6468796658
 31
0.0
  0
LINE
  5
3D7
330
1F
100
AcDbEntity
  8
SLD-0
  6
Continuous
 62
     7
100
AcDbLine
 10
322.5673081423
 20
383.0468733834
 30
0.0
 11
322.5673081423
 21
383.4468727039
 31
0.0
  0
LINE
  5
3D8
330
1F
100
AcDbEntity
  8
SLD-0
  6
Continuous
 62
     7
100
AcDbLine
 10
322.5673081423
 20
383.4468727039
 30
0.0
 11
314.4673079322
 21
383.4468727039
 31
0.0
  0
LINE
  5
3D9
330
1F
100
AcDbEntity
  8
SLD-0
  6
Continuous
 62
     7
100
AcDbLine
 10
312.6673079531
 20
480.046876161
 30
0.0
 11
312.6673079531
 21
450.8468774187
 31
0.0
  0
LINE
  5
3DA
330
1F
100
AcDbEntity
  8
SLD-0
  6
Continuous
 62
     7
100
AcDbLine
 10
313.167307948
 20
450.346876166
 30
0.0
 11
313.6439107378
 21
450.3468764104
 31
0.0
  0
LINE
  5
3DB
330
1F
100
AcDbEntity
  8
SLD-0
  6
Continuous
 62
     7
100
AcDbLine
 10
323.3907050212
 20
450.3468763595
 30
0.0
 11
323.8673076923
 21
450.3468766039
 31
0.0
  0
LINE
  5
3DC
330
1F
100
AcDbEntity
  8
SLD-0
  6
Continuous
 62
     7
100
AcDbLine
 10
324.3673077266
 20
450.8468764817
 30
0.0
 11
324.3673077266
 21
480.0468765652
 31
0.0
  0
LINE
  5
3DD
330
1F
100
AcDbEntity
  8
SLD-0
  6
Continuous
 62
     7
100
AcDbLine
 10
323.8673080203
 20
480.5468760301
 30
0.0
 11
323.3907053989
 21
480.5468761955
 31
0.0
  0
LINE
  5
3DE
330
1F
100
AcDbEntity
  8
SLD-0
  6
Continuous
 62
     7
100
AcDbLine
 10
313.6439107807
 20
480.546876161
 30
0.0
 11
313.1673079531
 21
480.546876161
 31
0.0
  0
LINE
  5
3DF
330
1F
100
AcDbEntity
  8
SLD-0
  6
Continuous
 62
     7
100
AcDbLine
 10
330.5173076759
 20
524.4468753265
 30
0.0
 11
330.5173076759
 21
279.4468705582
 31
0.0
  0
LINE
  5
3E0
330
1F
100
AcDbEntity
  8
SLD-0
  6
Continuous
 62
     7
100
AcDbLine
 10
306.517307933
 20
279.4468705582
 30
0.0
 11
330.5173076759
 21
279.4468705582
 31
0.0
  0
LINE
  5
3E1
330
1F
100
AcDbEntity
  8
SLD-0
  6
Continuous
 62
     7
100
AcDbLine
 10
306.517307933
 20
524.4468753265
 30
0.0
 11
306.517307933
 21
279.4468705582
 31
0.0
  0
LINE
  5
3E2
330
1F
100
AcDbEntity
  8
SLD-0
  6
Continuous
 62
     7
100
AcDbLine
 10
306.517307933
 20
524.4468753265
 30
0.0
 11
330.5173076759
 21
524.4468753265
 31
0.0
  0
LINE
  5
3E3
330
1F
100
AcDbEntity
  8
SLD-0
  6
Continuous
 62
     7
100
AcDbLine
 10
315.0173079292
 20
513.6972335206
 30
0.0
 11
314.4553986448
 21
513.6972335206
 31
0.0
  0
LINE
  5
3E4
330
1F
100
AcDbEntity
  8
SLD-0
  6
Continuous
 62
     7
100
AcDbLine
 10
314.4553986693
 20
511.1965194193
 30
0.0
 11
315.0173079331
 21
511.1965191695
 31
0.0
  0
LINE
  5
3E5
330
1F
100
AcDbEntity
  8
SLD-0
  6
Continuous
 62
     7
100
AcDbLine
 10
317.2673078362
 20
508.9465192663
 30
0.0
 11
317.2673078362
 21
508.384857248
 31
0.0
  0
LINE
  5
3E6
330
1F
100
AcDbEntity
  8
SLD-0
  6
Continuous
 62
     7
100
AcDbLine
 10
319.7673078633
 20
508.3848572504
 30
0.0
 11
319.7673081524
 21
508.946519175
 31
0.0
  0
LINE
  5
3E7
330
1F
100
AcDbEntity
  8
SLD-0
  6
Continuous
 62
     7
100
AcDbLine
 10
322.0173081292
 20
511.1965191072
 30
0.0
 11
322.579216948
 21
511.1965191072
 31
0.0
  0
LINE
  5
3E8
330
1F
100
AcDbEntity
  8
SLD-0
  6
Continuous
 62
     7
100
AcDbLine
 10
322.5792170422
 20
513.6972336063
 30
0.0
 11
322.0173079468
 21
513.6972338414
 31
0.0
  0
LINE
  5
3E9
330
1F
100
AcDbEntity
  8
SLD-0
  6
Continuous
 62
     7
100
AcDbLine
 10
319.7673082422
 20
515.94723319
 30
0.0
 11
319.7673082422
 21
516.5088952083
 31
0.0
  0
LINE
  5
3EA
330
1F
100
AcDbEntity
  8
SLD-0
  6
Continuous
 62
     7
100
AcDbLine
 10
317.2673079531
 20
516.5088953633
 30
0.0
 11
317.2673078324
 21
515.9472324924
 31
0.0
  0
LINE
  5
3EB
330
1F
100
AcDbEntity
  8
SLD-0
  6
Continuous
 62
     7
100
AcDbLine
 10
322.579215363
 20
292.6972343643
 30
0.0
 11
322.0173065442
 21
292.6972343643
 31
0.0
  0
LINE
  5
3EC
330
1F
100
AcDbEntity
  8
SLD-0
  6
Continuous
 62
     7
100
AcDbLine
 10
319.7673083642
 20
294.9472376424
 30
0.0
 11
319.7673083642
 21
295.5088922102
 31
0.0
  0
LINE
  5
3ED
330
1F
100
AcDbEntity
  8
SLD-0
  6
Continuous
 62
     7
100
AcDbLine
 10
317.267309288
 20
295.5088930727
 30
0.0
 11
317.2673091673
 21
294.9472349553
 31
0.0
  0
LINE
  5
3EE
330
1F
100
AcDbEntity
  8
SLD-0
  6
Continuous
 62
     7
100
AcDbLine
 10
315.0173092642
 20
292.6972341209
 30
0.0
 11
314.4553999797
 21
292.6972341209
 31
0.0
  0
LINE
  5
3EF
330
1F
100
AcDbEntity
  8
SLD-0
  6
Continuous
 62
     7
100
AcDbLine
 10
314.4553986655
 20
290.1965190364
 30
0.0
 11
315.0173079293
 21
290.1965235399
 31
0.0
  0
LINE
  5
3F0
330
1F
100
AcDbEntity
  8
SLD-0
  6
Continuous
 62
     7
100
AcDbLine
 10
317.2673078323
 20
287.9465227055
 30
0.0
 11
317.2673078323
 21
287.3848532366
 31
0.0
  0
LINE
  5
3F1
330
1F
100
AcDbEntity
  8
SLD-0
  6
Continuous
 62
     7
100
AcDbLine
 10
319.767307953
 20
287.3848535246
 30
0.0
 11
319.7673082421
 21
287.9465192714
 31
0.0
  0
LINE
  5
3F2
330
1F
100
AcDbEntity
  8
SLD-0
  6
Continuous
 62
     7
100
AcDbLine
 10
322.0173086895
 20
290.1965214927
 30
0.0
 11
322.5792175083
 21
290.1965214927
 31
0.0
  0
LINE
  5
3F3
330
1F
100
AcDbEntity
  8
SLD-0
  6
Continuous
 62
     7
100
AcDbLine
 10
322.0173081419
 20
319.1965204097
 30
0.0
 11
322.5792169606
 21
319.1965204097
 31
0.0
  0
LINE
  5
3F4
330
1F
100
AcDbEntity
  8
SLD-0
  6
Continuous
 62
     7
100
AcDbLine
 10
322.5792159529
 20
321.6972309898
 30
0.0
 11
322.0173068574
 21
321.6972332812
 31
0.0
  0
LINE
  5
3F5
330
1F
100
AcDbEntity
  8
SLD-0
  6
Continuous
 62
     7
100
AcDbLine
 10
319.767308485
 20
323.9472372006
 30
0.0
 11
319.767308485
 21
324.5088917684
 31
0.0
  0
LINE
  5
3F6
330
1F
100
AcDbEntity
  8
SLD-0
  6
Continuous
 62
     7
100
AcDbLine
 10
317.2673091504
 20
324.5088926979
 30
0.0
 11
317.2673090297
 21
323.947233746
 31
0.0
  0
LINE
  5
3F7
330
1F
100
AcDbEntity
  8
SLD-0
  6
Continuous
 62
     7
100
AcDbLine
 10
315.0173091265
 20
321.6972329115
 30
0.0
 11
314.4553998421
 21
321.6972329115
 31
0.0
  0
LINE
  5
3F8
330
1F
100
AcDbEntity
  8
SLD-0
  6
Continuous
 62
     7
100
AcDbLine
 10
314.4553986655
 20
319.1965190364
 30
0.0
 11
315.0173079293
 21
319.1965227055
 31
0.0
  0
LINE
  5
3F9
330
1F
100
AcDbEntity
  8
SLD-0
  6
Continuous
 62
     7
100
AcDbLine
 10
317.2673078324
 20
316.946521871
 30
0.0
 11
317.2673078324
 21
316.3848524021
 31
0.0
  0
LINE
  5
3FA
330
1F
100
AcDbEntity
  8
SLD-0
  6
Continuous
 62
     7
100
AcDbLine
 10
319.7673079531
 20
316.3848527623
 30
0.0
 11
319.7673082422
 21
316.9465176747
 31
0.0
  0
LINE
  5
3FB
330
1F
100
AcDbEntity
  8
SLD-0
  6
Continuous
 62
     7
100
AcDbLine
 10
314.4673079322
 20
381.3468744086
 30
0.0
 11
314.5673077624
 21
381.3468744086
 31
0.0
  0
LINE
  5
3FC
330
1F
100
AcDbEntity
  8
SLD-0
  6
Continuous
 62
     7
100
AcDbLine
 10
322.2673077206
 20
348.3468745874
 30
0.0
 11
322.2566729482
 21
348.3620737719
 31
0.0
  0
LINE
  5
3FD
330
1F
100
AcDbEntity
  8
SLD-0
  6
Continuous
 62
     7
100
AcDbLine
 10
322.2566729482
 20
348.3620737719
 30
0.0
 11
322.225092731
 21
348.4071795868
 31
0.0
  0
LINE
  5
3FE
330
1F
100
AcDbEntity
  8
SLD-0
  6
Continuous
 62
     7
100
AcDbLine
 10
322.225092731
 20
348.4071795868
 30
0.0
 11
322.1735254
 21
348.4808509277
 31
0.0
  0
LINE
  5
3FF
330
1F
100
AcDbEntity
  8
SLD-0
  6
Continuous
 62
     7
100
AcDbLine
 10
322.1735254
 20
348.4808509277
 30
0.0
 11
322.1035393025
 21
348.5808377194
 31
0.0
  0
LINE
  5
400
330
1F
100
AcDbEntity
  8
SLD-0
  6
Continuous
 62
     7
100
AcDbLine
 10
322.1035393025
 20
348.5808377194
 30
0.0
 11
322.0172597165
 21
348.7040852236
 31
0.0
  0
LINE
  5
401
330
1F
100
AcDbEntity
  8
SLD-0
  6
Continuous
 62
     7
100
AcDbLine
 10
322.0172597165
 20
348.7040852236
 30
0.0
 11
321.9173083152
 21
348.8468830513
 31
0.0
  0
LINE
  5
402
330
1F
100
AcDbEntity
  8
SLD-0
  6
Continuous
 62
     7
100
AcDbLine
 10
321.9173083152
 20
348.8468830513
 30
0.0
 11
321.8067221414
 21
349.0048502611
 31
0.0
  0
LINE
  5
403
330
1F
100
AcDbEntity
  8
SLD-0
  6
Continuous
 62
     7
100
AcDbLine
 10
321.8067221414
 20
349.0048502611
 30
0.0
 11
321.6888614069
 21
349.1732333826
 31
0.0
  0
LINE
  5
404
330
1F
100
AcDbEntity
  8
SLD-0
  6
Continuous
 62
     7
100
AcDbLine
 10
321.6888614069
 20
349.1732333826
 30
0.0
 11
321.5673079784
 21
349.346876614
 31
0.0
  0
LINE
  5
405
330
1F
100
AcDbEntity
  8
SLD-0
  6
Continuous
 62
     7
100
AcDbLine
 10
322.2673077206
 20
348.3468745874
 30
0.0
 11
314.8673081841
 21
348.3468745874
 31
0.0
  0
LINE
  5
406
330
1F
100
AcDbEntity
  8
SLD-0
  6
Continuous
 62
     7
100
AcDbLine
 10
315.5673079263
 20
349.346876614
 30
0.0
 11
315.4307448375
 21
349.1517906117
 31
0.0
  0
LINE
  5
407
330
1F
100
AcDbEntity
  8
SLD-0
  6
Continuous
 62
     7
100
AcDbLine
 10
315.4307448375
 20
349.1517906117
 30
0.0
 11
315.2994297515
 21
348.9641998934
 31
0.0
  0
LINE
  5
408
330
1F
100
AcDbEntity
  8
SLD-0
  6
Continuous
 62
     7
100
AcDbLine
 10
315.2994297515
 20
348.9641998934
 30
0.0
 11
315.1784085739
 21
348.7913017201
 31
0.0
  0
LINE
  5
409
330
1F
100
AcDbEntity
  8
SLD-0
  6
Continuous
 62
     7
100
AcDbLine
 10
315.1784085739
 20
348.7913017201
 30
0.0
 11
315.0723332609
 21
348.6397718119
 31
0.0
  0
LINE
  5
40A
330
1F
100
AcDbEntity
  8
SLD-0
  6
Continuous
 62
     7
100
AcDbLine
 10
315.0723332609
 20
348.6397718119
 30
0.0
 11
314.9852792802
 21
348.5154067205
 31
0.0
  0
LINE
  5
40B
330
1F
100
AcDbEntity
  8
SLD-0
  6
Continuous
 62
     7
100
AcDbLine
 10
314.9852792802
 20
348.5154067205
 30
0.0
 11
314.9205924082
 21
348.4229897188
 31
0.0
  0
LINE
  5
40C
330
1F
100
AcDbEntity
  8
SLD-0
  6
Continuous
 62
     7
100
AcDbLine
 10
314.9205924082
 20
348.4229897188
 30
0.0
 11
314.8807583447
 21
348.3660970854
 31
0.0
  0
LINE
  5
40D
330
1F
100
AcDbEntity
  8
SLD-0
  6
Continuous
 62
     7
100
AcDbLine
 10
314.8807583447
 20
348.3660970854
 30
0.0
 11
314.8673081841
 21
348.3468745874
 31
0.0
  0
LINE
  5
40E
330
1F
100
AcDbEntity
  8
SLD-0
  6
Continuous
 62
     7
100
AcDbLine
 10
315.5673079263
 20
349.346876614
 30
0.0
 11
321.5673079784
 21
349.346876614
 31
0.0
  0
LINE
  5
40F
330
1F
100
AcDbEntity
  8
SLD-0
  6
Continuous
 62
     7
100
AcDbLine
 10
314.5673079531
 20
348.646876161
 30
0.0
 11
314.5865228097
 21
348.6603205132
 31
0.0
  0
LINE
  5
410
330
1F
100
AcDbEntity
  8
SLD-0
  6
Continuous
 62
     7
100
AcDbLine
 10
314.5865228097
 20
348.6603205132
 30
0.0
 11
314.6434284817
 21
348.7001662182
 31
0.0
  0
LINE
  5
411
330
1F
100
AcDbEntity
  8
SLD-0
  6
Continuous
 62
     7
100
AcDbLine
 10
314.6434284817
 20
348.7001662182
 30
0.0
 11
314.7358384985
 21
348.7648521589
 31
0.0
  0
LINE
  5
412
330
1F
100
AcDbEntity
  8
SLD-0
  6
Continuous
 62
     7
100
AcDbLine
 10
314.7358384985
 20
348.7648521589
 30
0.0
 11
314.8602012615
 21
348.8519047426
 31
0.0
  0
LINE
  5
413
330
1F
100
AcDbEntity
  8
SLD-0
  6
Continuous
 62
     7
100
AcDbLine
 10
314.8602012615
 20
348.8519047426
 30
0.0
 11
315.0117376889
 21
348.957971208
 31
0.0
  0
LINE
  5
414
330
1F
100
AcDbEntity
  8
SLD-0
  6
Continuous
 62
     7
100
AcDbLine
 10
315.0117376889
 20
348.957971208
 30
0.0
 11
315.1846246864
 21
349.0789984392
 31
0.0
  0
LINE
  5
415
330
1F
100
AcDbEntity
  8
SLD-0
  6
Continuous
 62
     7
100
AcDbLine
 10
315.1846246864
 20
349.0789984392
 30
0.0
 11
315.372217733
 21
349.2103074717
 31
0.0
  0
LINE
  5
416
330
1F
100
AcDbEntity
  8
SLD-0
  6
Continuous
 62
     7
100
AcDbLine
 10
315.372217733
 20
349.2103074717
 30
0.0
 11
315.5673079263
 21
349.346876614
 31
0.0
  0
LINE
  5
417
330
1F
100
AcDbEntity
  8
SLD-0
  6
Continuous
 62
     7
100
AcDbLine
 10
314.5673079531
 20
348.646876161
 30
0.0
 11
314.5673079531
 21
383.0468733834
 31
0.0
  0
LINE
  5
418
330
1F
100
AcDbEntity
  8
SLD-0
  6
Continuous
 62
     7
100
AcDbLine
 10
315.5673079263
 20
382.3468764352
 30
0.0
 11
315.3722179237
 21
382.483438127
 31
0.0
  0
LINE
  5
419
330
1F
100
AcDbEntity
  8
SLD-0
  6
Continuous
 62
     7
100
AcDbLine
 10
315.3722179237
 20
382.483438127
 30
0.0
 11
315.1846248771
 21
382.61475461
 31
0.0
  0
LINE
  5
41A
330
1F
100
AcDbEntity
  8
SLD-0
  6
Continuous
 62
     7
100
AcDbLine
 10
315.1846248771
 20
382.61475461
 30
0.0
 11
315.0117378796
 21
382.7357743906
 31
0.0
  0
LINE
  5
41B
330
1F
100
AcDbEntity
  8
SLD-0
  6
Continuous
 62
     7
100
AcDbLine
 10
315.0117378796
 20
382.7357743906
 30
0.0
 11
314.8602014522
 21
382.8418483066
 31
0.0
  0
LINE
  5
41C
330
1F
100
AcDbEntity
  8
SLD-0
  6
Continuous
 62
     7
100
AcDbLine
 10
314.8602014522
 20
382.8418483066
 30
0.0
 11
314.7358386892
 21
382.9289083408
 31
0.0
  0
LINE
  5
41D
330
1F
100
AcDbEntity
  8
SLD-0
  6
Continuous
 62
     7
100
AcDbLine
 10
314.7358386892
 20
382.9289083408
 30
0.0
 11
314.6434286724
 21
382.9935942816
 31
0.0
  0
LINE
  5
41E
330
1F
100
AcDbEntity
  8
SLD-0
  6
Continuous
 62
     7
100
AcDbLine
 10
314.6434286724
 20
382.9935942816
 30
0.0
 11
314.5865230004
 21
383.0334250855
 31
0.0
  0
LINE
  5
41F
330
1F
100
AcDbEntity
  8
SLD-0
  6
Continuous
 62
     7
100
AcDbLine
 10
314.5865230004
 20
383.0334250855
 30
0.0
 11
314.5673079531
 21
383.0468733834
 31
0.0
  0
LINE
  5
420
330
1F
100
AcDbEntity
  8
SLD-0
  6
Continuous
 62
     7
100
AcDbLine
 10
315.5673079263
 20
382.3468764352
 30
0.0
 11
315.5673079263
 21
349.346876614
 31
0.0
  0
LINE
  5
421
330
1F
100
AcDbEntity
  8
SLD-0
  6
Continuous
 62
     7
100
AcDbLine
 10
321.5673079784
 20
382.3468764352
 30
0.0
 11
321.7038715328
 21
382.5419698881
 31
0.0
  0
LINE
  5
422
330
1F
100
AcDbEntity
  8
SLD-0
  6
Continuous
 62
     7
100
AcDbLine
 10
321.7038715328
 20
382.5419698881
 30
0.0
 11
321.8351861532
 21
382.7295606064
 31
0.0
  0
LINE
  5
423
330
1F
100
AcDbEntity
  8
SLD-0
  6
Continuous
 62
     7
100
AcDbLine
 10
321.8351861532
 20
382.7295606064
 30
0.0
 11
321.9562068652
 21
382.9024438786
 31
0.0
  0
LINE
  5
424
330
1F
100
AcDbEntity
  8
SLD-0
  6
Continuous
 62
     7
100
AcDbLine
 10
321.9562068652
 20
382.9024438786
 30
0.0
 11
322.0622826438
 21
383.0539812373
 31
0.0
  0
LINE
  5
425
330
1F
100
AcDbEntity
  8
SLD-0
  6
Continuous
 62
     7
100
AcDbLine
 10
322.0622826438
 20
383.0539812373
 30
0.0
 11
322.1493370901
 21
383.1783463286
 31
0.0
  0
LINE
  5
426
330
1F
100
AcDbEntity
  8
SLD-0
  6
Continuous
 62
     7
100
AcDbLine
 10
322.1493370901
 20
383.1783463286
 30
0.0
 11
322.2140239622
 21
383.2707558798
 31
0.0
  0
LINE
  5
427
330
1F
100
AcDbEntity
  8
SLD-0
  6
Continuous
 62
     7
100
AcDbLine
 10
322.2140239622
 20
383.2707558798
 30
0.0
 11
322.25385756
 21
383.3276634144
 31
0.0
  0
LINE
  5
428
330
1F
100
AcDbEntity
  8
SLD-0
  6
Continuous
 62
     7
100
AcDbLine
 10
322.25385756
 20
383.3276634144
 30
0.0
 11
322.2673077206
 21
383.3468784617
 31
0.0
  0
LINE
  5
429
330
1F
100
AcDbEntity
  8
SLD-0
  6
Continuous
 62
     7
100
AcDbLine
 10
321.5673079784
 20
382.3468764352
 30
0.0
 11
315.5673079263
 21
382.3468764352
 31
0.0
  0
LINE
  5
42A
330
1F
100
AcDbEntity
  8
SLD-0
  6
Continuous
 62
     7
100
AcDbLine
 10
314.8673081841
 20
383.3468784617
 30
0.0
 11
314.8779424909
 21
383.3316867279
 31
0.0
  0
LINE
  5
42B
330
1F
100
AcDbEntity
  8
SLD-0
  6
Continuous
 62
     7
100
AcDbLine
 10
314.8779424909
 20
383.3316867279
 30
0.0
 11
314.9095231737
 21
383.2865660118
 31
0.0
  0
LINE
  5
42C
330
1F
100
AcDbEntity
  8
SLD-0
  6
Continuous
 62
     7
100
AcDbLine
 10
314.9095231737
 20
383.2865660118
 30
0.0
 11
314.961090039
 21
383.2129021215
 31
0.0
  0
LINE
  5
42D
330
1F
100
AcDbEntity
  8
SLD-0
  6
Continuous
 62
     7
100
AcDbLine
 10
314.961090039
 20
383.2129021215
 30
0.0
 11
315.0310770679
 21
383.1129227804
 31
0.0
  0
LINE
  5
42E
330
1F
100
AcDbEntity
  8
SLD-0
  6
Continuous
 62
     7
100
AcDbLine
 10
315.0310770679
 20
383.1129227804
 30
0.0
 11
315.1173566538
 21
382.989660375
 31
0.0
  0
LINE
  5
42F
330
1F
100
AcDbEntity
  8
SLD-0
  6
Continuous
 62
     7
100
AcDbLine
 10
315.1173566538
 20
382.989660375
 30
0.0
 11
315.2173080552
 21
382.8468774485
 31
0.0
  0
LINE
  5
430
330
1F
100
AcDbEntity
  8
SLD-0
  6
Continuous
 62
     7
100
AcDbLine
 10
315.2173080552
 20
382.8468774485
 30
0.0
 11
315.3278937633
 21
382.6888953375
 31
0.0
  0
LINE
  5
431
330
1F
100
AcDbEntity
  8
SLD-0
  6
Continuous
 62
     7
100
AcDbLine
 10
315.3278937633
 20
382.6888953375
 30
0.0
 11
315.4457540321
 21
382.5205271172
 31
0.0
  0
LINE
  5
432
330
1F
100
AcDbEntity
  8
SLD-0
  6
Continuous
 62
     7
100
AcDbLine
 10
315.4457540321
 20
382.5205271172
 30
0.0
 11
315.5673079263
 21
382.3468764352
 31
0.0
  0
LINE
  5
433
330
1F
100
AcDbEntity
  8
SLD-0
  6
Continuous
 62
     7
100
AcDbLine
 10
314.8673081841
 20
383.3468784617
 30
0.0
 11
322.2673077206
 21
383.3468784617
 31
0.0
  0
LINE
  5
434
330
1F
100
AcDbEntity
  8
SLD-0
  6
Continuous
 62
     7
100
AcDbLine
 10
321.5673079784
 20
349.346876614
 30
0.0
 11
321.5673079784
 21
382.3468764352
 31
0.0
  0
LINE
  5
435
330
1F
100
AcDbEntity
  8
SLD-0
  6
Continuous
 62
     7
100
AcDbLine
 10
321.5673079784
 20
349.346876614
 30
0.0
 11
321.7409558664
 21
349.2253278421
 31
0.0
  0
LINE
  5
436
330
1F
100
AcDbEntity
  8
SLD-0
  6
Continuous
 62
     7
100
AcDbLine
 10
321.7409558664
 20
349.2253278421
 30
0.0
 11
321.909327812
 21
349.1074596571
 31
0.0
  0
LINE
  5
437
330
1F
100
AcDbEntity
  8
SLD-0
  6
Continuous
 62
     7
100
AcDbLine
 10
321.909327812
 20
349.1074596571
 30
0.0
 11
322.0673080604
 21
348.9968781399
 31
0.0
  0
LINE
  5
438
330
1F
100
AcDbEntity
  8
SLD-0
  6
Continuous
 62
     7
100
AcDbLine
 10
322.0673080604
 20
348.9968781399
 30
0.0
 11
322.2100956436
 21
348.8969211506
 31
0.0
  0
LINE
  5
439
330
1F
100
AcDbEntity
  8
SLD-0
  6
Continuous
 62
     7
100
AcDbLine
 10
322.2100956436
 20
348.8969211506
 30
0.0
 11
322.333352461
 21
348.8106434273
 31
0.0
  0
LINE
  5
43A
330
1F
100
AcDbEntity
  8
SLD-0
  6
Continuous
 62
     7
100
AcDbLine
 10
322.333352461
 20
348.8106434273
 30
0.0
 11
322.4333336647
 21
348.7406526732
 31
0.0
  0
LINE
  5
43B
330
1F
100
AcDbEntity
  8
SLD-0
  6
Continuous
 62
     7
100
AcDbLine
 10
322.4333336647
 20
348.7406526732
 30
0.0
 11
322.507000349
 21
348.6890946554
 31
0.0
  0
LINE
  5
43C
330
1F
100
AcDbEntity
  8
SLD-0
  6
Continuous
 62
     7
100
AcDbLine
 10
322.507000349
 20
348.6890946554
 30
0.0
 11
322.5521154772
 21
348.6575041937
 31
0.0
  0
LINE
  5
43D
330
1F
100
AcDbEntity
  8
SLD-0
  6
Continuous
 62
     7
100
AcDbLine
 10
322.5521154772
 20
348.6575041937
 30
0.0
 11
322.5673081423
 21
348.6468796658
 31
0.0
  0
LINE
  5
43E
330
1F
100
AcDbEntity
  8
SLD-0
  6
Continuous
 62
     7
100
AcDbLine
 10
322.5673081423
 20
383.0468733834
 30
0.0
 11
322.548093095
 21
383.0334250855
 31
0.0
  0
LINE
  5
43F
330
1F
100
AcDbEntity
  8
SLD-0
  6
Continuous
 62
     7
100
AcDbLine
 10
322.548093095
 20
383.0334250855
 30
0.0
 11
322.491187423
 21
382.9935942816
 31
0.0
  0
LINE
  5
440
330
1F
100
AcDbEntity
  8
SLD-0
  6
Continuous
 62
     7
100
AcDbLine
 10
322.491187423
 20
382.9935942816
 30
0.0
 11
322.3987778719
 21
382.9289083408
 31
0.0
  0
LINE
  5
441
330
1F
100
AcDbEntity
  8
SLD-0
  6
Continuous
 62
     7
100
AcDbLine
 10
322.3987778719
 20
382.9289083408
 30
0.0
 11
322.2744146432
 21
382.8418483066
 31
0.0
  0
LINE
  5
442
330
1F
100
AcDbEntity
  8
SLD-0
  6
Continuous
 62
     7
100
AcDbLine
 10
322.2744146432
 20
382.8418483066
 30
0.0
 11
322.1228782158
 21
382.7357743906
 31
0.0
  0
LINE
  5
443
330
1F
100
AcDbEntity
  8
SLD-0
  6
Continuous
 62
     7
100
AcDbLine
 10
322.1228782158
 20
382.7357743906
 30
0.0
 11
321.9499912183
 21
382.61475461
 31
0.0
  0
LINE
  5
444
330
1F
100
AcDbEntity
  8
SLD-0
  6
Continuous
 62
     7
100
AcDbLine
 10
321.9499912183
 20
382.61475461
 30
0.0
 11
321.7623986374
 21
382.483438127
 31
0.0
  0
LINE
  5
445
330
1F
100
AcDbEntity
  8
SLD-0
  6
Continuous
 62
     7
100
AcDbLine
 10
321.7623986374
 20
382.483438127
 30
0.0
 11
321.5673079784
 21
382.3468764352
 31
0.0
  0
LINE
  5
446
330
1F
100
AcDbEntity
  8
SLD-0
  6
Continuous
 62
     7
100
AcDbLine
 10
322.5673081423
 20
383.0468733834
 30
0.0
 11
322.5673081423
 21
348.6468796658
 31
0.0
  0
LINE
  5
447
330
1F
100
AcDbEntity
  8
SLD-0
  6
Continuous
 62
     7
100
AcDbLine
 10
314.5673079531
 20
383.0468733834
 30
0.0
 11
314.5673079531
 21
383.4468727039
 31
0.0
  0
LINE
  5
448
330
1F
100
AcDbEntity
  8
SLD-0
  6
Continuous
 62
     7
100
AcDbLine
 10
314.5673077624
 20
351.3446752953
 30
0.0
 11
314.4673079322
 21
351.3446752953
 31
0.0
  0
LINE
  5
449
330
1F
100
AcDbEntity
  8
SLD-0
  6
Continuous
 62
     7
100
AcDbLine
 10
314.5673077624
 20
353.166506164
 30
0.0
 11
314.4673079322
 21
353.166506164
 31
0.0
  0
LINE
  5
44A
330
1F
100
AcDbEntity
  8
SLD-0
  6
Continuous
 62
     7
100
AcDbLine
 10
314.5673077624
 20
353.3823792862
 30
0.0
 11
314.4673079322
 21
353.3823792862
 31
0.0
  0
LINE
  5
44B
330
1F
100
AcDbEntity
  8
SLD-0
  6
Continuous
 62
     7
100
AcDbLine
 10
324.3673078785
 20
474.9468755948
 30
0.0
 11
324.2673080484
 21
474.9468755948
 31
0.0
  0
LINE
  5
44C
330
1F
100
AcDbEntity
  8
SLD-0
  6
Continuous
 62
     7
100
AcDbLine
 10
312.7673080261
 20
474.9468755948
 30
0.0
 11
312.6673079632
 21
474.9468755948
 31
0.0
  0
LINE
  5
44D
330
1F
100
AcDbEntity
  8
SLD-0
  6
Continuous
 62
     7
100
AcDbLine
 10
312.7673080261
 20
467.6468768196
 30
0.0
 11
312.6673079632
 21
467.6468768196
 31
0.0
  0
LINE
  5
44E
330
1F
100
AcDbEntity
  8
SLD-0
  6
Continuous
 62
     7
100
AcDbLine
 10
324.3673078786
 20
470.6468754487
 30
0.0
 11
324.2673080485
 21
470.6468754487
 31
0.0
  0
LINE
  5
44F
330
1F
100
AcDbEntity
  8
SLD-0
  6
Continuous
 62
     7
100
AcDbLine
 10
313.6111620393
 20
474.696876161
 30
0.0
 11
323.4234538669
 21
474.696876161
 31
0.0
  0
LINE
  5
450
330
1F
100
AcDbEntity
  8
SLD-0
  6
Continuous
 62
     7
100
AcDbLine
 10
313.6111620393
 20
462.196876161
 30
0.0
 11
323.4234538669
 21
462.196876161
 31
0.0
  0
LINE
  5
451
330
1F
100
AcDbEntity
  8
SLD-0
  6
Continuous
 62
     7
100
AcDbLine
 10
312.7673080261
 20
462.5540194141
 30
0.0
 11
313.5217479966
 21
462.5540194141
 31
0.0
  0
LINE
  5
452
330
1F
100
AcDbEntity
  8
SLD-0
  6
Continuous
 62
     7
100
AcDbLine
 10
323.5128678451
 20
462.5540194141
 30
0.0
 11
324.2673080484
 21
462.5540194141
 31
0.0
  0
LINE
  5
453
330
1F
100
AcDbEntity
  8
SLD-0
  6
Continuous
 62
     7
100
AcDbLine
 10
324.2673080484
 20
474.3397333699
 30
0.0
 11
323.5128678451
 21
474.3397333699
 31
0.0
  0
LINE
  5
454
330
1F
100
AcDbEntity
  8
SLD-0
  6
Continuous
 62
     7
100
AcDbLine
 10
313.5217479966
 20
474.3397333699
 30
0.0
 11
312.7673080261
 21
474.3397333699
 31
0.0
  0
LINE
  5
455
330
1F
100
AcDbEntity
  8
SLD-0
  6
Continuous
 62
     7
100
AcDbLine
 10
320.3672597255
 20
452.4468747007
 30
0.0
 11
320.2608672972
 21
452.4468747007
 31
0.0
  0
LINE
  5
456
330
1F
100
AcDbEntity
  8
SLD-0
  6
Continuous
 62
     7
100
AcDbLine
 10
314.8673081841
 20
383.4468727039
 30
0.0
 11
314.8673081841
 21
383.3468784617
 31
0.0
  0
LINE
  5
457
330
1F
100
AcDbEntity
  8
SLD-0
  6
Continuous
 62
     7
100
AcDbLine
 10
322.2673077206
 20
383.3468784617
 30
0.0
 11
322.2673077206
 21
383.4468727039
 31
0.0
  0
LINE
  5
458
330
1F
100
AcDbEntity
  8
SLD-0
  6
Continuous
 62
     7
100
AcDbLine
 10
314.4673079322
 20
350.5878155159
 30
0.0
 11
314.5673077624
 21
350.5878155159
 31
0.0
  0
LINE
  5
459
330
1F
100
AcDbEntity
  8
SLD-0
  6
Continuous
 62
     7
100
AcDbLine
 10
314.5673077624
 20
350.2428834366
 30
0.0
 11
314.4673079322
 21
350.2428834366
 31
0.0
  0
LINE
  5
45A
330
1F
100
AcDbEntity
  8
SLD-0
  6
Continuous
 62
     7
100
AcDbLine
 10
312.6673079632
 20
473.1580209958
 30
0.0
 11
312.7673080261
 21
473.1580209958
 31
0.0
  0
LINE
  5
45B
330
1F
100
AcDbEntity
  8
SLD-0
  6
Continuous
 62
     7
100
AcDbLine
 10
324.2673080485
 20
473.1580209958
 30
0.0
 11
324.3673078786
 21
473.1580209958
 31
0.0
  0
LINE
  5
45C
330
1F
100
AcDbEntity
  8
SLD-0
  6
Continuous
 62
     7
100
AcDbLine
 10
324.3673078786
 20
472.710807346
 30
0.0
 11
324.2673080485
 21
472.710807346
 31
0.0
  0
LINE
  5
45D
330
1F
100
AcDbEntity
  8
SLD-0
  6
Continuous
 62
     7
100
AcDbLine
 10
312.7673080261
 20
472.710807346
 30
0.0
 11
312.6673079632
 21
472.710807346
 31
0.0
  0
ARC
  5
45E
330
1F
100
AcDbEntity
  8
SLD-0
  6
Continuous
 62
     7
100
AcDbCircle
 10
130.5229575183
 20
468.446876161
 30
0.0
 40
25.00000000000002
100
AcDbArc
 50
165.5224878141
 51
194.4775121859
  0
ARC
  5
45F
330
1F
100
AcDbEntity
  8
SLD-0
  6
Continuous
 62
     7
100
AcDbCircle
 10
106.5104607718
 20
474.646876161
 30
0.0
 40
0.1999999999932243
100
AcDbArc
 50
90.0
 51
165.5224878168
  0
ARC
  5
460
330
1F
100
AcDbEntity
  8
SLD-0
  6
Continuous
 62
     7
100
AcDbCircle
 10
106.5104607718
 20
462.246876161
 30
0.0
 40
0.199999999993268
100
AcDbArc
 50
194.4775121832
 51
270.0
  0
ARC
  5
461
330
1F
100
AcDbEntity
  8
SLD-0
  6
Continuous
 62
     7
100
AcDbCircle
 10
92.0069003337
 20
441.1966085069
 30
0.0
 40
18.40743591073024
100
AcDbArc
 50
33.1998656881
 51
39.8155907247
  0
ARC
  5
462
330
1F
100
AcDbEntity
  8
SLD-0
  6
Continuous
 62
     7
100
AcDbCircle
 10
93.4757869267
 20
488.5890903865
 30
0.0
 40
16.5699048437925
100
AcDbArc
 50
319.8751061507
 51
327.2223308101
  0
ARC
  5
463
330
1F
100
AcDbEntity
  8
SLD-0
  6
Continuous
 62
     7
100
AcDbCircle
 10
111.7515630306
 20
494.7774851145
 30
0.0
 40
51.42258315173702
100
AcDbArc
 50
323.4399692106
 51
325.7397907173
  0
ARC
  5
464
330
1F
100
AcDbEntity
  8
SLD-0
  6
Continuous
 62
     7
100
AcDbCircle
 10
201.4314821232
 20
433.4075666843
 30
0.0
 40
57.38196146407872
100
AcDbArc
 50
144.4786132227
 51
147.6088499552
  0
ARC
  5
465
330
1F
100
AcDbEntity
  8
SLD-0
  6
Continuous
 62
     7
100
AcDbCircle
 10
150.5961757187
 20
483.4666185187
 30
0.0
 40
2.996241883215954
100
AcDbArc
 50
45.4571343934
 51
90.483464035
  0
ARC
  5
466
330
1F
100
AcDbEntity
  8
SLD-0
  6
Continuous
 62
     7
100
AcDbCircle
 10
150.5961899515
 20
483.4666513473
 30
0.0
 40
1.99620886687451
100
AcDbArc
 50
45.4606248846
 51
90.4872532959
  0
CIRCLE
  5
467
330
1F
100
AcDbEntity
  8
SLD-0
  6
Continuous
 62
     7
100
AcDbCircle
 10
157.2229575351
 20
444.946876161
 30
0.0
 40
3.099999999999957
  0
CIRCLE
  5
468
330
1F
100
AcDbEntity
  8
SLD-0
  6
Continuous
 62
     7
100
AcDbCircle
 10
137.2229577493
 20
314.146876161
 30
0.0
 40
3.100000000000038
  0
CIRCLE
  5
469
330
1F
100
AcDbEntity
  8
SLD-0
  6
Continuous
 62
     7
100
AcDbCircle
 10
146.2229573619
 20
395.446876161
 30
0.0
 40
3.100000000000011
  0
CIRCLE
  5
46A
330
1F
100
AcDbEntity
  8
SLD-0
  6
Continuous
 62
     7
100
AcDbCircle
 10
137.2229577493
 20
488.446876161
 30
0.0
 40
3.100000000000038
  0
ARC
  5
46B
330
1F
100
AcDbEntity
  8
SLD-0
  6
Continuous
 62
     7
100
AcDbCircle
 10
157.2229575351
 20
444.946876161
 30
0.0
 40
3.400000000000076
100
AcDbArc
 50
188.4565193353
 51
231.5434904049
  0
ARC
  5
46C
330
1F
100
AcDbEntity
  8
SLD-0
  6
Continuous
 62
     7
100
AcDbCircle
 10
137.2229577493
 20
488.446876161
 30
0.0
 40
3.400000000000011
100
AcDbArc
 50
308.4565193353
 51
351.5434848827
  0
ARC
  5
46D
330
1F
100
AcDbEntity
  8
SLD-0
  6
Continuous
 62
     7
100
AcDbCircle
 10
137.2229577493
 20
488.446876161
 30
0.0
 40
2.300000104460766
100
AcDbArc
 50
81.9100608139
 51
98.0899334889
  0
ARC
  5
46E
330
1F
100
AcDbEntity
  8
SLD-0
  6
Continuous
 62
     7
100
AcDbCircle
 10
137.2229577493
 20
488.446876161
 30
0.0
 40
3.400000000000016
100
AcDbArc
 50
68.4565193353
 51
111.5434699271
  0
ARC
  5
46F
330
1F
100
AcDbEntity
  8
SLD-0
  6
Continuous
 62
     7
100
AcDbCircle
 10
157.2229575351
 20
444.946876161
 30
0.0
 40
3.400000000000096
100
AcDbArc
 50
128.4565193353
 51
171.5434921622
  0
ARC
  5
470
330
1F
100
AcDbEntity
  8
SLD-0
  6
Continuous
 62
     7
100
AcDbCircle
 10
137.2229577493
 20
488.446876161
 30
0.0
 40
3.400000000000048
100
AcDbArc
 50
8.4565193353
 51
51.5434792772
  0
ARC
  5
471
330
1F
100
AcDbEntity
  8
SLD-0
  6
Continuous
 62
     7
100
AcDbCircle
 10
137.2229577493
 20
314.146876161
 30
0.0
 40
3.399999999999964
100
AcDbArc
 50
188.4565193353
 51
231.5434806647
  0
ARC
  5
472
330
1F
100
AcDbEntity
  8
SLD-0
  6
Continuous
 62
     7
100
AcDbCircle
 10
137.2229577493
 20
314.146876161
 30
0.0
 40
2.299994148626755
100
AcDbArc
 50
261.9100454219
 51
278.0899545781
  0
ARC
  5
473
330
1F
100
AcDbEntity
  8
SLD-0
  6
Continuous
 62
     7
100
AcDbCircle
 10
137.2229577493
 20
314.146876161
 30
0.0
 40
3.40000000000004
100
AcDbArc
 50
248.4565193353
 51
291.5434806647
  0
ARC
  5
474
330
1F
100
AcDbEntity
  8
SLD-0
  6
Continuous
 62
     7
100
AcDbCircle
 10
137.2229577493
 20
488.446876161
 30
0.0
 40
2.299999610129521
100
AcDbArc
 50
261.9100647607
 51
278.0899352393
  0
ARC
  5
475
330
1F
100
AcDbEntity
  8
SLD-0
  6
Continuous
 62
     7
100
AcDbCircle
 10
137.2229577493
 20
488.446876161
 30
0.0
 40
3.40000000000004
100
AcDbArc
 50
248.4565193353
 51
291.5434802578
  0
ARC
  5
476
330
1F
100
AcDbEntity
  8
SLD-0
  6
Continuous
 62
     7
100
AcDbCircle
 10
146.7229575183
 20
309.446876161
 30
0.0
 40
1.000000000000004
100
AcDbArc
 50
90.0
 51
135.5729959992
  0
ARC
  5
477
330
1F
100
AcDbEntity
  8
SLD-0
  6
Continuous
 62
     7
100
AcDbCircle
 10
151.7229575183
 20
309.446876161
 30
0.0
 40
1.000000000000004
100
AcDbArc
 50
44.4270040008
 51
90.0
  0
ARC
  5
478
330
1F
100
AcDbEntity
  8
SLD-0
  6
Continuous
 62
     7
100
AcDbCircle
 10
137.6729575183
 20
324.996876161
 30
0.0
 40
0.2000000000000455
100
AcDbArc
 50
90.0
 51
180.0
  0
ARC
  5
479
330
1F
100
AcDbEntity
  8
SLD-0
  6
Continuous
 62
     7
100
AcDbCircle
 10
137.6729574214
 20
321.896876161
 30
0.0
 40
0.2000000968834417
100
AcDbArc
 50
179.9985178456
 51
270.0
  0
ARC
  5
47A
330
1F
100
AcDbEntity
  8
SLD-0
  6
Continuous
 62
     7
100
AcDbCircle
 10
139.7729574214
 20
321.8968769582
 30
0.0
 40
0.1999991059502406
100
AcDbArc
 50
269.9998924262
 51
0.0
  0
ARC
  5
47B
330
1F
100
AcDbEntity
  8
SLD-0
  6
Continuous
 62
     7
100
AcDbCircle
 10
139.7729561698
 20
324.9968765186
 30
0.0
 40
0.1999996424048051
100
AcDbArc
 50
359.9995658602
 51
89.9996136737
  0
CIRCLE
  5
47C
330
1F
100
AcDbEntity
  8
SLD-0
  6
Continuous
 62
     7
100
AcDbCircle
 10
149.2229575183
 20
431.446876161
 30
0.0
 40
8.5
  0
ARC
  5
47D
330
1F
100
AcDbEntity
  8
SLD-0
  6
Continuous
 62
     7
100
AcDbCircle
 10
154.6229577221
 20
477.6468765017
 30
0.0
 40
0.1999996125502719
100
AcDbArc
 50
269.9998693938
 51
0.0
  0
ARC
  5
47E
330
1F
100
AcDbEntity
  8
SLD-0
  6
Continuous
 62
     7
100
AcDbCircle
 10
154.6229574024
 20
486.2468765017
 30
0.0
 40
0.2000000678000522
100
AcDbArc
 50
359.9999415297
 51
90.0
  0
ARC
  5
47F
330
1F
100
AcDbEntity
  8
SLD-0
  6
Continuous
 62
     7
100
AcDbCircle
 10
149.2229580394
 20
486.4468761187
 30
0.0
 40
3.749999776500013
100
AcDbArc
 50
0.0000128068
 51
180.0
  0
ARC
  5
480
330
1F
100
AcDbEntity
  8
SLD-0
  6
Continuous
 62
     7
100
AcDbCircle
 10
143.8229582629
 20
486.2468763124
 30
0.0
 40
0.20000019370075
100
AcDbArc
 50
90.0002108767
 51
180.0
  0
ARC
  5
481
330
1F
100
AcDbEntity
  8
SLD-0
  6
Continuous
 62
     7
100
AcDbCircle
 10
143.8229578711
 20
477.6468763124
 30
0.0
 40
0.2000001981502252
100
AcDbArc
 50
179.9998753533
 51
270.0
  0
ARC
  5
482
330
1F
100
AcDbEntity
  8
SLD-0
  6
Continuous
 62
     7
100
AcDbCircle
 10
149.2229574986
 20
477.4468761142
 30
0.0
 40
3.750000372500063
100
AcDbArc
 50
179.9999881604
 51
241.1608105994
  0
ARC
  5
483
330
1F
100
AcDbEntity
  8
SLD-0
  6
Continuous
 62
     7
100
AcDbCircle
 10
147.1729573189
 20
473.7239736941
 30
0.0
 40
0.5000000000011653
100
AcDbArc
 50
0.0
 51
61.1608105994
  0
ARC
  5
484
330
1F
100
AcDbEntity
  8
SLD-0
  6
Continuous
 62
     7
100
AcDbCircle
 10
147.8729569404
 20
472.7468757879
 30
0.0
 40
0.200000378500392
100
AcDbArc
 50
180.0001587946
 51
270.0
  0
ARC
  5
485
330
1F
100
AcDbEntity
  8
SLD-0
  6
Continuous
 62
     7
100
AcDbCircle
 10
150.5729569404
 20
472.7468753021
 30
0.0
 40
0.2000001073000362
100
AcDbArc
 50
269.9999726986
 51
0.0
  0
ARC
  5
486
330
1F
100
AcDbEntity
  8
SLD-0
  6
Continuous
 62
     7
100
AcDbCircle
 10
151.2729568302
 20
473.7239736591
 30
0.0
 40
0.5000002175501681
100
AcDbArc
 50
118.8391023357
 51
179.9999965085
  0
ARC
  5
487
330
1F
100
AcDbEntity
  8
SLD-0
  6
Continuous
 62
     7
100
AcDbCircle
 10
149.2229574986
 20
477.4468761142
 30
0.0
 40
3.749999776501221
100
AcDbArc
 50
298.8391894006
 51
0.0000118396
  0
ARC
  5
488
330
1F
100
AcDbEntity
  8
SLD-0
  6
Continuous
 62
     7
100
AcDbCircle
 10
149.2229572948
 20
409.9468752073
 30
0.0
 40
3.749999776500126
100
AcDbArc
 50
359.9999854293
 51
179.9999854293
  0
ARC
  5
489
330
1F
100
AcDbEntity
  8
SLD-0
  6
Continuous
 62
     7
100
AcDbCircle
 10
149.2229569223
 20
406.446876161
 30
0.0
 40
3.750000149000308
100
AcDbArc
 50
180.0000236777
 51
359.9999763223
  0
ARC
  5
48A
330
1F
100
AcDbEntity
  8
SLD-0
  6
Continuous
 62
     7
100
AcDbCircle
 10
149.2229571458
 20
452.946876161
 30
0.0
 40
3.750000372500011
100
AcDbArc
 50
180.0000068297
 51
0.0
  0
ARC
  5
48B
330
1F
100
AcDbEntity
  8
SLD-0
  6
Continuous
 62
     7
100
AcDbCircle
 10
149.2229569223
 20
456.4468753563
 30
0.0
 40
3.750000148999987
100
AcDbArc
 50
0.0
 51
180.0
  0
ARC
  5
48C
330
1F
100
AcDbEntity
  8
SLD-0
  6
Continuous
 62
     7
100
AcDbCircle
 10
149.2229578267
 20
319.446876161
 30
0.0
 40
5.099999691550067
100
AcDbArc
 50
179.9999892857
 51
0.0
  0
ARC
  5
48D
330
1F
100
AcDbEntity
  8
SLD-0
  6
Continuous
 62
     7
100
AcDbCircle
 10
149.2229578268
 20
339.4468761808
 30
0.0
 40
8.599994901804251
100
AcDbArc
 50
306.3718648737
 51
233.6281351263
  0
CIRCLE
  5
48E
330
1F
100
AcDbEntity
  8
SLD-0
  6
Continuous
 62
     7
100
AcDbCircle
 10
159.8229575183
 20
482.446876161
 30
0.0
 40
1.700000000000045
  0
CIRCLE
  5
48F
330
1F
100
AcDbEntity
  8
SLD-0
  6
Continuous
 62
     7
100
AcDbCircle
 10
130.2229575183
 20
431.446876161
 30
0.0
 40
3.75
  0
CIRCLE
  5
490
330
1F
100
AcDbEntity
  8
SLD-0
  6
Continuous
 62
     7
100
AcDbCircle
 10
130.2229575183
 20
331.446876161
 30
0.0
 40
3.749999999999972
  0
ARC
  5
491
330
1F
100
AcDbEntity
  8
SLD-0
  6
Continuous
 62
     7
100
AcDbCircle
 10
140.4147619911
 20
366.446876255
 30
0.0
 40
0.5
100
AcDbArc
 50
90.0
 51
140.0
  0
ARC
  5
492
330
1F
100
AcDbEntity
  8
SLD-0
  6
Continuous
 62
     7
100
AcDbCircle
 10
151.7909079077
 20
366.4468764338
 30
0.0
 40
0.5000001787999762
100
AcDbArc
 50
30.0
 51
90.0000095913
  0
ARC
  5
493
330
1F
100
AcDbEntity
  8
SLD-0
  6
Continuous
 62
     7
100
AcDbCircle
 10
153.0229582427
 20
364.3129015648
 30
0.0
 40
0.4999992756017662
100
AcDbArc
 50
0.0
 51
29.9998019841
  0
ARC
  5
494
330
1F
100
AcDbEntity
  8
SLD-0
  6
Continuous
 62
     7
100
AcDbCircle
 10
139.4229586627
 20
365.264891182
 30
0.0
 40
0.4999999314520173
100
AcDbArc
 50
140.0
 51
179.9997703814
  0
ARC
  5
495
330
1F
100
AcDbEntity
  8
SLD-0
  6
Continuous
 62
     7
100
AcDbCircle
 10
160.0229585808
 20
464.3468753936
 30
0.0
 40
0.2000000000001023
100
AcDbArc
 50
270.0
 51
0.0
  0
ARC
  5
496
330
1F
100
AcDbEntity
  8
SLD-0
  6
Continuous
 62
     7
100
AcDbCircle
 10
160.0229584858
 20
466.5468764765
 30
0.0
 40
0.1999999050006793
100
AcDbArc
 50
359.9998801647
 51
90.0003727947
  0
ARC
  5
497
330
1F
100
AcDbEntity
  8
SLD-0
  6
Continuous
 62
     7
100
AcDbCircle
 10
142.8229572411
 20
472.2468763815
 30
0.0
 40
0.5000000566500944
100
AcDbArc
 50
0.000033816
 51
90.0
  0
ARC
  5
498
330
1F
100
AcDbEntity
  8
SLD-0
  6
Continuous
 62
     7
100
AcDbCircle
 10
141.5229572412
 20
472.246876161
 30
0.0
 40
0.4999997228501627
100
AcDbArc
 50
90.0000635182
 51
180.0
  0
ARC
  5
499
330
1F
100
AcDbEntity
  8
SLD-0
  6
Continuous
 62
     7
100
AcDbCircle
 10
141.5229576658
 20
458.646876161
 30
0.0
 40
0.4999998524503002
100
AcDbArc
 50
180.0000935755
 51
270.0
  0
ARC
  5
49A
330
1F
100
AcDbEntity
  8
SLD-0
  6
Continuous
 62
     7
100
AcDbCircle
 10
142.8229576658
 20
458.6468753936
 30
0.0
 40
0.5000009149504479
100
AcDbArc
 50
269.999896868
 51
0.0
  0
ARC
  5
49B
330
1F
100
AcDbEntity
  8
SLD-0
  6
Continuous
 62
     7
100
AcDbCircle
 10
157.9729574088
 20
313.096876161
 30
0.0
 40
0.2000001095340735
100
AcDbArc
 50
179.9985041807
 51
270.0
  0
ARC
  5
49C
330
1F
100
AcDbEntity
  8
SLD-0
  6
Continuous
 62
     7
100
AcDbCircle
 10
161.2729574088
 20
313.0968769694
 30
0.0
 40
0.199999082099995
100
AcDbArc
 50
269.9999682005
 51
0.0
  0
ARC
  5
49D
330
1F
100
AcDbEntity
  8
SLD-0
  6
Continuous
 62
     7
100
AcDbCircle
 10
161.2729564834
 20
315.1968765372
 30
0.0
 40
0.2000000074693166
100
AcDbArc
 50
359.9989968155
 51
89.9998134585
  0
ARC
  5
49E
330
1F
100
AcDbEntity
  8
SLD-0
  6
Continuous
 62
     7
100
AcDbCircle
 10
157.9729571346
 20
315.196876161
 30
0.0
 40
0.1999998353193962
100
AcDbArc
 50
90.0000266713
 51
180.0011269781
  0
ARC
  5
49F
330
1F
100
AcDbEntity
  8
SLD-0
  6
Continuous
 62
     7
100
AcDbCircle
 10
157.9729574088
 20
454.396876161
 30
0.0
 40
0.2000001095038406
100
AcDbArc
 50
179.9994996938
 51
270.0
  0
ARC
  5
4A0
330
1F
100
AcDbEntity
  8
SLD-0
  6
Continuous
 62
     7
100
AcDbCircle
 10
161.2729574088
 20
454.3968752319
 30
0.0
 40
0.2000008195500722
100
AcDbArc
 50
269.9999682011
 51
0.0
  0
ARC
  5
4A1
330
1F
100
AcDbEntity
  8
SLD-0
  6
Continuous
 62
     7
100
AcDbCircle
 10
161.2729582209
 20
456.4968764121
 30
0.0
 40
0.2000000074500363
100
AcDbArc
 50
359.9996738709
 51
90.0002753346
  0
ARC
  5
4A2
330
1F
100
AcDbEntity
  8
SLD-0
  6
Continuous
 62
     7
100
AcDbCircle
 10
157.9729572598
 20
456.496876161
 30
0.0
 40
0.1999999605000301
100
AcDbArc
 50
90.0000266712
 51
179.9999880538
  0
ARC
  5
4A3
330
1F
100
AcDbEntity
  8
SLD-0
  6
Continuous
 62
     7
100
AcDbCircle
 10
137.2229577493
 20
488.446876161
 30
0.0
 40
3.400000000000048
100
AcDbArc
 50
351.5434848827
 51
8.4565193353
  0
ARC
  5
4A4
330
1F
100
AcDbEntity
  8
SLD-0
  6
Continuous
 62
     7
100
AcDbCircle
 10
137.2229577493
 20
488.446876161
 30
0.0
 40
3.400000000000027
100
AcDbArc
 50
51.5434792772
 51
68.4565193353
  0
ARC
  5
4A5
330
1F
100
AcDbEntity
  8
SLD-0
  6
Continuous
 62
     7
100
AcDbCircle
 10
137.2229577493
 20
488.446876161
 30
0.0
 40
3.400000000000016
100
AcDbArc
 50
111.5434699271
 51
128.4565193353
  0
ARC
  5
4A6
330
1F
100
AcDbEntity
  8
SLD-0
  6
Continuous
 62
     7
100
AcDbCircle
 10
137.2229577493
 20
488.446876161
 30
0.0
 40
3.400000000000011
100
AcDbArc
 50
128.4565193353
 51
171.5434806647
  0
ARC
  5
4A7
330
1F
100
AcDbEntity
  8
SLD-0
  6
Continuous
 62
     7
100
AcDbCircle
 10
137.2229577493
 20
488.446876161
 30
0.0
 40
3.40000000000002
100
AcDbArc
 50
171.5434806647
 51
188.4565193353
  0
ARC
  5
4A8
330
1F
100
AcDbEntity
  8
SLD-0
  6
Continuous
 62
     7
100
AcDbCircle
 10
137.2229577493
 20
488.446876161
 30
0.0
 40
3.400000000000028
100
AcDbArc
 50
188.4565193353
 51
231.5434806647
  0
ARC
  5
4A9
330
1F
100
AcDbEntity
  8
SLD-0
  6
Continuous
 62
     7
100
AcDbCircle
 10
137.2229577493
 20
488.446876161
 30
0.0
 40
3.400000000000027
100
AcDbArc
 50
291.5434802578
 51
308.4565193353
  0
ARC
  5
4AA
330
1F
100
AcDbEntity
  8
SLD-0
  6
Continuous
 62
     7
100
AcDbCircle
 10
157.2229575351
 20
444.946876161
 30
0.0
 40
3.400000000000073
100
AcDbArc
 50
308.4565193353
 51
351.5434806647
  0
ARC
  5
4AB
330
1F
100
AcDbEntity
  8
SLD-0
  6
Continuous
 62
     7
100
AcDbCircle
 10
157.2229575351
 20
444.946876161
 30
0.0
 40
3.400000000000057
100
AcDbArc
 50
351.5434806647
 51
8.4565193353
  0
ARC
  5
4AC
330
1F
100
AcDbEntity
  8
SLD-0
  6
Continuous
 62
     7
100
AcDbCircle
 10
157.2229575351
 20
444.946876161
 30
0.0
 40
3.400000000000073
100
AcDbArc
 50
8.4565193353
 51
51.5434806647
  0
ARC
  5
4AD
330
1F
100
AcDbEntity
  8
SLD-0
  6
Continuous
 62
     7
100
AcDbCircle
 10
157.2229575351
 20
444.946876161
 30
0.0
 40
3.40000000000004
100
AcDbArc
 50
68.4565193353
 51
111.5434806647
  0
ARC
  5
4AE
330
1F
100
AcDbEntity
  8
SLD-0
  6
Continuous
 62
     7
100
AcDbCircle
 10
157.2229575351
 20
444.946876161
 30
0.0
 40
3.400000000000096
100
AcDbArc
 50
171.5434921622
 51
188.4565193353
  0
ARC
  5
4AF
330
1F
100
AcDbEntity
  8
SLD-0
  6
Continuous
 62
     7
100
AcDbCircle
 10
157.2229575351
 20
444.946876161
 30
0.0
 40
3.400000000000051
100
AcDbArc
 50
248.4565193353
 51
291.5434806647
  0
ARC
  5
4B0
330
1F
100
AcDbEntity
  8
SLD-0
  6
Continuous
 62
     7
100
AcDbCircle
 10
157.2229575351
 20
444.946876161
 30
0.0
 40
3.400000000000073
100
AcDbArc
 50
291.5434806647
 51
308.4565193353
  0
ARC
  5
4B1
330
1F
100
AcDbEntity
  8
SLD-0
  6
Continuous
 62
     7
100
AcDbCircle
 10
146.2229573619
 20
395.446876161
 30
0.0
 40
3.399999999999987
100
AcDbArc
 50
248.4565193353
 51
291.5434806647
  0
ARC
  5
4B2
330
1F
100
AcDbEntity
  8
SLD-0
  6
Continuous
 62
     7
100
AcDbCircle
 10
146.2229573619
 20
395.446876161
 30
0.0
 40
3.400000000000011
100
AcDbArc
 50
291.5434806647
 51
308.4565193353
  0
ARC
  5
4B3
330
1F
100
AcDbEntity
  8
SLD-0
  6
Continuous
 62
     7
100
AcDbCircle
 10
146.2229573619
 20
395.446876161
 30
0.0
 40
3.400000000000011
100
AcDbArc
 50
308.4565193353
 51
351.5434806647
  0
ARC
  5
4B4
330
1F
100
AcDbEntity
  8
SLD-0
  6
Continuous
 62
     7
100
AcDbCircle
 10
146.2229573619
 20
395.446876161
 30
0.0
 40
3.400000000000011
100
AcDbArc
 50
8.4565193353
 51
51.5434806647
  0
ARC
  5
4B5
330
1F
100
AcDbEntity
  8
SLD-0
  6
Continuous
 62
     7
100
AcDbCircle
 10
146.2229573619
 20
395.446876161
 30
0.0
 40
3.400000000000051
100
AcDbArc
 50
51.5434806647
 51
68.4565193353
  0
ARC
  5
4B6
330
1F
100
AcDbEntity
  8
SLD-0
  6
Continuous
 62
     7
100
AcDbCircle
 10
146.2229573619
 20
395.446876161
 30
0.0
 40
3.400000000000051
100
AcDbArc
 50
68.4565193353
 51
111.5434806647
  0
ARC
  5
4B7
330
1F
100
AcDbEntity
  8
SLD-0
  6
Continuous
 62
     7
100
AcDbCircle
 10
146.2229573619
 20
395.446876161
 30
0.0
 40
3.40000000000004
100
AcDbArc
 50
111.5434806647
 51
128.4565193353
  0
ARC
  5
4B8
330
1F
100
AcDbEntity
  8
SLD-0
  6
Continuous
 62
     7
100
AcDbCircle
 10
146.2229573619
 20
395.446876161
 30
0.0
 40
3.400000000000037
100
AcDbArc
 50
128.4565193353
 51
171.5434806647
  0
ARC
  5
4B9
330
1F
100
AcDbEntity
  8
SLD-0
  6
Continuous
 62
     7
100
AcDbCircle
 10
146.2229573619
 20
395.446876161
 30
0.0
 40
3.400000000000037
100
AcDbArc
 50
171.5434806647
 51
188.4565193353
  0
ARC
  5
4BA
330
1F
100
AcDbEntity
  8
SLD-0
  6
Continuous
 62
     7
100
AcDbCircle
 10
146.2229573619
 20
395.446876161
 30
0.0
 40
3.40000000000002
100
AcDbArc
 50
188.4565193353
 51
231.5434806647
  0
ARC
  5
4BB
330
1F
100
AcDbEntity
  8
SLD-0
  6
Continuous
 62
     7
100
AcDbCircle
 10
137.2229577493
 20
314.146876161
 30
0.0
 40
3.4
100
AcDbArc
 50
8.4565193353
 51
51.5434806647
  0
ARC
  5
4BC
330
1F
100
AcDbEntity
  8
SLD-0
  6
Continuous
 62
     7
100
AcDbCircle
 10
137.2229577493
 20
314.146876161
 30
0.0
 40
3.399999999999976
100
AcDbArc
 50
68.4565193353
 51
111.5434806647
  0
ARC
  5
4BD
330
1F
100
AcDbEntity
  8
SLD-0
  6
Continuous
 62
     7
100
AcDbCircle
 10
137.2229577493
 20
314.146876161
 30
0.0
 40
3.399999999999993
100
AcDbArc
 50
111.5434806647
 51
128.4565193353
  0
ARC
  5
4BE
330
1F
100
AcDbEntity
  8
SLD-0
  6
Continuous
 62
     7
100
AcDbCircle
 10
137.2229577493
 20
314.146876161
 30
0.0
 40
3.399999999999993
100
AcDbArc
 50
128.4565193353
 51
171.5434806647
  0
ARC
  5
4BF
330
1F
100
AcDbEntity
  8
SLD-0
  6
Continuous
 62
     7
100
AcDbCircle
 10
137.2229577493
 20
314.146876161
 30
0.0
 40
3.399999999999993
100
AcDbArc
 50
308.4565193353
 51
351.5434806647
  0
ARC
  5
4C0
330
1F
100
AcDbEntity
  8
SLD-0
  6
Continuous
 62
     7
100
AcDbCircle
 10
137.2229577493
 20
314.146876161
 30
0.0
 40
3.4
100
AcDbArc
 50
351.5434806647
 51
8.4565193353
  0
ARC
  5
4C1
330
1F
100
AcDbEntity
  8
SLD-0
  6
Continuous
 62
     7
100
AcDbCircle
 10
157.2229575351
 20
444.946876161
 30
0.0
 40
3.400000000000073
100
AcDbArc
 50
111.5434806647
 51
128.4565193353
  0
ARC
  5
4C2
330
1F
100
AcDbEntity
  8
SLD-0
  6
Continuous
 62
     7
100
AcDbCircle
 10
137.2229577493
 20
314.146876161
 30
0.0
 40
3.399999999999964
100
AcDbArc
 50
171.5434806647
 51
188.4565193353
  0
ARC
  5
4C3
330
1F
100
AcDbEntity
  8
SLD-0
  6
Continuous
 62
     7
100
AcDbCircle
 10
137.2229577493
 20
488.446876161
 30
0.0
 40
3.40000000000004
100
AcDbArc
 50
231.5434806647
 51
248.4565193353
  0
ARC
  5
4C4
330
1F
100
AcDbEntity
  8
SLD-0
  6
Continuous
 62
     7
100
AcDbCircle
 10
146.2229573619
 20
395.446876161
 30
0.0
 40
3.399999999999993
100
AcDbArc
 50
231.5434806647
 51
248.4565193353
  0
ARC
  5
4C5
330
1F
100
AcDbEntity
  8
SLD-0
  6
Continuous
 62
     7
100
AcDbCircle
 10
137.2229577493
 20
314.146876161
 30
0.0
 40
3.399999999999987
100
AcDbArc
 50
231.5434806647
 51
248.4565193353
  0
ARC
  5
4C6
330
1F
100
AcDbEntity
  8
SLD-0
  6
Continuous
 62
     7
100
AcDbCircle
 10
146.2229573619
 20
395.446876161
 30
0.0
 40
3.4
100
AcDbArc
 50
351.5434806647
 51
8.4565193353
  0
ARC
  5
4C7
330
1F
100
AcDbEntity
  8
SLD-0
  6
Continuous
 62
     7
100
AcDbCircle
 10
137.2229577493
 20
314.146876161
 30
0.0
 40
3.40000000000004
100
AcDbArc
 50
291.5434806647
 51
308.4565193353
  0
ARC
  5
4C8
330
1F
100
AcDbEntity
  8
SLD-0
  6
Continuous
 62
     7
100
AcDbCircle
 10
157.2229575351
 20
444.946876161
 30
0.0
 40
3.400000000000072
100
AcDbArc
 50
231.5434904049
 51
248.4565193353
  0
ARC
  5
4C9
330
1F
100
AcDbEntity
  8
SLD-0
  6
Continuous
 62
     7
100
AcDbCircle
 10
137.2229577493
 20
314.146876161
 30
0.0
 40
3.399999999999976
100
AcDbArc
 50
51.5434806647
 51
68.4565193353
  0
ARC
  5
4CA
330
1F
100
AcDbEntity
  8
SLD-0
  6
Continuous
 62
     7
100
AcDbCircle
 10
157.2229575351
 20
444.946876161
 30
0.0
 40
3.400000000000073
100
AcDbArc
 50
51.5434806647
 51
68.4565193353
  0
ARC
  5
4CB
330
1F
100
AcDbEntity
  8
SLD-0
  6
Continuous
 62
     7
100
AcDbCircle
 10
146.2229573619
 20
395.446876161
 30
0.0
 40
2.300003637745463
100
AcDbArc
 50
261.9100790222
 51
278.0899209778
  0
ARC
  5
4CC
330
1F
100
AcDbEntity
  8
SLD-0
  6
Continuous
 62
     7
100
AcDbCircle
 10
157.2229575351
 20
444.946876161
 30
0.0
 40
2.300000247810433
100
AcDbArc
 50
261.910061161
 51
278.089938839
  0
ARC
  5
4CD
330
1F
100
AcDbEntity
  8
SLD-0
  6
Continuous
 62
     7
100
AcDbCircle
 10
137.2229577493
 20
314.146876161
 30
0.0
 40
2.299995423313974
100
AcDbArc
 50
81.9100442382
 51
98.0899500645
  0
ARC
  5
4CE
330
1F
100
AcDbEntity
  8
SLD-0
  6
Continuous
 62
     7
100
AcDbCircle
 10
146.2229573619
 20
395.446876161
 30
0.0
 40
2.300000687203219
100
AcDbArc
 50
81.9100724319
 51
98.0899314255
  0
ARC
  5
4CF
330
1F
100
AcDbEntity
  8
SLD-0
  6
Continuous
 62
     7
100
AcDbCircle
 10
157.2229575351
 20
444.946876161
 30
0.0
 40
2.300000454334631
100
AcDbArc
 50
81.910061478
 51
98.0899381077
  0
ARC
  5
4D0
330
1F
100
AcDbEntity
  8
SLD-0
  6
Continuous
 62
     7
100
AcDbCircle
 10
146.72518957
 20
309.4459699331
 30
0.0
 40
1.002228781187446
100
AcDbArc
 50
135.6253199211
 51
179.948535932
  0
ARC
  5
4D1
330
1F
100
AcDbEntity
  8
SLD-0
  6
Continuous
 62
     7
100
AcDbCircle
 10
151.7221220898
 20
309.446541219
 30
0.0
 40
1.000831134359847
100
AcDbArc
 50
0.018821197
 51
44.4072188249
  0
ARC
  5
4D2
330
1F
100
AcDbEntity
  8
SLD-0
  6
Continuous
 62
     7
100
AcDbCircle
 10
112.8295601814
 20
466.9932049492
 30
0.0
 40
16.54636840729982
100
AcDbArc
 50
269.8774790664
 51
274.8306918372
  0
ARC
  5
4D3
330
1F
100
AcDbEntity
  8
SLD-0
  6
Continuous
 62
     7
100
AcDbCircle
 10
112.8175980616
 20
471.1700471699
 30
0.0
 40
20.62320335138666
100
AcDbArc
 50
269.8986777517
 51
273.9074226796
  0
ARC
  5
4D4
330
1F
100
AcDbEntity
  8
SLD-0
  6
Continuous
 62
     7
100
AcDbCircle
 10
112.8175583053
 20
459.7229081167
 30
0.0
 40
20.6239997937044
100
AcDbArc
 50
86.092617744
 51
90.1012078881
  0
ARC
  5
4D5
330
1F
100
AcDbEntity
  8
SLD-0
  6
Continuous
 62
     7
100
AcDbCircle
 10
112.8296471494
 20
463.9021386304
 30
0.0
 40
16.54477588679567
100
AcDbArc
 50
85.1691443289
 51
90.1228339038
  0
ARC
  5
4D6
330
1F
100
AcDbEntity
  8
SLD-0
  6
Continuous
 62
     7
100
AcDbCircle
 10
109.3617475546
 20
452.9989385937
 30
0.0
 40
2.555813532285184
100
AcDbArc
 50
220.5156048705
 51
286.3813394633
  0
ARC
  5
4D7
330
1F
100
AcDbEntity
  8
SLD-0
  6
Continuous
 62
     7
100
AcDbCircle
 10
109.4096190133
 20
452.7767522317
 30
0.0
 40
2.431415202882822
100
AcDbArc
 50
217.9884257363
 51
286.6166716625
  0
ARC
  5
4D8
330
1F
100
AcDbEntity
  8
SLD-0
  6
Continuous
 62
     7
100
AcDbCircle
 10
109.6270119457
 20
477.4357046247
 30
0.0
 40
3.048861425330484
100
AcDbArc
 50
80.9816374076
 51
134.4131539285
  0
ARC
  5
4D9
330
1F
100
AcDbEntity
  8
SLD-0
  6
Continuous
 62
     7
100
AcDbCircle
 10
109.5893556591
 20
477.128956753
 30
0.0
 40
3.255495996448333
100
AcDbArc
 50
81.2861754162
 51
131.8169538742
  0
ARC
  5
4DA
330
1F
100
AcDbEntity
  8
SLD-0
  6
Continuous
 62
     7
100
AcDbCircle
 10
101.2627650089
 20
456.946874507
 30
0.0
 40
5.294475579363138
100
AcDbArc
 50
336.6317115118
 51
23.3682884872
  0
CIRCLE
  5
4DB
330
1F
100
AcDbEntity
  8
SLD-0
  6
Continuous
 62
     7
100
AcDbCircle
 10
159.8229575183
 20
482.446876161
 30
0.0
 40
1.300000000000011
  0
CIRCLE
  5
4DC
330
1F
100
AcDbEntity
  8
SLD-0
  6
Continuous
 62
     7
100
AcDbCircle
 10
159.8229575183
 20
482.446876161
 30
0.0
 40
1.600000000000023
  0
ARC
  5
4DD
330
1F
100
AcDbEntity
  8
SLD-0
  6
Continuous
 62
     7
100
AcDbCircle
 10
156.7229575183
 20
365.9468756722
 30
0.0
 40
2.600000488750027
100
AcDbArc
 50
270.0000036956
 51
90.0
  0
ARC
  5
4DE
330
1F
100
AcDbEntity
  8
SLD-0
  6
Continuous
 62
     7
100
AcDbCircle
 10
158.0729575567
 20
313.246876161
 30
0.0
 40
0.199999961600156
100
AcDbArc
 50
179.9999111915
 51
270.0
  0
ARC
  5
4DF
330
1F
100
AcDbEntity
  8
SLD-0
  6
Continuous
 62
     7
100
AcDbCircle
 10
161.1729575567
 20
313.2468746616
 30
0.0
 40
0.2000015378000712
100
AcDbArc
 50
270.0000168734
 51
0.0
  0
ARC
  5
4E0
330
1F
100
AcDbEntity
  8
SLD-0
  6
Continuous
 62
     7
100
AcDbCircle
 10
161.1729591185
 20
315.046873965
 30
0.0
 40
0.1999999760012595
100
AcDbArc
 50
0.0004795829
 51
89.9998224574
  0
ARC
  5
4E1
330
1F
100
AcDbEntity
  8
SLD-0
  6
Continuous
 62
     7
100
AcDbCircle
 10
158.0729597382
 20
315.046876161
 30
0.0
 40
0.2000021431512109
100
AcDbArc
 50
89.999941932
 51
179.9997199668
  0
ARC
  5
4E2
330
1F
100
AcDbEntity
  8
SLD-0
  6
Continuous
 62
     7
100
AcDbCircle
 10
158.0729575567
 20
454.546876161
 30
0.0
 40
0.1999999616004402
100
AcDbArc
 50
179.9998394858
 51
270.0
  0
ARC
  5
4E3
330
1F
100
AcDbEntity
  8
SLD-0
  6
Continuous
 62
     7
100
AcDbCircle
 10
161.1729575567
 20
454.5468766494
 30
0.0
 40
0.1999995500000011
100
AcDbArc
 50
270.0000168737
 51
0.0
  0
ARC
  5
4E4
330
1F
100
AcDbEntity
  8
SLD-0
  6
Continuous
 62
     7
100
AcDbCircle
 10
161.1729571307
 20
456.3468757025
 30
0.0
 40
0.1999999760019197
100
AcDbArc
 50
0.0006230202
 51
89.9997507524
  0
ARC
  5
4E5
330
1F
100
AcDbEntity
  8
SLD-0
  6
Continuous
 62
     7
100
AcDbCircle
 10
158.0729580007
 20
456.346876161
 30
0.0
 40
0.2000004056518953
100
AcDbArc
 50
89.999941931
 51
179.9996482324
  0
CIRCLE
  5
4E6
330
1F
100
AcDbEntity
  8
SLD-0
  6
Continuous
 62
     7
100
AcDbCircle
 10
130.2229575183
 20
331.446876161
 30
0.0
 40
3.499999999999972
  0
CIRCLE
  5
4E7
330
1F
100
AcDbEntity
  8
SLD-0
  6
Continuous
 62
     7
100
AcDbCircle
 10
130.2229575183
 20
331.446876161
 30
0.0
 40
3.30000000000004
  0
CIRCLE
  5
4E8
330
1F
100
AcDbEntity
  8
SLD-0
  6
Continuous
 62
     7
100
AcDbCircle
 10
130.2229575183
 20
331.446876161
 30
0.0
 40
3.69999999999996
  0
ARC
  5
4E9
330
1F
100
AcDbEntity
  8
SLD-0
  6
Continuous
 62
     7
100
AcDbCircle
 10
149.2729575183
 20
406.496876161
 30
0.0
 40
3.750000000000038
100
AcDbArc
 50
180.0
 51
314.4598017551
  0
ARC
  5
4EA
330
1F
100
AcDbEntity
  8
SLD-0
  6
Continuous
 62
     7
100
AcDbCircle
 10
149.2729575183
 20
409.996876161
 30
0.0
 40
3.750000000000057
100
AcDbArc
 50
135.5401977358
 51
180.0
  0
ARC
  5
4EB
330
1F
100
AcDbEntity
  8
SLD-0
  6
Continuous
 62
     7
100
AcDbCircle
 10
152.7769370453
 20
463.0417265506
 30
0.0
 40
3.650416725174775
100
AcDbArc
 50
53.6446224391
 51
61.204925205
  0
ARC
  5
4EC
330
1F
100
AcDbEntity
  8
SLD-0
  6
Continuous
 62
     7
100
AcDbCircle
 10
153.0165514619
 20
462.9144918839
 30
0.0
 40
3.620805873211528
100
AcDbArc
 50
49.6731999236
 51
57.8956705947
  0
ARC
  5
4ED
330
1F
100
AcDbEntity
  8
SLD-0
  6
Continuous
 62
     7
100
AcDbCircle
 10
138.5729596476
 20
369.1468758913
 30
0.0
 40
0.1999981403500897
100
AcDbArc
 50
0.0
 51
90.0000571823
  0
ARC
  5
4EE
330
1F
100
AcDbEntity
  8
SLD-0
  6
Continuous
 62
     7
100
AcDbCircle
 10
138.5729575183
 20
363.0468758913
 30
0.0
 40
0.1999997303458309
100
AcDbArc
 50
330.0000000001
 51
359.9982651364
  0
ARC
  5
4EF
330
1F
100
AcDbEntity
  8
SLD-0
  6
Continuous
 62
     7
100
AcDbCircle
 10
133.3729575183
 20
363.446876161
 30
0.0
 40
0.6000000000000227
100
AcDbArc
 50
180.0
 51
270.0
  0
ARC
  5
4F0
330
1F
100
AcDbEntity
  8
SLD-0
  6
Continuous
 62
     7
100
AcDbCircle
 10
133.0729576882
 20
368.546876161
 30
0.0
 40
0.2999998301046958
100
AcDbArc
 50
90.0
 51
180.0004507846
  0
ARC
  5
4F1
330
1F
100
AcDbEntity
  8
SLD-0
  6
Continuous
 62
     7
100
AcDbCircle
 10
138.4729561593
 20
368.5468776198
 30
0.0
 40
0.3000010893046115
100
AcDbArc
 50
359.9992190987
 51
89.9997136993
  0
ARC
  5
4F2
330
1F
100
AcDbEntity
  8
SLD-0
  6
Continuous
 62
     7
100
AcDbCircle
 10
138.1729575183
 20
363.4468758913
 30
0.0
 40
0.599999730300226
100
AcDbArc
 50
270.0
 51
0.0000683062
  0
ARC
  5
4F3
330
1F
100
AcDbEntity
  8
SLD-0
  6
Continuous
 62
     7
100
AcDbCircle
 10
94.2229650723
 20
382.3468685832
 30
0.0
 40
1.000009878637872
100
AcDbArc
 50
90.000449884
 51
179.9995501186
  0
ARC
  5
4F4
330
1F
100
AcDbEntity
  8
SLD-0
  6
Continuous
 62
     7
100
AcDbCircle
 10
94.2229569736
 20
349.3468763673
 30
0.0
 40
1.000001779850026
100
AcDbArc
 50
179.9999858652
 51
270.0000141358
  0
ARC
  5
4F5
330
1F
100
AcDbEntity
  8
SLD-0
  6
Continuous
 62
     7
100
AcDbCircle
 10
143.8729575183
 20
483.746876161
 30
0.0
 40
0.199999550000253
100
AcDbArc
 50
89.9999684014
 51
179.9999090714
  0
ARC
  5
4F6
330
1F
100
AcDbEntity
  8
SLD-0
  6
Continuous
 62
     7
100
AcDbCircle
 10
154.5729575183
 20
483.746876161
 30
0.0
 40
0.1999999777000312
100
AcDbArc
 50
0.0000909283
 51
90.0
  0
ARC
  5
4F7
330
1F
100
AcDbEntity
  8
SLD-0
  6
Continuous
 62
     7
100
AcDbCircle
 10
143.8729575183
 20
477.646876161
 30
0.0
 40
0.1999999999999886
100
AcDbArc
 50
180.0
 51
270.0
  0
ARC
  5
4F8
330
1F
100
AcDbEntity
  8
SLD-0
  6
Continuous
 62
     7
100
AcDbCircle
 10
154.5729575183
 20
477.646876161
 30
0.0
 40
0.1999999777002586
100
AcDbArc
 50
270.0
 51
0.0001246468
  0
ARC
  5
4F9
330
1F
100
AcDbEntity
  8
SLD-0
  6
Continuous
 62
     7
100
AcDbCircle
 10
150.5229572261
 20
472.8468757187
 30
0.0
 40
0.1999999420698653
100
AcDbArc
 50
270.0000807285
 51
359.9999192628
  0
ARC
  5
4FA
330
1F
100
AcDbEntity
  8
SLD-0
  6
Continuous
 62
     7
100
AcDbCircle
 10
147.9229579374
 20
472.8468761062
 30
0.0
 40
0.2000003296109415
100
AcDbArc
 50
180.0001917589
 51
269.9998082313
  0
ARC
  5
4FB
330
1F
100
AcDbEntity
  8
SLD-0
  6
Continuous
 62
     7
100
AcDbCircle
 10
149.2229574986
 20
477.4468761142
 30
0.0
 40
3.849999342528869
100
AcDbArc
 50
247.0697387448
 51
292.9302576807
  0
ARC
  5
4FC
330
1F
100
AcDbEntity
  8
SLD-0
  6
Continuous
 62
     7
100
AcDbCircle
 10
112.9824373591
 20
450.522293585
 30
0.0
 40
0.2028048570811106
100
AcDbArc
 50
173.0379163204
 51
201.8316517268
  0
ARC
  5
4FD
330
1F
100
AcDbEntity
  8
SLD-0
  6
Continuous
 62
     7
100
AcDbCircle
 10
112.9824224247
 20
480.3714594617
 30
0.0
 40
0.2027901839685626
100
AcDbArc
 50
158.1673502086
 51
186.9629446348
  0
ARC
  5
4FE
330
1F
100
AcDbEntity
  8
SLD-0
  6
Continuous
 62
     7
100
AcDbCircle
 10
110.7585229299
 20
450.5222925825
 30
0.0
 40
0.2027440242096427
100
AcDbArc
 50
173.0355316231
 51
201.8382338178
  0
ARC
  5
4FF
330
1F
100
AcDbEntity
  8
SLD-0
  6
Continuous
 62
     7
100
AcDbCircle
 10
110.7585079975
 20
480.3714604646
 30
0.0
 40
0.202729353199353
100
AcDbArc
 50
158.1607676835
 51
186.9653298347
  0
ARC
  5
500
330
1F
100
AcDbEntity
  8
SLD-0
  6
Continuous
 62
     7
100
AcDbCircle
 10
110.2111546516
 20
450.5231315439
 30
0.0
 40
0.130767363193088
100
AcDbArc
 50
169.5382924005
 51
215.6725020245
  0
ARC
  5
501
330
1F
100
AcDbEntity
  8
SLD-0
  6
Continuous
 62
     7
100
AcDbCircle
 10
110.2111457849
 20
480.3706215292
 30
0.0
 40
0.1307588749712068
100
AcDbArc
 50
144.3260168061
 51
190.4629614328
  0
ARC
  5
502
330
1F
100
AcDbEntity
  8
SLD-0
  6
Continuous
 62
     7
100
AcDbCircle
 10
90.4417632395
 20
439.8061853992
 30
0.0
 40
20.52347683884027
100
AcDbArc
 50
34.1880204
 51
40.1540348233
  0
ARC
  5
503
330
1F
100
AcDbEntity
  8
SLD-0
  6
Continuous
 62
     7
100
AcDbCircle
 10
151.6777423029
 20
461.1952647062
 30
0.0
 40
5.300704310549672
100
AcDbArc
 50
50.122759011
 51
60.947946397
  0
ARC
  5
504
330
1F
100
AcDbEntity
  8
SLD-0
  6
Continuous
 62
     7
100
AcDbCircle
 10
154.7619000192
 20
482.8685898398
 30
0.0
 40
3.425259646192449
100
AcDbArc
 50
127.0557266123
 51
143.8431303611
  0
ARC
  5
505
330
1F
100
AcDbEntity
  8
SLD-0
  6
Continuous
 62
     7
100
AcDbCircle
 10
156.165110803
 20
486.0089629556
 30
0.0
 40
5.612592275406088
100
AcDbArc
 50
175.3624445596
 51
185.5844100197
  0
ARC
  5
506
330
1F
100
AcDbEntity
  8
SLD-0
  6
Continuous
 62
     7
100
AcDbCircle
 10
133.0729576882
 20
368.546876161
 30
0.0
 40
0.8000000000000114
100
AcDbArc
 50
90.0
 51
124.2288663278
  0
ARC
  5
507
330
1F
100
AcDbEntity
  8
SLD-0
  6
Continuous
 62
     7
100
AcDbCircle
 10
94.0954535488
 20
382.1647324513
 30
0.0
 40
0.891307921219732
100
AcDbArc
 50
81.7754900632
 51
168.2082065373
  0
ARC
  5
508
330
1F
100
AcDbEntity
  8
SLD-0
  6
Continuous
 62
     7
100
AcDbCircle
 10
94.1006969149
 20
349.5365111689
 30
0.0
 40
0.8979932035007586
100
AcDbArc
 50
192.1912739738
 51
277.8250294392
  0
ARC
  5
509
330
1F
100
AcDbEntity
  8
SLD-0
  6
Continuous
 62
     7
100
AcDbCircle
 10
111.2229575183
 20
168.5067834637
 30
0.0
 40
5.700000000000026
100
AcDbArc
 50
69.1215554686
 51
290.8784445314
  0
ARC
  5
50A
330
1F
100
AcDbEntity
  8
SLD-0
  6
Continuous
 62
     7
100
AcDbCircle
 10
157.2425547831
 20
168.7193322234
 30
0.0
 40
2.386817253286867
100
AcDbArc
 50
88.9176610268
 51
113.5843605327
  0
ARC
  5
50B
330
1F
100
AcDbEntity
  8
SLD-0
  6
Continuous
 62
     7
100
AcDbCircle
 10
148.7229583379
 20
171.906783359
 30
0.0
 40
1.0
100
AcDbArc
 50
180.0
 51
270.0
  0
ARC
  5
50C
330
1F
100
AcDbEntity
  8
SLD-0
  6
Continuous
 62
     7
100
AcDbCircle
 10
156.7229583379
 20
171.9067833441
 30
0.0
 40
0.9999999851000325
100
AcDbArc
 50
270.0000096085
 51
0.0
  0
CIRCLE
  5
50D
330
1F
100
AcDbEntity
  8
SLD-0
  6
Continuous
 62
     7
100
AcDbCircle
 10
111.2229575183
 20
168.5067834637
 30
0.0
 40
1.649999999995252
  0
CIRCLE
  5
50E
330
1F
100
AcDbEntity
  8
SLD-0
  6
Continuous
 62
     7
100
AcDbCircle
 10
111.2229575183
 20
168.5067834637
 30
0.0
 40
1.124999999995278
  0
ARC
  5
50F
330
1F
100
AcDbEntity
  8
SLD-0
  6
Continuous
 62
     7
100
AcDbCircle
 10
111.2230049108
 20
168.5067022207
 30
0.0
 40
5.100089870584213
100
AcDbArc
 50
102.9213006431
 51
138.2382151559
  0
ARC
  5
510
330
1F
100
AcDbEntity
  8
SLD-0
  6
Continuous
 62
     7
100
AcDbCircle
 10
111.3072673595
 20
168.5357165109
 30
0.0
 40
4.991439194250852
100
AcDbArc
 50
103.9385498516
 51
139.8265159388
  0
ARC
  5
511
330
1F
100
AcDbEntity
  8
SLD-0
  6
Continuous
 62
     7
100
AcDbCircle
 10
111.2874615375
 20
168.4460103136
 30
0.0
 40
4.955779252793725
100
AcDbArc
 50
220.0399302817
 51
256.1950190937
  0
ARC
  5
512
330
1F
100
AcDbEntity
  8
SLD-0
  6
Continuous
 62
     7
100
AcDbCircle
 10
111.2229669616
 20
168.5068006915
 30
0.0
 40
5.100018927170265
100
AcDbArc
 50
221.761532353
 51
257.0789539208
  0
ARC
  5
513
330
1F
100
AcDbEntity
  8
SLD-0
  6
Continuous
 62
     7
100
AcDbCircle
 10
111.2229575183
 20
168.5067834637
 30
0.0
 40
5.000000197426732
100
AcDbArc
 50
97.5
 51
102.9209608091
  0
ARC
  5
514
330
1F
100
AcDbEntity
  8
SLD-0
  6
Continuous
 62
     7
100
AcDbCircle
 10
111.2229575183
 20
168.5067834637
 30
0.0
 40
5.100000087371466
100
AcDbArc
 50
97.4999898861
 51
102.9209857914
  0
ARC
  5
515
330
1F
100
AcDbEntity
  8
SLD-0
  6
Continuous
 62
     7
100
AcDbCircle
 10
111.2229575183
 20
168.5067834637
 30
0.0
 40
5.000000198013748
100
AcDbArc
 50
257.0790396225
 51
262.5
  0
ARC
  5
516
330
1F
100
AcDbEntity
  8
SLD-0
  6
Continuous
 62
     7
100
AcDbCircle
 10
111.2229575183
 20
168.5067834637
 30
0.0
 40
5.100000024010289
100
AcDbArc
 50
257.0790140464
 51
262.5000100193
  0
ARC
  5
517
330
1F
100
AcDbEntity
  8
SLD-0
  6
Continuous
 62
     7
100
AcDbCircle
 10
111.0239074198
 20
168.5067832309
 30
0.0
 40
4.797967729675545
100
AcDbArc
 50
137.3788690091
 51
222.6211309912
  0
ARC
  5
518
330
1F
100
AcDbEntity
  8
SLD-0
  6
Continuous
 62
     7
100
AcDbCircle
 10
111.2229575183
 20
168.5067834637
 30
0.0
 40
2.499999478459388
100
AcDbArc
 50
0.0000087432
 51
179.9999912568
  0
ARC
  5
519
330
1F
100
AcDbEntity
  8
SLD-0
  6
Continuous
 62
     7
100
AcDbCircle
 10
111.2229575183
 20
168.5067834637
 30
0.0
 40
2.499999478459388
100
AcDbArc
 50
179.9999912568
 51
0.0000087432
  0
ARC
  5
51A
330
1F
100
AcDbEntity
  8
SLD-0
  6
Continuous
 62
     7
100
AcDbCircle
 10
111.2229575183
 20
168.5067834637
 30
0.0
 40
5.100000408960285
100
AcDbArc
 50
138.2385413564
 51
221.7614586426
  0
CIRCLE
  5
51B
330
1F
100
AcDbEntity
  8
SLD-0
  6
Continuous
 62
     7
100
AcDbCircle
 10
111.2229575183
 20
168.5067834637
 30
0.0
 40
2.249999999995287
  0
CIRCLE
  5
51C
330
1F
100
AcDbEntity
  8
SLD-0
  6
Continuous
 62
     7
100
AcDbCircle
 10
111.2229575183
 20
168.5067834637
 30
0.0
 40
1.749999999995288
  0
ARC
  5
51D
330
1F
100
AcDbEntity
  8
SLD-0
  6
Continuous
 62
     7
100
AcDbCircle
 10
118.922958323
 20
174.7067833376
 30
0.0
 40
0.1999999935004281
100
AcDbArc
 50
89.999832639
 51
180.0000064458
  0
ARC
  5
51E
330
1F
100
AcDbEntity
  8
SLD-0
  6
Continuous
 62
     7
100
AcDbCircle
 10
118.922958323
 20
174.7067833376
 30
0.0
 40
1.699999195300067
100
AcDbArc
 50
89.9999803105
 51
180.0000007583
  0
ARC
  5
51F
330
1F
100
AcDbEntity
  8
SLD-0
  6
Continuous
 62
     7
100
AcDbCircle
 10
94.0954589706
 20
165.6389314983
 30
0.0
 40
0.891314091916984
100
AcDbArc
 50
191.791988078
 51
278.2241004565
  0
ARC
  5
520
330
1F
100
AcDbEntity
  8
SLD-0
  6
Continuous
 62
     7
100
AcDbCircle
 10
94.0902224312
 20
171.282115922
 30
0.0
 40
0.8846813939235045
100
AcDbArc
 50
81.370939267
 51
168.6129722064
  0
ARC
  5
521
330
1F
100
AcDbEntity
  8
SLD-0
  6
Continuous
 62
     7
100
AcDbCircle
 10
94.2229606938
 20
171.4567780058
 30
0.0
 40
1.000005500060134
100
AcDbArc
 50
90.0001990143
 51
179.9996942657
  0
ARC
  5
522
330
1F
100
AcDbEntity
  8
SLD-0
  6
Continuous
 62
     7
100
AcDbCircle
 10
94.2229606938
 20
165.4567886259
 30
0.0
 40
1.000005500042829
100
AcDbArc
 50
180.0003057355
 51
269.9998009867
  0
ARC
  5
523
330
1F
100
AcDbEntity
  8
SLD-0
  6
Continuous
 62
     7
100
AcDbCircle
 10
143.8729576286
 20
176.4067833151
 30
0.0
 40
0.2000000525999894
100
AcDbArc
 50
90.0
 51
180.0
  0
ARC
  5
524
330
1F
100
AcDbEntity
  8
SLD-0
  6
Continuous
 62
     7
100
AcDbCircle
 10
143.8729575183
 20
161.0067833151
 30
0.0
 40
0.2000000000000171
100
AcDbArc
 50
210.0
 51
270.0
  0
ARC
  5
525
330
1F
100
AcDbEntity
  8
SLD-0
  6
Continuous
 62
     7
100
AcDbCircle
 10
154.5729575183
 20
176.4067833151
 30
0.0
 40
0.1999999999999886
100
AcDbArc
 50
0.0
 51
90.0
  0
ARC
  5
526
330
1F
100
AcDbEntity
  8
SLD-0
  6
Continuous
 62
     7
100
AcDbCircle
 10
154.5729575183
 20
161.0067835267
 30
0.0
 40
0.199999788400166
100
AcDbArc
 50
269.9998937161
 51
330.0
  0
ARC
  5
527
330
1F
100
AcDbEntity
  8
SLD-0
  6
Continuous
 62
     7
100
AcDbCircle
 10
299.2173079531
 20
468.446876161
 30
0.0
 40
25.00000000000006
100
AcDbArc
 50
345.5224878141
 51
14.4775121859
  0
ARC
  5
528
330
1F
100
AcDbEntity
  8
SLD-0
  6
Continuous
 62
     7
100
AcDbCircle
 10
337.8173079531
 20
468.446876161
 30
0.0
 40
25.00000000000004
100
AcDbArc
 50
165.5224878141
 51
194.4775121859
  0
ARC
  5
529
330
1F
100
AcDbEntity
  8
SLD-0
  6
Continuous
 62
     7
100
AcDbCircle
 10
313.8048112066
 20
474.646876161
 30
0.0
 40
0.1999999999932267
100
AcDbArc
 50
90.0
 51
165.5224878168
  0
ARC
  5
52A
330
1F
100
AcDbEntity
  8
SLD-0
  6
Continuous
 62
     7
100
AcDbCircle
 10
323.2298046996
 20
474.646876161
 30
0.0
 40
0.1999999999932267
100
AcDbArc
 50
14.4775121832
 51
89.9999999962
  0
ARC
  5
52B
330
1F
100
AcDbEntity
  8
SLD-0
  6
Continuous
 62
     7
100
AcDbCircle
 10
313.8048112066
 20
462.246876161
 30
0.0
 40
0.1999999999932959
100
AcDbArc
 50
194.4775121832
 51
270.0
  0
ARC
  5
52C
330
1F
100
AcDbEntity
  8
SLD-0
  6
Continuous
 62
     7
100
AcDbCircle
 10
323.2298046996
 20
462.246876161
 30
0.0
 40
0.1999999999932959
100
AcDbArc
 50
270.0000000038
 51
345.5224878168
  0
ARC
  5
52D
330
1F
100
AcDbEntity
  8
SLD-0
  6
Continuous
 62
     7
100
AcDbCircle
 10
318.5173078044
 20
482.0693754585
 30
0.0
 40
4.225990648823374
100
AcDbArc
 50
216.507610681
 51
323.492389319
  0
ARC
  5
52E
330
1F
100
AcDbEntity
  8
SLD-0
  6
Continuous
 62
     7
100
AcDbCircle
 10
318.5173080372
 20
481.9468716876
 30
0.0
 40
3.999997214591318
100
AcDbArc
 50
215.6852809725
 51
324.3147190275
  0
ARC
  5
52F
330
1F
100
AcDbEntity
  8
SLD-0
  6
Continuous
 62
     7
100
AcDbCircle
 10
318.5173078045
 20
448.8243824508
 30
0.0
 40
4.225985906360532
100
AcDbArc
 50
36.5075238111
 51
143.4924761889
  0
ARC
  5
530
330
1F
100
AcDbEntity
  8
SLD-0
  6
Continuous
 62
     7
100
AcDbCircle
 10
318.5173080373
 20
448.9468658866
 30
0.0
 40
4.000006599828501
100
AcDbArc
 50
35.685468158
 51
144.3145318433
  0
ARC
  5
531
330
1F
100
AcDbEntity
  8
SLD-0
  6
Continuous
 62
     7
100
AcDbCircle
 10
323.4843351057
 20
478.3937384725
 30
0.0
 40
1.953141032834301
100
AcDbArc
 50
89.8874175972
 51
143.511040516
  0
ARC
  5
532
330
1F
100
AcDbEntity
  8
SLD-0
  6
Continuous
 62
     7
100
AcDbCircle
 10
313.5536744144
 20
478.4004867382
 30
0.0
 40
1.946402430226896
100
AcDbArc
 50
36.3886635947
 51
90.2128714861
  0
ARC
  5
533
330
1F
100
AcDbEntity
  8
SLD-0
  6
Continuous
 62
     7
100
AcDbCircle
 10
313.5502783842
 20
452.500020275
 30
0.0
 40
1.953147975249801
100
AcDbArc
 50
269.8874869856
 51
323.5108697095
  0
ARC
  5
534
330
1F
100
AcDbEntity
  8
SLD-0
  6
Continuous
 62
     7
100
AcDbCircle
 10
323.4809487246
 20
452.4932827496
 30
0.0
 40
1.946420090346882
100
AcDbArc
 50
216.3889953624
 51
270.2126547441
  0
ARC
  5
535
330
1F
100
AcDbEntity
  8
SLD-0
  6
Continuous
 62
     7
100
AcDbCircle
 10
318.5173073963
 20
456.946874507
 30
0.0
 40
2.100000157952316
100
AcDbArc
 50
270.0000047842
 51
89.9999952158
  0
ARC
  5
536
330
1F
100
AcDbEntity
  8
SLD-0
  6
Continuous
 62
     7
100
AcDbCircle
 10
318.5173073963
 20
456.946874507
 30
0.0
 40
2.100000157952316
100
AcDbArc
 50
89.9999952158
 51
270.0000047842
  0
ARC
  5
537
330
1F
100
AcDbEntity
  8
SLD-0
  6
Continuous
 62
     7
100
AcDbCircle
 10
313.6451942323
 20
480.3481256408
 30
0.0
 40
0.0987591961001147
100
AcDbArc
 50
90.7446455813
 51
180.7251602649
  0
ARC
  5
538
330
1F
100
AcDbEntity
  8
SLD-0
  6
Continuous
 62
     7
100
AcDbCircle
 10
313.6439083723
 20
478.4468716847
 30
0.0
 40
2.000004811573269
100
AcDbArc
 50
35.6854006066
 51
89.9999320902
  0
ARC
  5
539
330
1F
100
AcDbEntity
  8
SLD-0
  6
Continuous
 62
     7
100
AcDbCircle
 10
313.643888816
 20
452.4469133952
 30
0.0
 40
2.00003902236525
100
AcDbArc
 50
270.0006281442
 51
324.3141951844
  0
ARC
  5
53A
330
1F
100
AcDbEntity
  8
SLD-0
  6
Continuous
 62
     7
100
AcDbCircle
 10
313.6451971884
 20
450.5456281214
 30
0.0
 40
0.0987621272468332
100
AcDbArc
 50
179.2759993933
 51
269.253661392
  0
ARC
  5
53B
330
1F
100
AcDbEntity
  8
SLD-0
  6
Continuous
 62
     7
100
AcDbCircle
 10
323.3907085688
 20
478.4468699952
 30
0.0
 40
2.000006501082003
100
AcDbArc
 50
90.0000927381
 51
144.3145745637
  0
ARC
  5
53C
330
1F
100
AcDbEntity
  8
SLD-0
  6
Continuous
 62
     7
100
AcDbCircle
 10
323.3894219051
 20
480.348125932
 30
0.0
 40
0.0987589040686879
100
AcDbArc
 50
359.2746685914
 51
89.2553887313
  0
ARC
  5
53D
330
1F
100
AcDbEntity
  8
SLD-0
  6
Continuous
 62
     7
100
AcDbCircle
 10
323.3894189489
 20
450.5456278301
 30
0.0
 40
0.098761835205678
100
AcDbArc
 50
270.7463043027
 51
0.7241717412
  0
ARC
  5
53E
330
1F
100
AcDbEntity
  8
SLD-0
  6
Continuous
 62
     7
100
AcDbCircle
 10
323.3907090218
 20
452.4468778454
 30
0.0
 40
2.000003472502379
100
AcDbArc
 50
215.6852823818
 51
269.9998942831
  0
ARC
  5
53F
330
1F
100
AcDbEntity
  8
SLD-0
  6
Continuous
 62
     7
100
AcDbCircle
 10
313.560514427
 20
480.347301244
 30
0.0
 40
0.0995761845256319
100
AcDbArc
 50
90.2479189307
 51
180.244837149
  0
ARC
  5
540
330
1F
100
AcDbEntity
  8
SLD-0
  6
Continuous
 62
     7
100
AcDbCircle
 10
323.4741019249
 20
480.347301748
 30
0.0
 40
0.0995756762357391
100
AcDbArc
 50
359.7548715322
 51
89.7526414023
  0
ARC
  5
541
330
1F
100
AcDbEntity
  8
SLD-0
  6
Continuous
 62
     7
100
AcDbCircle
 10
313.5605173664
 20
450.5464525434
 30
0.0
 40
0.0995791153815961
100
AcDbArc
 50
179.75631327
 51
269.7503971065
  0
ARC
  5
542
330
1F
100
AcDbEntity
  8
SLD-0
  6
Continuous
 62
     7
100
AcDbCircle
 10
323.4740989856
 20
450.5464520393
 30
0.0
 40
0.0995786070848355
100
AcDbArc
 50
270.2490425703
 51
0.2439780166
  0
ARC
  5
543
330
1F
100
AcDbEntity
  8
SLD-0
  6
Continuous
 62
     7
100
AcDbCircle
 10
313.1681619699
 20
450.9468745896
 30
0.0
 40
0.3999985240027484
100
AcDbArc
 50
179.9998858988
 51
270.0002141438
  0
ARC
  5
544
330
1F
100
AcDbEntity
  8
SLD-0
  6
Continuous
 62
     7
100
AcDbCircle
 10
313.1681625178
 20
479.9468766629
 30
0.0
 40
0.3999990720005668
100
AcDbArc
 50
89.9998643519
 51
180.0000356015
  0
ARC
  5
545
330
1F
100
AcDbEntity
  8
SLD-0
  6
Continuous
 62
     7
100
AcDbCircle
 10
313.2677415463
 20
450.5464524112
 30
0.0
 40
0.0995789826242782
100
AcDbArc
 50
179.7562368917
 51
269.7504734391
  0
ARC
  5
546
330
1F
100
AcDbEntity
  8
SLD-0
  6
Continuous
 62
     7
100
AcDbCircle
 10
313.2677386069
 20
480.3473013762
 30
0.0
 40
0.0995760517389595
100
AcDbArc
 50
90.2478425842
 51
180.2449135502
  0
ARC
  5
547
330
1F
100
AcDbEntity
  8
SLD-0
  6
Continuous
 62
     7
100
AcDbCircle
 10
323.7668736626
 20
450.5464535022
 30
0.0
 40
0.099580076386954
100
AcDbArc
 50
270.2498879267
 51
0.2431326996
  0
ARC
  5
548
330
1F
100
AcDbEntity
  8
SLD-0
  6
Continuous
 62
     7
100
AcDbCircle
 10
323.7668766019
 20
480.3473002851
 30
0.0
 40
0.09957714546916
100
AcDbArc
 50
359.7557168764
 51
89.751796033
  0
ARC
  5
549
330
1F
100
AcDbEntity
  8
SLD-0
  6
Continuous
 62
     7
100
AcDbCircle
 10
323.8664533336
 20
479.9468769056
 30
0.0
 40
0.3999988292427648
100
AcDbArc
 50
359.9999296387
 51
90.0000703677
  0
ARC
  5
54A
330
1F
100
AcDbEntity
  8
SLD-0
  6
Continuous
 62
     7
100
AcDbCircle
 10
323.8664548572
 20
450.9468733713
 30
0.0
 40
0.3999973057050436
100
AcDbArc
 50
269.9997113992
 51
0.0002886067
  0
ARC
  5
54B
330
1F
100
AcDbEntity
  8
SLD-0
  6
Continuous
 62
     7
100
AcDbCircle
 10
313.2673128654
 20
450.9468792122
 30
0.0
 40
0.5000048393411631
100
AcDbArc
 50
180.000438429
 51
269.9994281731
  0
ARC
  5
54C
330
1F
100
AcDbEntity
  8
SLD-0
  6
Continuous
 62
     7
100
AcDbCircle
 10
313.2673083174
 20
479.946876205
 30
0.0
 40
0.5000002912808992
100
AcDbArc
 50
90.0000506734
 51
179.999976016
  0
ARC
  5
54D
330
1F
100
AcDbEntity
  8
SLD-0
  6
Continuous
 62
     7
100
AcDbCircle
 10
323.767304881
 20
450.9468775403
 30
0.0
 40
0.5000031673696682
100
AcDbArc
 50
270.0003535625
 51
359.9997531599
  0
ARC
  5
54E
330
1F
100
AcDbEntity
  8
SLD-0
  6
Continuous
 62
     7
100
AcDbCircle
 10
323.767307329
 20
479.9468757769
 30
0.0
 40
0.5000007193755294
100
AcDbArc
 50
0.0000730458
 51
89.9999269596
  0
ARC
  5
54F
330
1F
100
AcDbEntity
  8
SLD-0
  6
Continuous
 62
     7
100
AcDbCircle
 10
318.3673079531
 20
320.546876161
 30
0.0
 40
2.750000000000057
100
AcDbArc
 50
0.0
 51
121.0810239262
  0
ARC
  5
550
330
1F
100
AcDbEntity
  8
SLD-0
  6
Continuous
 62
     7
100
AcDbCircle
 10
318.3673078823
 20
320.446876161
 30
0.0
 40
2.749999929200807
100
AcDbArc
 50
0.000062092
 51
123.5134171099
  0
CIRCLE
  5
551
330
1F
100
AcDbEntity
  8
SLD-0
  6
Continuous
 62
     7
100
AcDbCircle
 10
318.5173073074
 20
320.4468740628
 30
0.0
 40
4.999999999999969
  0
CIRCLE
  5
552
330
1F
100
AcDbEntity
  8
SLD-0
  6
Continuous
 62
     7
100
AcDbCircle
 10
318.5173078458
 20
512.4468765098
 30
0.0
 40
4.999999999999969
  0
ARC
  5
553
330
1F
100
AcDbEntity
  8
SLD-0
  6
Continuous
 62
     7
100
AcDbCircle
 10
313.1673079531
 20
480.046876161
 30
0.0
 40
0.5
100
AcDbArc
 50
90.0
 51
180.0
  0
ARC
  5
554
330
1F
100
AcDbEntity
  8
SLD-0
  6
Continuous
 62
     7
100
AcDbCircle
 10
313.167307948
 20
450.846876161
 30
0.0
 40
0.4999999949508735
100
AcDbArc
 50
179.9998558782
 51
270.0
  0
ARC
  5
555
330
1F
100
AcDbEntity
  8
SLD-0
  6
Continuous
 62
     7
100
AcDbCircle
 10
313.6439107756
 20
452.3468762882
 30
0.0
 40
1.999999877800008
100
AcDbArc
 50
269.9999989171
 51
324.3146652873
  0
ARC
  5
556
330
1F
100
AcDbEntity
  8
SLD-0
  6
Continuous
 62
     7
100
AcDbCircle
 10
318.5173078488
 20
448.8468763595
 30
0.0
 40
3.999999999998176
100
AcDbArc
 50
35.6853347127
 51
144.3146652873
  0
ARC
  5
557
330
1F
100
AcDbEntity
  8
SLD-0
  6
Continuous
 62
     7
100
AcDbCircle
 10
323.3907050212
 20
452.3468763595
 30
0.0
 40
1.999999999998193
100
AcDbArc
 50
215.6853347126
 51
270.0
  0
ARC
  5
558
330
1F
100
AcDbEntity
  8
SLD-0
  6
Continuous
 62
     7
100
AcDbCircle
 10
323.8673078488
 20
450.8468764817
 30
0.0
 40
0.4999998778000321
100
AcDbArc
 50
269.9999820664
 51
0.0
  0
ARC
  5
559
330
1F
100
AcDbEntity
  8
SLD-0
  6
Continuous
 62
     7
100
AcDbCircle
 10
323.8673077638
 20
480.0468760673
 30
0.0
 40
0.4999999627550072
100
AcDbArc
 50
0.0000570582
 51
89.9999706149
  0
ARC
  5
55A
330
1F
100
AcDbEntity
  8
SLD-0
  6
Continuous
 62
     7
100
AcDbCircle
 10
323.3907051927
 20
478.5468761128
 30
0.0
 40
2.000000082701444
100
AcDbArc
 50
89.9999940928
 51
144.3146652873
  0
ARC
  5
55B
330
1F
100
AcDbEntity
  8
SLD-0
  6
Continuous
 62
     7
100
AcDbCircle
 10
318.5173079531
 20
482.046876161
 30
0.0
 40
3.999999999999027
100
AcDbArc
 50
294.3619779401
 51
324.3146652874
  0
ARC
  5
55C
330
1F
100
AcDbEntity
  8
SLD-0
  6
Continuous
 62
     7
100
AcDbCircle
 10
318.5173079531
 20
482.046876161
 30
0.0
 40
3.999999999999971
100
AcDbArc
 50
215.6853347127
 51
245.63802206
  0
ARC
  5
55D
330
1F
100
AcDbEntity
  8
SLD-0
  6
Continuous
 62
     7
100
AcDbCircle
 10
313.6439107807
 20
478.546876161
 30
0.0
 40
2.000000000000057
100
AcDbArc
 50
35.6853347126
 51
90.0
  0
CIRCLE
  5
55E
330
1F
100
AcDbEntity
  8
SLD-0
  6
Continuous
 62
     7
100
AcDbCircle
 10
318.5173074247
 20
291.4468744439
 30
0.0
 40
4.999999999999915
  0
ARC
  5
55F
330
1F
100
AcDbEntity
  8
SLD-0
  6
Continuous
 62
     7
100
AcDbCircle
 10
315.0173064796
 20
515.9472348734
 30
0.0
 40
2.250001352781295
100
AcDbArc
 50
270.0000369147
 51
359.9999393694
  0
ARC
  5
560
330
1F
100
AcDbEntity
  8
SLD-0
  6
Continuous
 62
     7
100
AcDbCircle
 10
318.5173078458
 20
512.4468765098
 30
0.0
 40
4.249999883720845
100
AcDbArc
 50
162.8903285466
 51
197.1096725756
  0
ARC
  5
561
330
1F
100
AcDbEntity
  8
SLD-0
  6
Continuous
 62
     7
100
AcDbCircle
 10
315.0173079321
 20
508.9465192654
 30
0.0
 40
2.2499999041043
100
AcDbArc
 50
0.0000000246
 51
89.9999999745
  0
ARC
  5
562
330
1F
100
AcDbEntity
  8
SLD-0
  6
Continuous
 62
     7
100
AcDbCircle
 10
318.5173078458
 20
512.4468765098
 30
0.0
 40
4.250000059658712
100
AcDbArc
 50
252.895364936
 51
287.1046351766
  0
ARC
  5
563
330
1F
100
AcDbEntity
  8
SLD-0
  6
Continuous
 62
     7
100
AcDbCircle
 10
322.0173083271
 20
508.9465189325
 30
0.0
 40
2.250000174705646
100
AcDbArc
 50
90.0000050397
 51
179.9999938232
  0
ARC
  5
564
330
1F
100
AcDbEntity
  8
SLD-0
  6
Continuous
 62
     7
100
AcDbCircle
 10
318.5173078458
 20
512.4468765098
 30
0.0
 40
4.249999904565199
100
AcDbArc
 50
342.8903231078
 51
17.1096725756
  0
ARC
  5
565
330
1F
100
AcDbEntity
  8
SLD-0
  6
Continuous
 62
     7
100
AcDbCircle
 10
322.0173078293
 20
515.9472334285
 30
0.0
 40
2.249999587096523
100
AcDbArc
 50
180.0000060719
 51
270.0000029914
  0
ARC
  5
566
330
1F
100
AcDbEntity
  8
SLD-0
  6
Continuous
 62
     7
100
AcDbCircle
 10
318.5173078458
 20
512.4468765098
 30
0.0
 40
4.2499996351094
100
AcDbArc
 50
72.895357718
 51
107.1046351766
  0
ARC
  5
567
330
1F
100
AcDbEntity
  8
SLD-0
  6
Continuous
 62
     7
100
AcDbCircle
 10
322.0172993914
 20
294.9472253916
 30
0.0
 40
2.249991027317663
100
AcDbArc
 50
179.9996880328
 51
270.0001821452
  0
ARC
  5
568
330
1F
100
AcDbEntity
  8
SLD-0
  6
Continuous
 62
     7
100
AcDbCircle
 10
318.5173074247
 20
291.4468744439
 30
0.0
 40
4.249998903759104
100
AcDbArc
 50
72.8953470237
 51
107.1046134418
  0
ARC
  5
569
330
1F
100
AcDbEntity
  8
SLD-0
  6
Continuous
 62
     7
100
AcDbCircle
 10
315.0173031723
 20
294.9472401159
 30
0.0
 40
2.250005995012209
100
AcDbArc
 50
270.0001551278
 51
359.9998685868
  0
ARC
  5
56A
330
1F
100
AcDbEntity
  8
SLD-0
  6
Continuous
 62
     7
100
AcDbCircle
 10
318.5173074247
 20
291.4468744439
 30
0.0
 40
4.249998989795036
100
AcDbArc
 50
162.8902872306
 51
197.1096525477
  0
ARC
  5
56B
330
1F
100
AcDbEntity
  8
SLD-0
  6
Continuous
 62
     7
100
AcDbCircle
 10
315.0172980448
 20
287.9465137524
 30
0.0
 40
2.250009787561644
100
AcDbArc
 50
0.0002279882
 51
89.9997482944
  0
ARC
  5
56C
330
1F
100
AcDbEntity
  8
SLD-0
  6
Continuous
 62
     7
100
AcDbCircle
 10
318.5173074247
 20
291.4468744439
 30
0.0
 40
4.250001796475755
100
AcDbArc
 50
252.8953780266
 51
287.1046351766
  0
ARC
  5
56D
330
1F
100
AcDbEntity
  8
SLD-0
  6
Continuous
 62
     7
100
AcDbCircle
 10
322.0173306214
 20
287.9464991135
 30
0.0
 40
2.250022379296498
100
AcDbArc
 50
90.0005584833
 51
179.9994866871
  0
ARC
  5
56E
330
1F
100
AcDbEntity
  8
SLD-0
  6
Continuous
 62
     7
100
AcDbCircle
 10
318.5173074247
 20
291.4468744439
 30
0.0
 40
4.249999532965016
100
AcDbArc
 50
342.8903843541
 51
17.1097139486
  0
ARC
  5
56F
330
1F
100
AcDbEntity
  8
SLD-0
  6
Continuous
 62
     7
100
AcDbCircle
 10
322.0173306214
 20
316.9464980305
 30
0.0
 40
2.250022379289959
100
AcDbArc
 50
90.0005724312
 51
179.9994997696
  0
ARC
  5
570
330
1F
100
AcDbEntity
  8
SLD-0
  6
Continuous
 62
     7
100
AcDbCircle
 10
318.5173073074
 20
320.4468740628
 30
0.0
 40
4.249999328077727
100
AcDbArc
 50
342.8903736031
 51
17.1096725756
  0
ARC
  5
571
330
1F
100
AcDbEntity
  8
SLD-0
  6
Continuous
 62
     7
100
AcDbCircle
 10
322.0172995123
 20
323.9472243085
 30
0.0
 40
2.249991027317658
100
AcDbArc
 50
179.9996717027
 51
270.0001870428
  0
ARC
  5
572
330
1F
100
AcDbEntity
  8
SLD-0
  6
Continuous
 62
     7
100
AcDbCircle
 10
318.5173073074
 20
320.4468740628
 30
0.0
 40
4.249998915756573
100
AcDbArc
 50
72.8953437148
 51
107.1046136797
  0
ARC
  5
573
330
1F
100
AcDbEntity
  8
SLD-0
  6
Continuous
 62
     7
100
AcDbCircle
 10
315.0173030347
 20
323.9472389065
 30
0.0
 40
2.250005995012265
100
AcDbArc
 50
270.0001551278
 51
359.9998685893
  0
ARC
  5
574
330
1F
100
AcDbEntity
  8
SLD-0
  6
Continuous
 62
     7
100
AcDbCircle
 10
318.5173073074
 20
320.4468740628
 30
0.0
 40
4.249998765619573
100
AcDbArc
 50
162.8902979828
 51
197.1096481023
  0
ARC
  5
575
330
1F
100
AcDbEntity
  8
SLD-0
  6
Continuous
 62
     7
100
AcDbCircle
 10
315.0172980448
 20
316.9465129179
 30
0.0
 40
2.250009787611666
100
AcDbArc
 50
0.0002279882
 51
89.9997482944
  0
ARC
  5
576
330
1F
100
AcDbEntity
  8
SLD-0
  6
Continuous
 62
     7
100
AcDbCircle
 10
318.5173073074
 20
320.4468740628
 30
0.0
 40
4.250002195270501
100
AcDbArc
 50
252.8953813354
 51
287.1046351766
  0
ARC
  5
577
330
1F
100
AcDbEntity
  8
SLD-0
  6
Continuous
 62
     7
100
AcDbCircle
 10
322.2658187385
 20
348.6475508908
 30
0.0
 40
0.3014894042239941
100
AcDbArc
 50
356.1938950331
 51
359.9970402952
  0
ARC
  5
578
330
1F
100
AcDbEntity
  8
SLD-0
  6
Continuous
 62
     7
100
AcDbCircle
 10
322.2415317838
 20
348.6528270189
 30
0.0
 40
0.326093476190054
100
AcDbArc
 50
290.2427103115
 51
355.5521564438
  0
ARC
  5
579
330
1F
100
AcDbEntity
  8
SLD-0
  6
Continuous
 62
     7
100
AcDbCircle
 10
314.8673087399
 20
348.6468753742
 30
0.0
 40
0.3000007868001348
100
AcDbArc
 50
179.9998497326
 51
269.9998938505
  0
ARC
  5
57A
330
1F
100
AcDbEntity
  8
SLD-0
  6
Continuous
 62
     7
100
AcDbCircle
 10
314.8673091988
 20
383.046877216
 30
0.0
 40
0.3000012457065212
100
AcDbArc
 50
90.0001937892
 51
180.0007319687
  0
ARC
  5
57B
330
1F
100
AcDbEntity
  8
SLD-0
  6
Continuous
 62
     7
100
AcDbCircle
 10
322.2673072609
 20
348.6468754688
 30
0.0
 40
0.3000008814103391
100
AcDbArc
 50
270.0000877923
 51
0.0008015637
  0
ARC
  5
57C
330
1F
100
AcDbEntity
  8
SLD-0
  6
Continuous
 62
     7
100
AcDbCircle
 10
322.2673068974
 20
383.0468772167
 30
0.0
 40
0.3000012449564819
100
AcDbArc
 50
359.9992678881
 51
89.9998427749
  0
INSERT
  5
57D
330
1F
100
AcDbEntity
  8
0
  6
Continuous
 62
     7
100
AcDbBlockReference
  2
SW_CENTERMARKSYMBOL_1
 10
318.5173079531
 20
512.446876161
 30
0.0
  0
INSERT
  5
57E
330
1F
100
AcDbEntity
  8
0
  6
Continuous
 62
     7
100
AcDbBlockReference
  2
SW_CENTERMARKSYMBOL_0
 10
318.5173079531
 20
291.446876161
 30
0.0
  0
INSERT
  5
57F
330
1F
100
AcDbEntity
  8
0
  6
Continuous
 62
     7
100
AcDbBlockReference
  2
SW_CENTERMARKSYMBOL_2
 10
318.5173079531
 20
320.446876161
 30
0.0
  0
DIMENSION
  5
580
330
1F
100
AcDbEntity
  8
SLD-0
 62
     7
100
AcDbDimension
  2
_D
 10
62.1832590145
 20
348.346876161
 30
0.0
 11
62.1832590145
 21
364.7109922601
 31
0.0
 70
   160
  1
<>
 71
     2
 42
-1.0
  3
SLDDIMSTYLE0
100
AcDbAlignedDimension
 13
94.2229575183
 23
383.346876161
 33
0.0
 14
94.2229575183
 24
348.346876161
 34
0.0
 50
90.0
100
AcDbRotatedDimension
  0
DIMENSION
  5
590
330
1F
100
AcDbEntity
  8
SLD-0
 62
     7
100
AcDbDimension
  2
_D_1
 10
199.1551285993
 20
495.446876161
 30
0.0
 11
199.1551285993
 21
507.2297632005
 31
0.0
 70
   160
  1
<>
 71
     2
 42
-1.0
  3
SLDDIMSTYLE0
100
AcDbAlignedDimension
 13
117.2229575183
 23
524.446876161
 33
0.0
 14
164.2229575183
 24
495.446876161
 34
0.0
 50
90.0
100
AcDbRotatedDimension
  0
DIMENSION
  5
59C
330
1F
100
AcDbEntity
  8
SLD-0
 62
     7
100
AcDbDimension
  2
_D_2
 10
199.10645857
 20
308.446876161
 30
0.0
 11
199.10645857
 21
436.0724027037
 31
0.0
 70
   160
  1
<>
 71
     2
 42
-1.0
  3
SLDDIMSTYLE0
100
AcDbAlignedDimension
 13
164.2229575183
 23
495.446876161
 33
0.0
 14
164.2229575183
 24
308.446876161
 34
0.0
 50
90.0
100
AcDbRotatedDimension
  0
DIMENSION
  5
5A6
330
1F
100
AcDbEntity
  8
SLD-0
 62
     7
100
AcDbDimension
  2
_D_3
 10
149.2229575183
 20
251.0829760404
 30
0.0
 11
156.6901874747
 21
251.0829760404
 31
0.0
 70
   160
  1
<>
 71
     2
 42
-1.0
  3
SLDDIMSTYLE0
100
AcDbAlignedDimension
 13
164.2229575183
 23
308.446876161
 33
0.0
 14
149.2229575183
 24
339.446876161
 34
0.0
100
AcDbRotatedDimension
  0
DIMENSION
  5
5B2
330
1F
100
AcDbEntity
  8
SLD-0
 62
     7
100
AcDbDimension
  2
_D_4
 10
114.2229575183
 20
250.9922560808
 30
0.0
 11
131.9977340757
 21
250.9922560808
 31
0.0
 70
   160
  1
<>
 71
     2
 42
-1.0
  3
SLDDIMSTYLE1
100
AcDbAlignedDimension
 13
149.2229575183
 23
339.446876161
 33
0.0
 14
114.2229575183
 24
279.446876161
 34
0.0
100
AcDbRotatedDimension
  0
DIMENSION
  5
5BC
330
1F
100
AcDbEntity
  8
SLD-0
 62
     7
100
AcDbDimension
  2
_D_5
 10
93.2229575183
 20
392.4423722978
 30
0.0
 11
104.3714995288
 21
392.4423722978
 31
0.0
 70
   160
  1
<>
 71
     2
 42
-1.0
  3
SLDDIMSTYLE0
100
AcDbAlignedDimension
 13
114.2229575183
 23
279.446876161
 33
0.0
 14
93.2229575183
 24
382.346876161
 34
0.0
100
AcDbRotatedDimension
  0
DIMENSION
  5
5C5
330
1F
100
AcDbEntity
  8
SLD-0
 62
     7
100
AcDbDimension
  2
_D_6
 10
181.9515885065
 20
339.446876161
 30
0.0
 11
181.9515885065
 21
323.8365373933
 31
0.0
 70
   160
  1
<>
 71
     2
 42
-1.0
  3
SLDDIMSTYLE0
100
AcDbAlignedDimension
 13
164.2229575183
 23
308.446876161
 33
0.0
 14
149.2229575183
 24
339.446876161
 34
0.0
 50
90.0
100
AcDbRotatedDimension
  0
DIMENSION
  5
5D1
330
1F
100
AcDbEntity
  8
SLD-0
 62
     7
100
AcDbDimension
  2
_D_7
 10
62.1832590145
 20
339.446876161
 30
0.0
 11
62.1832590145
 21
343.4076354503
 31
0.0
 70
   160
  1
<>
 71
     2
 42
-1.0
  3
SLDDIMSTYLE0
100
AcDbAlignedDimension
 13
94.2229575183
 23
348.346876161
 33
0.0
 14
149.2229575183
 24
339.446876161
 34
0.0
 50
90.0
100
AcDbRotatedDimension
  0
DIMENSION
  5
5DD
330
1F
100
AcDbEntity
  8
SLD-0
 62
     7
100
AcDbDimension
  2
_D_8
 10
114.2229575183
 20
436.0724027037
 30
0.0
 11
88.4826590335
 21
436.0724027037
 31
0.0
 70
   160
  1
<>-9mm
 71
     2
 42
-1.0
  3
SLDDIMSTYLE0
100
AcDbAlignedDimension
 13
105.5229575183
 23
468.446876161
 33
0.0
 14
114.2229575183
 24
524.446876161
 34
0.0
100
AcDbRotatedDimension
  0
DIMENSION
  5
5E8
330
1F
100
AcDbEntity
  8
SLD-0
 62
     7
100
AcDbDimension
  2
_D_9
 10
61.5102231965
 20
383.346876161
 30
0.0
 11
61.5102231965
 21
420.485010323
 31
0.0
 70
   160
  1
<>
 71
     2
 42
-1.0
  3
SLDDIMSTYLE0
100
AcDbAlignedDimension
 13
110.557273938
 23
450.546876161
 33
0.0
 14
94.2229575183
 24
383.346876161
 34
0.0
 50
90.0
100
AcDbRotatedDimension
  0
DIMENSION
  5
5F2
330
1F
100
AcDbEntity
  8
SLD-0
 62
     7
100
AcDbDimension
  2
_D_10
 10
61.4056268177
 20
480.346876161
 30
0.0
 11
61.4056268177
 21
466.1534938696
 31
0.0
 70
   160
  1
<>
 71
     2
 42
-1.0
  3
SLDDIMSTYLE0
100
AcDbAlignedDimension
 13
110.557273938
 23
450.546876161
 33
0.0
 14
110.557273938
 24
480.346876161
 34
0.0
 50
90.0
100
AcDbRotatedDimension
  0
DIMENSION
  5
5FC
330
1F
100
AcDbEntity
  8
SLD-0
 62
     7
100
AcDbDimension
  2
_D_11
 10
61.4056268177
 20
480.346876161
 30
0.0
 11
61.4056268177
 21
507.2297632005
 31
0.0
 70
   160
  1
<>
 71
     2
 42
-1.0
  3
SLDDIMSTYLE0
100
AcDbAlignedDimension
 13
114.2229575183
 23
524.446876161
 33
0.0
 14
110.557273938
 24
480.346876161
 34
0.0
 50
90.0
100
AcDbRotatedDimension
  0
DIMENSION
  5
606
330
1F
100
AcDbEntity
  8
SLD-0
 62
     7
100
AcDbDimension
  2
_D_12
 10
85.0440939061
 20
168.4567833151
 30
0.0
 11
134.908819789
 21
144.034233465
 31
0.0
 70
   162
  1
<>
 71
     1
 42
-1.0
  3
SLDDIMSTYLE2
100
AcDb2LineAngularDimension
 13
117.2229575183
 23
156.5067833151
 33
0.0
 14
117.2229575183
 24
180.5067833151
 34
0.0
 15
171.4830864682
 25
168.4567833151
 35
0.0
 16
139.7046739116
 26
145.9750669218
 36
0.0
  0
DIMENSION
  5
610
330
1F
100
AcDbEntity
  8
SLD-0
 62
     7
100
AcDbDimension
  2
_D_13
 10
177.0649893314
 20
174.9067833151
 30
0.0
 11
177.0649893314
 21
185.3697844294
 31
0.0
 70
   160
  1
<>
 71
     2
 42
-1.0
  3
SLDDIMSTYLE3
100
AcDbAlignedDimension
 13
164.2229575183
 23
176.4067833151
 33
0.0
 14
164.2229575183
 24
174.9067833151
 34
0.0
 50
90.0
100
AcDbRotatedDimension
  0
DIMENSION
  5
61D
330
1F
100
AcDbEntity
  8
SLD-0
 62
     7
100
AcDbDimension
  2
_D_14
 10
114.2229575183
 20
202.8350102181
 30
0.0
 11
127.9402523098
 21
202.8350102181
 31
0.0
 70
   160
  1
<>
 71
     2
 42
-1.0
  3
SLDDIMSTYLE0
100
AcDbAlignedDimension
 13
117.2229575183
 23
180.5067833151
 33
0.0
 14
114.2229575183
 24
180.5067833151
 34
0.0
100
AcDbRotatedDimension
  0
DIMENSION
  5
629
330
1F
100
AcDbEntity
  8
SLD-0
 62
     7
100
AcDbDimension
  2
_D_15
 10
198.9641783005
 20
176.7067833151
 30
0.0
 11
198.9641783005
 21
168.6030013469
 31
0.0
 70
   160
  1
<>
 71
     2
 42
-1.0
  3
SLDDIMSTYLE0
100
AcDbAlignedDimension
 13
150.8229575183
 23
160.7567833151
 33
0.0
 14
144.1411011735
 24
176.7067833151
 34
0.0
 50
90.0
100
AcDbRotatedDimension
  0
DIMENSION
  5
636
330
1F
100
AcDbEntity
  8
SLD-0
 62
     7
100
AcDbDimension
  2
_D_16
 10
375.2520877566
 20
279.446876161
 30
0.0
 11
375.2520877566
 21
406.1413169956
 31
0.0
 70
   160
  1
<>
 71
     2
 42
-1.0
  3
SLDDIMSTYLE0
100
AcDbAlignedDimension
 13
330.5173079531
 23
524.446876161
 33
0.0
 14
330.5173079531
 24
279.446876161
 34
0.0
 50
90.0
100
AcDbRotatedDimension
  0
DIMENSION
  5
640
330
1F
100
AcDbEntity
  8
SLD-0
 62
     7
100
AcDbDimension
  2
_D_17
 10
306.5173079531
 20
250.9230629216
 30
0.0
 11
363.4410389034
 21
250.9230629216
 31
0.0
 70
   160
  1
16/20/22/24
 71
     2
 42
-1.0
  3
SLDDIMSTYLE0
100
AcDbAlignedDimension
 13
330.5173079531
 23
279.446876161
 33
0.0
 14
306.5173079531
 24
279.446876161
 34
0.0
100
AcDbRotatedDimension
  0
DIMENSION
  5
64B
330
1F
100
AcDbEntity
  8
SLD-0
 62
     7
100
AcDbDimension
  2
_D_18
 10
354.1543933965
 20
512.446876161
 30
0.0
 11
354.1543933965
 21
406.1413169956
 31
0.0
 70
   160
  1
<>
 71
     2
 42
-1.0
  3
SLDDIMSTYLE0
100
AcDbAlignedDimension
 13
318.5173079531
 23
291.446876161
 33
0.0
 14
318.5173079531
 24
512.446876161
 34
0.0
 50
90.0
100
AcDbRotatedDimension
  0
DIMENSION
  5
655
330
1F
100
AcDbEntity
  8
SLD-0
 62
     7
100
AcDbDimension
  2
_D_19
 10
354.0992739234
 20
512.446876161
 30
0.0
 11
354.0992739234
 21
518.3878848257
 31
0.0
 70
   160
  1
<>
 71
     2
 42
-1.0
  3
SLDDIMSTYLE0
100
AcDbAlignedDimension
 13
329.5173079531
 23
524.446876161
 33
0.0
 14
318.5173079531
 24
512.446876161
 34
0.0
 50
90.0
100
AcDbRotatedDimension
  0
DIMENSION
  5
661
330
1F
100
AcDbEntity
  8
SLD-0
 62
     7
100
AcDbDimension
  2
_D_20
 10
314.5673079531
 20
362.8293957205
 30
0.0
 11
291.0863872518
 21
362.8293957205
 31
0.0
 70
   160
  1
<>
 71
     2
 42
-1.0
  3
SLDDIMSTYLE0
100
AcDbAlignedDimension
 13
322.5673079531
 23
348.646876161
 33
0.0
 14
314.5673079531
 24
348.646876161
 34
0.0
100
AcDbRotatedDimension
  0
DIMENSION
  5
66B
330
1F
100
AcDbEntity
  8
SLD-0
 62
     7
100
AcDbDimension
  2
_D_21
 10
312.8173079531
 20
486.9985369473
 30
0.0
 11
290.012041424
 21
486.9985369473
 31
0.0
 70
   160
  1
<>
 71
     2
 42
-1.0
  3
SLDDIMSTYLE3
100
AcDbAlignedDimension
 13
324.2173079531
 23
468.446876161
 33
0.0
 14
312.8173079531
 24
468.446876161
 34
0.0
100
AcDbRotatedDimension
  0
MTEXT
  5
677
330
1F
100
AcDbEntity
  8
SLD-0
 62
     7
100
AcDbMText
 10
120.679366453
 20
236.4072470403
 30
0.0
 40
7.0
 41
0.0
 71
     1
 72
     1
  1
Dm 35 gezeichnet
  7
SLDTEXTSTYLE2
 73
     1
 44
1.0
  0
MTEXT
  5
679
330
1F
100
AcDbEntity
  8
SLD-0
 62
     7
100
AcDbMText
 10
244.0234182129
 20
163.8432266853
 30
0.0
 40
7.0
 41
0.0
 71
     1
 72
     1
  1
Dornmaße: 25, 30, 35, 40, 45, 50
  7
SLDTEXTSTYLE3
 73
     1
 44
1.0
  0
MTEXT
  5
67B
330
1F
100
AcDbEntity
  8
SLD-0
 62
     7
100
AcDbMText
 10
71.4272014026
 20
434.5505344771
 30
0.0
 40
5.2916666667
 41
0.0
 71
     1
 72
     1
  1
verstellbar
  7
SLDTEXTSTYLE4
 73
     1
 44
1.0
  0
MTEXT
  5
67C
330
1F
100
AcDbEntity
  8
SLD-0
 62
     7
100
AcDbMText
 10
116.7894458498
 20
259.8727473368
 30
0.0
 40
5.2916666667
 41
0.0
 71
     1
 72
     1
  1
Dornmaß
  7
SLDTEXTSTYLE4
 73
     1
 44
1.0
  0
ENDSEC
  0
SECTION
  2
OBJECTS
  0
DICTIONARY
  5
C
330
0
100
AcDbDictionary
281
     1
  3
ACAD_GROUP
350
D
  3
ACAD_LAYOUT
350
1A
  3
ACAD_MLINESTYLE
350
17
  3
ACAD_PLOTSETTINGS
350
19
  3
ACAD_PLOTSTYLENAME
350
E
  3
ACAD_SCALELIST
350
47
  0
DICTIONARY
  5
D
102
{ACAD_REACTORS
330
C
102
}
330
C
100
AcDbDictionary
281
     1
  0
DICTIONARY
  5
1A
102
{ACAD_REACTORS
330
C
102
}
330
C
100
AcDbDictionary
281
     1
  3
Layout1
350
1E
  3
Layout2
350
26
  3
Model
350
22
  0
DICTIONARY
  5
17
102
{ACAD_REACTORS
330
C
102
}
330
C
100
AcDbDictionary
281
     1
  3
Standard
350
18
  0
DICTIONARY
  5
19
102
{ACAD_REACTORS
330
C
102
}
330
C
100
AcDbDictionary
281
     1
  0
ACDBDICTIONARYWDFLT
  5
E
102
{ACAD_REACTORS
330
C
102
}
330
C
100
AcDbDictionary
281
     1
  3
Normal
350
F
100
AcDbDictionaryWithDefault
340
F
  0
DICTIONARY
  5
47
102
{ACAD_REACTORS
330
C
102
}
330
C
100
AcDbDictionary
281
     1
  3
A0
350
48
  3
A1
350
49
  3
A2
350
4A
  3
A3
350
4B
  3
A4
350
4C
  3
A5
350
4D
  3
A6
350
4E
  3
A7
350
4F
  3
A8
350
50
  3
A9
350
51
  3
B0
350
52
  3
B1
350
53
  3
B2
350
54
  3
B3
350
55
  3
B4
350
56
  3
B5
350
57
  3
B6
350
58
  3
B7
350
59
  3
B8
350
5A
  3
B9
350
5B
  3
C0
350
5C
  3
C1
350
5D
  3
C2
350
5E
  3
C3
350
5F
  3
C4
350
60
  3
C5
350
61
  3
C6
350
62
  3
C7
350
63
  3
C8
350
64
  3
C9
350
65
  3
D0
350
66
  3
D1
350
67
  3
D2
350
68
  0
LAYOUT
  5
1E
102
{ACAD_REACTORS
330
1A
102
}
330
1A
100
AcDbPlotSettings
  1

  2
none_device
  4

  6

 40
0.0
 41
0.0
 42
0.0
 43
0.0
 44
0.0
 45
0.0
 46
0.0
 47
0.0
 48
0.0
 49
0.0
140
0.0
141
0.0
142
1.0
143
1.0
 70
   688
 72
     1
 73
     0
 74
     5
  7

 75
    16
147
1.0
148
0.0
149
0.0
100
AcDbLayout
  1
Layout1
 70
     1
 71
     1
 10
0.0
 20
0.0
 11
420.0
 21
297.0
 12
0.0
 22
0.0
 32
0.0
 14
1.0000000000E+20
 24
1.0000000000E+20
 34
1.0000000000E+20
 15
-1.0000000000E+20
 25
-1.0000000000E+20
 35
-1.0000000000E+20
146
0.0
 13
0.0
 23
0.0
 33
0.0
 16
1.0
 26
0.0
 36
0.0
 17
0.0
 27
1.0
 37
0.0
 76
     0
330
1B
  0
LAYOUT
  5
26
102
{ACAD_REACTORS
330
1A
102
}
330
1A
100
AcDbPlotSettings
  1

  2
none_device
  4

  6

 40
0.0
 41
0.0
 42
0.0
 43
0.0
 44
0.0
 45
0.0
 46
0.0
 47
0.0
 48
0.0
 49
0.0
140
0.0
141
0.0
142
1.0
143
1.0
 70
   688
 72
     1
 73
     0
 74
     5
  7

 75
    16
147
1.0
148
0.0
149
0.0
100
AcDbLayout
  1
Layout2
 70
     1
 71
     2
 10
0.0
 20
0.0
 11
0.0
 21
0.0
 12
0.0
 22
0.0
 32
0.0
 14
0.0
 24
0.0
 34
0.0
 15
0.0
 25
0.0
 35
0.0
146
0.0
 13
0.0
 23
0.0
 33
0.0
 16
1.0
 26
0.0
 36
0.0
 17
0.0
 27
1.0
 37
0.0
 76
     0
330
23
  0
LAYOUT
  5
22
102
{ACAD_REACTORS
330
1A
102
}
330
1A
100
AcDbPlotSettings
  1

  2
none_device
  4
Letter_(8.50_x_11.00_Inches)
  6

 40
6.35
 41
6.35
 42
6.35000508
 43
6.35000508
 44
215.9
 45
279.4
 46
0.0
 47
0.0
 48
0.0
 49
0.0
140
0.0
141
0.0
142
1.0
143
1.0
 70
  1712
 72
     1
 73
     0
 74
     0
  7

 75
     0
147
1.0
148
0.0
149
0.0
100
AcDbLayout
  1
Model
 70
     1
 71
     0
 10
0.0
 20
0.0
 11
841.0
 21
594.0
 12
0.0
 22
0.0
 32
0.0
 14
0.0
 24
0.0
 34
0.0
 15
841.0
 25
594.0
 35
0.0
146
0.0
 13
0.0
 23
0.0
 33
0.0
 16
1.0
 26
0.0
 36
0.0
 17
0.0
 27
1.0
 37
0.0
 76
     0
330
1F
331
29
  0
MLINESTYLE
  5
18
102
{ACAD_REACTORS
330
17
102
}
330
17
100
AcDbMlineStyle
  2
Standard
 70
     0
  3

 62
   256
 51
90.0
 52
90.0
 71
     2
 49
0.5
 62
   256
  6
BYLAYER
 49
-0.5
 62
   256
  6
BYLAYER
  0
ACDBPLACEHOLDER
  5
F
102
{ACAD_REACTORS
330
E
102
}
330
E
  0
SCALE
  5
48
102
{ACAD_REACTORS
330
47
102
}
330
47
100
AcDbScale
 70
     0
300
1:1
140
1.0
141
1.0
290
     1
  0
SCALE
  5
49
102
{ACAD_REACTORS
330
47
102
}
330
47
100
AcDbScale
 70
     0
300
1:2
140
1.0
141
2.0
290
     0
  0
SCALE
  5
4A
102
{ACAD_REACTORS
330
47
102
}
330
47
100
AcDbScale
 70
     0
300
1:4
140
1.0
141
4.0
290
     0
  0
SCALE
  5
4B
102
{ACAD_REACTORS
330
47
102
}
330
47
100
AcDbScale
 70
     0
300
1:5
140
1.0
141
5.0
290
     0
  0
SCALE
  5
4C
102
{ACAD_REACTORS
330
47
102
}
330
47
100
AcDbScale
 70
     0
300
1:8
140
1.0
141
8.0
290
     0
  0
SCALE
  5
4D
102
{ACAD_REACTORS
330
47
102
}
330
47
100
AcDbScale
 70
     0
300
1:10
140
1.0
141
10.0
290
     0
  0
SCALE
  5
4E
102
{ACAD_REACTORS
330
47
102
}
330
47
100
AcDbScale
 70
     0
300
1:16
140
1.0
141
16.0
290
     0
  0
SCALE
  5
4F
102
{ACAD_REACTORS
330
47
102
}
330
47
100
AcDbScale
 70
     0
300
1:20
140
1.0
141
20.0
290
     0
  0
SCALE
  5
50
102
{ACAD_REACTORS
330
47
102
}
330
47
100
AcDbScale
 70
     0
300
1:30
140
1.0
141
30.0
290
     0
  0
SCALE
  5
51
102
{ACAD_REACTORS
330
47
102
}
330
47
100
AcDbScale
 70
     0
300
1:40
140
1.0
141
40.0
290
     0
  0
SCALE
  5
52
102
{ACAD_REACTORS
330
47
102
}
330
47
100
AcDbScale
 70
     0
300
1:50
140
1.0
141
50.0
290
     0
  0
SCALE
  5
53
102
{ACAD_REACTORS
330
47
102
}
330
47
100
AcDbScale
 70
     0
300
1:100
140
1.0
141
100.0
290
     0
  0
SCALE
  5
54
102
{ACAD_REACTORS
330
47
102
}
330
47
100
AcDbScale
 70
     0
300
2:1
140
2.0
141
1.0
290
     0
  0
SCALE
  5
55
102
{ACAD_REACTORS
330
47
102
}
330
47
100
AcDbScale
 70
     0
300
4:1
140
4.0
141
1.0
290
     0
  0
SCALE
  5
56
102
{ACAD_REACTORS
330
47
102
}
330
47
100
AcDbScale
 70
     0
300
8:1
140
8.0
141
1.0
290
     0
  0
SCALE
  5
57
102
{ACAD_REACTORS
330
47
102
}
330
47
100
AcDbScale
 70
     0
300
10:1
140
10.0
141
1.0
290
     0
  0
SCALE
  5
58
102
{ACAD_REACTORS
330
47
102
}
330
47
100
AcDbScale
 70
     0
300
100:1
140
100.0
141
1.0
290
     0
  0
SCALE
  5
59
102
{ACAD_REACTORS
330
47
102
}
330
47
100
AcDbScale
 70
     0
300
1/128" = 1'-0"
140
0.0078125
141
12.0
290
     0
  0
SCALE
  5
5A
102
{ACAD_REACTORS
330
47
102
}
330
47
100
AcDbScale
 70
     0
300
1/64" = 1'-0"
140
0.015625
141
12.0
290
     0
  0
SCALE
  5
5B
102
{ACAD_REACTORS
330
47
102
}
330
47
100
AcDbScale
 70
     0
300
1/32" = 1'-0"
140
0.03125
141
12.0
290
     0
  0
SCALE
  5
5C
102
{ACAD_REACTORS
330
47
102
}
330
47
100
AcDbScale
 70
     0
300
1/16" = 1'-0"
140
0.0625
141
12.0
290
     0
  0
SCALE
  5
5D
102
{ACAD_REACTORS
330
47
102
}
330
47
100
AcDbScale
 70
     0
300
3/32" = 1'-0"
140
0.09375
141
12.0
290
     0
  0
SCALE
  5
5E
102
{ACAD_REACTORS
330
47
102
}
330
47
100
AcDbScale
 70
     0
300
1/8" = 1'-0"
140
0.125
141
12.0
290
     0
  0
SCALE
  5
5F
102
{ACAD_REACTORS
330
47
102
}
330
47
100
AcDbScale
 70
     0
300
3/16" = 1'-0"
140
0.1875
141
12.0
290
     0
  0
SCALE
  5
60
102
{ACAD_REACTORS
330
47
102
}
330
47
100
AcDbScale
 70
     0
300
1/4" = 1'-0"
140
0.25
141
12.0
290
     0
  0
SCALE
  5
61
102
{ACAD_REACTORS
330
47
102
}
330
47
100
AcDbScale
 70
     0
300
3/8" = 1'-0"
140
0.375
141
12.0
290
     0
  0
SCALE
  5
62
102
{ACAD_REACTORS
330
47
102
}
330
47
100
AcDbScale
 70
     0
300
1/2" = 1'-0"
140
0.5
141
12.0
290
     0
  0
SCALE
  5
63
102
{ACAD_REACTORS
330
47
102
}
330
47
100
AcDbScale
 70
     0
300
3/4" = 1'-0"
140
0.75
141
12.0
290
     0
  0
SCALE
  5
64
102
{ACAD_REACTORS
330
47
102
}
330
47
100
AcDbScale
 70
     0
300
1" = 1'-0"
140
1.0
141
12.0
290
     0
  0
SCALE
  5
65
102
{ACAD_REACTORS
330
47
102
}
330
47
100
AcDbScale
 70
     0
300
1-1/2" = 1'-0"
140
1.5
141
12.0
290
     0
  0
SCALE
  5
66
102
{ACAD_REACTORS
330
47
102
}
330
47
100
AcDbScale
 70
     0
300
3" = 1'-0"
140
3.0
141
12.0
290
     0
  0
SCALE
  5
67
102
{ACAD_REACTORS
330
47
102
}
330
47
100
AcDbScale
 70
     0
300
6" = 1'-0"
140
6.0
141
12.0
290
     0
  0
SCALE
  5
68
102
{ACAD_REACTORS
330
47
102
}
330
47
100
AcDbScale
 70
     0
300
1'-0" = 1'-0"
140
12.0
141
12.0
290
     0
  0
ENDSEC
  0
EOF
