  0
SECTION
  2
HEADER
  9
$ACADVER
  1
AC1015
  9
$ACADMAINTVER
 70
     6
  9
$DWGCODEPAGE
  3
ANSI_1252
  9
$INSBASE
 10
0.0
 20
0.0
 30
0.0
  9
$EXTMIN
 10
0.0
 20
0.0
 30
0.0
  9
$EXTMAX
 10
841.0
 20
594.0
 30
0.0
  9
$LIMMIN
 10
0.0
 20
0.0
  9
$LIMMAX
 10
841.0
 20
594.0
  9
$ORTHOMODE
 70
     0
  9
$REGENMODE
 70
     1
  9
$FILLMODE
 70
     1
  9
$QTEXTMODE
 70
     0
  9
$MIRRTEXT
 70
     1
  9
$LTSCALE
 40
1.0
  9
$ATTMODE
 70
     1
  9
$TEXTSIZE
 40
3.5
  9
$TRACEWID
 40
1.0
  9
$TEXTSTYLE
  7
Standard
  9
$CLAYER
  8
0
  9
$CELTYPE
  6
ByLayer
  9
$CECOLOR
 62
   256
  9
$CELTSCALE
 40
1.0
  9
$DISPSILH
 70
     0
  9
$DIMSCALE
 40
1.0
  9
$DIMASZ
 40
3.302
  9
$DIMEXO
 40
1.0
  9
$DIMDLI
 40
3.75
  9
$DIMRND
 40
0.0
  9
$DIMDLE
 40
0.0
  9
$DIMEXE
 40
1.0
  9
$DIMTP
 40
0.0
  9
$DIMTM
 40
0.0
  9
$DIMTXT
 40
3.5
  9
$DIMCEN
 40
2.5
  9
$DIMTSZ
 40
0.0
  9
$DIMTOL
 70
     0
  9
$DIMLIM
 70
     0
  9
$DIMTIH
 70
     1
  9
$DIMTOH
 70
     1
  9
$DIMSE1
 70
     0
  9
$DIMSE2
 70
     0
  9
$DIMTAD
 70
     1
  9
$DIMZIN
 70
     1
  9
$DIMBLK
  1

  9
$DIMASO
 70
     1
  9
$DIMSHO
 70
     1
  9
$DIMPOST
  1

  9
$DIMAPOST
  1

  9
$DIMALT
 70
     0
  9
$DIMALTD
 70
     3
  9
$DIMALTF
 40
0.0393700787
  9
$DIMLFAC
 40
1.0
  9
$DIMTOFL
 70
     1
  9
$DIMTVP
 40
0.0
  9
$DIMTIX
 70
     0
  9
$DIMSOXD
 70
     0
  9
$DIMSAH
 70
     0
  9
$DIMBLK1
  1

  9
$DIMBLK2
  1

  9
$DIMSTYLE
  2
ISO-25
  9
$DIMCLRD
 70
     0
  9
$DIMCLRE
 70
     0
  9
$DIMCLRT
 70
     0
  9
$DIMTFAC
 40
1.0
  9
$DIMGAP
 40
1.524
  9
$DIMJUST
 70
     0
  9
$DIMSD1
 70
     0
  9
$DIMSD2
 70
     0
  9
$DIMTOLJ
 70
     0
  9
$DIMTZIN
 70
     1
  9
$DIMALTZ
 70
     0
  9
$DIMALTTZ
 70
     0
  9
$DIMUPT
 70
     0
  9
$DIMDEC
 70
     0
  9
$DIMTDEC
 70
     2
  9
$DIMALTU
 70
     2
  9
$DIMALTTD
 70
     3
  9
$DIMTXSTY
  7
Standard
  9
$DIMAUNIT
 70
     0
  9
$DIMADEC
 70
     0
  9
$DIMALTRND
 40
0.0
  9
$DIMAZIN
 70
     0
  9
$DIMDSEP
 70
    44
  9
$DIMATFIT
 70
     3
  9
$DIMFRAC
 70
     0
  9
$DIMLDRBLK
  1

  9
$DIMLUNIT
 70
     2
  9
$DIMLWD
 70
    -2
  9
$DIMLWE
 70
    -2
  9
$DIMTMOVE
 70
     0
  9
$LUNITS
 70
     2
  9
$LUPREC
 70
     2
  9
$SKETCHINC
 40
1.0
  9
$FILLETRAD
 40
10.0
  9
$AUNITS
 70
     0
  9
$AUPREC
 70
     2
  9
$MENU
  1
.
  9
$ELEVATION
 40
0.0
  9
$PELEVATION
 40
0.0
  9
$THICKNESS
 40
0.0
  9
$LIMCHECK
 70
     0
  9
$CHAMFERA
 40
0.0
  9
$CHAMFERB
 40
0.0
  9
$CHAMFERC
 40
0.0
  9
$CHAMFERD
 40
0.0
  9
$SKPOLY
 70
     0
  9
$TDCREATE
 40
2459261.641495266
  9
$TDUCREATE
 40
2459261.599828599
  9
$TDUPDATE
 40
2459261.641496389
  9
$TDUUPDATE
 40
2459261.599829722
  9
$TDINDWG
 40
0.0000000116
  9
$TDUSRTIMER
 40
0.0000000116
  9
$USRTIMER
 70
     1
  9
$ANGBASE
 50
0.0
  9
$ANGDIR
 70
     0
  9
$PDMODE
 70
     0
  9
$PDSIZE
 40
-1.0
  9
$PLINEWID
 40
0.0
  9
$SPLFRAME
 70
     0
  9
$SPLINETYPE
 70
     6
  9
$SPLINESEGS
 70
     8
  9
$HANDSEED
  5
233
  9
$SURFTAB1
 70
     6
  9
$SURFTAB2
 70
     6
  9
$SURFTYPE
 70
     6
  9
$SURFU
 70
     6
  9
$SURFV
 70
     6
  9
$UCSBASE
  2

  9
$UCSNAME
  2

  9
$UCSORG
 10
0.0
 20
0.0
 30
0.0
  9
$UCSXDIR
 10
1.0
 20
0.0
 30
0.0
  9
$UCSYDIR
 10
0.0
 20
1.0
 30
0.0
  9
$UCSORTHOREF
  2

  9
$UCSORTHOVIEW
 70
     0
  9
$UCSORGTOP
 10
0.0
 20
0.0
 30
0.0
  9
$UCSORGBOTTOM
 10
0.0
 20
0.0
 30
0.0
  9
$UCSORGLEFT
 10
0.0
 20
0.0
 30
0.0
  9
$UCSORGRIGHT
 10
0.0
 20
0.0
 30
0.0
  9
$UCSORGFRONT
 10
0.0
 20
0.0
 30
0.0
  9
$UCSORGBACK
 10
0.0
 20
0.0
 30
0.0
  9
$PUCSBASE
  2

  9
$PUCSNAME
  2

  9
$PUCSORG
 10
0.0
 20
0.0
 30
0.0
  9
$PUCSXDIR
 10
1.0
 20
0.0
 30
0.0
  9
$PUCSYDIR
 10
0.0
 20
1.0
 30
0.0
  9
$PUCSORTHOREF
  2

  9
$PUCSORTHOVIEW
 70
     0
  9
$PUCSORGTOP
 10
0.0
 20
0.0
 30
0.0
  9
$PUCSORGBOTTOM
 10
0.0
 20
0.0
 30
0.0
  9
$PUCSORGLEFT
 10
0.0
 20
0.0
 30
0.0
  9
$PUCSORGRIGHT
 10
0.0
 20
0.0
 30
0.0
  9
$PUCSORGFRONT
 10
0.0
 20
0.0
 30
0.0
  9
$PUCSORGBACK
 10
0.0
 20
0.0
 30
0.0
  9
$USERI1
 70
     0
  9
$USERI2
 70
     0
  9
$USERI3
 70
     0
  9
$USERI4
 70
     0
  9
$USERI5
 70
     0
  9
$USERR1
 40
0.0
  9
$USERR2
 40
0.0
  9
$USERR3
 40
0.0
  9
$USERR4
 40
0.0
  9
$USERR5
 40
0.0
  9
$WORLDVIEW
 70
     1
  9
$SHADEDGE
 70
     3
  9
$SHADEDIF
 70
    70
  9
$TILEMODE
 70
     1
  9
$MAXACTVP
 70
    64
  9
$PINSBASE
 10
0.0
 20
0.0
 30
0.0
  9
$PLIMCHECK
 70
     0
  9
$PEXTMIN
 10
1.0000000000E+20
 20
1.0000000000E+20
 30
1.0000000000E+20
  9
$PEXTMAX
 10
-1.0000000000E+20
 20
-1.0000000000E+20
 30
-1.0000000000E+20
  9
$PLIMMIN
 10
0.0
 20
0.0
  9
$PLIMMAX
 10
420.0
 20
297.0
  9
$UNITMODE
 70
     0
  9
$VISRETAIN
 70
     1
  9
$PLINEGEN
 70
     0
  9
$PSLTSCALE
 70
     1
  9
$TREEDEPTH
 70
  3020
  9
$CMLSTYLE
  2
Standard
  9
$CMLJUST
 70
     0
  9
$CMLSCALE
 40
20.0
  9
$PROXYGRAPHICS
 70
     1
  9
$MEASUREMENT
 70
     1
  9
$CELWEIGHT
370
    -1
  9
$ENDCAPS
280
     0
  9
$JOINSTYLE
280
     0
  9
$LWDISPLAY
290
     1
  9
$INSUNITS
 70
     4
  9
$HYPERLINKBASE
  1

  9
$STYLESHEET
  1

  9
$XEDIT
290
     1
  9
$CEPSNTYPE
380
     0
  9
$PSTYLEMODE
290
     1
  9
$FINGERPRINTGUID
  2
{505f47f1-8089-4a1a-9807-f37325e686d8}
  9
$VERSIONGUID
  2
{FAEB1C32-E019-11D5-929B-00C0DF256EC4}
  9
$EXTNAMES
290
     1
  9
$PSVPSCALE
 40
0.0
  9
$OLESTARTUP
290
     0
  0
ENDSEC
  0
SECTION
  2
CLASSES
  0
CLASS
  1
ACDBDICTIONARYWDFLT
  2
AcDbDictionaryWithDefault
  3
ObjectDBX Classes
 90
        0
280
     0
281
     0
  0
CLASS
  1
VISUALSTYLE
  2
AcDbVisualStyle
  3
ObjectDBX Classes
 90
     4095
280
     0
281
     0
  0
CLASS
  1
MATERIAL
  2
AcDbMaterial
  3
ObjectDBX Classes
 90
     1153
280
     0
281
     0
  0
CLASS
  1
SCALE
  2
AcDbScale
  3
ObjectDBX Classes
 90
     1153
280
     0
281
     0
  0
CLASS
  1
TABLESTYLE
  2
AcDbTableStyle
  3
ObjectDBX Classes
 90
     4095
280
     0
281
     0
  0
CLASS
  1
MLEADERSTYLE
  2
AcDbMLeaderStyle
  3
ACDB_MLEADERSTYLE_CLASS
 90
     4095
280
     0
281
     0
  0
CLASS
  1
SUN
  2
AcDbSun
  3
SCENEOE
 90
     1153
280
     0
281
     0
  0
CLASS
  1
ACDBPLACEHOLDER
  2
AcDbPlaceHolder
  3
ObjectDBX Classes
 90
        0
280
     0
281
     0
  0
CLASS
  1
LAYOUT
  2
AcDbLayout
  3
ObjectDBX Classes
 90
        0
280
     0
281
     0
  0
ENDSEC
  0
SECTION
  2
TABLES
  0
TABLE
  2
VPORT
  5
8
330
0
100
AcDbSymbolTable
 70
     1
  0
VPORT
  5
29
330
8
100
AcDbSymbolTableRecord
100
AcDbViewportTableRecord
  2
*Active
 70
     0
 10
0.0
 20
0.0
 11
1.0
 21
1.0
 12
420.5
 22
297.0
 13
0.0
 23
0.0
 14
10.0
 24
10.0
 15
10.0
 25
10.0
 16
0.0
 26
0.0
 36
1.0
 17
0.0
 27
0.0
 37
0.0
 40
594.0
 41
1.4158249158
 42
50.0
 43
0.0
 44
0.0
 50
0.0
 51
0.0
 71
     0
 72
  2000
 73
     1
 74
     3
 75
     0
 76
     0
 77
     0
 78
     0
281
     0
 65
     1
110
0.0
120
0.0
130
0.0
111
1.0
121
0.0
131
0.0
112
0.0
122
1.0
132
0.0
 79
     0
146
0.0
  0
ENDTAB
  0
TABLE
  2
LTYPE
  5
5
330
0
100
AcDbSymbolTable
 70
     6
  0
LTYPE
  5
14
330
5
100
AcDbSymbolTableRecord
100
AcDbLinetypeTableRecord
  2
ByBlock
 70
     0
  3

 72
    65
 73
     0
 40
0.0
  0
LTYPE
  5
15
330
5
100
AcDbSymbolTableRecord
100
AcDbLinetypeTableRecord
  2
ByLayer
 70
     0
  3

 72
    65
 73
     0
 40
0.0
  0
LTYPE
  5
16
330
5
100
AcDbSymbolTableRecord
100
AcDbLinetypeTableRecord
  2
Continuous
 70
     0
  3
Solid line
 72
    65
 73
     0
 40
0.0
  0
LTYPE
  5
6E
330
5
100
AcDbSymbolTableRecord
100
AcDbLinetypeTableRecord
  2
HIDDEN
 70
     0
  3
Hidden __ __ __ __ __ __ __ __ __ __ __ __ __ __
 72
    65
 73
     2
 40
1.905
 49
1.27
 74
     0
 49
-0.635
 74
     0
  0
LTYPE
  5
6F
330
5
100
AcDbSymbolTableRecord
100
AcDbLinetypeTableRecord
  2
PHANTOM
 70
     0
  3
Phantom ______  __  __  ______  __  __  ______
 72
    65
 73
     6
 40
12.7
 49
6.35
 74
     0
 49
-1.27
 74
     0
 49
1.27
 74
     0
 49
-1.27
 74
     0
 49
1.27
 74
     0
 49
-1.27
 74
     0
  0
LTYPE
  5
70
330
5
100
AcDbSymbolTableRecord
100
AcDbLinetypeTableRecord
  2
CENTER
 70
     0
  3
Center ____ _ ____ _ ____ _ ____ _ ____ _ ____
 72
    65
 73
     4
 40
10.16
 49
6.35
 74
     0
 49
-1.27
 74
     0
 49
1.27
 74
     0
 49
-1.27
 74
     0
  0
LTYPE
  5
71
330
5
100
AcDbSymbolTableRecord
100
AcDbLinetypeTableRecord
  2
CENTERX2
 70
     0
  3
Center (2x) ________  __  ________  __  _____
 72
    65
 73
     4
 40
20.32
 49
12.7
 74
     0
 49
-2.54
 74
     0
 49
2.54
 74
     0
 49
-2.54
 74
     0
  0
LTYPE
  5
72
330
5
100
AcDbSymbolTableRecord
100
AcDbLinetypeTableRecord
  2
DOT2
 70
     0
  3
Dot (.5x) ........................................
 72
    65
 73
     2
 40
0.635
 49
0.0
 74
     0
 49
-0.635
 74
     0
  0
ENDTAB
  0
TABLE
  2
LAYER
  5
2
330
0
100
AcDbSymbolTable
 70
     4
  0
LAYER
  5
10
330
2
100
AcDbSymbolTableRecord
100
AcDbLayerTableRecord
  2
0
 70
     0
 62
     7
  6
Continuous
370
    -3
390
F
  0
LAYER
  5
73
330
2
100
AcDbSymbolTableRecord
100
AcDbLayerTableRecord
  2
SLD-0
 70
     0
 62
   179
  6
Continuous
370
    -3
390
F
  0
LAYER
  5
74
330
2
100
AcDbSymbolTableRecord
100
AcDbLayerTableRecord
  2
BEM
 70
     0
 62
     2
  6
Continuous
370
    -3
390
F
  0
LAYER
  5
75
330
2
100
AcDbSymbolTableRecord
100
AcDbLayerTableRecord
  2
FORMAT
 70
     0
 62
   179
  6
Continuous
370
    -3
390
F
  0
ENDTAB
  0
TABLE
  2
STYLE
  5
3
330
0
100
AcDbSymbolTable
 70
     3
  0
STYLE
  5
11
330
3
100
AcDbSymbolTableRecord
100
AcDbTextStyleTableRecord
  2
Standard
 70
     0
 40
0.0
 41
1.0
 50
0.0
 71
     0
 42
3.5
  3
txt
  4

  0
STYLE
  5
1A3
330
3
100
AcDbSymbolTableRecord
100
AcDbTextStyleTableRecord
  2
SLDTEXTSTYLE0
 70
     0
 40
0.0
 41
1.0
 50
0.0
 71
     0
 42
3.5
  3
TXT
  4

  0
STYLE
  5
1B0
330
3
100
AcDbSymbolTableRecord
100
AcDbTextStyleTableRecord
  2
SLDTEXTSTYLE1
 70
     0
 40
0.0
 41
0.96
 50
0.0
 71
     0
 42
3.5
  3
TXT
  4

  0
ENDTAB
  0
TABLE
  2
VIEW
  5
6
330
0
100
AcDbSymbolTable
 70
     0
  0
ENDTAB
  0
TABLE
  2
UCS
  5
7
330
0
100
AcDbSymbolTable
 70
     0
  0
ENDTAB
  0
TABLE
  2
APPID
  5
9
330
0
100
AcDbSymbolTable
 70
     1
  0
APPID
  5
12
330
9
100
AcDbSymbolTableRecord
100
AcDbRegAppTableRecord
  2
ACAD
 70
     0
  0
ENDTAB
  0
TABLE
  2
DIMSTYLE
  5
A
330
0
100
AcDbSymbolTable
 70
     5
100
AcDbDimStyleTable
  0
DIMSTYLE
105
27
330
A
100
AcDbSymbolTableRecord
100
AcDbDimStyleTableRecord
  2
ISO-25
 70
     0
 41
2.5
 42
0.625
 43
3.75
 44
1.25
 73
     0
 74
     0
 77
     1
 78
     8
140
2.5
141
2.5
143
0.0393700787
147
0.625
171
     3
172
     1
178
     0
271
     2
272
     2
274
     3
278
    44
283
     0
284
     8
340
11
  0
DIMSTYLE
105
1A4
102
{ACAD_REACTORS
330
1A2
102
}
330
A
100
AcDbSymbolTableRecord
100
AcDbDimStyleTableRecord
  2
SLDDIMSTYLE0
 70
     0
 41
3.302
 44
0.0
 45
0.000000001
 73
     0
 74
     0
 77
     1
 78
    12
 79
     3
140
7.0
147
1.75
172
     1
173
     1
178
     0
271
     1
276
     2
284
    12
289
     0
340
1A3
341
1A5
343
1A5
344
1A5
  0
DIMSTYLE
105
1B5
102
{ACAD_REACTORS
330
1B4
330
1D5
330
1E1
330
1EA
330
1F4
330
200
330
214
330
21E
102
}
330
A
100
AcDbSymbolTableRecord
100
AcDbDimStyleTableRecord
  2
SLDDIMSTYLE1
 70
     0
 41
3.302
 44
0.0
 45
0.000000001
 73
     0
 74
     0
 77
     1
 78
    12
 79
     3
140
7.0
147
1.75
173
     1
178
     0
271
     0
276
     2
284
    12
340
1A3
341
1A5
343
1A5
344
1A5
  0
DIMSTYLE
105
1C0
102
{ACAD_REACTORS
330
1BF
330
20A
330
228
102
}
330
A
100
AcDbSymbolTableRecord
100
AcDbDimStyleTableRecord
  2
SLDDIMSTYLE2
 70
     0
 41
3.302
 44
0.0
 45
0.000000001
 73
     0
 74
     0
 77
     1
 78
    12
 79
     3
140
7.0
147
1.75
173
     1
178
     0
271
     1
276
     2
284
    12
340
1A3
341
1A5
343
1A5
344
1A5
  0
DIMSTYLE
105
1CB
102
{ACAD_REACTORS
330
1CA
102
}
330
A
100
AcDbSymbolTableRecord
100
AcDbDimStyleTableRecord
  2
SLDDIMSTYLE3
 70
     0
 41
3.302
 44
0.0
 45
0.000000001
 73
     0
 74
     0
 77
     1
 78
     4
 79
     1
140
7.0
147
1.75
173
     1
178
     0
276
     2
284
    12
340
1A3
341
1A5
343
1A5
344
1A5
  0
ENDTAB
  0
TABLE
  2
BLOCK_RECORD
  5
1
330
0
100
AcDbSymbolTable
 70
    15
  0
BLOCK_RECORD
  5
1F
330
1
100
AcDbSymbolTableRecord
100
AcDbBlockTableRecord
  2
*Model_Space
340
22
  0
BLOCK_RECORD
  5
1B
330
1
100
AcDbSymbolTableRecord
100
AcDbBlockTableRecord
  2
*Paper_Space
340
1E
  0
BLOCK_RECORD
  5
23
330
1
100
AcDbSymbolTableRecord
100
AcDbBlockTableRecord
  2
*Paper_Space0
340
26
  0
BLOCK_RECORD
  5
1A5
330
1
100
AcDbSymbolTableRecord
100
AcDbBlockTableRecord
  2
_None
340
0
  0
BLOCK_RECORD
  5
1A8
330
1
100
AcDbSymbolTableRecord
100
AcDbBlockTableRecord
  2
_D
340
0
  0
BLOCK_RECORD
  5
1B6
330
1
100
AcDbSymbolTableRecord
100
AcDbBlockTableRecord
  2
_D_1
340
0
  0
BLOCK_RECORD
  5
1C1
330
1
100
AcDbSymbolTableRecord
100
AcDbBlockTableRecord
  2
_D_2
340
0
  0
BLOCK_RECORD
  5
1CC
330
1
100
AcDbSymbolTableRecord
100
AcDbBlockTableRecord
  2
_D_3
340
0
  0
BLOCK_RECORD
  5
1D6
330
1
100
AcDbSymbolTableRecord
100
AcDbBlockTableRecord
  2
_D_4
340
0
  0
BLOCK_RECORD
  5
1E2
330
1
100
AcDbSymbolTableRecord
100
AcDbBlockTableRecord
  2
_D_5
340
0
  0
BLOCK_RECORD
  5
1EB
330
1
100
AcDbSymbolTableRecord
100
AcDbBlockTableRecord
  2
_D_6
340
0
  0
BLOCK_RECORD
  5
1F5
330
1
100
AcDbSymbolTableRecord
100
AcDbBlockTableRecord
  2
_D_7
340
0
  0
BLOCK_RECORD
  5
201
330
1
100
AcDbSymbolTableRecord
100
AcDbBlockTableRecord
  2
_D_8
340
0
  0
BLOCK_RECORD
  5
20B
330
1
100
AcDbSymbolTableRecord
100
AcDbBlockTableRecord
  2
_D_9
340
0
  0
BLOCK_RECORD
  5
215
330
1
100
AcDbSymbolTableRecord
100
AcDbBlockTableRecord
  2
_D_10
340
0
  0
BLOCK_RECORD
  5
21F
330
1
100
AcDbSymbolTableRecord
100
AcDbBlockTableRecord
  2
_D_11
340
0
  0
BLOCK_RECORD
  5
229
330
1
100
AcDbSymbolTableRecord
100
AcDbBlockTableRecord
  2
_D_12
340
0
  0
ENDTAB
  0
ENDSEC
  0
SECTION
  2
BLOCKS
  0
BLOCK
  5
20
330
1F
100
AcDbEntity
  8
0
100
AcDbBlockBegin
  2
*Model_Space
 70
     0
 10
0.0
 20
0.0
 30
0.0
  3
*Model_Space
  1

  0
ENDBLK
  5
21
330
1F
100
AcDbEntity
  8
0
100
AcDbBlockEnd
  0
BLOCK
  5
1C
330
1B
100
AcDbEntity
 67
     1
  8
0
100
AcDbBlockBegin
  2
*Paper_Space
 70
     0
 10
0.0
 20
0.0
 30
0.0
  3
*Paper_Space
  1

  0
ENDBLK
  5
1D
330
1B
100
AcDbEntity
 67
     1
  8
0
100
AcDbBlockEnd
  0
BLOCK
  5
24
330
23
100
AcDbEntity
  8
0
100
AcDbBlockBegin
  2
*Paper_Space0
 70
     0
 10
0.0
 20
0.0
 30
0.0
  3
*Paper_Space0
  1

  0
ENDBLK
  5
25
330
23
100
AcDbEntity
  8
0
100
AcDbBlockEnd
  0
BLOCK
  5
1A6
330
1A5
100
AcDbEntity
  8
0
100
AcDbBlockBegin
  2
_None
 70
     0
 10
0.0
 20
0.0
 30
0.0
  3
_None
  1

  0
ENDBLK
  5
1A7
330
1A5
100
AcDbEntity
  8
0
100
AcDbBlockEnd
  0
BLOCK
  5
1A9
330
1A8
100
AcDbEntity
  8
0
100
AcDbBlockBegin
  2
_D
 70
     0
 10
0.0
 20
0.0
 30
0.0
  3
_D
  1

  0
LINE
  5
1AB
330
1A8
100
AcDbEntity
  8
SLD-0
 62
     7
100
AcDbLine
 10
118.7885596401
 20
504.9966130792
 30
0.0
 11
187.7885846401
 21
504.9966130792
 31
0.0
  0
LINE
  5
1AC
330
1A8
100
AcDbEntity
  8
SLD-0
 62
     7
100
AcDbLine
 10
165.7885596401
 20
476.4966130792
 30
0.0
 11
187.7885846401
 21
476.4966130792
 31
0.0
  0
LINE
  5
1AD
330
1A8
100
AcDbEntity
  8
SLD-0
 62
     7
100
AcDbLine
 10
185.7885846401
 20
504.9966130792
 30
0.0
 11
185.7885846401
 21
513.9966130792
 31
0.0
  0
LINE
  5
1AE
330
1A8
100
AcDbEntity
  8
SLD-0
 62
     7
100
AcDbLine
 10
185.7885846401
 20
504.9966130792
 30
0.0
 11
185.7885846401
 21
476.4966130792
 31
0.0
  0
LINE
  5
1AF
330
1A8
100
AcDbEntity
  8
SLD-0
 62
     7
100
AcDbLine
 10
185.7885846401
 20
476.4966130792
 30
0.0
 11
185.7885846401
 21
467.4966130792
 31
0.0
  0
MTEXT
  5
1B1
330
1A8
100
AcDbEntity
  8
SLD-0
 62
     7
100
AcDbMText
 10
176.8404910014
 20
482.2684236174
 30
0.0
 40
7.0
 41
0.0
 71
     1
 72
     1
  1
28,5
  7
SLDTEXTSTYLE1
 11
6.123233995736766E-17
 21
1.0
 31
0.0
 73
     1
 44
1.0
  0
SOLID
  5
1B2
330
1A8
100
AcDbEntity
  8
SLD-0
 62
     7
100
AcDbTrace
 10
185.7885846401
 20
504.9966130792
 30
0.0
 11
186.4085846401
 21
509.9966130792
 31
0.0
 12
185.1685846401
 22
509.9966130792
 32
0.0
 13
185.1685846401
 23
509.9966130792
 33
0.0
  0
SOLID
  5
1B3
330
1A8
100
AcDbEntity
  8
SLD-0
 62
     7
100
AcDbTrace
 10
185.7885846401
 20
476.4966130792
 30
0.0
 11
185.1685846401
 21
471.4966130792
 31
0.0
 12
186.4085846401
 22
471.4966130792
 32
0.0
 13
186.4085846401
 23
471.4966130792
 33
0.0
  0
ENDBLK
  5
1AA
330
1A8
100
AcDbEntity
  8
0
100
AcDbBlockEnd
  0
BLOCK
  5
1B7
330
1B6
100
AcDbEntity
  8
0
100
AcDbBlockBegin
  2
_D_1
 70
     0
 10
0.0
 20
0.0
 30
0.0
  3
_D_1
  1

  0
LINE
  5
1B9
330
1B6
100
AcDbEntity
  8
SLD-0
 62
     7
100
AcDbLine
 10
165.7885596401
 20
476.4966130792
 30
0.0
 11
187.7885846401
 21
476.4966130792
 31
0.0
  0
LINE
  5
1BA
330
1B6
100
AcDbEntity
  8
SLD-0
 62
     7
100
AcDbLine
 10
165.7885596401
 20
376.4966130792
 30
0.0
 11
187.7885846401
 21
376.4966130792
 31
0.0
  0
LINE
  5
1BB
330
1B6
100
AcDbEntity
  8
SLD-0
 62
     7
100
AcDbLine
 10
185.7885846401
 20
476.4966130792
 30
0.0
 11
185.7885846401
 21
376.4966130792
 31
0.0
  0
MTEXT
  5
1BC
330
1B6
100
AcDbEntity
  8
SLD-0
 62
     7
100
AcDbMText
 10
176.8404910014
 20
418.6747012011
 30
0.0
 40
7.0
 41
0.0
 71
     1
 72
     1
  1
100
  7
SLDTEXTSTYLE1
 11
6.123233995736766E-17
 21
1.0
 31
0.0
 73
     1
 44
1.0
  0
SOLID
  5
1BD
330
1B6
100
AcDbEntity
  8
SLD-0
 62
     7
100
AcDbTrace
 10
185.7885846401
 20
476.4966130792
 30
0.0
 11
185.1685846401
 21
471.4966130792
 31
0.0
 12
186.4085846401
 22
471.4966130792
 32
0.0
 13
186.4085846401
 23
471.4966130792
 33
0.0
  0
SOLID
  5
1BE
330
1B6
100
AcDbEntity
  8
SLD-0
 62
     7
100
AcDbTrace
 10
185.7885846401
 20
376.4966130792
 30
0.0
 11
186.4085846401
 21
381.4966130792
 31
0.0
 12
185.1685846401
 22
381.4966130792
 32
0.0
 13
185.1685846401
 23
381.4966130792
 33
0.0
  0
ENDBLK
  5
1B8
330
1B6
100
AcDbEntity
  8
0
100
AcDbBlockEnd
  0
BLOCK
  5
1C2
330
1C1
100
AcDbEntity
  8
0
100
AcDbBlockBegin
  2
_D_2
 70
     0
 10
0.0
 20
0.0
 30
0.0
  3
_D_2
  1

  0
LINE
  5
1C4
330
1C1
100
AcDbEntity
  8
SLD-0
 62
     7
100
AcDbLine
 10
115.7885596401
 20
504.9966130792
 30
0.0
 11
79.1538947722
 21
504.9966130792
 31
0.0
  0
LINE
  5
1C5
330
1C1
100
AcDbEntity
  8
SLD-0
 62
     7
100
AcDbLine
 10
150.7885596401
 20
407.4966130792
 30
0.0
 11
79.1538947722
 21
407.4966130792
 31
0.0
  0
LINE
  5
1C6
330
1C1
100
AcDbEntity
  8
SLD-0
 62
     7
100
AcDbLine
 10
81.1538947722
 20
504.9966130792
 30
0.0
 11
81.1538947722
 21
407.4966130792
 31
0.0
  0
MTEXT
  5
1C7
330
1C1
100
AcDbEntity
  8
SLD-0
 62
     7
100
AcDbMText
 10
72.2058011335
 20
442.7588099189
 30
0.0
 40
7.0
 41
0.0
 71
     1
 72
     1
  1
97,5
  7
SLDTEXTSTYLE1
 11
6.123233995736766E-17
 21
1.0
 31
0.0
 73
     1
 44
1.0
  0
SOLID
  5
1C8
330
1C1
100
AcDbEntity
  8
SLD-0
 62
     7
100
AcDbTrace
 10
81.1538947722
 20
504.9966130792
 30
0.0
 11
80.5338947722
 21
499.9966130792
 31
0.0
 12
81.7738947722
 22
499.9966130792
 32
0.0
 13
81.7738947722
 23
499.9966130792
 33
0.0
  0
SOLID
  5
1C9
330
1C1
100
AcDbEntity
  8
SLD-0
 62
     7
100
AcDbTrace
 10
81.1538947722
 20
407.4966130792
 30
0.0
 11
81.7738947722
 21
412.4966130792
 31
0.0
 12
80.5338947722
 22
412.4966130792
 32
0.0
 13
80.5338947722
 23
412.4966130792
 33
0.0
  0
ENDBLK
  5
1C3
330
1C1
100
AcDbEntity
  8
0
100
AcDbBlockEnd
  0
BLOCK
  5
1CD
330
1CC
100
AcDbEntity
  8
0
100
AcDbBlockBegin
  2
_D_3
 70
     0
 10
0.0
 20
0.0
 30
0.0
  3
_D_3
  1

  0
LINE
  5
1CF
330
1CC
100
AcDbEntity
  8
SLD-0
 62
     7
100
AcDbLine
 10
115.7885596401
 20
349.9966130792
 30
0.0
 11
115.7885596401
 21
327.9966130792
 31
0.0
  0
LINE
  5
1D0
330
1CC
100
AcDbEntity
  8
SLD-0
 62
     7
100
AcDbLine
 10
150.7885596401
 20
407.4966130792
 30
0.0
 11
150.7885596401
 21
327.9966130792
 31
0.0
  0
LINE
  5
1D1
330
1CC
100
AcDbEntity
  8
SLD-0
 62
     7
100
AcDbLine
 10
115.7885596401
 20
329.9966130792
 30
0.0
 11
150.7885596401
 21
329.9966130792
 31
0.0
  0
MTEXT
  5
1D2
330
1CC
100
AcDbEntity
  8
SLD-0
 62
     7
100
AcDbMText
 10
126.3569907612
 20
338.9447067179
 30
0.0
 40
7.0
 41
0.0
 71
     1
 72
     1
  1
DM
  7
SLDTEXTSTYLE1
 73
     1
 44
1.0
  0
SOLID
  5
1D3
330
1CC
100
AcDbEntity
  8
SLD-0
 62
     7
100
AcDbTrace
 10
115.7885596401
 20
329.9966130792
 30
0.0
 11
120.7885596401
 21
329.3766130792
 31
0.0
 12
120.7885596401
 22
330.6166130792
 32
0.0
 13
120.7885596401
 23
330.6166130792
 33
0.0
  0
SOLID
  5
1D4
330
1CC
100
AcDbEntity
  8
SLD-0
 62
     7
100
AcDbTrace
 10
150.7885596401
 20
329.9966130792
 30
0.0
 11
145.7885596401
 21
330.6166130792
 31
0.0
 12
145.7885596401
 22
329.3766130792
 32
0.0
 13
145.7885596401
 23
329.3766130792
 33
0.0
  0
ENDBLK
  5
1CE
330
1CC
100
AcDbEntity
  8
0
100
AcDbBlockEnd
  0
BLOCK
  5
1D7
330
1D6
100
AcDbEntity
  8
0
100
AcDbBlockBegin
  2
_D_4
 70
     0
 10
0.0
 20
0.0
 30
0.0
  3
_D_4
  1

  0
LINE
  5
1D9
330
1D6
100
AcDbEntity
  8
SLD-0
 62
     7
100
AcDbLine
 10
150.7885596401
 20
407.4966130792
 30
0.0
 11
150.7885596401
 21
327.9966130792
 31
0.0
  0
LINE
  5
1DA
330
1D6
100
AcDbEntity
  8
SLD-0
 62
     7
100
AcDbLine
 10
165.7885596401
 20
376.4966130792
 30
0.0
 11
165.7885596401
 21
327.9966130792
 31
0.0
  0
LINE
  5
1DB
330
1D6
100
AcDbEntity
  8
SLD-0
 62
     7
100
AcDbLine
 10
150.7885596401
 20
329.9966130792
 30
0.0
 11
141.7885596401
 21
329.9966130792
 31
0.0
  0
LINE
  5
1DC
330
1D6
100
AcDbEntity
  8
SLD-0
 62
     7
100
AcDbLine
 10
150.7885596401
 20
329.9966130792
 30
0.0
 11
165.7885596401
 21
329.9966130792
 31
0.0
  0
LINE
  5
1DD
330
1D6
100
AcDbEntity
  8
SLD-0
 62
     7
100
AcDbLine
 10
165.7885596401
 20
329.9966130792
 30
0.0
 11
174.7885596401
 21
329.9966130792
 31
0.0
  0
MTEXT
  5
1DE
330
1D6
100
AcDbEntity
  8
SLD-0
 62
     7
100
AcDbMText
 10
151.7631393278
 20
338.9447067179
 30
0.0
 40
7.0
 41
0.0
 71
     1
 72
     1
  1
15
  7
SLDTEXTSTYLE1
 73
     1
 44
1.0
  0
SOLID
  5
1DF
330
1D6
100
AcDbEntity
  8
SLD-0
 62
     7
100
AcDbTrace
 10
150.7885596401
 20
329.9966130792
 30
0.0
 11
145.7885596401
 21
330.6166130792
 31
0.0
 12
145.7885596401
 22
329.3766130792
 32
0.0
 13
145.7885596401
 23
329.3766130792
 33
0.0
  0
SOLID
  5
1E0
330
1D6
100
AcDbEntity
  8
SLD-0
 62
     7
100
AcDbTrace
 10
165.7885596401
 20
329.9966130792
 30
0.0
 11
170.7885596401
 21
329.3766130792
 31
0.0
 12
170.7885596401
 22
330.6166130792
 32
0.0
 13
170.7885596401
 23
330.6166130792
 33
0.0
  0
ENDBLK
  5
1D8
330
1D6
100
AcDbEntity
  8
0
100
AcDbBlockEnd
  0
BLOCK
  5
1E3
330
1E2
100
AcDbEntity
  8
0
100
AcDbBlockBegin
  2
_D_5
 70
     0
 10
0.0
 20
0.0
 30
0.0
  3
_D_5
  1

  0
LINE
  5
1E5
330
1E2
100
AcDbEntity
  8
SLD-0
 62
     7
100
AcDbLine
 10
94.7885596401
 20
450.3966130792
 30
0.0
 11
94.7885596401
 21
470.2322479268
 31
0.0
  0
LINE
  5
1E6
330
1E2
100
AcDbEntity
  8
SLD-0
 62
     7
100
AcDbLine
 10
94.7885596401
 20
468.2322479268
 30
0.0
 11
115.7885596401
 21
468.2322479268
 31
0.0
  0
MTEXT
  5
1E7
330
1E2
100
AcDbEntity
  8
SLD-0
 62
     7
100
AcDbMText
 10
99.6396909177
 20
477.1803415655
 30
0.0
 40
7.0
 41
0.0
 71
     1
 72
     1
  1
21
  7
SLDTEXTSTYLE1
 73
     1
 44
1.0
  0
SOLID
  5
1E8
330
1E2
100
AcDbEntity
  8
SLD-0
 62
     7
100
AcDbTrace
 10
94.7885596401
 20
468.2322479268
 30
0.0
 11
99.7885596401
 21
467.6122479268
 31
0.0
 12
99.7885596401
 22
468.8522479268
 32
0.0
 13
99.7885596401
 23
468.8522479268
 33
0.0
  0
SOLID
  5
1E9
330
1E2
100
AcDbEntity
  8
SLD-0
 62
     7
100
AcDbTrace
 10
115.7885596401
 20
468.2322479268
 30
0.0
 11
110.7885596401
 21
468.8522479268
 31
0.0
 12
110.7885596401
 22
467.6122479268
 32
0.0
 13
110.7885596401
 23
467.6122479268
 33
0.0
  0
ENDBLK
  5
1E4
330
1E2
100
AcDbEntity
  8
0
100
AcDbBlockEnd
  0
BLOCK
  5
1EC
330
1EB
100
AcDbEntity
  8
0
100
AcDbBlockBegin
  2
_D_6
 70
     0
 10
0.0
 20
0.0
 30
0.0
  3
_D_6
  1

  0
LINE
  5
1EE
330
1EB
100
AcDbEntity
  8
SLD-0
 62
     7
100
AcDbLine
 10
323.8663351167
 20
504.9966130792
 30
0.0
 11
359.8663351167
 21
504.9966130792
 31
0.0
  0
LINE
  5
1EF
330
1EB
100
AcDbEntity
  8
SLD-0
 62
     7
100
AcDbLine
 10
323.8663351167
 20
349.9966130792
 30
0.0
 11
359.8663351167
 21
349.9966130792
 31
0.0
  0
LINE
  5
1F0
330
1EB
100
AcDbEntity
  8
SLD-0
 62
     7
100
AcDbLine
 10
357.8663351167
 20
504.9966130792
 30
0.0
 11
357.8663351167
 21
349.9966130792
 31
0.0
  0
MTEXT
  5
1F1
330
1EB
100
AcDbEntity
  8
SLD-0
 62
     7
100
AcDbMText
 10
348.918241478
 20
419.8975688276
 30
0.0
 40
7.0
 41
0.0
 71
     1
 72
     1
  1
155
  7
SLDTEXTSTYLE1
 11
6.123233995736766E-17
 21
1.0
 31
0.0
 73
     1
 44
1.0
  0
SOLID
  5
1F2
330
1EB
100
AcDbEntity
  8
SLD-0
 62
     7
100
AcDbTrace
 10
357.8663351167
 20
504.9966130792
 30
0.0
 11
357.2463351167
 21
499.9966130792
 31
0.0
 12
358.4863351167
 22
499.9966130792
 32
0.0
 13
358.4863351167
 23
499.9966130792
 33
0.0
  0
SOLID
  5
1F3
330
1EB
100
AcDbEntity
  8
SLD-0
 62
     7
100
AcDbTrace
 10
357.8663351167
 20
349.9966130792
 30
0.0
 11
358.4863351167
 21
354.9966130792
 31
0.0
 12
357.2463351167
 22
354.9966130792
 32
0.0
 13
357.2463351167
 23
354.9966130792
 33
0.0
  0
ENDBLK
  5
1ED
330
1EB
100
AcDbEntity
  8
0
100
AcDbBlockEnd
  0
BLOCK
  5
1F6
330
1F5
100
AcDbEntity
  8
0
100
AcDbBlockBegin
  2
_D_7
 70
     0
 10
0.0
 20
0.0
 30
0.0
  3
_D_7
  1

  0
LINE
  5
1F8
330
1F5
100
AcDbEntity
  8
SLD-0
 62
     7
100
AcDbLine
 10
323.8663351167
 20
349.9966130792
 30
0.0
 11
323.8663351167
 21
327.9966130792
 31
0.0
  0
LINE
  5
1F9
330
1F5
100
AcDbEntity
  8
SLD-0
 62
     7
100
AcDbLine
 10
299.8663351167
 20
349.9966130792
 30
0.0
 11
299.8663351167
 21
327.9966130792
 31
0.0
  0
LINE
  5
1FA
330
1F5
100
AcDbEntity
  8
SLD-0
 62
     7
100
AcDbLine
 10
323.8663351167
 20
329.9966130792
 30
0.0
 11
332.8663351167
 21
329.9966130792
 31
0.0
  0
LINE
  5
1FB
330
1F5
100
AcDbEntity
  8
SLD-0
 62
     7
100
AcDbLine
 10
323.8663351167
 20
329.9966130792
 30
0.0
 11
299.8663351167
 21
329.9966130792
 31
0.0
  0
LINE
  5
1FC
330
1F5
100
AcDbEntity
  8
SLD-0
 62
     7
100
AcDbLine
 10
299.8663351167
 20
329.9966130792
 30
0.0
 11
290.8663351167
 21
329.9966130792
 31
0.0
  0
MTEXT
  5
1FD
330
1F5
100
AcDbEntity
  8
SLD-0
 62
     7
100
AcDbMText
 10
306.9109755153
 20
338.9447067179
 30
0.0
 40
7.0
 41
0.0
 71
     1
 72
     1
  1
24
  7
SLDTEXTSTYLE1
 73
     1
 44
1.0
  0
SOLID
  5
1FE
330
1F5
100
AcDbEntity
  8
SLD-0
 62
     7
100
AcDbTrace
 10
323.8663351167
 20
329.9966130792
 30
0.0
 11
328.8663351167
 21
329.3766130792
 31
0.0
 12
328.8663351167
 22
330.6166130792
 32
0.0
 13
328.8663351167
 23
330.6166130792
 33
0.0
  0
SOLID
  5
1FF
330
1F5
100
AcDbEntity
  8
SLD-0
 62
     7
100
AcDbTrace
 10
299.8663351167
 20
329.9966130792
 30
0.0
 11
294.8663351167
 21
330.6166130792
 31
0.0
 12
294.8663351167
 22
329.3766130792
 32
0.0
 13
294.8663351167
 23
329.3766130792
 33
0.0
  0
ENDBLK
  5
1F7
330
1F5
100
AcDbEntity
  8
0
100
AcDbBlockEnd
  0
BLOCK
  5
202
330
201
100
AcDbEntity
  8
0
100
AcDbBlockBegin
  2
_D_8
 70
     0
 10
0.0
 20
0.0
 30
0.0
  3
_D_8
  1

  0
LINE
  5
204
330
201
100
AcDbEntity
  8
SLD-0
 62
     7
100
AcDbLine
 10
311.8663351167
 20
495.4966130792
 30
0.0
 11
345.8663351167
 21
495.4966130792
 31
0.0
  0
LINE
  5
205
330
201
100
AcDbEntity
  8
SLD-0
 62
     7
100
AcDbLine
 10
311.8663351167
 20
359.4966130792
 30
0.0
 11
345.8663351167
 21
359.4966130792
 31
0.0
  0
LINE
  5
206
330
201
100
AcDbEntity
  8
SLD-0
 62
     7
100
AcDbLine
 10
343.8663351167
 20
495.4966130792
 30
0.0
 11
343.8663351167
 21
359.4966130792
 31
0.0
  0
MTEXT
  5
207
330
201
100
AcDbEntity
  8
SLD-0
 62
     7
100
AcDbMText
 10
334.918241478
 20
419.8975688276
 30
0.0
 40
7.0
 41
0.0
 71
     1
 72
     1
  1
136
  7
SLDTEXTSTYLE1
 11
6.123233995736766E-17
 21
1.0
 31
0.0
 73
     1
 44
1.0
  0
SOLID
  5
208
330
201
100
AcDbEntity
  8
SLD-0
 62
     7
100
AcDbTrace
 10
343.8663351167
 20
495.4966130792
 30
0.0
 11
343.2463351167
 21
490.4966130792
 31
0.0
 12
344.4863351167
 22
490.4966130792
 32
0.0
 13
344.4863351167
 23
490.4966130792
 33
0.0
  0
SOLID
  5
209
330
201
100
AcDbEntity
  8
SLD-0
 62
     7
100
AcDbTrace
 10
343.8663351167
 20
359.4966130792
 30
0.0
 11
344.4863351167
 21
364.4966130792
 31
0.0
 12
343.2463351167
 22
364.4966130792
 32
0.0
 13
343.2463351167
 23
364.4966130792
 33
0.0
  0
ENDBLK
  5
203
330
201
100
AcDbEntity
  8
0
100
AcDbBlockEnd
  0
BLOCK
  5
20C
330
20B
100
AcDbEntity
  8
0
100
AcDbBlockBegin
  2
_D_9
 70
     0
 10
0.0
 20
0.0
 30
0.0
  3
_D_9
  1

  0
LINE
  5
20E
330
20B
100
AcDbEntity
  8
SLD-0
 62
     7
100
AcDbLine
 10
299.8663351167
 20
349.9966130792
 30
0.0
 11
277.8663351167
 21
349.9966130792
 31
0.0
  0
LINE
  5
20F
330
20B
100
AcDbEntity
  8
SLD-0
 62
     7
100
AcDbLine
 10
308.2163351167
 20
416.3966130792
 30
0.0
 11
277.8663351167
 21
416.3966130792
 31
0.0
  0
LINE
  5
210
330
20B
100
AcDbEntity
  8
SLD-0
 62
     7
100
AcDbLine
 10
279.8663351167
 20
349.9966130792
 30
0.0
 11
279.8663351167
 21
416.3966130792
 31
0.0
  0
MTEXT
  5
211
330
20B
100
AcDbEntity
  8
SLD-0
 62
     7
100
AcDbMText
 10
270.918241478
 20
377.8856569151
 30
0.0
 40
7.0
 41
0.0
 71
     1
 72
     1
  1
66,4
  7
SLDTEXTSTYLE1
 11
6.123233995736766E-17
 21
1.0
 31
0.0
 73
     1
 44
1.0
  0
SOLID
  5
212
330
20B
100
AcDbEntity
  8
SLD-0
 62
     7
100
AcDbTrace
 10
279.8663351167
 20
349.9966130792
 30
0.0
 11
280.4863351167
 21
354.9966130792
 31
0.0
 12
279.2463351167
 22
354.9966130792
 32
0.0
 13
279.2463351167
 23
354.9966130792
 33
0.0
  0
SOLID
  5
213
330
20B
100
AcDbEntity
  8
SLD-0
 62
     7
100
AcDbTrace
 10
279.8663351167
 20
416.3966130792
 30
0.0
 11
279.2463351167
 21
411.3966130792
 31
0.0
 12
280.4863351167
 22
411.3966130792
 32
0.0
 13
280.4863351167
 23
411.3966130792
 33
0.0
  0
ENDBLK
  5
20D
330
20B
100
AcDbEntity
  8
0
100
AcDbBlockEnd
  0
BLOCK
  5
216
330
215
100
AcDbEntity
  8
0
100
AcDbBlockBegin
  2
_D_10
 70
     0
 10
0.0
 20
0.0
 30
0.0
  3
_D_10
  1

  0
LINE
  5
218
330
215
100
AcDbEntity
  8
SLD-0
 62
     7
100
AcDbLine
 10
315.9163351167
 20
434.2300709526
 30
0.0
 11
324.9163351167
 21
434.2300709526
 31
0.0
  0
LINE
  5
219
330
215
100
AcDbEntity
  8
SLD-0
 62
     7
100
AcDbLine
 10
315.9163351167
 20
434.2300709526
 30
0.0
 11
307.9163351167
 21
434.2300709526
 31
0.0
  0
LINE
  5
21A
330
215
100
AcDbEntity
  8
SLD-0
 62
     7
100
AcDbLine
 10
307.9163351167
 20
434.2300709526
 30
0.0
 11
289.8458496136
 21
434.2300709526
 31
0.0
  0
MTEXT
  5
21B
330
215
100
AcDbEntity
  8
SLD-0
 62
     7
100
AcDbMText
 10
289.8458496136
 20
443.1781645913
 30
0.0
 40
7.0
 41
0.0
 71
     1
 72
     1
  1
8
  7
SLDTEXTSTYLE1
 73
     1
 44
1.0
  0
SOLID
  5
21C
330
215
100
AcDbEntity
  8
SLD-0
 62
     7
100
AcDbTrace
 10
315.9163351167
 20
434.2300709526
 30
0.0
 11
320.9163351167
 21
433.6100709526
 31
0.0
 12
320.9163351167
 22
434.8500709526
 32
0.0
 13
320.9163351167
 23
434.8500709526
 33
0.0
  0
SOLID
  5
21D
330
215
100
AcDbEntity
  8
SLD-0
 62
     7
100
AcDbTrace
 10
307.9163351167
 20
434.2300709526
 30
0.0
 11
302.9163351167
 21
434.8500709526
 31
0.0
 12
302.9163351167
 22
433.6100709526
 32
0.0
 13
302.9163351167
 23
433.6100709526
 33
0.0
  0
ENDBLK
  5
217
330
215
100
AcDbEntity
  8
0
100
AcDbBlockEnd
  0
BLOCK
  5
220
330
21F
100
AcDbEntity
  8
0
100
AcDbBlockBegin
  2
_D_11
 70
     0
 10
0.0
 20
0.0
 30
0.0
  3
_D_11
  1

  0
LINE
  5
222
330
21F
100
AcDbEntity
  8
SLD-0
 62
     7
100
AcDbLine
 10
308.2163351167
 20
416.3966130792
 30
0.0
 11
277.8663351167
 21
416.3966130792
 31
0.0
  0
LINE
  5
223
330
21F
100
AcDbEntity
  8
SLD-0
 62
     7
100
AcDbLine
 10
308.2163351167
 20
451.3966130792
 30
0.0
 11
277.8663351167
 21
451.3966130792
 31
0.0
  0
LINE
  5
224
330
21F
100
AcDbEntity
  8
SLD-0
 62
     7
100
AcDbLine
 10
279.8663351167
 20
416.3966130792
 30
0.0
 11
279.8663351167
 21
451.3966130792
 31
0.0
  0
MTEXT
  5
225
330
21F
100
AcDbEntity
  8
SLD-0
 62
     7
100
AcDbMText
 10
270.918241478
 20
428.8828488628
 30
0.0
 40
7.0
 41
0.0
 71
     1
 72
     1
  1
35
  7
SLDTEXTSTYLE1
 11
6.123233995736766E-17
 21
1.0
 31
0.0
 73
     1
 44
1.0
  0
SOLID
  5
226
330
21F
100
AcDbEntity
  8
SLD-0
 62
     7
100
AcDbTrace
 10
279.8663351167
 20
416.3966130792
 30
0.0
 11
280.4863351167
 21
421.3966130792
 31
0.0
 12
279.2463351167
 22
421.3966130792
 32
0.0
 13
279.2463351167
 23
421.3966130792
 33
0.0
  0
SOLID
  5
227
330
21F
100
AcDbEntity
  8
SLD-0
 62
     7
100
AcDbTrace
 10
279.8663351167
 20
451.3966130792
 30
0.0
 11
279.2463351167
 21
446.3966130792
 31
0.0
 12
280.4863351167
 22
446.3966130792
 32
0.0
 13
280.4863351167
 23
446.3966130792
 33
0.0
  0
ENDBLK
  5
221
330
21F
100
AcDbEntity
  8
0
100
AcDbBlockEnd
  0
BLOCK
  5
22A
330
229
100
AcDbEntity
  8
0
100
AcDbBlockBegin
  2
_D_12
 70
     0
 10
0.0
 20
0.0
 30
0.0
  3
_D_12
  1

  0
LINE
  5
22C
330
229
100
AcDbEntity
  8
SLD-0
 62
     7
100
AcDbLine
 10
165.7885596401
 20
227.1317251083
 30
0.0
 11
187.7885846401
 21
227.1317251083
 31
0.0
  0
LINE
  5
22D
330
229
100
AcDbEntity
  8
SLD-0
 62
     7
100
AcDbLine
 10
165.7885596401
 20
211.6317251083
 30
0.0
 11
187.7885846401
 21
211.6317251083
 31
0.0
  0
LINE
  5
22E
330
229
100
AcDbEntity
  8
SLD-0
 62
     7
100
AcDbLine
 10
185.7885846401
 20
227.1317251083
 30
0.0
 11
185.7885846401
 21
251.3270917734
 31
0.0
  0
LINE
  5
22F
330
229
100
AcDbEntity
  8
SLD-0
 62
     7
100
AcDbLine
 10
185.7885846401
 20
227.1317251083
 30
0.0
 11
185.7885846401
 21
211.6317251083
 31
0.0
  0
MTEXT
  5
230
330
229
100
AcDbEntity
  8
SLD-0
 62
     7
100
AcDbMText
 10
176.8404910014
 20
232.6118144592
 30
0.0
 40
7.0
 41
0.0
 71
     1
 72
     1
  1
15,5
  7
SLDTEXTSTYLE1
 11
6.123233995736766E-17
 21
1.0
 31
0.0
 73
     1
 44
1.0
  0
SOLID
  5
231
330
229
100
AcDbEntity
  8
SLD-0
 62
     7
100
AcDbTrace
 10
185.7885846401
 20
227.1317251083
 30
0.0
 11
185.1685846401
 21
222.1317251083
 31
0.0
 12
186.4085846401
 22
222.1317251083
 32
0.0
 13
186.4085846401
 23
222.1317251083
 33
0.0
  0
SOLID
  5
232
330
229
100
AcDbEntity
  8
SLD-0
 62
     7
100
AcDbTrace
 10
185.7885846401
 20
211.6317251083
 30
0.0
 11
186.4085846401
 21
216.6317251083
 31
0.0
 12
185.1685846401
 22
216.6317251083
 32
0.0
 13
185.1685846401
 23
216.6317251083
 33
0.0
  0
ENDBLK
  5
22B
330
229
100
AcDbEntity
  8
0
100
AcDbBlockEnd
  0
ENDSEC
  0
SECTION
  2
ENTITIES
  0
LINE
  5
76
330
1F
100
AcDbEntity
  8
SLD-0
  6
Continuous
 62
     7
100
AcDbLine
 10
147.4648813876
 20
463.8202875105
 30
0.0
 11
147.2885559472
 21
463.996612951
 31
0.0
  0
LINE
  5
77
330
1F
100
AcDbEntity
  8
SLD-0
  6
Continuous
 62
     7
100
AcDbLine
 10
145.7136522207
 20
463.8202875105
 30
0.0
 11
147.4648813876
 21
463.8202875105
 31
0.0
  0
LINE
  5
78
330
1F
100
AcDbEntity
  8
SLD-0
  6
Continuous
 62
     7
100
AcDbLine
 10
145.4106073055
 20
463.8745575397
 30
0.0
 11
145.2885667953
 21
463.996612951
 31
0.0
  0
LINE
  5
79
330
1F
100
AcDbEntity
  8
SLD-0
  6
Continuous
 62
     7
100
AcDbLine
 10
145.2885667953
 20
463.996612951
 30
0.0
 11
147.2885559472
 21
463.996612951
 31
0.0
  0
LINE
  5
7A
330
1F
100
AcDbEntity
  8
SLD-0
  6
Continuous
 62
     7
100
AcDbLine
 10
148.1122325334
 20
463.1729400902
 30
0.0
 11
148.2885579738
 21
462.9966146498
 31
0.0
  0
LINE
  5
7B
330
1F
100
AcDbEntity
  8
SLD-0
  6
Continuous
 62
     7
100
AcDbLine
 10
148.1122325334
 20
463.1729400902
 30
0.0
 11
149.8634617004
 21
463.1729400902
 31
0.0
  0
LINE
  5
7C
330
1F
100
AcDbEntity
  8
SLD-0
  6
Continuous
 62
     7
100
AcDbLine
 10
150.1665066156
 20
463.1186663358
 30
0.0
 11
150.2885620269
 21
462.9966146498
 31
0.0
  0
LINE
  5
7D
330
1F
100
AcDbEntity
  8
SLD-0
  6
Continuous
 62
     7
100
AcDbLine
 10
148.2885579738
 20
462.9966146498
 30
0.0
 11
150.2885620269
 21
462.9966146498
 31
0.0
  0
LINE
  5
7E
330
1F
100
AcDbEntity
  8
SLD-0
  6
Continuous
 62
     7
100
AcDbLine
 10
145.4106073055
 20
463.1186663358
 30
0.0
 11
145.2885667953
 21
462.9966146498
 31
0.0
  0
LINE
  5
7F
330
1F
100
AcDbEntity
  8
SLD-0
  6
Continuous
 62
     7
100
AcDbLine
 10
145.7136522207
 20
463.1729400902
 30
0.0
 11
147.4648813876
 21
463.1729400902
 31
0.0
  0
LINE
  5
80
330
1F
100
AcDbEntity
  8
SLD-0
  6
Continuous
 62
     7
100
AcDbLine
 10
147.4648813876
 20
463.1729400902
 30
0.0
 11
147.2885559472
 21
462.9966146498
 31
0.0
  0
LINE
  5
81
330
1F
100
AcDbEntity
  8
SLD-0
  6
Continuous
 62
     7
100
AcDbLine
 10
145.2885667953
 20
462.9966146498
 30
0.0
 11
147.2885559472
 21
462.9966146498
 31
0.0
  0
LINE
  5
82
330
1F
100
AcDbEntity
  8
SLD-0
  6
Continuous
 62
     7
100
AcDbLine
 10
150.1665066156
 20
463.8745575397
 30
0.0
 11
150.2885620269
 21
463.996612951
 31
0.0
  0
LINE
  5
83
330
1F
100
AcDbEntity
  8
SLD-0
  6
Continuous
 62
     7
100
AcDbLine
 10
148.1122325334
 20
463.8202875106
 30
0.0
 11
149.8634617004
 21
463.8202875106
 31
0.0
  0
LINE
  5
84
330
1F
100
AcDbEntity
  8
SLD-0
  6
Continuous
 62
     7
100
AcDbLine
 10
148.1122325334
 20
463.8202875106
 30
0.0
 11
148.2885579738
 21
463.996612951
 31
0.0
  0
LINE
  5
85
330
1F
100
AcDbEntity
  8
SLD-0
  6
Continuous
 62
     7
100
AcDbLine
 10
148.2885579738
 20
463.996612951
 30
0.0
 11
150.2885620269
 21
463.996612951
 31
0.0
  0
LINE
  5
86
330
1F
100
AcDbEntity
  8
SLD-0
  6
Continuous
 62
     7
100
AcDbLine
 10
150.2885620269
 20
463.996612951
 30
0.0
 11
150.2885620269
 21
462.9966146498
 31
0.0
  0
LINE
  5
87
330
1F
100
AcDbEntity
  8
SLD-0
  6
Continuous
 62
     7
100
AcDbLine
 10
145.2885667953
 20
463.996612951
 30
0.0
 11
145.2885667953
 21
462.9966146498
 31
0.0
  0
LINE
  5
88
330
1F
100
AcDbEntity
  8
SLD-0
  6
Continuous
 62
     7
100
AcDbLine
 10
147.4106113586
 20
461.1186697333
 30
0.0
 11
147.2885559472
 21
460.9966143219
 31
0.0
  0
LINE
  5
89
330
1F
100
AcDbEntity
  8
SLD-0
  6
Continuous
 62
     7
100
AcDbLine
 10
148.1665025624
 20
461.1186697332
 30
0.0
 11
148.2885579738
 21
460.9966143219
 31
0.0
  0
LINE
  5
8A
330
1F
100
AcDbEntity
  8
SLD-0
  6
Continuous
 62
     7
100
AcDbLine
 10
147.2885559472
 20
460.9966143219
 30
0.0
 11
148.2885579738
 21
460.9966143219
 31
0.0
  0
LINE
  5
8B
330
1F
100
AcDbEntity
  8
SLD-0
  6
Continuous
 62
     7
100
AcDbLine
 10
147.2885559472
 20
465.9966132788
 30
0.0
 11
147.2885559472
 21
463.996612951
 31
0.0
  0
LINE
  5
8C
330
1F
100
AcDbEntity
  8
SLD-0
  6
Continuous
 62
     7
100
AcDbLine
 10
147.2885559472
 20
462.9966146498
 30
0.0
 11
147.2885559472
 21
460.9966143219
 31
0.0
  0
LINE
  5
8D
330
1F
100
AcDbEntity
  8
SLD-0
  6
Continuous
 62
     7
100
AcDbLine
 10
148.2885579738
 20
462.9966146498
 30
0.0
 11
148.2885579738
 21
460.9966143219
 31
0.0
  0
LINE
  5
8E
330
1F
100
AcDbEntity
  8
SLD-0
  6
Continuous
 62
     7
100
AcDbLine
 10
148.2885579738
 20
465.9966132788
 30
0.0
 11
148.2885579738
 21
463.996612951
 31
0.0
  0
LINE
  5
8F
330
1F
100
AcDbEntity
  8
SLD-0
  6
Continuous
 62
     7
100
AcDbLine
 10
147.2885559472
 20
465.9966132788
 30
0.0
 11
148.2885579738
 21
465.9966132788
 31
0.0
  0
LINE
  5
90
330
1F
100
AcDbEntity
  8
SLD-0
  6
Continuous
 62
     7
100
AcDbLine
 10
148.1122325334
 20
463.1729400902
 30
0.0
 11
148.1122325334
 21
461.4217071979
 31
0.0
  0
LINE
  5
91
330
1F
100
AcDbEntity
  8
SLD-0
  6
Continuous
 62
     7
100
AcDbLine
 10
147.4106113585
 20
465.8745578675
 30
0.0
 11
147.2885559472
 21
465.9966132788
 31
0.0
  0
LINE
  5
92
330
1F
100
AcDbEntity
  8
SLD-0
  6
Continuous
 62
     7
100
AcDbLine
 10
147.4648813876
 20
465.5715204029
 30
0.0
 11
147.4648813876
 21
463.8202875105
 31
0.0
  0
LINE
  5
93
330
1F
100
AcDbEntity
  8
SLD-0
  6
Continuous
 62
     7
100
AcDbLine
 10
147.4648813876
 20
463.1729400902
 30
0.0
 11
147.4648813876
 21
461.421707198
 31
0.0
  0
LINE
  5
94
330
1F
100
AcDbEntity
  8
SLD-0
  6
Continuous
 62
     7
100
AcDbLine
 10
148.1665025625
 20
465.8745578675
 30
0.0
 11
148.2885579738
 21
465.9966132788
 31
0.0
  0
LINE
  5
95
330
1F
100
AcDbEntity
  8
SLD-0
  6
Continuous
 62
     7
100
AcDbLine
 10
148.1122325334
 20
465.5715204029
 30
0.0
 11
148.1122325334
 21
463.8202875106
 31
0.0
  0
LINE
  5
96
330
1F
100
AcDbEntity
  8
SLD-0
  6
Continuous
 62
     7
100
AcDbLine
 10
139.1122291955
 20
381.8729384987
 30
0.0
 11
139.2885546359
 21
381.6966130583
 31
0.0
  0
LINE
  5
97
330
1F
100
AcDbEntity
  8
SLD-0
  6
Continuous
 62
     7
100
AcDbLine
 10
139.1122291955
 20
381.8729384987
 30
0.0
 11
140.8634732637
 21
381.8729384987
 31
0.0
  0
LINE
  5
98
330
1F
100
AcDbEntity
  8
SLD-0
  6
Continuous
 62
     7
100
AcDbLine
 10
141.1665032777
 20
381.8186684696
 30
0.0
 11
141.2885586891
 21
381.6966130583
 31
0.0
  0
LINE
  5
99
330
1F
100
AcDbEntity
  8
SLD-0
  6
Continuous
 62
     7
100
AcDbLine
 10
139.2885546359
 20
381.6966130583
 30
0.0
 11
141.2885586891
 21
381.6966130583
 31
0.0
  0
LINE
  5
9A
330
1F
100
AcDbEntity
  8
SLD-0
  6
Continuous
 62
     7
100
AcDbLine
 10
138.2885526094
 20
384.6966116874
 30
0.0
 11
138.2885526094
 21
382.6966113596
 31
0.0
  0
LINE
  5
9B
330
1F
100
AcDbEntity
  8
SLD-0
  6
Continuous
 62
     7
100
AcDbLine
 10
136.2885560069
 20
382.6966113596
 30
0.0
 11
138.2885526094
 21
382.6966113596
 31
0.0
  0
LINE
  5
9C
330
1F
100
AcDbEntity
  8
SLD-0
  6
Continuous
 62
     7
100
AcDbLine
 10
136.2885560069
 20
382.6966113596
 30
0.0
 11
136.2885560069
 21
381.6966130583
 31
0.0
  0
LINE
  5
9D
330
1F
100
AcDbEntity
  8
SLD-0
  6
Continuous
 62
     7
100
AcDbLine
 10
136.2885560069
 20
381.6966130583
 30
0.0
 11
138.2885526094
 21
381.6966130583
 31
0.0
  0
LINE
  5
9E
330
1F
100
AcDbEntity
  8
SLD-0
  6
Continuous
 62
     7
100
AcDbLine
 10
138.2885526094
 20
381.6966130583
 30
0.0
 11
138.2885526094
 21
379.6966127305
 31
0.0
  0
LINE
  5
9F
330
1F
100
AcDbEntity
  8
SLD-0
  6
Continuous
 62
     7
100
AcDbLine
 10
138.2885526094
 20
379.6966127305
 30
0.0
 11
139.2885546359
 21
379.6966127305
 31
0.0
  0
LINE
  5
A0
330
1F
100
AcDbEntity
  8
SLD-0
  6
Continuous
 62
     7
100
AcDbLine
 10
139.2885546359
 20
381.6966130583
 30
0.0
 11
139.2885546359
 21
379.6966127305
 31
0.0
  0
LINE
  5
A1
330
1F
100
AcDbEntity
  8
SLD-0
  6
Continuous
 62
     7
100
AcDbLine
 10
141.2885586891
 20
382.6966113596
 30
0.0
 11
141.2885586891
 21
381.6966130583
 31
0.0
  0
LINE
  5
A2
330
1F
100
AcDbEntity
  8
SLD-0
  6
Continuous
 62
     7
100
AcDbLine
 10
139.2885546359
 20
382.6966113596
 30
0.0
 11
141.2885586891
 21
382.6966113596
 31
0.0
  0
LINE
  5
A3
330
1F
100
AcDbEntity
  8
SLD-0
  6
Continuous
 62
     7
100
AcDbLine
 10
139.2885546359
 20
384.6966116874
 30
0.0
 11
139.2885546359
 21
382.6966113596
 31
0.0
  0
LINE
  5
A4
330
1F
100
AcDbEntity
  8
SLD-0
  6
Continuous
 62
     7
100
AcDbLine
 10
138.2885526094
 20
384.6966116874
 30
0.0
 11
139.2885546359
 21
384.6966116874
 31
0.0
  0
LINE
  5
A5
330
1F
100
AcDbEntity
  8
SLD-0
  6
Continuous
 62
     7
100
AcDbLine
 10
141.1665032777
 20
382.5745596735
 30
0.0
 11
141.2885586891
 21
382.6966113596
 31
0.0
  0
LINE
  5
A6
330
1F
100
AcDbEntity
  8
SLD-0
  6
Continuous
 62
     7
100
AcDbLine
 10
139.1122291955
 20
382.5202859192
 30
0.0
 11
140.8634732637
 21
382.5202859192
 31
0.0
  0
LINE
  5
A7
330
1F
100
AcDbEntity
  8
SLD-0
  6
Continuous
 62
     7
100
AcDbLine
 10
139.1122291955
 20
382.5202859192
 30
0.0
 11
139.2885546359
 21
382.6966113596
 31
0.0
  0
LINE
  5
A8
330
1F
100
AcDbEntity
  8
SLD-0
  6
Continuous
 62
     7
100
AcDbLine
 10
139.1122291955
 20
384.2715188114
 30
0.0
 11
139.1122291955
 21
382.5202859192
 31
0.0
  0
LINE
  5
A9
330
1F
100
AcDbEntity
  8
SLD-0
  6
Continuous
 62
     7
100
AcDbLine
 10
139.1664992246
 20
384.5745600014
 30
0.0
 11
139.2885546359
 21
384.6966116874
 31
0.0
  0
LINE
  5
AA
330
1F
100
AcDbEntity
  8
SLD-0
  6
Continuous
 62
     7
100
AcDbLine
 10
138.4106080207
 20
379.8186681418
 30
0.0
 11
138.2885526094
 21
379.6966127305
 31
0.0
  0
LINE
  5
AB
330
1F
100
AcDbEntity
  8
SLD-0
  6
Continuous
 62
     7
100
AcDbLine
 10
139.1664992246
 20
379.8186681418
 30
0.0
 11
139.2885546359
 21
379.6966127305
 31
0.0
  0
LINE
  5
AC
330
1F
100
AcDbEntity
  8
SLD-0
  6
Continuous
 62
     7
100
AcDbLine
 10
138.4106080207
 20
384.5745600014
 30
0.0
 11
138.2885526094
 21
384.6966116874
 31
0.0
  0
LINE
  5
AD
330
1F
100
AcDbEntity
  8
SLD-0
  6
Continuous
 62
     7
100
AcDbLine
 10
138.464892951
 20
384.2715188114
 30
0.0
 11
138.464892951
 21
382.5202859192
 31
0.0
  0
LINE
  5
AE
330
1F
100
AcDbEntity
  8
SLD-0
  6
Continuous
 62
     7
100
AcDbLine
 10
138.464892951
 20
382.5202859192
 30
0.0
 11
138.2885526094
 21
382.6966113596
 31
0.0
  0
LINE
  5
AF
330
1F
100
AcDbEntity
  8
SLD-0
  6
Continuous
 62
     7
100
AcDbLine
 10
139.1122291955
 20
381.8729384987
 30
0.0
 11
139.1122291955
 21
380.1217056064
 31
0.0
  0
LINE
  5
B0
330
1F
100
AcDbEntity
  8
SLD-0
  6
Continuous
 62
     7
100
AcDbLine
 10
136.4106114182
 20
381.8186684696
 30
0.0
 11
136.2885560069
 21
381.6966130583
 31
0.0
  0
LINE
  5
B1
330
1F
100
AcDbEntity
  8
SLD-0
  6
Continuous
 62
     7
100
AcDbLine
 10
136.7136563334
 20
381.8729384987
 30
0.0
 11
138.464892951
 21
381.8729384987
 31
0.0
  0
LINE
  5
B2
330
1F
100
AcDbEntity
  8
SLD-0
  6
Continuous
 62
     7
100
AcDbLine
 10
138.464892951
 20
381.8729384987
 30
0.0
 11
138.2885526094
 21
381.6966130583
 31
0.0
  0
LINE
  5
B3
330
1F
100
AcDbEntity
  8
SLD-0
  6
Continuous
 62
     7
100
AcDbLine
 10
136.4106114182
 20
382.5745596735
 30
0.0
 11
136.2885560069
 21
382.6966113596
 31
0.0
  0
LINE
  5
B4
330
1F
100
AcDbEntity
  8
SLD-0
  6
Continuous
 62
     7
100
AcDbLine
 10
138.464892951
 20
381.8729384987
 30
0.0
 11
138.464892951
 21
380.1217056064
 31
0.0
  0
LINE
  5
B5
330
1F
100
AcDbEntity
  8
SLD-0
  6
Continuous
 62
     7
100
AcDbLine
 10
136.7136563334
 20
382.5202859192
 30
0.0
 11
138.464892951
 21
382.5202859192
 31
0.0
  0
LINE
  5
B6
330
1F
100
AcDbEntity
  8
SLD-0
  6
Continuous
 62
     7
100
AcDbLine
 10
140.7885624346
 20
433.973312033
 30
0.0
 11
140.7885624346
 21
436.7966103644
 31
0.0
  0
LINE
  5
B7
330
1F
100
AcDbEntity
  8
SLD-0
  6
Continuous
 62
     7
100
AcDbLine
 10
145.2885667953
 20
434.9966128542
 30
0.0
 11
145.2885667953
 21
443.9966133981
 31
0.0
  0
LINE
  5
B8
330
1F
100
AcDbEntity
  8
SLD-0
  6
Continuous
 62
     7
100
AcDbLine
 10
140.5885617408
 20
436.996613182
 30
0.0
 11
139.9885664853
 21
436.996613182
 31
0.0
  0
LINE
  5
B9
330
1F
100
AcDbEntity
  8
SLD-0
  6
Continuous
 62
     7
100
AcDbLine
 10
134.2885594043
 20
431.5966130419
 30
0.0
 11
134.2885594043
 21
430.9966131298
 31
0.0
  0
LINE
  5
BA
330
1F
100
AcDbEntity
  8
SLD-0
  6
Continuous
 62
     7
100
AcDbLine
 10
165.7885561857
 20
376.4966144411
 30
0.0
 11
165.7885561857
 21
378.1966134159
 31
0.0
  0
LINE
  5
BB
330
1F
100
AcDbEntity
  8
SLD-0
  6
Continuous
 62
     7
100
AcDbLine
 10
165.7885561857
 20
376.4966144411
 30
0.0
 11
154.2526583347
 21
376.4966144411
 31
0.0
  0
LINE
  5
BC
330
1F
100
AcDbEntity
  8
SLD-0
  6
Continuous
 62
     7
100
AcDbLine
 10
154.5385669145
 20
476.496612206
 30
0.0
 11
154.5385669145
 21
474.7966132312
 31
0.0
  0
LINE
  5
BD
330
1F
100
AcDbEntity
  8
SLD-0
  6
Continuous
 62
     7
100
AcDbLine
 10
154.5385669145
 20
476.496612206
 30
0.0
 11
165.7885561857
 21
476.496612206
 31
0.0
  0
LINE
  5
BE
330
1F
100
AcDbEntity
  8
SLD-0
  6
Continuous
 62
     7
100
AcDbLine
 10
165.7885561857
 20
474.7966132312
 30
0.0
 11
165.7885561857
 21
476.496612206
 31
0.0
  0
LINE
  5
BF
330
1F
100
AcDbEntity
  8
SLD-0
  6
Continuous
 62
     7
100
AcDbLine
 10
150.0885586414
 20
463.4966119377
 30
0.0
 11
150.0656704578
 21
463.8202875106
 31
0.0
  0
LINE
  5
C0
330
1F
100
AcDbEntity
  8
SLD-0
  6
Continuous
 62
     7
100
AcDbLine
 10
148.1122325334
 20
465.773725435
 30
0.0
 11
147.4648813877
 21
465.773725435
 31
0.0
  0
LINE
  5
C1
330
1F
100
AcDbEntity
  8
SLD-0
  6
Continuous
 62
     7
100
AcDbLine
 10
145.5114434633
 20
463.8202875106
 30
0.0
 11
145.4885552797
 21
463.4966119377
 31
0.0
  0
LINE
  5
C2
330
1F
100
AcDbEntity
  8
SLD-0
  6
Continuous
 62
     7
100
AcDbLine
 10
145.4885552797
 20
463.4966119377
 30
0.0
 11
145.5114434633
 21
463.1729400902
 31
0.0
  0
LINE
  5
C3
330
1F
100
AcDbEntity
  8
SLD-0
  6
Continuous
 62
     7
100
AcDbLine
 10
147.4648813877
 20
461.2195021658
 30
0.0
 11
148.1122325334
 21
461.2195021658
 31
0.0
  0
LINE
  5
C4
330
1F
100
AcDbEntity
  8
SLD-0
  6
Continuous
 62
     7
100
AcDbLine
 10
150.0656704578
 20
463.1729400902
 30
0.0
 11
150.0885586414
 21
463.4966119377
 31
0.0
  0
LINE
  5
C5
330
1F
100
AcDbEntity
  8
SLD-0
  6
Continuous
 62
     7
100
AcDbLine
 10
147.3244528445
 20
376.4966168312
 30
0.0
 11
121.2885628614
 21
376.4966168312
 31
0.0
  0
LINE
  5
C6
330
1F
100
AcDbEntity
  8
SLD-0
  6
Continuous
 62
     7
100
AcDbLine
 10
121.2885628614
 20
378.196615806
 30
0.0
 11
121.2885628614
 21
376.4966168312
 31
0.0
  0
LINE
  5
C7
330
1F
100
AcDbEntity
  8
SLD-0
  6
Continuous
 62
     7
100
AcDbLine
 10
147.0385591659
 20
474.7966132312
 30
0.0
 11
147.0385591659
 21
474.4966118781
 31
0.0
  0
LINE
  5
C8
330
1F
100
AcDbEntity
  8
SLD-0
  6
Continuous
 62
     7
100
AcDbLine
 10
154.5385669145
 20
474.4966118781
 30
0.0
 11
154.5385669145
 21
474.7966132312
 31
0.0
  0
LINE
  5
C9
330
1F
100
AcDbEntity
  8
SLD-0
  6
Continuous
 62
     7
100
AcDbLine
 10
139.0385596401
 20
393.0466130792
 30
0.0
 11
139.0385578546
 21
389.9466148763
 31
0.0
  0
LINE
  5
CA
330
1F
100
AcDbEntity
  8
SLD-0
  6
Continuous
 62
     7
100
AcDbLine
 10
139.2385587473
 20
389.7466121865
 30
0.0
 11
141.3385660932
 21
389.746610598
 31
0.0
  0
LINE
  5
CB
330
1F
100
AcDbEntity
  8
SLD-0
  6
Continuous
 62
     7
100
AcDbLine
 10
141.3385596401
 20
393.2466130792
 30
0.0
 11
139.2385596401
 21
393.2466130792
 31
0.0
  0
LINE
  5
CC
330
1F
100
AcDbEntity
  8
SLD-0
  6
Continuous
 62
     7
100
AcDbLine
 10
155.1885553365
 20
430.9966131714
 30
0.0
 11
161.3885559802
 21
430.9966131714
 31
0.0
  0
LINE
  5
CD
330
1F
100
AcDbEntity
  8
SLD-0
  6
Continuous
 62
     7
100
AcDbLine
 10
161.3885559802
 20
443.9966132549
 30
0.0
 11
134.1885575683
 21
443.9966132549
 31
0.0
  0
LINE
  5
CE
330
1F
100
AcDbEntity
  8
SLD-0
  6
Continuous
 62
     7
100
AcDbLine
 10
159.3385587606
 20
380.9466115384
 30
0.0
 11
163.0385617885
 21
380.9466115384
 31
0.0
  0
LINE
  5
CF
330
1F
100
AcDbEntity
  8
SLD-0
  6
Continuous
 62
     7
100
AcDbLine
 10
163.0385617885
 20
380.9466115384
 30
0.0
 11
163.0385617885
 21
383.4466128795
 31
0.0
  0
LINE
  5
D0
330
1F
100
AcDbEntity
  8
SLD-0
  6
Continuous
 62
     7
100
AcDbLine
 10
163.0385617885
 20
383.4466128795
 30
0.0
 11
159.3385587606
 21
383.4466128795
 31
0.0
  0
LINE
  5
D1
330
1F
100
AcDbEntity
  8
SLD-0
  6
Continuous
 62
     7
100
AcDbLine
 10
159.3385587606
 20
383.4466128795
 30
0.0
 11
159.3385587606
 21
380.9466115384
 31
0.0
  0
LINE
  5
D2
330
1F
100
AcDbEntity
  8
SLD-0
  6
Continuous
 62
     7
100
AcDbLine
 10
141.8803580765
 20
434.9966128958
 30
0.0
 11
153.4565086032
 21
434.9966131208
 31
0.0
  0
LINE
  5
D3
330
1F
100
AcDbEntity
  8
SLD-0
  6
Continuous
 62
     7
100
AcDbLine
 10
141.5385595417
 20
389.9466113921
 30
0.0
 11
141.5385595417
 21
393.0466113921
 31
0.0
  0
LINE
  5
D4
330
1F
100
AcDbEntity
  8
SLD-0
  6
Continuous
 62
     7
100
AcDbLine
 10
121.2885628614
 20
378.196615806
 30
0.0
 11
118.788557795
 21
378.196615806
 31
0.0
  0
LINE
  5
D5
330
1F
100
AcDbEntity
  8
SLD-0
  6
Continuous
 62
     7
100
AcDbLine
 10
165.7885561857
 20
378.1966134159
 30
0.0
 11
165.7885561857
 21
474.7966132312
 31
0.0
  0
LINE
  5
D6
330
1F
100
AcDbEntity
  8
SLD-0
  6
Continuous
 62
     7
100
AcDbLine
 10
134.1885575683
 20
430.9966129866
 30
0.0
 11
134.8885619672
 21
430.9966129866
 31
0.0
  0
LINE
  5
D7
330
1F
100
AcDbEntity
  8
SLD-0
  6
Continuous
 62
     7
100
AcDbLine
 10
139.6885612638
 20
430.9966129866
 30
0.0
 11
140.3885582121
 21
430.9966129866
 31
0.0
  0
LINE
  5
D8
330
1F
100
AcDbEntity
  8
SLD-0
  6
Continuous
 62
     7
100
AcDbLine
 10
161.5385661992
 20
470.7466117291
 30
0.0
 11
156.5385560665
 21
470.7466117291
 31
0.0
  0
LINE
  5
D9
330
1F
100
AcDbEntity
  8
SLD-0
  6
Continuous
 62
     7
100
AcDbLine
 10
155.888552514
 20
387.4966143815
 30
0.0
 11
155.888552514
 21
400.5720201133
 31
0.0
  0
LINE
  5
DA
330
1F
100
AcDbEntity
  8
SLD-0
  6
Continuous
 62
     7
100
AcDbLine
 10
145.6885596401
 20
400.5720192283
 30
0.0
 11
145.6885586652
 21
387.4966143815
 31
0.0
  0
LINE
  5
DB
330
1F
100
AcDbEntity
  8
SLD-0
  6
Continuous
 62
     7
100
AcDbLine
 10
156.5385560665
 20
470.7466117291
 30
0.0
 11
156.5385560665
 21
468.7466114013
 31
0.0
  0
LINE
  5
DC
330
1F
100
AcDbEntity
  8
SLD-0
  6
Continuous
 62
     7
100
AcDbLine
 10
161.5385661992
 20
468.7466114013
 30
0.0
 11
161.5385661992
 21
470.7466117291
 31
0.0
  0
LINE
  5
DD
330
1F
100
AcDbEntity
  8
SLD-0
  6
Continuous
 62
     7
100
AcDbLine
 10
156.5385560665
 20
468.7466114013
 30
0.0
 11
161.5385661992
 21
468.7466114013
 31
0.0
  0
LINE
  5
DE
330
1F
100
AcDbEntity
  8
SLD-0
  6
Continuous
 62
     7
100
AcDbLine
 10
134.1885575683
 20
443.9966132549
 30
0.0
 11
134.1885575683
 21
430.9966129866
 31
0.0
  0
LINE
  5
DF
330
1F
100
AcDbEntity
  8
SLD-0
  6
Continuous
 62
     7
100
AcDbLine
 10
140.5055372753
 20
433.6360216237
 30
0.0
 11
141.4973405512
 21
434.8180067408
 31
0.0
  0
LINE
  5
E0
330
1F
100
AcDbEntity
  8
SLD-0
  6
Continuous
 62
     7
100
AcDbLine
 10
140.3885582121
 20
430.9966129866
 30
0.0
 11
140.3885594969
 21
433.3146278189
 31
0.0
  0
LINE
  5
E1
330
1F
100
AcDbEntity
  8
SLD-0
  6
Continuous
 62
     7
100
AcDbLine
 10
155.1885594108
 20
432.3626385246
 30
0.0
 11
155.1885553365
 21
430.9966131714
 31
0.0
  0
LINE
  5
E2
330
1F
100
AcDbEntity
  8
SLD-0
  6
Continuous
 62
     7
100
AcDbLine
 10
153.8895213051
 20
434.7466131208
 30
0.0
 11
155.1215721127
 21
432.6126385246
 31
0.0
  0
LINE
  5
E3
330
1F
100
AcDbEntity
  8
SLD-0
  6
Continuous
 62
     7
100
AcDbLine
 10
161.3885559802
 20
430.9966131714
 30
0.0
 11
161.3885559802
 21
443.9966132549
 31
0.0
  0
LINE
  5
E4
330
1F
100
AcDbEntity
  8
SLD-0
  6
Continuous
 62
     7
100
AcDbLine
 10
118.788557795
 20
476.496612206
 30
0.0
 11
147.0385591659
 21
476.496612206
 31
0.0
  0
LINE
  5
E5
330
1F
100
AcDbEntity
  8
SLD-0
  6
Continuous
 62
     7
100
AcDbLine
 10
147.0385591659
 20
474.7966132312
 30
0.0
 11
147.0385591659
 21
476.496612206
 31
0.0
  0
LINE
  5
E6
330
1F
100
AcDbEntity
  8
SLD-0
  6
Continuous
 62
     7
100
AcDbLine
 10
141.0885553035
 20
382.1966140716
 30
0.0
 11
141.0656671199
 21
382.5202859192
 31
0.0
  0
LINE
  5
E7
330
1F
100
AcDbEntity
  8
SLD-0
  6
Continuous
 62
     7
100
AcDbLine
 10
139.1122291955
 20
384.4737238436
 30
0.0
 11
138.464892951
 21
384.4737238436
 31
0.0
  0
LINE
  5
E8
330
1F
100
AcDbEntity
  8
SLD-0
  6
Continuous
 62
     7
100
AcDbLine
 10
136.511447576
 20
382.5202859192
 30
0.0
 11
136.4885593924
 21
382.1966140716
 31
0.0
  0
LINE
  5
E9
330
1F
100
AcDbEntity
  8
SLD-0
  6
Continuous
 62
     7
100
AcDbLine
 10
136.4885593924
 20
382.1966140716
 30
0.0
 11
136.511447576
 21
381.8729384987
 31
0.0
  0
LINE
  5
EA
330
1F
100
AcDbEntity
  8
SLD-0
  6
Continuous
 62
     7
100
AcDbLine
 10
138.464892951
 20
379.9195005743
 30
0.0
 11
139.1122291955
 21
379.9195005743
 31
0.0
  0
LINE
  5
EB
330
1F
100
AcDbEntity
  8
SLD-0
  6
Continuous
 62
     7
100
AcDbLine
 10
141.0656671199
 20
381.8729384987
 30
0.0
 11
141.0885553035
 21
382.1966140716
 31
0.0
  0
LINE
  5
EC
330
1F
100
AcDbEntity
  8
SLD-0
  6
Continuous
 62
     7
100
AcDbLine
 10
154.5385669145
 20
474.9966128914
 30
0.0
 11
147.0385591659
 21
474.9966128914
 31
0.0
  0
LINE
  5
ED
330
1F
100
AcDbEntity
  8
SLD-0
  6
Continuous
 62
     7
100
AcDbLine
 10
147.0385591659
 20
476.496612206
 30
0.0
 11
154.5385669145
 21
476.496612206
 31
0.0
  0
LINE
  5
EE
330
1F
100
AcDbEntity
  8
SLD-0
  6
Continuous
 62
     7
100
AcDbLine
 10
134.8885619672
 20
430.9966129866
 30
0.0
 11
139.6885612638
 21
430.9966129866
 31
0.0
  0
LINE
  5
EF
330
1F
100
AcDbEntity
  8
SLD-0
  6
Continuous
 62
     7
100
AcDbLine
 10
140.2885594716
 20
431.5966129613
 30
0.0
 11
140.288556494
 21
436.696613108
 31
0.0
  0
LINE
  5
F0
330
1F
100
AcDbEntity
  8
SLD-0
  6
Continuous
 62
     7
100
AcDbLine
 10
139.9885664853
 20
436.996613182
 30
0.0
 11
134.5885596401
 21
436.9966130792
 31
0.0
  0
LINE
  5
F1
330
1F
100
AcDbEntity
  8
SLD-0
  6
Continuous
 62
     7
100
AcDbLine
 10
134.2885596401
 20
436.6966130792
 30
0.0
 11
134.2885594043
 21
431.5966130419
 31
0.0
  0
LINE
  5
F2
330
1F
100
AcDbEntity
  8
SLD-0
  6
Continuous
 62
     7
100
AcDbLine
 10
134.768354443
 20
430.9966131298
 30
0.0
 11
134.4933535132
 21
431.0449158259
 31
0.0
  0
LINE
  5
F3
330
1F
100
AcDbEntity
  8
SLD-0
  6
Continuous
 62
     7
100
AcDbLine
 10
134.4933535132
 20
431.0449158259
 30
0.0
 11
134.2885594043
 21
431.1587624437
 31
0.0
  0
LINE
  5
F4
330
1F
100
AcDbEntity
  8
SLD-0
  6
Continuous
 62
     7
100
AcDbLine
 10
140.3885583553
 20
431.2143528553
 30
0.0
 11
140.0837700042
 21
431.0449158259
 31
0.0
  0
LINE
  5
F5
330
1F
100
AcDbEntity
  8
SLD-0
  6
Continuous
 62
     7
100
AcDbLine
 10
140.0837700042
 20
431.0449158259
 30
0.0
 11
139.8087690744
 21
430.9966131298
 31
0.0
  0
LINE
  5
F6
330
1F
100
AcDbEntity
  8
SLD-0
  6
Continuous
 62
     7
100
AcDbLine
 10
94.7885613117
 20
417.3966129495
 30
0.0
 11
94.7885613117
 21
450.396613702
 31
0.0
  0
LINE
  5
F7
330
1F
100
AcDbEntity
  8
SLD-0
  6
Continuous
 62
     7
100
AcDbLine
 10
95.7885633382
 20
451.3966138659
 30
0.0
 11
115.7885591659
 21
451.3966138659
 31
0.0
  0
LINE
  5
F8
330
1F
100
AcDbEntity
  8
SLD-0
  6
Continuous
 62
     7
100
AcDbLine
 10
115.7885591659
 20
416.3966127857
 30
0.0
 11
95.7885633382
 21
416.3966127857
 31
0.0
  0
LINE
  5
F9
330
1F
100
AcDbEntity
  8
SLD-0
  6
Continuous
 62
     7
100
AcDbLine
 10
115.7885591659
 20
504.9966103582
 30
0.0
 11
115.7885591659
 21
349.9966166167
 31
0.0
  0
LINE
  5
FA
330
1F
100
AcDbEntity
  8
SLD-0
  6
Continuous
 62
     7
100
AcDbLine
 10
118.788557795
 20
504.9966103582
 30
0.0
 11
118.788557795
 21
349.9966166167
 31
0.0
  0
LINE
  5
FB
330
1F
100
AcDbEntity
  8
SLD-0
  6
Continuous
 62
     7
100
AcDbLine
 10
118.788557795
 20
504.9966103582
 30
0.0
 11
115.7885591659
 21
504.9966103582
 31
0.0
  0
LINE
  5
FC
330
1F
100
AcDbEntity
  8
SLD-0
  6
Continuous
 62
     7
100
AcDbLine
 10
118.788557795
 20
349.9966166167
 30
0.0
 11
115.7885591659
 21
349.9966166167
 31
0.0
  0
LINE
  5
FD
330
1F
100
AcDbEntity
  8
SLD-0
  6
Continuous
 62
     7
100
AcDbLine
 10
141.1385636005
 20
382.1966140716
 30
0.0
 11
141.1096106443
 21
381.8288571386
 31
0.0
  0
LINE
  5
FE
330
1F
100
AcDbEntity
  8
SLD-0
  6
Continuous
 62
     7
100
AcDbLine
 10
139.1563217315
 20
379.8755682258
 30
0.0
 11
138.6281947765
 21
379.8520914464
 31
0.0
  0
LINE
  5
FF
330
1F
100
AcDbEntity
  8
SLD-0
  6
Continuous
 62
     7
100
AcDbLine
 10
138.6281947765
 20
379.8520914464
 30
0.0
 11
138.420800415
 21
379.8755682258
 31
0.0
  0
LINE
  5
100
330
1F
100
AcDbEntity
  8
SLD-0
  6
Continuous
 62
     7
100
AcDbLine
 10
138.420800415
 20
384.5176599173
 30
0.0
 11
138.6281947765
 21
384.5411329715
 31
0.0
  0
LINE
  5
101
330
1F
100
AcDbEntity
  8
SLD-0
  6
Continuous
 62
     7
100
AcDbLine
 10
138.6281947765
 20
384.5411329715
 30
0.0
 11
139.1563217315
 21
384.5176599173
 31
0.0
  0
LINE
  5
102
330
1F
100
AcDbEntity
  8
SLD-0
  6
Continuous
 62
     7
100
AcDbLine
 10
141.1096106443
 20
382.5643672793
 30
0.0
 11
141.1385636005
 21
382.1966140716
 31
0.0
  0
LINE
  5
103
330
1F
100
AcDbEntity
  8
SLD-0
  6
Continuous
 62
     7
100
AcDbLine
 10
150.1385669383
 20
463.4966119377
 30
0.0
 11
150.109599081
 21
463.1288587301
 31
0.0
  0
LINE
  5
104
330
1F
100
AcDbEntity
  8
SLD-0
  6
Continuous
 62
     7
100
AcDbLine
 10
148.1563101682
 20
461.175566092
 30
0.0
 11
147.6281832132
 21
461.1520930378
 31
0.0
  0
LINE
  5
105
330
1F
100
AcDbEntity
  8
SLD-0
  6
Continuous
 62
     7
100
AcDbLine
 10
147.6281832132
 20
461.1520930378
 30
0.0
 11
147.4208037528
 21
461.175566092
 31
0.0
  0
LINE
  5
106
330
1F
100
AcDbEntity
  8
SLD-0
  6
Continuous
 62
     7
100
AcDbLine
 10
147.4208037528
 20
465.8176577835
 30
0.0
 11
147.6281832132
 21
465.8411345629
 31
0.0
  0
LINE
  5
107
330
1F
100
AcDbEntity
  8
SLD-0
  6
Continuous
 62
     7
100
AcDbLine
 10
147.6281832132
 20
465.8411345629
 30
0.0
 11
148.1563101682
 21
465.8176577835
 31
0.0
  0
LINE
  5
108
330
1F
100
AcDbEntity
  8
SLD-0
  6
Continuous
 62
     7
100
AcDbLine
 10
150.109599081
 20
463.8643688707
 30
0.0
 11
150.1385669383
 21
463.4966119377
 31
0.0
  0
LINE
  5
109
330
1F
100
AcDbEntity
  8
SLD-0
  6
Continuous
 62
     7
100
AcDbLine
 10
141.3885603818
 20
390.1698044686
 30
0.0
 11
141.3885603818
 21
392.6234222202
 31
0.0
  0
LINE
  5
10A
330
1F
100
AcDbEntity
  8
SLD-0
  6
Continuous
 62
     7
100
AcDbLine
 10
139.1385595474
 20
390.1698044686
 30
0.0
 11
139.1385595474
 21
392.6234222202
 31
0.0
  0
LINE
  5
10B
330
1F
100
AcDbEntity
  8
SLD-0
  6
Continuous
 62
     7
100
AcDbLine
 10
139.1385595474
 20
389.8711144178
 30
0.0
 11
139.1385595474
 21
390.1698044686
 31
0.0
  0
LINE
  5
10C
330
1F
100
AcDbEntity
  8
SLD-0
  6
Continuous
 62
     7
100
AcDbLine
 10
141.3885603818
 20
390.1698044686
 30
0.0
 11
141.3885603818
 21
389.8711144178
 31
0.0
  0
LINE
  5
10D
330
1F
100
AcDbEntity
  8
SLD-0
  6
Continuous
 62
     7
100
AcDbLine
 10
139.1385595474
 20
392.6234222202
 30
0.0
 11
139.1385595474
 21
392.9221122711
 31
0.0
  0
LINE
  5
10E
330
1F
100
AcDbEntity
  8
SLD-0
  6
Continuous
 62
     7
100
AcDbLine
 10
141.3885603818
 20
392.9221122711
 30
0.0
 11
141.3885603818
 21
392.6234222202
 31
0.0
  0
LINE
  5
10F
330
1F
100
AcDbEntity
  8
SLD-0
  6
Continuous
 62
     7
100
AcDbLine
 10
139.1385595474
 20
389.7734075038
 30
0.0
 11
139.1385595474
 21
389.8711144178
 31
0.0
  0
LINE
  5
110
330
1F
100
AcDbEntity
  8
SLD-0
  6
Continuous
 62
     7
100
AcDbLine
 10
141.3885603818
 20
389.7529631107
 30
0.0
 11
141.3885603818
 21
389.8711144178
 31
0.0
  0
LINE
  5
111
330
1F
100
AcDbEntity
  8
SLD-0
  6
Continuous
 62
     7
100
AcDbLine
 10
139.1385595474
 20
393.0466114728
 30
0.0
 11
141.3885603818
 21
393.0466114728
 31
0.0
  0
LINE
  5
112
330
1F
100
AcDbEntity
  8
SLD-0
  6
Continuous
 62
     7
100
AcDbLine
 10
139.1385595474
 20
392.9221122711
 30
0.0
 11
139.1385595474
 21
393.0466114728
 31
0.0
  0
LINE
  5
113
330
1F
100
AcDbEntity
  8
SLD-0
  6
Continuous
 62
     7
100
AcDbLine
 10
141.3885603818
 20
392.9221122711
 30
0.0
 11
141.3885603818
 21
393.0466114728
 31
0.0
  0
LINE
  5
114
330
1F
100
AcDbEntity
  8
SLD-0
  6
Continuous
 62
     7
100
AcDbLine
 10
139.1385595474
 20
393.0466114728
 30
0.0
 11
139.1385595474
 21
393.2198188453
 31
0.0
  0
LINE
  5
115
330
1F
100
AcDbEntity
  8
SLD-0
  6
Continuous
 62
     7
100
AcDbLine
 10
141.3885603818
 20
393.0466114728
 30
0.0
 11
141.3885603818
 21
393.2402632384
 31
0.0
  0
LINE
  5
116
330
1F
100
AcDbEntity
  8
SLD-0
  6
Continuous
 62
     7
100
AcDbLine
 10
156.7885528478
 20
470.4966112225
 30
0.0
 11
156.7885528478
 21
468.9966119079
 31
0.0
  0
LINE
  5
117
330
1F
100
AcDbEntity
  8
SLD-0
  6
Continuous
 62
     7
100
AcDbLine
 10
161.2885545167
 20
468.9966119079
 30
0.0
 11
161.2885545167
 21
470.4966112225
 31
0.0
  0
LINE
  5
118
330
1F
100
AcDbEntity
  8
SLD-0
  6
Continuous
 62
     7
100
AcDbLine
 10
161.2885545167
 20
470.4966112225
 30
0.0
 11
156.7885528478
 21
470.4966112225
 31
0.0
  0
LINE
  5
119
330
1F
100
AcDbEntity
  8
SLD-0
  6
Continuous
 62
     7
100
AcDbLine
 10
156.7885528478
 20
468.9966119079
 30
0.0
 11
161.2885545167
 21
468.9966119079
 31
0.0
  0
LINE
  5
11A
330
1F
100
AcDbEntity
  8
SLD-0
  6
Continuous
 62
     7
100
AcDbLine
 10
120.2885608348
 20
376.4966168312
 30
0.0
 11
118.788557795
 21
376.4966168312
 31
0.0
  0
LINE
  5
11B
330
1F
100
AcDbEntity
  8
SLD-0
  6
Continuous
 62
     7
100
AcDbLine
 10
120.2885608348
 20
376.4966168312
 30
0.0
 11
120.2885608348
 21
378.196615806
 31
0.0
  0
LINE
  5
11C
330
1F
100
AcDbEntity
  8
SLD-0
  6
Continuous
 62
     7
100
AcDbLine
 10
161.5385661992
 20
470.4966112225
 30
0.0
 11
161.2885545167
 21
470.4966112225
 31
0.0
  0
LINE
  5
11D
330
1F
100
AcDbEntity
  8
SLD-0
  6
Continuous
 62
     7
100
AcDbLine
 10
161.2885545167
 20
468.9966119079
 30
0.0
 11
161.5385661992
 21
468.9966119079
 31
0.0
  0
LINE
  5
11E
330
1F
100
AcDbEntity
  8
SLD-0
  6
Continuous
 62
     7
100
AcDbLine
 10
120.4885567698
 20
376.4966168312
 30
0.0
 11
120.2885608348
 21
376.4966168312
 31
0.0
  0
LINE
  5
11F
330
1F
100
AcDbEntity
  8
SLD-0
  6
Continuous
 62
     7
100
AcDbLine
 10
156.7885528478
 20
470.4966112225
 30
0.0
 11
156.7885528478
 21
470.696614608
 31
0.0
  0
LINE
  5
120
330
1F
100
AcDbEntity
  8
SLD-0
  6
Continuous
 62
     7
100
AcDbLine
 10
155.1885555658
 20
431.3966131488
 30
0.0
 11
158.2885633382
 21
431.3966131488
 31
0.0
  0
LINE
  5
121
330
1F
100
AcDbEntity
  8
SLD-0
  6
Continuous
 62
     7
100
AcDbLine
 10
158.2885596401
 20
436.5966130792
 30
0.0
 11
145.2885667953
 21
436.5966129302
 31
0.0
  0
LINE
  5
122
330
1F
100
AcDbEntity
  8
SLD-0
  6
Continuous
 62
     7
100
AcDbLine
 10
156.7885528478
 20
468.9966119079
 30
0.0
 11
156.7885528478
 21
468.7466114013
 31
0.0
  0
LINE
  5
123
330
1F
100
AcDbEntity
  8
SLD-0
  6
Continuous
 62
     7
100
AcDbLine
 10
120.4885567698
 20
376.4966168312
 30
0.0
 11
121.2885628614
 21
376.4966168312
 31
0.0
  0
LINE
  5
124
330
1F
100
AcDbEntity
  8
SLD-0
  6
Continuous
 62
     7
100
AcDbLine
 10
159.4385604534
 20
381.0966140775
 30
0.0
 11
162.9385600957
 21
381.0966140775
 31
0.0
  0
LINE
  5
125
330
1F
100
AcDbEntity
  8
SLD-0
  6
Continuous
 62
     7
100
AcDbLine
 10
162.9385600957
 20
381.0966140775
 30
0.0
 11
162.9385600957
 21
383.2966140656
 31
0.0
  0
LINE
  5
126
330
1F
100
AcDbEntity
  8
SLD-0
  6
Continuous
 62
     7
100
AcDbLine
 10
162.9385600957
 20
383.2966140656
 30
0.0
 11
159.4385604534
 21
383.2966140656
 31
0.0
  0
LINE
  5
127
330
1F
100
AcDbEntity
  8
SLD-0
  6
Continuous
 62
     7
100
AcDbLine
 10
159.4385604534
 20
383.2966140656
 30
0.0
 11
159.4385604534
 21
381.0966140775
 31
0.0
  0
LINE
  5
128
330
1F
100
AcDbEntity
  8
SLD-0
  6
Continuous
 62
     7
100
AcDbLine
 10
307.9163354449
 20
436.3966132699
 30
0.0
 11
307.8163346834
 21
436.3966132699
 31
0.0
  0
LINE
  5
129
330
1F
100
AcDbEntity
  8
SLD-0
  6
Continuous
 62
     7
100
AcDbLine
 10
307.8163346834
 20
431.3966131488
 30
0.0
 11
307.9163354449
 21
431.3966131488
 31
0.0
  0
LINE
  5
12A
330
1F
100
AcDbEntity
  8
SLD-0
  6
Continuous
 62
     7
100
AcDbLine
 10
307.9163354449
 20
447.3966132103
 30
0.0
 11
307.8163346834
 21
447.3966132103
 31
0.0
  0
LINE
  5
12B
330
1F
100
AcDbEntity
  8
SLD-0
  6
Continuous
 62
     7
100
AcDbLine
 10
307.8163346834
 20
444.3966127186
 30
0.0
 11
307.9163354449
 21
444.3966127186
 31
0.0
  0
LINE
  5
12C
330
1F
100
AcDbEntity
  8
SLD-0
  6
Continuous
 62
     7
100
AcDbLine
 10
307.8163346834
 20
441.5966128184
 30
0.0
 11
307.9163354449
 21
441.5966128184
 31
0.0
  0
LINE
  5
12D
330
1F
100
AcDbEntity
  8
SLD-0
  6
Continuous
 62
     7
100
AcDbLine
 10
307.9163354449
 20
419.3944125621
 30
0.0
 11
307.8163346834
 21
419.3944125621
 31
0.0
  0
LINE
  5
12E
330
1F
100
AcDbEntity
  8
SLD-0
  6
Continuous
 62
     7
100
AcDbLine
 10
307.9163354449
 20
421.2162452935
 30
0.0
 11
307.8163346834
 21
421.2162452935
 31
0.0
  0
LINE
  5
12F
330
1F
100
AcDbEntity
  8
SLD-0
  6
Continuous
 62
     7
100
AcDbLine
 10
307.9163354449
 20
421.4321184157
 30
0.0
 11
307.8163346834
 21
421.4321184157
 31
0.0
  0
LINE
  5
130
330
1F
100
AcDbEntity
  8
SLD-0
  6
Continuous
 62
     7
100
AcDbLine
 10
307.8163346834
 20
449.4966133683
 30
0.0
 11
307.9163354449
 21
449.4966133683
 31
0.0
  0
LINE
  5
131
330
1F
100
AcDbEntity
  8
SLD-0
  6
Continuous
 62
     7
100
AcDbLine
 10
315.6163344718
 20
416.3966127856
 30
0.0
 11
308.2163351167
 21
416.3966130792
 31
0.0
  0
LINE
  5
132
330
1F
100
AcDbEntity
  8
SLD-0
  6
Continuous
 62
     7
100
AcDbLine
 10
307.9163351167
 20
416.6966130792
 30
0.0
 11
307.9163351167
 21
451.0966125129
 31
0.0
  0
LINE
  5
133
330
1F
100
AcDbEntity
  8
SLD-0
  6
Continuous
 62
     7
100
AcDbLine
 10
308.2163351646
 20
451.3966133085
 30
0.0
 11
315.6163347011
 21
451.3966133085
 31
0.0
  0
LINE
  5
134
330
1F
100
AcDbEntity
  8
SLD-0
  6
Continuous
 62
     7
100
AcDbLine
 10
315.9163356176
 20
451.0966127202
 30
0.0
 11
315.9163356176
 21
416.6966134146
 31
0.0
  0
LINE
  5
135
330
1F
100
AcDbEntity
  8
SLD-0
  6
Continuous
 62
     7
100
AcDbLine
 10
307.9163351167
 20
451.0966125129
 30
0.0
 11
307.9163351167
 21
451.4966136961
 31
0.0
  0
LINE
  5
136
330
1F
100
AcDbEntity
  8
SLD-0
  6
Continuous
 62
     7
100
AcDbLine
 10
307.8163346834
 20
451.4966136961
 30
0.0
 11
307.8163346834
 21
416.3966127856
 31
0.0
  0
LINE
  5
137
330
1F
100
AcDbEntity
  8
SLD-0
  6
Continuous
 62
     7
100
AcDbLine
 10
307.8163346834
 20
416.3966127856
 30
0.0
 11
308.2163351167
 21
416.3966130792
 31
0.0
  0
LINE
  5
138
330
1F
100
AcDbEntity
  8
SLD-0
  6
Continuous
 62
     7
100
AcDbLine
 10
315.6163344718
 20
416.3966127856
 30
0.0
 11
315.9163356176
 21
416.3966127856
 31
0.0
  0
LINE
  5
139
330
1F
100
AcDbEntity
  8
SLD-0
  6
Continuous
 62
     7
100
AcDbLine
 10
315.9163356176
 20
416.3966127856
 30
0.0
 11
315.9163356176
 21
416.6966134146
 31
0.0
  0
LINE
  5
13A
330
1F
100
AcDbEntity
  8
SLD-0
  6
Continuous
 62
     7
100
AcDbLine
 10
315.9163356176
 20
451.0966127202
 30
0.0
 11
315.9163356176
 21
451.4966136961
 31
0.0
  0
LINE
  5
13B
330
1F
100
AcDbEntity
  8
SLD-0
  6
Continuous
 62
     7
100
AcDbLine
 10
315.9163356176
 20
451.4966136961
 30
0.0
 11
307.8163346834
 21
451.4966136961
 31
0.0
  0
LINE
  5
13C
330
1F
100
AcDbEntity
  8
SLD-0
  6
Continuous
 62
     7
100
AcDbLine
 10
299.8663350916
 20
504.9966103582
 30
0.0
 11
323.8663344271
 21
504.9966103582
 31
0.0
  0
LINE
  5
13D
330
1F
100
AcDbEntity
  8
SLD-0
  6
Continuous
 62
     7
100
AcDbLine
 10
323.8663344271
 20
504.9966103582
 30
0.0
 11
323.8663344271
 21
349.9966166167
 31
0.0
  0
LINE
  5
13E
330
1F
100
AcDbEntity
  8
SLD-0
  6
Continuous
 62
     7
100
AcDbLine
 10
323.8663344271
 20
349.9966166167
 30
0.0
 11
299.8663350916
 21
349.9966166167
 31
0.0
  0
LINE
  5
13F
330
1F
100
AcDbEntity
  8
SLD-0
  6
Continuous
 62
     7
100
AcDbLine
 10
299.8663350916
 20
504.9966103582
 30
0.0
 11
299.8663350916
 21
349.9966166167
 31
0.0
  0
LINE
  5
140
330
1F
100
AcDbEntity
  8
SLD-0
  6
Continuous
 62
     7
100
AcDbLine
 10
314.4663354941
 20
388.3966147153
 30
0.0
 11
314.4663354941
 21
387.6007883994
 31
0.0
  0
LINE
  5
141
330
1F
100
AcDbEntity
  8
SLD-0
  6
Continuous
 62
     7
100
AcDbLine
 10
145.7067082796
 20
227.1317250551
 30
0.0
 11
145.7067082796
 21
227.4317250111
 31
0.0
  0
LINE
  5
142
330
1F
100
AcDbEntity
  8
SLD-0
  6
Continuous
 62
     7
100
AcDbLine
 10
133.8762666258
 20
227.4317250111
 30
0.0
 11
133.8762666258
 21
227.1317250551
 31
0.0
  0
LINE
  5
143
330
1F
100
AcDbEntity
  8
SLD-0
  6
Continuous
 62
     7
100
AcDbLine
 10
151.2885640535
 20
213.1317250886
 30
0.0
 11
151.2885640535
 21
217.0982419037
 31
0.0
  0
LINE
  5
144
330
1F
100
AcDbEntity
  8
SLD-0
  6
Continuous
 62
     7
100
AcDbLine
 10
165.7885561857
 20
225.6317252749
 30
0.0
 11
118.788557795
 21
225.6317252749
 31
0.0
  0
LINE
  5
145
330
1F
100
AcDbEntity
  8
SLD-0
  6
Continuous
 62
     7
100
AcDbLine
 10
165.7885561857
 20
225.6317252749
 30
0.0
 11
165.7885561857
 21
213.3317247489
 31
0.0
  0
LINE
  5
146
330
1F
100
AcDbEntity
  8
SLD-0
  6
Continuous
 62
     7
100
AcDbLine
 10
154.5385669145
 20
213.3317247489
 30
0.0
 11
154.5385669145
 21
213.3817255953
 31
0.0
  0
LINE
  5
147
330
1F
100
AcDbEntity
  8
SLD-0
  6
Continuous
 62
     7
100
AcDbLine
 10
147.0385596401
 20
213.3817251083
 30
0.0
 11
147.0385591659
 21
213.3317247489
 31
0.0
  0
LINE
  5
148
330
1F
100
AcDbEntity
  8
SLD-0
  6
Continuous
 62
     7
100
AcDbLine
 10
147.0385591659
 20
211.6317257741
 30
0.0
 11
147.0385591659
 21
213.3317247489
 31
0.0
  0
LINE
  5
149
330
1F
100
AcDbEntity
  8
SLD-0
  6
Continuous
 62
     7
100
AcDbLine
 10
147.0385591659
 20
211.6317257741
 30
0.0
 11
118.788557795
 21
211.6317257741
 31
0.0
  0
LINE
  5
14A
330
1F
100
AcDbEntity
  8
SLD-0
  6
Continuous
 62
     7
100
AcDbLine
 10
165.7885561857
 20
211.6317257741
 30
0.0
 11
154.5385669145
 21
211.6317257741
 31
0.0
  0
LINE
  5
14B
330
1F
100
AcDbEntity
  8
SLD-0
  6
Continuous
 62
     7
100
AcDbLine
 10
154.5385669145
 20
213.3317247489
 30
0.0
 11
154.5385669145
 21
211.6317257741
 31
0.0
  0
LINE
  5
14C
330
1F
100
AcDbEntity
  8
SLD-0
  6
Continuous
 62
     7
100
AcDbLine
 10
165.7885561857
 20
211.6317257741
 30
0.0
 11
165.7885561857
 21
213.3317247489
 31
0.0
  0
LINE
  5
14D
330
1F
100
AcDbEntity
  8
SLD-0
  6
Continuous
 62
     7
100
AcDbLine
 10
147.0385591659
 20
213.1317250886
 30
0.0
 11
154.5385669145
 21
213.1317250886
 31
0.0
  0
LINE
  5
14E
330
1F
100
AcDbEntity
  8
SLD-0
  6
Continuous
 62
     7
100
AcDbLine
 10
147.0385591659
 20
211.6317257741
 30
0.0
 11
154.5385669145
 21
211.6317257741
 31
0.0
  0
LINE
  5
14F
330
1F
100
AcDbEntity
  8
SLD-0
  6
Continuous
 62
     7
100
AcDbLine
 10
154.2526583347
 20
213.3317247489
 30
0.0
 11
154.2499910268
 21
213.3168701538
 31
0.0
  0
LINE
  5
150
330
1F
100
AcDbEntity
  8
SLD-0
  6
Continuous
 62
     7
100
AcDbLine
 10
154.2499910268
 20
213.3168701538
 30
0.0
 11
154.2406778011
 21
213.3005850473
 31
0.0
  0
LINE
  5
151
330
1F
100
AcDbEntity
  8
SLD-0
  6
Continuous
 62
     7
100
AcDbLine
 10
154.2406778011
 20
213.3005850473
 30
0.0
 11
154.2163144025
 21
213.2783413389
 31
0.0
  0
LINE
  5
152
330
1F
100
AcDbEntity
  8
SLD-0
  6
Continuous
 62
     7
100
AcDbLine
 10
154.2163144025
 20
213.2783413389
 30
0.0
 11
154.1243593368
 21
213.2360034146
 31
0.0
  0
LINE
  5
153
330
1F
100
AcDbEntity
  8
SLD-0
  6
Continuous
 62
     7
100
AcDbLine
 10
154.1243593368
 20
213.2360034146
 30
0.0
 11
153.6899457845
 21
213.1655879774
 31
0.0
  0
LINE
  5
154
330
1F
100
AcDbEntity
  8
SLD-0
  6
Continuous
 62
     7
100
AcDbLine
 10
153.6899457845
 20
213.1655879774
 30
0.0
 11
152.3084293279
 21
213.1317250886
 31
0.0
  0
LINE
  5
155
330
1F
100
AcDbEntity
  8
SLD-0
  6
Continuous
 62
     7
100
AcDbLine
 10
154.2526583347
 20
214.8178659835
 30
0.0
 11
154.2526583347
 21
213.3317247489
 31
0.0
  0
LINE
  5
156
330
1F
100
AcDbEntity
  8
SLD-0
  6
Continuous
 62
     7
100
AcDbLine
 10
143.0125932369
 20
227.4317250111
 30
0.0
 11
145.7067082796
 21
227.4317250111
 31
0.0
  0
LINE
  5
157
330
1F
100
AcDbEntity
  8
SLD-0
  6
Continuous
 62
     7
100
AcDbLine
 10
135.9425435933
 20
227.4317250111
 30
0.0
 11
143.0125932369
 21
227.4317250111
 31
0.0
  0
LINE
  5
158
330
1F
100
AcDbEntity
  8
SLD-0
  6
Continuous
 62
     7
100
AcDbLine
 10
133.8762666258
 20
227.4317250111
 30
0.0
 11
135.9425435933
 21
227.4317250111
 31
0.0
  0
LINE
  5
159
330
1F
100
AcDbEntity
  8
SLD-0
  6
Continuous
 62
     7
100
AcDbLine
 10
95.7885633383
 20
223.1817247802
 30
0.0
 11
115.788559166
 21
223.1817247802
 31
0.0
  0
LINE
  5
15A
330
1F
100
AcDbEntity
  8
SLD-0
  6
Continuous
 62
     7
100
AcDbLine
 10
94.7885613117
 20
216.1817245641
 30
0.0
 11
94.7885613117
 21
222.1817255475
 31
0.0
  0
LINE
  5
15B
330
1F
100
AcDbEntity
  8
SLD-0
  6
Continuous
 62
     7
100
AcDbLine
 10
115.7885591659
 20
215.1817244002
 30
0.0
 11
95.7885633382
 21
215.1817244002
 31
0.0
  0
LINE
  5
15C
330
1F
100
AcDbEntity
  8
SLD-0
  6
Continuous
 62
     7
100
AcDbLine
 10
118.788557795
 20
231.2317251334
 30
0.0
 11
118.788557795
 21
207.2317257979
 31
0.0
  0
LINE
  5
15D
330
1F
100
AcDbEntity
  8
SLD-0
  6
Continuous
 62
     7
100
AcDbLine
 10
118.788557795
 20
207.2317257979
 30
0.0
 11
115.7885591659
 21
207.2317257979
 31
0.0
  0
LINE
  5
15E
330
1F
100
AcDbEntity
  8
SLD-0
  6
Continuous
 62
     7
100
AcDbLine
 10
115.7885591659
 20
231.2317251334
 30
0.0
 11
115.7885591659
 21
207.2317257979
 31
0.0
  0
LINE
  5
15F
330
1F
100
AcDbEntity
  8
SLD-0
  6
Continuous
 62
     7
100
AcDbLine
 10
118.788557795
 20
231.2317251334
 30
0.0
 11
115.7885591659
 21
231.2317251334
 31
0.0
  0
LINE
  5
160
330
1F
100
AcDbEntity
  8
SLD-0
  6
Continuous
 62
     7
100
AcDbLine
 10
138.7404154214
 20
227.1317250551
 30
0.0
 11
119.2885588083
 21
227.1317250551
 31
0.0
  0
LINE
  5
161
330
1F
100
AcDbEntity
  8
SLD-0
  6
Continuous
 62
     7
100
AcDbLine
 10
138.7404154214
 20
227.1317250551
 30
0.0
 11
138.7404154214
 21
225.6317252749
 31
0.0
  0
LINE
  5
162
330
1F
100
AcDbEntity
  8
SLD-0
  6
Continuous
 62
     7
100
AcDbLine
 10
119.2885588083
 20
225.6317252749
 30
0.0
 11
138.7404154214
 21
225.6317252749
 31
0.0
  0
LINE
  5
163
330
1F
100
AcDbEntity
  8
SLD-0
  6
Continuous
 62
     7
100
AcDbLine
 10
119.2885588083
 20
227.1317250551
 30
0.0
 11
119.2885588083
 21
225.6317252749
 31
0.0
  0
LINE
  5
164
330
1F
100
AcDbEntity
  8
SLD-0
  6
Continuous
 62
     7
100
AcDbLine
 10
165.7885561857
 20
227.1317250551
 30
0.0
 11
165.7885561857
 21
225.6317252749
 31
0.0
  0
LINE
  5
165
330
1F
100
AcDbEntity
  8
SLD-0
  6
Continuous
 62
     7
100
AcDbLine
 10
156.0885558996
 20
225.6317252749
 30
0.0
 11
165.7885561857
 21
225.6317252749
 31
0.0
  0
LINE
  5
166
330
1F
100
AcDbEntity
  8
SLD-0
  6
Continuous
 62
     7
100
AcDbLine
 10
156.0885558996
 20
225.6317252749
 30
0.0
 11
156.0885558996
 21
227.1317250551
 31
0.0
  0
LINE
  5
167
330
1F
100
AcDbEntity
  8
SLD-0
  6
Continuous
 62
     7
100
AcDbLine
 10
165.7885561857
 20
227.1317250551
 30
0.0
 11
156.0885558996
 21
227.1317250551
 31
0.0
  0
LINE
  5
168
330
1F
100
AcDbEntity
  8
SLD-0
  6
Continuous
 62
     7
100
AcDbLine
 10
142.8367148313
 20
225.6317252749
 30
0.0
 11
142.8367148313
 21
227.1317250551
 31
0.0
  0
LINE
  5
169
330
1F
100
AcDbEntity
  8
SLD-0
  6
Continuous
 62
     7
100
AcDbLine
 10
146.4885573062
 20
227.1317250551
 30
0.0
 11
142.8367148313
 21
227.1317250551
 31
0.0
  0
LINE
  5
16A
330
1F
100
AcDbEntity
  8
SLD-0
  6
Continuous
 62
     7
100
AcDbLine
 10
142.8367148313
 20
225.6317252749
 30
0.0
 11
146.4885573062
 21
225.6317252749
 31
0.0
  0
LINE
  5
16B
330
1F
100
AcDbEntity
  8
SLD-0
  6
Continuous
 62
     7
100
AcDbLine
 10
146.4885573062
 20
227.1317250551
 30
0.0
 11
146.4885573062
 21
225.6317252749
 31
0.0
  0
LINE
  5
16C
330
1F
100
AcDbEntity
  8
SLD-0
  6
Continuous
 62
     7
100
AcDbLine
 10
138.7404154214
 20
227.1317250551
 30
0.0
 11
142.8367148313
 21
227.1317250551
 31
0.0
  0
LINE
  5
16D
330
1F
100
AcDbEntity
  8
SLD-0
  6
Continuous
 62
     7
100
AcDbLine
 10
147.0385591659
 20
227.1317250551
 30
0.0
 11
147.0385591659
 21
225.6317252749
 31
0.0
  0
LINE
  5
16E
330
1F
100
AcDbEntity
  8
SLD-0
  6
Continuous
 62
     7
100
AcDbLine
 10
146.4885573062
 20
227.1317250551
 30
0.0
 11
147.0385591659
 21
227.1317250551
 31
0.0
  0
LINE
  5
16F
330
1F
100
AcDbEntity
  8
SLD-0
  6
Continuous
 62
     7
100
AcDbLine
 10
154.5385669145
 20
227.1317250551
 30
0.0
 11
154.5385669145
 21
225.6317252749
 31
0.0
  0
LINE
  5
170
330
1F
100
AcDbEntity
  8
SLD-0
  6
Continuous
 62
     7
100
AcDbLine
 10
147.0385591659
 20
227.1317250551
 30
0.0
 11
154.5385669145
 21
227.1317250551
 31
0.0
  0
LINE
  5
171
330
1F
100
AcDbEntity
  8
SLD-0
  6
Continuous
 62
     7
100
AcDbLine
 10
154.5385669145
 20
227.1317250551
 30
0.0
 11
156.0885558996
 21
227.1317250551
 31
0.0
  0
CIRCLE
  5
172
330
1F
100
AcDbEntity
  8
SLD-0
  6
Continuous
 62
     7
100
AcDbCircle
 10
147.7885596401
 20
463.4966130792
 30
0.0
 40
3.100000000000023
  0
CIRCLE
  5
173
330
1F
100
AcDbEntity
  8
SLD-0
  6
Continuous
 62
     7
100
AcDbCircle
 10
138.7885596401
 20
382.1966130792
 30
0.0
 40
3.099999999999966
  0
ARC
  5
174
330
1F
100
AcDbEntity
  8
SLD-0
  6
Continuous
 62
     7
100
AcDbCircle
 10
134.4885596401
 20
436.7966130792
 30
0.0
 40
0.2000000000000171
100
AcDbArc
 50
90.0
 51
180.0
  0
ARC
  5
175
330
1F
100
AcDbEntity
  8
SLD-0
  6
Continuous
 62
     7
100
AcDbCircle
 10
140.5885596401
 20
436.7966103875
 30
0.0
 40
0.20000279455556
100
AcDbArc
 50
359.9999933825
 51
89.9993981941
  0
ARC
  5
176
330
1F
100
AcDbEntity
  8
SLD-0
  6
Continuous
 62
     7
100
AcDbCircle
 10
150.7876039817
 20
374.4955263458
 30
0.0
 40
4.00136917000199
100
AcDbArc
 50
30.0066719475
 51
67.6615948246
  0
CIRCLE
  5
177
330
1F
100
AcDbEntity
  8
SLD-0
  6
Continuous
 62
     7
100
AcDbCircle
 10
147.7885596401
 20
463.4966130792
 30
0.0
 40
3.650000000000006
  0
ARC
  5
178
330
1F
100
AcDbEntity
  8
SLD-0
  6
Continuous
 62
     7
100
AcDbCircle
 10
150.7897457441
 20
374.4952425859
 30
0.0
 40
4.001718849391803
100
AcDbArc
 50
112.3398097959
 51
149.9914882278
  0
ARC
  5
179
330
1F
100
AcDbEntity
  8
SLD-0
  6
Continuous
 62
     7
100
AcDbCircle
 10
150.788560131
 20
374.4966142742
 30
0.0
 40
3.999999503074569
100
AcDbArc
 50
67.6683399636
 51
112.3315699361
  0
ARC
  5
17A
330
1F
100
AcDbEntity
  8
SLD-0
  6
Continuous
 62
     7
100
AcDbCircle
 10
139.2385596401
 20
393.0466130792
 30
0.0
 40
0.1999999999999886
100
AcDbArc
 50
90.0
 51
180.0
  0
ARC
  5
17B
330
1F
100
AcDbEntity
  8
SLD-0
  6
Continuous
 62
     7
100
AcDbCircle
 10
139.2385587473
 20
389.9466130792
 30
0.0
 40
0.200000892754133
100
AcDbArc
 50
179.9994851734
 51
270.0
  0
ARC
  5
17C
330
1F
100
AcDbEntity
  8
SLD-0
  6
Continuous
 62
     7
100
AcDbCircle
 10
141.3385595417
 20
393.0466130792
 30
0.0
 40
0.1999999999999702
100
AcDbArc
 50
359.9995166919
 51
89.9999718104
  0
ARC
  5
17D
330
1F
100
AcDbEntity
  8
SLD-0
  6
Continuous
 62
     7
100
AcDbCircle
 10
153.4565086032
 20
434.4966131208
 30
0.0
 40
0.5000000000000202
100
AcDbArc
 50
30.0
 51
90.0
  0
ARC
  5
17E
330
1F
100
AcDbEntity
  8
SLD-0
  6
Continuous
 62
     7
100
AcDbCircle
 10
154.6885594108
 20
432.3626385246
 30
0.0
 40
0.5000000000000449
100
AcDbArc
 50
0.0
 51
30.0
  0
ARC
  5
17F
330
1F
100
AcDbEntity
  8
SLD-0
  6
Continuous
 62
     7
100
AcDbCircle
 10
140.8885594969
 20
433.3146278189
 30
0.0
 40
0.5000000000000583
100
AcDbArc
 50
140.0
 51
180.0
  0
CIRCLE
  5
180
330
1F
100
AcDbEntity
  8
SLD-0
  6
Continuous
 62
     7
100
AcDbCircle
 10
138.7885596401
 20
382.1966130792
 30
0.0
 40
3.649999999999977
  0
ARC
  5
181
330
1F
100
AcDbEntity
  8
SLD-0
  6
Continuous
 62
     7
100
AcDbCircle
 10
141.3385587474
 20
389.9466113921
 30
0.0
 40
0.2000007943174897
100
AcDbArc
 50
270.0021044286
 51
0.0
  0
ARC
  5
182
330
1F
100
AcDbEntity
  8
SLD-0
  6
Continuous
 62
     7
100
AcDbCircle
 10
141.8803626866
 20
434.4966130083
 30
0.0
 40
0.4999998875106194
100
AcDbArc
 50
90.0005282788
 51
140.0
  0
ARC
  5
183
330
1F
100
AcDbEntity
  8
SLD-0
  6
Continuous
 62
     7
100
AcDbCircle
 10
150.7885630402
 20
474.4966130792
 30
0.0
 40
3.750003874300198
100
AcDbArc
 50
180.0000183515
 51
359.9999816485
  0
CIRCLE
  5
184
330
1F
100
AcDbEntity
  8
SLD-0
  6
Continuous
 62
     7
100
AcDbCircle
 10
131.7885596401
 20
399.4966130792
 30
0.0
 40
3.75
  0
ARC
  5
185
330
1F
100
AcDbEntity
  8
SLD-0
  6
Continuous
 62
     7
100
AcDbCircle
 10
150.7885554762
 20
407.4966130792
 30
0.0
 40
8.59999753073249
100
AcDbArc
 50
306.3718300159
 51
233.6281799267
  0
ARC
  5
186
330
1F
100
AcDbEntity
  8
SLD-0
  6
Continuous
 62
     7
100
AcDbCircle
 10
150.7885555896
 20
387.4966130792
 30
0.0
 40
5.099996924400183
100
AcDbArc
 50
179.9999853694
 51
0.0000146306
  0
CIRCLE
  5
187
330
1F
100
AcDbEntity
  8
SLD-0
  6
Continuous
 62
     7
100
AcDbCircle
 10
131.7885596401
 20
399.4966130792
 30
0.0
 40
3.700000000000017
  0
CIRCLE
  5
188
330
1F
100
AcDbEntity
  8
SLD-0
  6
Continuous
 62
     7
100
AcDbCircle
 10
131.7885596401
 20
399.4966130792
 30
0.0
 40
3.500000000000028
  0
CIRCLE
  5
189
330
1F
100
AcDbEntity
  8
SLD-0
  6
Continuous
 62
     7
100
AcDbCircle
 10
131.7885596401
 20
399.4966130792
 30
0.0
 40
3.299999999999955
  0
ARC
  5
18A
330
1F
100
AcDbEntity
  8
SLD-0
  6
Continuous
 62
     7
100
AcDbCircle
 10
139.6885594969
 20
431.5966129613
 30
0.0
 40
0.5999999747013476
100
AcDbArc
 50
270.0001687265
 51
0.0
  0
ARC
  5
18B
330
1F
100
AcDbEntity
  8
SLD-0
  6
Continuous
 62
     7
100
AcDbCircle
 10
134.8885594969
 20
431.5966130792
 30
0.0
 40
0.6000000926025575
100
AcDbArc
 50
180.0000035619
 51
270.0002358963
  0
ARC
  5
18C
330
1F
100
AcDbEntity
  8
SLD-0
  6
Continuous
 62
     7
100
AcDbCircle
 10
134.5885596401
 20
436.6966130792
 30
0.0
 40
0.3000000000000114
100
AcDbArc
 50
90.0
 51
180.0
  0
ARC
  5
18D
330
1F
100
AcDbEntity
  8
SLD-0
  6
Continuous
 62
     7
100
AcDbCircle
 10
139.9885579314
 20
436.6966146195
 30
0.0
 40
0.2999985626391531
100
AcDbArc
 50
359.9997113269
 51
89.9983663117
  0
ARC
  5
18E
330
1F
100
AcDbEntity
  8
SLD-0
  6
Continuous
 62
     7
100
AcDbCircle
 10
95.7885554751
 20
450.3966197025
 30
0.0
 40
0.9999941634561565
100
AcDbArc
 50
89.999549476
 51
180.0003438053
  0
ARC
  5
18F
330
1F
100
AcDbEntity
  8
SLD-0
  6
Continuous
 62
     7
100
AcDbCircle
 10
95.7885577594
 20
417.3966092334
 30
0.0
 40
0.9999964477408276
100
AcDbArc
 50
179.9997870824
 51
270.0003196423
  0
ARC
  5
190
330
1F
100
AcDbEntity
  8
SLD-0
  6
Continuous
 62
     7
100
AcDbCircle
 10
138.7885596401
 20
382.1966130792
 30
0.0
 40
2.350000000000007
100
AcDbArc
 50
170.9966978194
 51
189.0033021806
  0
ARC
  5
191
330
1F
100
AcDbEntity
  8
SLD-0
  6
Continuous
 62
     7
100
AcDbCircle
 10
147.7885596401
 20
463.4966130792
 30
0.0
 40
2.350000000000007
100
AcDbArc
 50
170.9966978194
 51
189.0033021806
  0
ARC
  5
192
330
1F
100
AcDbEntity
  8
SLD-0
  6
Continuous
 62
     7
100
AcDbCircle
 10
158.2885596401
 20
433.996613114
 30
0.0
 40
2.599999965201349
100
AcDbArc
 50
270.0000814944
 51
90.0
  0
ARC
  5
193
330
1F
100
AcDbEntity
  8
SLD-0
  6
Continuous
 62
     7
100
AcDbCircle
 10
308.2163351167
 20
416.6966130792
 30
0.0
 40
0.3000000000000114
100
AcDbArc
 50
180.0
 51
270.0
  0
ARC
  5
194
330
1F
100
AcDbEntity
  8
SLD-0
  6
Continuous
 62
     7
100
AcDbCircle
 10
308.216335346
 20
451.0966130792
 30
0.0
 40
0.3000002293002788
100
AcDbArc
 50
90.0000346448
 51
180.0001081555
  0
ARC
  5
195
330
1F
100
AcDbEntity
  8
SLD-0
  6
Continuous
 62
     7
100
AcDbCircle
 10
315.6163351167
 20
416.6966132865
 30
0.0
 40
0.3000005009004209
100
AcDbArc
 50
269.9998768333
 51
0.0000244652
  0
ARC
  5
196
330
1F
100
AcDbEntity
  8
SLD-0
  6
Continuous
 62
     7
100
AcDbCircle
 10
315.6163348701
 20
451.096612561
 30
0.0
 40
0.3000007475005667
100
AcDbArc
 50
0.0000304047
 51
90.0000322766
  0
CIRCLE
  5
197
330
1F
100
AcDbEntity
  8
SLD-0
  6
Continuous
 62
     7
100
AcDbCircle
 10
311.8663351167
 20
359.4966130792
 30
0.0
 40
5.0
  0
CIRCLE
  5
198
330
1F
100
AcDbEntity
  8
SLD-0
  6
Continuous
 62
     7
100
AcDbCircle
 10
311.8663351167
 20
388.4966130792
 30
0.0
 40
4.999999999999943
  0
CIRCLE
  5
199
330
1F
100
AcDbEntity
  8
SLD-0
  6
Continuous
 62
     7
100
AcDbCircle
 10
311.8663351167
 20
495.4966130792
 30
0.0
 40
5.000000000000057
  0
CIRCLE
  5
19A
330
1F
100
AcDbEntity
  8
SLD-0
  6
Continuous
 62
     7
100
AcDbCircle
 10
311.8663351167
 20
388.4966130792
 30
0.0
 40
2.749999999999886
  0
CIRCLE
  5
19B
330
1F
100
AcDbEntity
  8
SLD-0
  6
Continuous
 62
     7
100
AcDbCircle
 10
311.8663351167
 20
359.4966130792
 30
0.0
 40
2.749999999999943
  0
CIRCLE
  5
19C
330
1F
100
AcDbEntity
  8
SLD-0
  6
Continuous
 62
     7
100
AcDbCircle
 10
311.8663351167
 20
495.4966130792
 30
0.0
 40
2.75
  0
ARC
  5
19D
330
1F
100
AcDbEntity
  8
SLD-0
  6
Continuous
 62
     7
100
AcDbCircle
 10
311.7163353054
 20
388.3966130792
 30
0.0
 40
2.750000188700287
100
AcDbArc
 50
0.0000340879
 51
121.811704977
  0
ARC
  5
19E
330
1F
100
AcDbEntity
  8
SLD-0
  6
Continuous
 62
     7
100
AcDbCircle
 10
150.7885632773
 20
213.3817251083
 30
0.0
 40
3.750003637200027
100
AcDbArc
 50
0.0000074408
 51
180.0
  0
ARC
  5
19F
330
1F
100
AcDbEntity
  8
SLD-0
  6
Continuous
 62
     7
100
AcDbCircle
 10
95.7885532347
 20
222.1817328572
 30
0.0
 40
0.9999919230156417
100
AcDbArc
 50
89.9994211017
 51
180.0004188161
  0
ARC
  5
1A0
330
1F
100
AcDbEntity
  8
SLD-0
  6
Continuous
 62
     7
100
AcDbCircle
 10
95.7885554751
 20
216.1817185636
 30
0.0
 40
0.9999941634244665
100
AcDbArc
 50
179.9996561947
 51
270.0004505251
  0
ARC
  5
1A1
330
1F
100
AcDbEntity
  8
SLD-0
  6
Continuous
 62
     7
100
AcDbCircle
 10
120.4885596401
 20
225.4317251083
 30
0.0
 40
1.70000000000004
100
AcDbArc
 50
134.900872156
 51
173.2436729694
  0
DIMENSION
  5
1A2
330
1F
100
AcDbEntity
  8
SLD-0
 62
     7
100
AcDbDimension
  2
_D
 10
185.7885846401
 20
504.9966130792
 30
0.0
 11
185.7885846401
 21
491.6260622745
 31
0.0
 70
   160
  1
<>
 71
     2
 42
-1.0
  3
SLDDIMSTYLE0
100
AcDbAlignedDimension
 13
165.7885596401
 23
476.4966130792
 33
0.0
 14
118.7885596401
 24
504.9966130792
 34
0.0
 50
90.0
100
AcDbRotatedDimension
  0
DIMENSION
  5
1B4
330
1F
100
AcDbEntity
  8
SLD-0
 62
     7
100
AcDbDimension
  2
_D_1
 10
185.7885846401
 20
476.4966130792
 30
0.0
 11
185.7885846401
 21
426.6955343358
 31
0.0
 70
   160
  1
<>
 71
     2
 42
-1.0
  3
SLDDIMSTYLE1
100
AcDbAlignedDimension
 13
165.7885596401
 23
376.4966130792
 33
0.0
 14
165.7885596401
 24
476.4966130792
 34
0.0
 50
90.0
100
AcDbRotatedDimension
  0
DIMENSION
  5
1BF
330
1F
100
AcDbEntity
  8
SLD-0
 62
     7
100
AcDbDimension
  2
_D_2
 10
81.1538947722
 20
504.9966130792
 30
0.0
 11
81.1538947722
 21
452.116448576
 31
0.0
 70
   160
  1
<>
 71
     2
 42
-1.0
  3
SLDDIMSTYLE2
100
AcDbAlignedDimension
 13
150.7885596401
 23
407.4966130792
 33
0.0
 14
115.7885596401
 24
504.9966130792
 34
0.0
 50
90.0
100
AcDbRotatedDimension
  0
DIMENSION
  5
1CA
330
1F
100
AcDbEntity
  8
SLD-0
 62
     7
100
AcDbDimension
  2
_D_3
 10
115.7885596401
 20
329.9966130792
 30
0.0
 11
133.8333797037
 21
329.9966130792
 31
0.0
 70
   160
  1
<>
 71
     2
 42
-1.0
  3
SLDDIMSTYLE3
100
AcDbAlignedDimension
 13
150.7885596401
 23
407.4966130792
 33
0.0
 14
115.7885596401
 24
349.9966130792
 34
0.0
100
AcDbRotatedDimension
  0
DIMENSION
  5
1D5
330
1F
100
AcDbEntity
  8
SLD-0
 62
     7
100
AcDbDimension
  2
_D_4
 10
150.7885596401
 20
329.9966130792
 30
0.0
 11
157.1103614176
 21
329.9966130792
 31
0.0
 70
   160
  1
<>
 71
     2
 42
-1.0
  3
SLDDIMSTYLE1
100
AcDbAlignedDimension
 13
165.7885596401
 23
376.4966130792
 33
0.0
 14
150.7885596401
 24
407.4966130792
 34
0.0
100
AcDbRotatedDimension
  0
DIMENSION
  5
1E1
330
1F
100
AcDbEntity
  8
SLD-0
 62
     7
100
AcDbDimension
  2
_D_5
 10
94.7885596401
 20
468.2322479268
 30
0.0
 11
104.9869130075
 21
468.2322479268
 31
0.0
 70
   160
  1
<>
 71
     2
 42
-1.0
  3
SLDDIMSTYLE1
100
AcDbAlignedDimension
 13
115.7885596401
 23
504.9966130792
 33
0.0
 14
94.7885596401
 24
450.3966130792
 34
0.0
100
AcDbRotatedDimension
  0
DIMENSION
  5
1EA
330
1F
100
AcDbEntity
  8
SLD-0
 62
     7
100
AcDbDimension
  2
_D_6
 10
357.8663351167
 20
504.9966130792
 30
0.0
 11
357.8663351167
 21
427.9184019622
 31
0.0
 70
   160
  1
<>
 71
     2
 42
-1.0
  3
SLDDIMSTYLE1
100
AcDbAlignedDimension
 13
323.8663351167
 23
349.9966130792
 33
0.0
 14
323.8663351167
 24
504.9966130792
 34
0.0
 50
90.0
100
AcDbRotatedDimension
  0
DIMENSION
  5
1F4
330
1F
100
AcDbEntity
  8
SLD-0
 62
     7
100
AcDbDimension
  2
_D_7
 10
323.8663351167
 20
329.9966130792
 30
0.0
 11
312.258197605
 21
329.9966130792
 31
0.0
 70
   160
  1
<>
 71
     2
 42
-1.0
  3
SLDDIMSTYLE1
100
AcDbAlignedDimension
 13
299.8663351167
 23
349.9966130792
 33
0.0
 14
323.8663351167
 24
349.9966130792
 34
0.0
100
AcDbRotatedDimension
  0
DIMENSION
  5
200
330
1F
100
AcDbEntity
  8
SLD-0
 62
     7
100
AcDbDimension
  2
_D_8
 10
343.8663351167
 20
495.4966130792
 30
0.0
 11
343.8663351167
 21
427.9184019622
 31
0.0
 70
   160
  1
<>
 71
     2
 42
-1.0
  3
SLDDIMSTYLE1
100
AcDbAlignedDimension
 13
311.8663351167
 23
359.4966130792
 33
0.0
 14
311.8663351167
 24
495.4966130792
 34
0.0
 50
90.0
100
AcDbRotatedDimension
  0
DIMENSION
  5
20A
330
1F
100
AcDbEntity
  8
SLD-0
 62
     7
100
AcDbDimension
  2
_D_9
 10
279.8663351167
 20
349.9966130792
 30
0.0
 11
279.8663351167
 21
387.2432955722
 31
0.0
 70
   160
  1
<>
 71
     2
 42
-1.0
  3
SLDDIMSTYLE2
100
AcDbAlignedDimension
 13
308.2163351167
 23
416.3966130792
 33
0.0
 14
299.8663351167
 24
349.9966130792
 34
0.0
 50
90.0
100
AcDbRotatedDimension
  0
DIMENSION
  5
214
330
1F
100
AcDbEntity
  8
SLD-0
 62
     7
100
AcDbDimension
  2
_D_10
 10
315.9163351167
 20
434.2300709526
 30
0.0
 11
292.5194606585
 21
434.2300709526
 31
0.0
 70
   160
  1
<>
 71
     2
 42
-1.0
  3
SLDDIMSTYLE1
100
AcDbAlignedDimension
 13
307.9163351167
 23
451.0966130792
 33
0.0
 14
315.9163351167
 24
451.0966130792
 34
0.0
100
AcDbRotatedDimension
  0
DIMENSION
  5
21E
330
1F
100
AcDbEntity
  8
SLD-0
 62
     7
100
AcDbDimension
  2
_D_11
 10
279.8663351167
 20
416.3966130792
 30
0.0
 11
279.8663351167
 21
434.2300709526
 31
0.0
 70
   160
  1
<>
 71
     2
 42
-1.0
  3
SLDDIMSTYLE1
100
AcDbAlignedDimension
 13
308.2163351167
 23
451.3966130792
 33
0.0
 14
308.2163351167
 24
416.3966130792
 34
0.0
 50
90.0
100
AcDbRotatedDimension
  0
DIMENSION
  5
228
330
1F
100
AcDbEntity
  8
SLD-0
 62
     7
100
AcDbDimension
  2
_D_12
 10
185.7885846401
 20
227.1317251083
 30
0.0
 11
185.7885846401
 21
241.9694531163
 31
0.0
 70
   160
  1
<>
 71
     2
 42
-1.0
  3
SLDDIMSTYLE2
100
AcDbAlignedDimension
 13
165.7885596401
 23
211.6317251083
 33
0.0
 14
165.7885596401
 24
227.1317251083
 34
0.0
 50
90.0
100
AcDbRotatedDimension
  0
ENDSEC
  0
SECTION
  2
OBJECTS
  0
DICTIONARY
  5
C
330
0
100
AcDbDictionary
281
     1
  3
ACAD_GROUP
350
D
  3
ACAD_LAYOUT
350
1A
  3
ACAD_MLINESTYLE
350
17
  3
ACAD_PLOTSETTINGS
350
19
  3
ACAD_PLOTSTYLENAME
350
E
  3
ACAD_SCALELIST
350
47
  0
DICTIONARY
  5
D
102
{ACAD_REACTORS
330
C
102
}
330
C
100
AcDbDictionary
281
     1
  0
DICTIONARY
  5
1A
102
{ACAD_REACTORS
330
C
102
}
330
C
100
AcDbDictionary
281
     1
  3
Layout1
350
1E
  3
Layout2
350
26
  3
Model
350
22
  0
DICTIONARY
  5
17
102
{ACAD_REACTORS
330
C
102
}
330
C
100
AcDbDictionary
281
     1
  3
Standard
350
18
  0
DICTIONARY
  5
19
102
{ACAD_REACTORS
330
C
102
}
330
C
100
AcDbDictionary
281
     1
  0
ACDBDICTIONARYWDFLT
  5
E
102
{ACAD_REACTORS
330
C
102
}
330
C
100
AcDbDictionary
281
     1
  3
Normal
350
F
100
AcDbDictionaryWithDefault
340
F
  0
DICTIONARY
  5
47
102
{ACAD_REACTORS
330
C
102
}
330
C
100
AcDbDictionary
281
     1
  3
A0
350
48
  3
A1
350
49
  3
A2
350
4A
  3
A3
350
4B
  3
A4
350
4C
  3
A5
350
4D
  3
A6
350
4E
  3
A7
350
4F
  3
A8
350
50
  3
A9
350
51
  3
B0
350
52
  3
B1
350
53
  3
B2
350
54
  3
B3
350
55
  3
B4
350
56
  3
B5
350
57
  3
B6
350
58
  3
B7
350
59
  3
B8
350
5A
  3
B9
350
5B
  3
C0
350
5C
  3
C1
350
5D
  3
C2
350
5E
  3
C3
350
5F
  3
C4
350
60
  3
C5
350
61
  3
C6
350
62
  3
C7
350
63
  3
C8
350
64
  3
C9
350
65
  3
D0
350
66
  3
D1
350
67
  3
D2
350
68
  0
LAYOUT
  5
1E
102
{ACAD_REACTORS
330
1A
102
}
330
1A
100
AcDbPlotSettings
  1

  2
none_device
  4

  6

 40
0.0
 41
0.0
 42
0.0
 43
0.0
 44
0.0
 45
0.0
 46
0.0
 47
0.0
 48
0.0
 49
0.0
140
0.0
141
0.0
142
1.0
143
1.0
 70
   688
 72
     1
 73
     0
 74
     5
  7

 75
    16
147
1.0
148
0.0
149
0.0
100
AcDbLayout
  1
Layout1
 70
     1
 71
     1
 10
0.0
 20
0.0
 11
420.0
 21
297.0
 12
0.0
 22
0.0
 32
0.0
 14
1.0000000000E+20
 24
1.0000000000E+20
 34
1.0000000000E+20
 15
-1.0000000000E+20
 25
-1.0000000000E+20
 35
-1.0000000000E+20
146
0.0
 13
0.0
 23
0.0
 33
0.0
 16
1.0
 26
0.0
 36
0.0
 17
0.0
 27
1.0
 37
0.0
 76
     0
330
1B
  0
LAYOUT
  5
26
102
{ACAD_REACTORS
330
1A
102
}
330
1A
100
AcDbPlotSettings
  1

  2
none_device
  4

  6

 40
0.0
 41
0.0
 42
0.0
 43
0.0
 44
0.0
 45
0.0
 46
0.0
 47
0.0
 48
0.0
 49
0.0
140
0.0
141
0.0
142
1.0
143
1.0
 70
   688
 72
     1
 73
     0
 74
     5
  7

 75
    16
147
1.0
148
0.0
149
0.0
100
AcDbLayout
  1
Layout2
 70
     1
 71
     2
 10
0.0
 20
0.0
 11
0.0
 21
0.0
 12
0.0
 22
0.0
 32
0.0
 14
0.0
 24
0.0
 34
0.0
 15
0.0
 25
0.0
 35
0.0
146
0.0
 13
0.0
 23
0.0
 33
0.0
 16
1.0
 26
0.0
 36
0.0
 17
0.0
 27
1.0
 37
0.0
 76
     0
330
23
  0
LAYOUT
  5
22
102
{ACAD_REACTORS
330
1A
102
}
330
1A
100
AcDbPlotSettings
  1

  2
none_device
  4
Letter_(8.50_x_11.00_Inches)
  6

 40
6.35
 41
6.35
 42
6.35000508
 43
6.35000508
 44
215.9
 45
279.4
 46
0.0
 47
0.0
 48
0.0
 49
0.0
140
0.0
141
0.0
142
1.0
143
1.0
 70
  1712
 72
     1
 73
     0
 74
     0
  7

 75
     0
147
1.0
148
0.0
149
0.0
100
AcDbLayout
  1
Model
 70
     1
 71
     0
 10
0.0
 20
0.0
 11
841.0
 21
594.0
 12
0.0
 22
0.0
 32
0.0
 14
0.0
 24
0.0
 34
0.0
 15
841.0
 25
594.0
 35
0.0
146
0.0
 13
0.0
 23
0.0
 33
0.0
 16
1.0
 26
0.0
 36
0.0
 17
0.0
 27
1.0
 37
0.0
 76
     0
330
1F
331
29
  0
MLINESTYLE
  5
18
102
{ACAD_REACTORS
330
17
102
}
330
17
100
AcDbMlineStyle
  2
Standard
 70
     0
  3

 62
   256
 51
90.0
 52
90.0
 71
     2
 49
0.5
 62
   256
  6
BYLAYER
 49
-0.5
 62
   256
  6
BYLAYER
  0
ACDBPLACEHOLDER
  5
F
102
{ACAD_REACTORS
330
E
102
}
330
E
  0
SCALE
  5
48
102
{ACAD_REACTORS
330
47
102
}
330
47
100
AcDbScale
 70
     0
300
1:1
140
1.0
141
1.0
290
     1
  0
SCALE
  5
49
102
{ACAD_REACTORS
330
47
102
}
330
47
100
AcDbScale
 70
     0
300
1:2
140
1.0
141
2.0
290
     0
  0
SCALE
  5
4A
102
{ACAD_REACTORS
330
47
102
}
330
47
100
AcDbScale
 70
     0
300
1:4
140
1.0
141
4.0
290
     0
  0
SCALE
  5
4B
102
{ACAD_REACTORS
330
47
102
}
330
47
100
AcDbScale
 70
     0
300
1:5
140
1.0
141
5.0
290
     0
  0
SCALE
  5
4C
102
{ACAD_REACTORS
330
47
102
}
330
47
100
AcDbScale
 70
     0
300
1:8
140
1.0
141
8.0
290
     0
  0
SCALE
  5
4D
102
{ACAD_REACTORS
330
47
102
}
330
47
100
AcDbScale
 70
     0
300
1:10
140
1.0
141
10.0
290
     0
  0
SCALE
  5
4E
102
{ACAD_REACTORS
330
47
102
}
330
47
100
AcDbScale
 70
     0
300
1:16
140
1.0
141
16.0
290
     0
  0
SCALE
  5
4F
102
{ACAD_REACTORS
330
47
102
}
330
47
100
AcDbScale
 70
     0
300
1:20
140
1.0
141
20.0
290
     0
  0
SCALE
  5
50
102
{ACAD_REACTORS
330
47
102
}
330
47
100
AcDbScale
 70
     0
300
1:30
140
1.0
141
30.0
290
     0
  0
SCALE
  5
51
102
{ACAD_REACTORS
330
47
102
}
330
47
100
AcDbScale
 70
     0
300
1:40
140
1.0
141
40.0
290
     0
  0
SCALE
  5
52
102
{ACAD_REACTORS
330
47
102
}
330
47
100
AcDbScale
 70
     0
300
1:50
140
1.0
141
50.0
290
     0
  0
SCALE
  5
53
102
{ACAD_REACTORS
330
47
102
}
330
47
100
AcDbScale
 70
     0
300
1:100
140
1.0
141
100.0
290
     0
  0
SCALE
  5
54
102
{ACAD_REACTORS
330
47
102
}
330
47
100
AcDbScale
 70
     0
300
2:1
140
2.0
141
1.0
290
     0
  0
SCALE
  5
55
102
{ACAD_REACTORS
330
47
102
}
330
47
100
AcDbScale
 70
     0
300
4:1
140
4.0
141
1.0
290
     0
  0
SCALE
  5
56
102
{ACAD_REACTORS
330
47
102
}
330
47
100
AcDbScale
 70
     0
300
8:1
140
8.0
141
1.0
290
     0
  0
SCALE
  5
57
102
{ACAD_REACTORS
330
47
102
}
330
47
100
AcDbScale
 70
     0
300
10:1
140
10.0
141
1.0
290
     0
  0
SCALE
  5
58
102
{ACAD_REACTORS
330
47
102
}
330
47
100
AcDbScale
 70
     0
300
100:1
140
100.0
141
1.0
290
     0
  0
SCALE
  5
59
102
{ACAD_REACTORS
330
47
102
}
330
47
100
AcDbScale
 70
     0
300
1/128" = 1'-0"
140
0.0078125
141
12.0
290
     0
  0
SCALE
  5
5A
102
{ACAD_REACTORS
330
47
102
}
330
47
100
AcDbScale
 70
     0
300
1/64" = 1'-0"
140
0.015625
141
12.0
290
     0
  0
SCALE
  5
5B
102
{ACAD_REACTORS
330
47
102
}
330
47
100
AcDbScale
 70
     0
300
1/32" = 1'-0"
140
0.03125
141
12.0
290
     0
  0
SCALE
  5
5C
102
{ACAD_REACTORS
330
47
102
}
330
47
100
AcDbScale
 70
     0
300
1/16" = 1'-0"
140
0.0625
141
12.0
290
     0
  0
SCALE
  5
5D
102
{ACAD_REACTORS
330
47
102
}
330
47
100
AcDbScale
 70
     0
300
3/32" = 1'-0"
140
0.09375
141
12.0
290
     0
  0
SCALE
  5
5E
102
{ACAD_REACTORS
330
47
102
}
330
47
100
AcDbScale
 70
     0
300
1/8" = 1'-0"
140
0.125
141
12.0
290
     0
  0
SCALE
  5
5F
102
{ACAD_REACTORS
330
47
102
}
330
47
100
AcDbScale
 70
     0
300
3/16" = 1'-0"
140
0.1875
141
12.0
290
     0
  0
SCALE
  5
60
102
{ACAD_REACTORS
330
47
102
}
330
47
100
AcDbScale
 70
     0
300
1/4" = 1'-0"
140
0.25
141
12.0
290
     0
  0
SCALE
  5
61
102
{ACAD_REACTORS
330
47
102
}
330
47
100
AcDbScale
 70
     0
300
3/8" = 1'-0"
140
0.375
141
12.0
290
     0
  0
SCALE
  5
62
102
{ACAD_REACTORS
330
47
102
}
330
47
100
AcDbScale
 70
     0
300
1/2" = 1'-0"
140
0.5
141
12.0
290
     0
  0
SCALE
  5
63
102
{ACAD_REACTORS
330
47
102
}
330
47
100
AcDbScale
 70
     0
300
3/4" = 1'-0"
140
0.75
141
12.0
290
     0
  0
SCALE
  5
64
102
{ACAD_REACTORS
330
47
102
}
330
47
100
AcDbScale
 70
     0
300
1" = 1'-0"
140
1.0
141
12.0
290
     0
  0
SCALE
  5
65
102
{ACAD_REACTORS
330
47
102
}
330
47
100
AcDbScale
 70
     0
300
1-1/2" = 1'-0"
140
1.5
141
12.0
290
     0
  0
SCALE
  5
66
102
{ACAD_REACTORS
330
47
102
}
330
47
100
AcDbScale
 70
     0
300
3" = 1'-0"
140
3.0
141
12.0
290
     0
  0
SCALE
  5
67
102
{ACAD_REACTORS
330
47
102
}
330
47
100
AcDbScale
 70
     0
300
6" = 1'-0"
140
6.0
141
12.0
290
     0
  0
SCALE
  5
68
102
{ACAD_REACTORS
330
47
102
}
330
47
100
AcDbScale
 70
     0
300
1'-0" = 1'-0"
140
12.0
141
12.0
290
     0
  0
ENDSEC
  0
EOF
