  0
SECTION
  2
HEADER
  9
$ACADVER
  1
AC1015
  9
$ACADMAINTVER
 70
     6
  9
$DWGCODEPAGE
  3
ANSI_1252
  9
$INSBASE
 10
0.0
 20
0.0
 30
0.0
  9
$EXTMIN
 10
0.0
 20
0.0
 30
0.0
  9
$EXTMAX
 10
420.0
 20
297.0
 30
0.0
  9
$LIMMIN
 10
0.0
 20
0.0
  9
$LIMMAX
 10
420.0
 20
297.0
  9
$ORTHOMODE
 70
     0
  9
$REGENMODE
 70
     1
  9
$FILLMODE
 70
     1
  9
$QTEXTMODE
 70
     0
  9
$MIRRTEXT
 70
     1
  9
$LTSCALE
 40
1.0
  9
$ATTMODE
 70
     1
  9
$TEXTSIZE
 40
4.2333333333
  9
$TRACEWID
 40
1.0
  9
$TEXTSTYLE
  7
Standard
  9
$CLAYER
  8
0
  9
$CELTYPE
  6
ByLayer
  9
$CECOLOR
 62
   256
  9
$CELTSCALE
 40
1.0
  9
$DISPSILH
 70
     0
  9
$DIMSCALE
 40
1.0
  9
$DIMASZ
 40
3.0
  9
$DIMEXO
 40
0.2
  9
$DIMDLI
 40
3.75
  9
$DIMRND
 40
0.0
  9
$DIMDLE
 40
0.0
  9
$DIMEXE
 40
0.5
  9
$DIMTP
 40
0.0
  9
$DIMTM
 40
0.0
  9
$DIMTXT
 40
3.5
  9
$DIMCEN
 40
2.5
  9
$DIMTSZ
 40
0.0
  9
$DIMTOL
 70
     0
  9
$DIMLIM
 70
     0
  9
$DIMTIH
 70
     1
  9
$DIMTOH
 70
     1
  9
$DIMSE1
 70
     0
  9
$DIMSE2
 70
     0
  9
$DIMTAD
 70
     1
  9
$DIMZIN
 70
     0
  9
$DIMBLK
  1

  9
$DIMASO
 70
     1
  9
$DIMSHO
 70
     1
  9
$DIMPOST
  1

  9
$DIMAPOST
  1

  9
$DIMALT
 70
     0
  9
$DIMALTD
 70
     3
  9
$DIMALTF
 40
0.0393700787
  9
$DIMLFAC
 40
1.0
  9
$DIMTOFL
 70
     1
  9
$DIMTVP
 40
0.0
  9
$DIMTIX
 70
     0
  9
$DIMSOXD
 70
     0
  9
$DIMSAH
 70
     0
  9
$DIMBLK1
  1

  9
$DIMBLK2
  1

  9
$DIMSTYLE
  2
ISO-25
  9
$DIMCLRD
 70
     0
  9
$DIMCLRE
 70
     0
  9
$DIMCLRT
 70
     0
  9
$DIMTFAC
 40
1.0
  9
$DIMGAP
 40
1.524
  9
$DIMJUST
 70
     0
  9
$DIMSD1
 70
     0
  9
$DIMSD2
 70
     0
  9
$DIMTOLJ
 70
     0
  9
$DIMTZIN
 70
     0
  9
$DIMALTZ
 70
     0
  9
$DIMALTTZ
 70
     0
  9
$DIMUPT
 70
     0
  9
$DIMDEC
 70
     2
  9
$DIMTDEC
 70
     3
  9
$DIMALTU
 70
     2
  9
$DIMALTTD
 70
     3
  9
$DIMTXSTY
  7
Standard
  9
$DIMAUNIT
 70
     0
  9
$DIMADEC
 70
     1
  9
$DIMALTRND
 40
0.0
  9
$DIMAZIN
 70
     0
  9
$DIMDSEP
 70
    44
  9
$DIMATFIT
 70
     3
  9
$DIMFRAC
 70
     0
  9
$DIMLDRBLK
  1

  9
$DIMLUNIT
 70
     2
  9
$DIMLWD
 70
    -2
  9
$DIMLWE
 70
    -2
  9
$DIMTMOVE
 70
     0
  9
$LUNITS
 70
     2
  9
$LUPREC
 70
     2
  9
$SKETCHINC
 40
1.0
  9
$FILLETRAD
 40
10.0
  9
$AUNITS
 70
     0
  9
$AUPREC
 70
     1
  9
$MENU
  1
.
  9
$ELEVATION
 40
0.0
  9
$PELEVATION
 40
0.0
  9
$THICKNESS
 40
0.0
  9
$LIMCHECK
 70
     0
  9
$CHAMFERA
 40
0.0
  9
$CHAMFERB
 40
0.0
  9
$CHAMFERC
 40
0.0
  9
$CHAMFERD
 40
0.0
  9
$SKPOLY
 70
     0
  9
$TDCREATE
 40
2459144.33293441
  9
$TDUCREATE
 40
2459144.249601076
  9
$TDUPDATE
 40
2459144.332937488
  9
$TDUUPDATE
 40
2459144.249604155
  9
$TDINDWG
 40
0.0000000116
  9
$TDUSRTIMER
 40
0.0000000116
  9
$USRTIMER
 70
     1
  9
$ANGBASE
 50
0.0
  9
$ANGDIR
 70
     0
  9
$PDMODE
 70
     0
  9
$PDSIZE
 40
-1.0
  9
$PLINEWID
 40
0.0
  9
$SPLFRAME
 70
     0
  9
$SPLINETYPE
 70
     6
  9
$SPLINESEGS
 70
     8
  9
$HANDSEED
  5
3DF
  9
$SURFTAB1
 70
     6
  9
$SURFTAB2
 70
     6
  9
$SURFTYPE
 70
     6
  9
$SURFU
 70
     6
  9
$SURFV
 70
     6
  9
$UCSBASE
  2

  9
$UCSNAME
  2

  9
$UCSORG
 10
0.0
 20
0.0
 30
0.0
  9
$UCSXDIR
 10
1.0
 20
0.0
 30
0.0
  9
$UCSYDIR
 10
0.0
 20
1.0
 30
0.0
  9
$UCSORTHOREF
  2

  9
$UCSORTHOVIEW
 70
     0
  9
$UCSORGTOP
 10
0.0
 20
0.0
 30
0.0
  9
$UCSORGBOTTOM
 10
0.0
 20
0.0
 30
0.0
  9
$UCSORGLEFT
 10
0.0
 20
0.0
 30
0.0
  9
$UCSORGRIGHT
 10
0.0
 20
0.0
 30
0.0
  9
$UCSORGFRONT
 10
0.0
 20
0.0
 30
0.0
  9
$UCSORGBACK
 10
0.0
 20
0.0
 30
0.0
  9
$PUCSBASE
  2

  9
$PUCSNAME
  2

  9
$PUCSORG
 10
0.0
 20
0.0
 30
0.0
  9
$PUCSXDIR
 10
1.0
 20
0.0
 30
0.0
  9
$PUCSYDIR
 10
0.0
 20
1.0
 30
0.0
  9
$PUCSORTHOREF
  2

  9
$PUCSORTHOVIEW
 70
     0
  9
$PUCSORGTOP
 10
0.0
 20
0.0
 30
0.0
  9
$PUCSORGBOTTOM
 10
0.0
 20
0.0
 30
0.0
  9
$PUCSORGLEFT
 10
0.0
 20
0.0
 30
0.0
  9
$PUCSORGRIGHT
 10
0.0
 20
0.0
 30
0.0
  9
$PUCSORGFRONT
 10
0.0
 20
0.0
 30
0.0
  9
$PUCSORGBACK
 10
0.0
 20
0.0
 30
0.0
  9
$USERI1
 70
     0
  9
$USERI2
 70
     0
  9
$USERI3
 70
     0
  9
$USERI4
 70
     0
  9
$USERI5
 70
     0
  9
$USERR1
 40
0.0
  9
$USERR2
 40
0.0
  9
$USERR3
 40
0.0
  9
$USERR4
 40
0.0
  9
$USERR5
 40
0.0
  9
$WORLDVIEW
 70
     1
  9
$SHADEDGE
 70
     3
  9
$SHADEDIF
 70
    70
  9
$TILEMODE
 70
     1
  9
$MAXACTVP
 70
    64
  9
$PINSBASE
 10
0.0
 20
0.0
 30
0.0
  9
$PLIMCHECK
 70
     0
  9
$PEXTMIN
 10
1.0000000000E+20
 20
1.0000000000E+20
 30
1.0000000000E+20
  9
$PEXTMAX
 10
-1.0000000000E+20
 20
-1.0000000000E+20
 30
-1.0000000000E+20
  9
$PLIMMIN
 10
0.0
 20
0.0
  9
$PLIMMAX
 10
420.0
 20
297.0
  9
$UNITMODE
 70
     0
  9
$VISRETAIN
 70
     1
  9
$PLINEGEN
 70
     0
  9
$PSLTSCALE
 70
     1
  9
$TREEDEPTH
 70
  3020
  9
$CMLSTYLE
  2
Standard
  9
$CMLJUST
 70
     0
  9
$CMLSCALE
 40
20.0
  9
$PROXYGRAPHICS
 70
     1
  9
$MEASUREMENT
 70
     1
  9
$CELWEIGHT
370
    -1
  9
$ENDCAPS
280
     0
  9
$JOINSTYLE
280
     0
  9
$LWDISPLAY
290
     1
  9
$INSUNITS
 70
     4
  9
$HYPERLINKBASE
  1

  9
$STYLESHEET
  1

  9
$XEDIT
290
     1
  9
$CEPSNTYPE
380
     0
  9
$PSTYLEMODE
290
     1
  9
$FINGERPRINTGUID
  2
{ba7362d2-db06-4caf-a3da-f41af8a624ec}
  9
$VERSIONGUID
  2
{FAEB1C32-E019-11D5-929B-00C0DF256EC4}
  9
$EXTNAMES
290
     1
  9
$PSVPSCALE
 40
0.0
  9
$OLESTARTUP
290
     0
  0
ENDSEC
  0
SECTION
  2
CLASSES
  0
CLASS
  1
ACDBDICTIONARYWDFLT
  2
AcDbDictionaryWithDefault
  3
ObjectDBX Classes
 90
        0
280
     0
281
     0
  0
CLASS
  1
VISUALSTYLE
  2
AcDbVisualStyle
  3
ObjectDBX Classes
 90
     4095
280
     0
281
     0
  0
CLASS
  1
MATERIAL
  2
AcDbMaterial
  3
ObjectDBX Classes
 90
     1153
280
     0
281
     0
  0
CLASS
  1
SCALE
  2
AcDbScale
  3
ObjectDBX Classes
 90
     1153
280
     0
281
     0
  0
CLASS
  1
TABLESTYLE
  2
AcDbTableStyle
  3
ObjectDBX Classes
 90
     4095
280
     0
281
     0
  0
CLASS
  1
MLEADERSTYLE
  2
AcDbMLeaderStyle
  3
ACDB_MLEADERSTYLE_CLASS
 90
     4095
280
     0
281
     0
  0
CLASS
  1
SUN
  2
AcDbSun
  3
SCENEOE
 90
     1153
280
     0
281
     0
  0
CLASS
  1
ACDBPLACEHOLDER
  2
AcDbPlaceHolder
  3
ObjectDBX Classes
 90
        0
280
     0
281
     0
  0
CLASS
  1
LAYOUT
  2
AcDbLayout
  3
ObjectDBX Classes
 90
        0
280
     0
281
     0
  0
ENDSEC
  0
SECTION
  2
TABLES
  0
TABLE
  2
VPORT
  5
8
330
0
100
AcDbSymbolTable
 70
     1
  0
VPORT
  5
29
330
8
100
AcDbSymbolTableRecord
100
AcDbViewportTableRecord
  2
*Active
 70
     0
 10
0.0
 20
0.0
 11
1.0
 21
1.0
 12
210.0
 22
148.5
 13
0.0
 23
0.0
 14
10.0
 24
10.0
 15
10.0
 25
10.0
 16
0.0
 26
0.0
 36
1.0
 17
0.0
 27
0.0
 37
0.0
 40
297.0
 41
1.4141414141
 42
50.0
 43
0.0
 44
0.0
 50
0.0
 51
0.0
 71
     0
 72
  2000
 73
     1
 74
     3
 75
     0
 76
     0
 77
     0
 78
     0
281
     0
 65
     1
110
0.0
120
0.0
130
0.0
111
1.0
121
0.0
131
0.0
112
0.0
122
1.0
132
0.0
 79
     0
146
0.0
  0
ENDTAB
  0
TABLE
  2
LTYPE
  5
5
330
0
100
AcDbSymbolTable
 70
     6
  0
LTYPE
  5
14
330
5
100
AcDbSymbolTableRecord
100
AcDbLinetypeTableRecord
  2
ByBlock
 70
     0
  3

 72
    65
 73
     0
 40
0.0
  0
LTYPE
  5
15
330
5
100
AcDbSymbolTableRecord
100
AcDbLinetypeTableRecord
  2
ByLayer
 70
     0
  3

 72
    65
 73
     0
 40
0.0
  0
LTYPE
  5
16
330
5
100
AcDbSymbolTableRecord
100
AcDbLinetypeTableRecord
  2
Continuous
 70
     0
  3
Solid line
 72
    65
 73
     0
 40
0.0
  0
LTYPE
  5
6E
330
5
100
AcDbSymbolTableRecord
100
AcDbLinetypeTableRecord
  2
HIDDEN
 70
     0
  3
Hidden __ __ __ __ __ __ __ __ __ __ __ __ __ __
 72
    65
 73
     2
 40
1.905
 49
1.27
 74
     0
 49
-0.635
 74
     0
  0
LTYPE
  5
6F
330
5
100
AcDbSymbolTableRecord
100
AcDbLinetypeTableRecord
  2
PHANTOM
 70
     0
  3
Phantom ______  __  __  ______  __  __  ______
 72
    65
 73
     6
 40
12.7
 49
6.35
 74
     0
 49
-1.27
 74
     0
 49
1.27
 74
     0
 49
-1.27
 74
     0
 49
1.27
 74
     0
 49
-1.27
 74
     0
  0
LTYPE
  5
70
330
5
100
AcDbSymbolTableRecord
100
AcDbLinetypeTableRecord
  2
CENTER
 70
     0
  3
Center ____ _ ____ _ ____ _ ____ _ ____ _ ____
 72
    65
 73
     4
 40
10.16
 49
6.35
 74
     0
 49
-1.27
 74
     0
 49
1.27
 74
     0
 49
-1.27
 74
     0
  0
LTYPE
  5
71
330
5
100
AcDbSymbolTableRecord
100
AcDbLinetypeTableRecord
  2
CENTERX2
 70
     0
  3
Center (2x) ________  __  ________  __  _____
 72
    65
 73
     4
 40
20.32
 49
12.7
 74
     0
 49
-2.54
 74
     0
 49
2.54
 74
     0
 49
-2.54
 74
     0
  0
LTYPE
  5
72
330
5
100
AcDbSymbolTableRecord
100
AcDbLinetypeTableRecord
  2
DOT2
 70
     0
  3
Dot (.5x) ........................................
 72
    65
 73
     2
 40
0.635
 49
0.0
 74
     0
 49
-0.635
 74
     0
  0
ENDTAB
  0
TABLE
  2
LAYER
  5
2
330
0
100
AcDbSymbolTable
 70
     4
  0
LAYER
  5
10
330
2
100
AcDbSymbolTableRecord
100
AcDbLayerTableRecord
  2
0
 70
     0
 62
     7
  6
Continuous
370
    -3
390
F
  0
LAYER
  5
73
330
2
100
AcDbSymbolTableRecord
100
AcDbLayerTableRecord
  2
VORLAGE_TEXT
 70
     0
 62
     7
  6
Continuous
370
    -3
390
F
  0
LAYER
  5
74
330
2
100
AcDbSymbolTableRecord
100
AcDbLayerTableRecord
  2
LINIEN-NORMAL
 70
     0
 62
     7
  6
Continuous
370
    25
390
F
  0
LAYER
  5
75
330
2
100
AcDbSymbolTableRecord
100
AcDbLayerTableRecord
  2
LINIEN-DÜNN
 70
     0
 62
     7
  6
Continuous
370
    -3
390
F
  0
ENDTAB
  0
TABLE
  2
STYLE
  5
3
330
0
100
AcDbSymbolTable
 70
     4
  0
STYLE
  5
11
330
3
100
AcDbSymbolTableRecord
100
AcDbTextStyleTableRecord
  2
Standard
 70
     0
 40
0.0
 41
1.0
 50
0.0
 71
     0
 42
4.2333333333
  3
txt
  4

  0
STYLE
  5
76
330
3
100
AcDbSymbolTableRecord
100
AcDbTextStyleTableRecord
  2
SLDTEXTSTYLE0
 70
     0
 40
0.0
 41
0.605
 50
0.0
 71
     0
 42
4.2333333333
  3
TXT
  4

  0
STYLE
  5
229
330
3
100
AcDbSymbolTableRecord
100
AcDbTextStyleTableRecord
  2
SLDTEXTSTYLE1
 70
     0
 40
0.0
 41
0.575
 50
0.0
 71
     0
 42
4.2333333333
  3
TXT
  4

  0
STYLE
  5
267
330
3
100
AcDbSymbolTableRecord
100
AcDbTextStyleTableRecord
  2
SLDTEXTSTYLE2
 70
     0
 40
0.0
 41
0.57
 50
0.0
 71
     0
 42
4.2333333333
  3
TXT
  4

  0
ENDTAB
  0
TABLE
  2
VIEW
  5
6
330
0
100
AcDbSymbolTable
 70
     0
  0
ENDTAB
  0
TABLE
  2
UCS
  5
7
330
0
100
AcDbSymbolTable
 70
     0
  0
ENDTAB
  0
TABLE
  2
APPID
  5
9
330
0
100
AcDbSymbolTable
 70
     1
  0
APPID
  5
12
330
9
100
AcDbSymbolTableRecord
100
AcDbRegAppTableRecord
  2
ACAD
 70
     0
  0
ENDTAB
  0
TABLE
  2
DIMSTYLE
  5
A
330
0
100
AcDbSymbolTable
 70
     7
100
AcDbDimStyleTable
  0
DIMSTYLE
105
27
330
A
100
AcDbSymbolTableRecord
100
AcDbDimStyleTableRecord
  2
ISO-25
 70
     0
 41
2.5
 42
0.625
 43
3.75
 44
1.25
 73
     0
 74
     0
 77
     1
 78
     8
140
2.5
141
2.5
143
0.0393700787
147
0.625
171
     3
172
     1
178
     0
271
     2
272
     2
274
     3
278
    44
283
     0
284
     8
340
11
  0
DIMSTYLE
105
1D7
102
{ACAD_REACTORS
330
1D6
330
1E1
330
209
330
213
330
21D
330
22C
330
23D
330
24A
330
25E
330
32E
330
344
330
358
330
362
102
}
330
A
100
AcDbSymbolTableRecord
100
AcDbDimStyleTableRecord
  2
SLDDIMSTYLE0
 70
     0
 41
3.0
 44
0.0
 45
0.000000001
 73
     0
 74
     0
 77
     1
 78
    12
 79
     3
140
3.5
147
0.875
173
     1
178
     0
271
     2
272
     3
276
     2
284
    12
340
76
  0
DIMSTYLE
105
1EC
102
{ACAD_REACTORS
330
1EB
330
1F5
330
1FF
330
254
330
34E
102
}
330
A
100
AcDbSymbolTableRecord
100
AcDbDimStyleTableRecord
  2
SLDDIMSTYLE1
 70
     0
 41
3.0
 44
0.0
 45
0.000000001
 73
     0
 74
     0
 77
     1
 78
    12
 79
     3
140
3.5
147
0.875
173
     1
178
     0
271
     0
272
     3
276
     2
284
    12
340
76
  0
DIMSTYLE
105
26A
102
{ACAD_REACTORS
330
269
102
}
330
A
100
AcDbSymbolTableRecord
100
AcDbDimStyleTableRecord
  2
SLDDIMSTYLE2
 70
     0
 41
3.0
 44
0.0
 45
0.000000001
 73
     0
 74
     0
 77
     1
 78
    12
 79
     3
140
3.5
147
0.875
172
     1
173
     1
178
     0
271
     2
272
     3
276
     2
284
    12
289
     0
340
76
  0
DIMSTYLE
105
27F
102
{ACAD_REACTORS
330
27E
330
289
330
293
102
}
330
A
100
AcDbSymbolTableRecord
100
AcDbDimStyleTableRecord
  2
SLDDIMSTYLE3
 70
     0
 41
3.0
 44
0.0
 45
0.000000001
 73
     0
 74
     0
 77
     1
 78
    12
 79
     3
140
3.5
147
0.875
173
     1
178
     0
271
     1
272
     3
276
     2
284
    12
340
76
  0
DIMSTYLE
105
29E
102
{ACAD_REACTORS
330
29D
330
3C7
102
}
330
A
100
AcDbSymbolTableRecord
100
AcDbDimStyleTableRecord
  2
SLDDIMSTYLE4
 70
     0
 41
3.0
 44
0.0
 45
0.000000001
 73
     0
 74
     0
 77
     1
 78
    12
 79
     3
140
3.5
147
0.875
172
     1
173
     1
178
     0
271
     1
272
     3
276
     2
284
    12
289
     0
340
76
  0
DIMSTYLE
105
2AB
102
{ACAD_REACTORS
330
2AA
330
338
102
}
330
A
100
AcDbSymbolTableRecord
100
AcDbDimStyleTableRecord
  2
SLDDIMSTYLE5
 70
     0
 41
3.0
 44
0.0
 45
0.000000001
 73
     0
 74
     0
 77
     1
 78
    12
 79
     3
140
3.5
147
0.875
172
     1
173
     1
178
     0
271
     0
272
     3
276
     2
284
    12
289
     0
340
76
  0
ENDTAB
  0
TABLE
  2
BLOCK_RECORD
  5
1
330
0
100
AcDbSymbolTable
 70
    35
  0
BLOCK_RECORD
  5
1F
330
1
100
AcDbSymbolTableRecord
100
AcDbBlockTableRecord
  2
*Model_Space
340
22
  0
BLOCK_RECORD
  5
1B
330
1
100
AcDbSymbolTableRecord
100
AcDbBlockTableRecord
  2
*Paper_Space
340
1E
  0
BLOCK_RECORD
  5
23
330
1
100
AcDbSymbolTableRecord
100
AcDbBlockTableRecord
  2
*Paper_Space0
340
26
  0
BLOCK_RECORD
  5
1D8
330
1
100
AcDbSymbolTableRecord
100
AcDbBlockTableRecord
  2
_D
340
0
  0
BLOCK_RECORD
  5
1E2
330
1
100
AcDbSymbolTableRecord
100
AcDbBlockTableRecord
  2
_D_1
340
0
  0
BLOCK_RECORD
  5
1ED
330
1
100
AcDbSymbolTableRecord
100
AcDbBlockTableRecord
  2
_D_2
340
0
  0
BLOCK_RECORD
  5
1F6
330
1
100
AcDbSymbolTableRecord
100
AcDbBlockTableRecord
  2
_D_3
340
0
  0
BLOCK_RECORD
  5
200
330
1
100
AcDbSymbolTableRecord
100
AcDbBlockTableRecord
  2
_D_4
340
0
  0
BLOCK_RECORD
  5
20A
330
1
100
AcDbSymbolTableRecord
100
AcDbBlockTableRecord
  2
_D_5
340
0
  0
BLOCK_RECORD
  5
214
330
1
100
AcDbSymbolTableRecord
100
AcDbBlockTableRecord
  2
_D_6
340
0
  0
BLOCK_RECORD
  5
21E
330
1
100
AcDbSymbolTableRecord
100
AcDbBlockTableRecord
  2
_D_7
340
0
  0
BLOCK_RECORD
  5
22D
330
1
100
AcDbSymbolTableRecord
100
AcDbBlockTableRecord
  2
_D_8
340
0
  0
BLOCK_RECORD
  5
23E
330
1
100
AcDbSymbolTableRecord
100
AcDbBlockTableRecord
  2
_D_9
340
0
  0
BLOCK_RECORD
  5
24B
330
1
100
AcDbSymbolTableRecord
100
AcDbBlockTableRecord
  2
_D_10
340
0
  0
BLOCK_RECORD
  5
255
330
1
100
AcDbSymbolTableRecord
100
AcDbBlockTableRecord
  2
_D_11
340
0
  0
BLOCK_RECORD
  5
25F
330
1
100
AcDbSymbolTableRecord
100
AcDbBlockTableRecord
  2
_D_12
340
0
  0
BLOCK_RECORD
  5
26B
330
1
100
AcDbSymbolTableRecord
100
AcDbBlockTableRecord
  2
_D_13
340
0
  0
BLOCK_RECORD
  5
275
330
1
100
AcDbSymbolTableRecord
100
AcDbBlockTableRecord
  2
SW_SYMBOL_MOD_BOX
340
0
102
{BLKREFS
331
27C
102
}
  0
BLOCK_RECORD
  5
280
330
1
100
AcDbSymbolTableRecord
100
AcDbBlockTableRecord
  2
_D_14
340
0
  0
BLOCK_RECORD
  5
28A
330
1
100
AcDbSymbolTableRecord
100
AcDbBlockTableRecord
  2
_D_15
340
0
  0
BLOCK_RECORD
  5
294
330
1
100
AcDbSymbolTableRecord
100
AcDbBlockTableRecord
  2
_D_16
340
0
  0
BLOCK_RECORD
  5
29F
330
1
100
AcDbSymbolTableRecord
100
AcDbBlockTableRecord
  2
_D_17
340
0
  0
BLOCK_RECORD
  5
2AC
330
1
100
AcDbSymbolTableRecord
100
AcDbBlockTableRecord
  2
_D_18
340
0
  0
BLOCK_RECORD
  5
2B7
330
1
100
AcDbSymbolTableRecord
100
AcDbBlockTableRecord
  2
SW_CENTERMARKSYMBOL_0
340
0
102
{BLKREFS
331
2C2
102
}
  0
BLOCK_RECORD
  5
2C3
330
1
100
AcDbSymbolTableRecord
100
AcDbBlockTableRecord
  2
SW_CENTERMARKSYMBOL_1
340
0
102
{BLKREFS
331
2CE
102
}
  0
BLOCK_RECORD
  5
2CF
330
1
100
AcDbSymbolTableRecord
100
AcDbBlockTableRecord
  2
SW_CENTERMARKSYMBOL_2
340
0
102
{BLKREFS
331
2D6
102
}
  0
BLOCK_RECORD
  5
2D7
330
1
100
AcDbSymbolTableRecord
100
AcDbBlockTableRecord
  2
SW_CENTERMARKSYMBOL_3
340
0
102
{BLKREFS
331
2DE
102
}
  0
BLOCK_RECORD
  5
2DF
330
1
100
AcDbSymbolTableRecord
100
AcDbBlockTableRecord
  2
SW_CENTERMARKSYMBOL_4
340
0
102
{BLKREFS
331
2E6
102
}
  0
BLOCK_RECORD
  5
2E7
330
1
100
AcDbSymbolTableRecord
100
AcDbBlockTableRecord
  2
SW_CENTERMARKSYMBOL_5
340
0
102
{BLKREFS
331
2EE
102
}
  0
BLOCK_RECORD
  5
32F
330
1
100
AcDbSymbolTableRecord
100
AcDbBlockTableRecord
  2
_D_19
340
0
  0
BLOCK_RECORD
  5
339
330
1
100
AcDbSymbolTableRecord
100
AcDbBlockTableRecord
  2
_D_20
340
0
  0
BLOCK_RECORD
  5
345
330
1
100
AcDbSymbolTableRecord
100
AcDbBlockTableRecord
  2
_D_21
340
0
  0
BLOCK_RECORD
  5
34F
330
1
100
AcDbSymbolTableRecord
100
AcDbBlockTableRecord
  2
_D_22
340
0
  0
BLOCK_RECORD
  5
359
330
1
100
AcDbSymbolTableRecord
100
AcDbBlockTableRecord
  2
_D_23
340
0
  0
BLOCK_RECORD
  5
363
330
1
100
AcDbSymbolTableRecord
100
AcDbBlockTableRecord
  2
_D_24
340
0
  0
BLOCK_RECORD
  5
3C8
330
1
100
AcDbSymbolTableRecord
100
AcDbBlockTableRecord
  2
_D_25
340
0
  0
BLOCK_RECORD
  5
3D3
330
1
100
AcDbSymbolTableRecord
100
AcDbBlockTableRecord
  2
SW_CENTERMARKSYMBOL_6
340
0
102
{BLKREFS
331
3DE
102
}
  0
ENDTAB
  0
ENDSEC
  0
SECTION
  2
BLOCKS
  0
BLOCK
  5
20
330
1F
100
AcDbEntity
  8
0
100
AcDbBlockBegin
  2
*Model_Space
 70
     0
 10
0.0
 20
0.0
 30
0.0
  3
*Model_Space
  1

  0
ENDBLK
  5
21
330
1F
100
AcDbEntity
  8
0
100
AcDbBlockEnd
  0
BLOCK
  5
1C
330
1B
100
AcDbEntity
 67
     1
  8
0
100
AcDbBlockBegin
  2
*Paper_Space
 70
     0
 10
0.0
 20
0.0
 30
0.0
  3
*Paper_Space
  1

  0
ENDBLK
  5
1D
330
1B
100
AcDbEntity
 67
     1
  8
0
100
AcDbBlockEnd
  0
BLOCK
  5
24
330
23
100
AcDbEntity
  8
0
100
AcDbBlockBegin
  2
*Paper_Space0
 70
     0
 10
0.0
 20
0.0
 30
0.0
  3
*Paper_Space0
  1

  0
ENDBLK
  5
25
330
23
100
AcDbEntity
  8
0
100
AcDbBlockEnd
  0
BLOCK
  5
1D9
330
1D8
100
AcDbEntity
  8
0
100
AcDbBlockBegin
  2
_D
 70
     0
 10
0.0
 20
0.0
 30
0.0
  3
_D
  1

  0
SOLID
  5
1DB
330
1D8
100
AcDbEntity
  8
0
  6
Continuous
 62
     7
370
    18
100
AcDbTrace
 10
69.7265125302
 20
249.2788707807
 30
0.0
 11
69.2265125302
 21
246.2788707807
 31
0.0
 12
70.2265125302
 22
246.2788707807
 32
0.0
 13
70.2265125302
 23
246.2788707807
 33
0.0
  0
SOLID
  5
1DC
330
1D8
100
AcDbEntity
  8
0
  6
Continuous
 62
     7
370
    18
100
AcDbTrace
 10
69.7265125302
 20
239.7288707807
 30
0.0
 11
70.2265125302
 21
242.7288707807
 31
0.0
 12
69.2265125302
 22
242.7288707807
 32
0.0
 13
69.2265125302
 23
242.7288707807
 33
0.0
  0
LINE
  5
1DD
330
1D8
100
AcDbEntity
  8
0
  6
Continuous
 62
     7
370
     0
100
AcDbLine
 10
107.8684268199
 20
249.2788707807
 30
0.0
 11
69.2265125302
 21
249.2788707807
 31
0.0
  0
LINE
  5
1DE
330
1D8
100
AcDbEntity
  8
0
  6
Continuous
 62
     7
370
     0
100
AcDbLine
 10
94.8684268199
 20
239.7288707807
 30
0.0
 11
69.2265125302
 21
239.7288707807
 31
0.0
  0
LINE
  5
1DF
330
1D8
100
AcDbEntity
  8
0
  6
Continuous
 62
     7
370
     0
100
AcDbLine
 10
69.7265125302
 20
249.2788707807
 30
0.0
 11
69.7265125302
 21
239.7288707807
 31
0.0
  0
MTEXT
  5
1E0
330
1D8
100
AcDbEntity
  8
0
  6
Continuous
 62
     7
370
    18
100
AcDbMText
 10
65.2147752081
 20
243.1670652583
 30
0.0
 40
3.5
 41
0.0
 71
     1
 72
     1
  1
9
  7
SLDTEXTSTYLE0
 11
-7.932373437343760E-15
 21
1.0
 31
0.0
 73
     1
 44
1.0
  0
ENDBLK
  5
1DA
330
1D8
100
AcDbEntity
  8
0
100
AcDbBlockEnd
  0
BLOCK
  5
1E3
330
1E2
100
AcDbEntity
  8
0
100
AcDbBlockBegin
  2
_D_1
 70
     0
 10
0.0
 20
0.0
 30
0.0
  3
_D_1
  1

  0
SOLID
  5
1E5
330
1E2
100
AcDbEntity
  8
0
  6
Continuous
 62
     7
370
    18
100
AcDbTrace
 10
69.9516095894
 20
239.7288707807
 30
0.0
 11
69.4516095894
 21
236.7288707807
 31
0.0
 12
70.4516095894
 22
236.7288707807
 32
0.0
 13
70.4516095894
 23
236.7288707807
 33
0.0
  0
SOLID
  5
1E6
330
1E2
100
AcDbEntity
  8
0
  6
Continuous
 62
     7
370
    18
100
AcDbTrace
 10
69.9516095894
 20
216.2288707807
 30
0.0
 11
70.4516095894
 21
219.2288707807
 31
0.0
 12
69.4516095894
 22
219.2288707807
 32
0.0
 13
69.4516095894
 23
219.2288707807
 33
0.0
  0
LINE
  5
1E7
330
1E2
100
AcDbEntity
  8
0
  6
Continuous
 62
     7
370
     0
100
AcDbLine
 10
94.8684268199
 20
239.7288707807
 30
0.0
 11
69.4516095894
 21
239.7288707807
 31
0.0
  0
LINE
  5
1E8
330
1E2
100
AcDbEntity
  8
0
  6
Continuous
 62
     7
370
     0
100
AcDbLine
 10
94.8684268199
 20
216.2288707807
 30
0.0
 11
69.4516095894
 21
216.2288707807
 31
0.0
  0
LINE
  5
1E9
330
1E2
100
AcDbEntity
  8
0
  6
Continuous
 62
     7
370
     0
100
AcDbLine
 10
69.9516095894
 20
239.7288707807
 30
0.0
 11
69.9516095894
 21
216.2288707807
 31
0.0
  0
MTEXT
  5
1EA
330
1E2
100
AcDbEntity
  8
0
  6
Continuous
 62
     7
370
    18
100
AcDbMText
 10
65.4398722673
 20
225.3052597358
 30
0.0
 40
3.5
 41
0.0
 71
     1
 72
     1
  1
23
  7
SLDTEXTSTYLE0
 11
-7.932373437343760E-15
 21
1.0
 31
0.0
 73
     1
 44
1.0
  0
ENDBLK
  5
1E4
330
1E2
100
AcDbEntity
  8
0
100
AcDbBlockEnd
  0
BLOCK
  5
1EE
330
1ED
100
AcDbEntity
  8
0
100
AcDbBlockBegin
  2
_D_2
 70
     0
 10
0.0
 20
0.0
 30
0.0
  3
_D_2
  1

  0
SOLID
  5
1F0
330
1ED
100
AcDbEntity
  8
0
  6
Continuous
 62
     7
370
    18
100
AcDbTrace
 10
95.0684268199
 20
197.7288707807
 30
0.0
 11
98.0684268199
 21
197.2288707807
 31
0.0
 12
98.0684268199
 22
198.2288707807
 32
0.0
 13
98.0684268199
 23
198.2288707807
 33
0.0
  0
SOLID
  5
1F1
330
1ED
100
AcDbEntity
  8
0
  6
Continuous
 62
     7
370
    18
100
AcDbTrace
 10
108.0684268199
 20
197.7288707807
 30
0.0
 11
105.0684268199
 21
198.2288707807
 31
0.0
 12
105.0684268199
 22
197.2288707807
 32
0.0
 13
105.0684268199
 23
197.2288707807
 33
0.0
  0
LINE
  5
1F2
330
1ED
100
AcDbEntity
  8
0
  6
Continuous
 62
     7
370
     0
100
AcDbLine
 10
95.0684268199
 20
216.0288707807
 30
0.0
 11
95.0684268199
 21
197.2288707807
 31
0.0
  0
LINE
  5
1F3
330
1ED
100
AcDbEntity
  8
0
  6
Continuous
 62
     7
370
     0
100
AcDbLine
 10
95.0684268199
 20
197.7288707807
 30
0.0
 11
108.0684268199
 21
197.7288707807
 31
0.0
  0
MTEXT
  5
1F4
330
1ED
100
AcDbEntity
  8
0
  6
Continuous
 62
     7
370
    18
100
AcDbMText
 10
98.894815775
 20
202.2406081028
 30
0.0
 40
3.5
 41
0.0
 71
     1
 72
     1
  1
13
  7
SLDTEXTSTYLE0
 73
     1
 44
1.0
  0
ENDBLK
  5
1EF
330
1ED
100
AcDbEntity
  8
0
100
AcDbBlockEnd
  0
BLOCK
  5
1F7
330
1F6
100
AcDbEntity
  8
0
100
AcDbBlockBegin
  2
_D_3
 70
     0
 10
0.0
 20
0.0
 30
0.0
  3
_D_3
  1

  0
SOLID
  5
1F9
330
1F6
100
AcDbEntity
  8
0
  6
Continuous
 62
     7
370
    18
100
AcDbTrace
 10
69.9516095894
 20
216.2288707807
 30
0.0
 11
69.4516095894
 21
213.2288707807
 31
0.0
 12
70.4516095894
 22
213.2288707807
 32
0.0
 13
70.4516095894
 23
213.2288707807
 33
0.0
  0
SOLID
  5
1FA
330
1F6
100
AcDbEntity
  8
0
  6
Continuous
 62
     7
370
    18
100
AcDbTrace
 10
69.9516095894
 20
191.8788707807
 30
0.0
 11
70.4516095894
 21
194.8788707807
 31
0.0
 12
69.4516095894
 22
194.8788707807
 32
0.0
 13
69.4516095894
 23
194.8788707807
 33
0.0
  0
LINE
  5
1FB
330
1F6
100
AcDbEntity
  8
0
  6
Continuous
 62
     7
370
     0
100
AcDbLine
 10
94.8684268199
 20
216.2288707807
 30
0.0
 11
69.4516095894
 21
216.2288707807
 31
0.0
  0
LINE
  5
1FC
330
1F6
100
AcDbEntity
  8
0
  6
Continuous
 62
     7
370
     0
100
AcDbLine
 10
80.0349883241
 20
191.8788707807
 30
0.0
 11
69.4516095894
 21
191.8788707807
 31
0.0
  0
LINE
  5
1FD
330
1F6
100
AcDbEntity
  8
0
  6
Continuous
 62
     7
370
     0
100
AcDbLine
 10
69.9516095894
 20
216.2288707807
 30
0.0
 11
69.9516095894
 21
191.8788707807
 31
0.0
  0
MTEXT
  5
1FE
330
1F6
100
AcDbEntity
  8
0
  6
Continuous
 62
     7
370
    18
100
AcDbMText
 10
65.4398722673
 20
201.3802597358
 30
0.0
 40
3.5
 41
0.0
 71
     1
 72
     1
  1
24
  7
SLDTEXTSTYLE0
 11
-7.044195017643634E-15
 21
1.0
 31
0.0
 73
     1
 44
1.0
  0
ENDBLK
  5
1F8
330
1F6
100
AcDbEntity
  8
0
100
AcDbBlockEnd
  0
BLOCK
  5
201
330
200
100
AcDbEntity
  8
0
100
AcDbBlockBegin
  2
_D_4
 70
     0
 10
0.0
 20
0.0
 30
0.0
  3
_D_4
  1

  0
SOLID
  5
203
330
200
100
AcDbEntity
  8
0
  6
Continuous
 62
     7
370
    18
100
AcDbTrace
 10
108.0684268199
 20
123.4288707807
 30
0.0
 11
105.0684268199
 21
123.9288707807
 31
0.0
 12
105.0684268199
 22
122.9288707807
 32
0.0
 13
105.0684268199
 23
122.9288707807
 33
0.0
  0
SOLID
  5
204
330
200
100
AcDbEntity
  8
0
  6
Continuous
 62
     7
370
    18
100
AcDbTrace
 10
93.5684268199
 20
123.4288707807
 30
0.0
 11
96.5684268199
 21
122.9288707807
 31
0.0
 12
96.5684268199
 22
123.9288707807
 32
0.0
 13
96.5684268199
 23
123.9288707807
 33
0.0
  0
LINE
  5
205
330
200
100
AcDbEntity
  8
0
  6
Continuous
 62
     7
370
     0
100
AcDbLine
 10
108.0684268199
 20
133.5788707807
 30
0.0
 11
108.0684268199
 21
122.9288707807
 31
0.0
  0
LINE
  5
206
330
200
100
AcDbEntity
  8
0
  6
Continuous
 62
     7
370
     0
100
AcDbLine
 10
93.5684268199
 20
139.8788707807
 30
0.0
 11
93.5684268199
 21
122.9288707807
 31
0.0
  0
LINE
  5
207
330
200
100
AcDbEntity
  8
0
  6
Continuous
 62
     7
370
     0
100
AcDbLine
 10
108.0684268199
 20
123.4288707807
 30
0.0
 11
93.5684268199
 21
123.4288707807
 31
0.0
  0
MTEXT
  5
208
330
200
100
AcDbEntity
  8
0
  6
Continuous
 62
     7
370
    18
100
AcDbMText
 10
98.144815775
 20
127.9406081028
 30
0.0
 40
3.5
 41
0.0
 71
     1
 72
     1
  1
15
  7
SLDTEXTSTYLE0
 73
     1
 44
1.0
  0
ENDBLK
  5
202
330
200
100
AcDbEntity
  8
0
100
AcDbBlockEnd
  0
BLOCK
  5
20B
330
20A
100
AcDbEntity
  8
0
100
AcDbBlockBegin
  2
_D_5
 70
     0
 10
0.0
 20
0.0
 30
0.0
  3
_D_5
  1

  0
SOLID
  5
20D
330
20A
100
AcDbEntity
  8
0
  6
Continuous
 62
     7
370
    18
100
AcDbTrace
 10
108.0684268199
 20
123.4288707807
 30
0.0
 11
111.0684268199
 21
122.9288707807
 31
0.0
 12
111.0684268199
 22
123.9288707807
 32
0.0
 13
111.0684268199
 23
123.9288707807
 33
0.0
  0
SOLID
  5
20E
330
20A
100
AcDbEntity
  8
0
  6
Continuous
 62
     7
370
    18
100
AcDbTrace
 10
178.0684268199
 20
123.4288707807
 30
0.0
 11
175.0684268199
 21
123.9288707807
 31
0.0
 12
175.0684268199
 22
122.9288707807
 32
0.0
 13
175.0684268199
 23
122.9288707807
 33
0.0
  0
LINE
  5
20F
330
20A
100
AcDbEntity
  8
0
  6
Continuous
 62
     7
370
     0
100
AcDbLine
 10
108.0684268199
 20
133.5788707807
 30
0.0
 11
108.0684268199
 21
122.9288707807
 31
0.0
  0
LINE
  5
210
330
20A
100
AcDbEntity
  8
0
  6
Continuous
 62
     7
370
     0
100
AcDbLine
 10
178.0684268199
 20
146.6788707807
 30
0.0
 11
178.0684268199
 21
122.9288707807
 31
0.0
  0
LINE
  5
211
330
20A
100
AcDbEntity
  8
0
  6
Continuous
 62
     7
370
     0
100
AcDbLine
 10
108.0684268199
 20
123.4288707807
 30
0.0
 11
178.0684268199
 21
123.4288707807
 31
0.0
  0
MTEXT
  5
212
330
20A
100
AcDbEntity
  8
0
  6
Continuous
 62
     7
370
    18
100
AcDbMText
 10
140.394815775
 20
127.9406081028
 30
0.0
 40
3.5
 41
0.0
 71
     1
 72
     1
  1
70
  7
SLDTEXTSTYLE0
 73
     1
 44
1.0
  0
ENDBLK
  5
20C
330
20A
100
AcDbEntity
  8
0
100
AcDbBlockEnd
  0
BLOCK
  5
215
330
214
100
AcDbEntity
  8
0
100
AcDbBlockBegin
  2
_D_6
 70
     0
 10
0.0
 20
0.0
 30
0.0
  3
_D_6
  1

  0
SOLID
  5
217
330
214
100
AcDbEntity
  8
0
  6
Continuous
 62
     7
370
    18
100
AcDbTrace
 10
108.0684268199
 20
115.4288707807
 30
0.0
 11
111.0684268199
 21
114.9288707807
 31
0.0
 12
111.0684268199
 22
115.9288707807
 32
0.0
 13
111.0684268199
 23
115.9288707807
 33
0.0
  0
SOLID
  5
218
330
214
100
AcDbEntity
  8
0
  6
Continuous
 62
     7
370
    18
100
AcDbTrace
 10
228.0684268199
 20
115.4288707807
 30
0.0
 11
225.0684268199
 21
115.9288707807
 31
0.0
 12
225.0684268199
 22
114.9288707807
 32
0.0
 13
225.0684268199
 23
114.9288707807
 33
0.0
  0
LINE
  5
219
330
214
100
AcDbEntity
  8
0
  6
Continuous
 62
     7
370
     0
100
AcDbLine
 10
108.0684268199
 20
133.5788707807
 30
0.0
 11
108.0684268199
 21
114.9288707807
 31
0.0
  0
LINE
  5
21A
330
214
100
AcDbEntity
  8
0
  6
Continuous
 62
     7
370
     0
100
AcDbLine
 10
228.0684268199
 20
133.5788707807
 30
0.0
 11
228.0684268199
 21
114.9288707807
 31
0.0
  0
LINE
  5
21B
330
214
100
AcDbEntity
  8
0
  6
Continuous
 62
     7
370
     0
100
AcDbLine
 10
108.0684268199
 20
115.4288707807
 30
0.0
 11
228.0684268199
 21
115.4288707807
 31
0.0
  0
MTEXT
  5
21C
330
214
100
AcDbEntity
  8
0
  6
Continuous
 62
     7
370
    18
100
AcDbMText
 10
164.0580102526
 20
119.9406081028
 30
0.0
 40
3.5
 41
0.0
 71
     1
 72
     1
  1
120
  7
SLDTEXTSTYLE0
 73
     1
 44
1.0
  0
ENDBLK
  5
216
330
214
100
AcDbEntity
  8
0
100
AcDbBlockEnd
  0
BLOCK
  5
21F
330
21E
100
AcDbEntity
  8
0
100
AcDbBlockBegin
  2
_D_7
 70
     0
 10
0.0
 20
0.0
 30
0.0
  3
_D_7
  1

  0
SOLID
  5
221
330
21E
100
AcDbEntity
  8
0
  6
Continuous
 62
     7
370
    18
100
AcDbTrace
 10
264.7151138318
 20
160.4788707807
 30
0.0
 11
264.2151138318
 21
157.4788707807
 31
0.0
 12
265.2151138318
 22
157.4788707807
 32
0.0
 13
265.2151138318
 23
157.4788707807
 33
0.0
  0
SOLID
  5
222
330
21E
100
AcDbEntity
  8
0
  6
Continuous
 62
     7
370
    18
100
AcDbTrace
 10
264.7151138318
 20
133.7788707807
 30
0.0
 11
265.2151138318
 21
136.7788707807
 31
0.0
 12
264.2151138318
 22
136.7788707807
 32
0.0
 13
264.2151138318
 23
136.7788707807
 33
0.0
  0
LINE
  5
223
330
21E
100
AcDbEntity
  8
0
  6
Continuous
 62
     7
370
     0
100
AcDbLine
 10
191.8684268199
 20
160.4788707807
 30
0.0
 11
215.8064268199
 21
160.4788707807
 31
0.0
  0
LINE
  5
224
330
21E
100
AcDbEntity
  8
0
  6
Continuous
 62
     7
370
     0
100
AcDbLine
 10
217.3304268199
 20
160.4788707807
 30
0.0
 11
239.9531138318
 21
160.4788707807
 31
0.0
  0
LINE
  5
225
330
21E
100
AcDbEntity
  8
0
  6
Continuous
 62
     7
370
     0
100
AcDbLine
 10
241.4771138318
 20
160.4788707807
 30
0.0
 11
247.9531138318
 21
160.4788707807
 31
0.0
  0
LINE
  5
226
330
21E
100
AcDbEntity
  8
0
  6
Continuous
 62
     7
370
     0
100
AcDbLine
 10
249.4771138318
 20
160.4788707807
 30
0.0
 11
265.2151138318
 21
160.4788707807
 31
0.0
  0
LINE
  5
227
330
21E
100
AcDbEntity
  8
0
  6
Continuous
 62
     7
370
     0
100
AcDbLine
 10
228.2684268199
 20
133.7788707807
 30
0.0
 11
265.2151138318
 21
133.7788707807
 31
0.0
  0
LINE
  5
228
330
21E
100
AcDbEntity
  8
0
  6
Continuous
 62
     7
370
     0
100
AcDbLine
 10
264.7151138318
 20
160.4788707807
 30
0.0
 11
264.7151138318
 21
133.7788707807
 31
0.0
  0
MTEXT
  5
22A
330
21E
100
AcDbEntity
  8
0
  6
Continuous
 62
     7
370
    18
100
AcDbMText
 10
254.8318487634
 20
138.5101211026
 30
0.0
 40
3.5
 41
0.0
 71
     1
 72
     1
  1
RZ = 27
  7
SLDTEXTSTYLE1
 11
-6.156016597943509E-15
 21
1.0
 31
0.0
 73
     1
 44
1.0
  0
MTEXT
  5
22B
330
21E
100
AcDbEntity
  8
0
  6
Continuous
 62
     7
370
    18
100
AcDbMText
 10
260.2033765098
 20
138.6413705304
 30
0.0
 40
3.5
 41
0.0
 71
     1
 72
     1
  1
PZ = 29
  7
SLDTEXTSTYLE1
 11
-6.156016597943509E-15
 21
1.0
 31
0.0
 73
     1
 44
1.0
  0
ENDBLK
  5
220
330
21E
100
AcDbEntity
  8
0
100
AcDbBlockEnd
  0
BLOCK
  5
22E
330
22D
100
AcDbEntity
  8
0
100
AcDbBlockBegin
  2
_D_8
 70
     0
 10
0.0
 20
0.0
 30
0.0
  3
_D_8
  1

  0
SOLID
  5
230
330
22D
100
AcDbEntity
  8
0
  6
Continuous
 62
     7
370
    18
100
AcDbTrace
 10
264.7151138318
 20
218.6788707807
 30
0.0
 11
264.2151138318
 21
215.6788707807
 31
0.0
 12
265.2151138318
 22
215.6788707807
 32
0.0
 13
265.2151138318
 23
215.6788707807
 33
0.0
  0
SOLID
  5
231
330
22D
100
AcDbEntity
  8
0
  6
Continuous
 62
     7
370
    18
100
AcDbTrace
 10
264.7151138318
 20
160.4788707807
 30
0.0
 11
265.2151138318
 21
163.4788707807
 31
0.0
 12
264.2151138318
 22
163.4788707807
 32
0.0
 13
264.2151138318
 23
163.4788707807
 33
0.0
  0
LINE
  5
232
330
22D
100
AcDbEntity
  8
0
  6
Continuous
 62
     7
370
     0
100
AcDbLine
 10
178.2684268199
 20
218.6788707807
 30
0.0
 11
215.8064268199
 21
218.6788707807
 31
0.0
  0
LINE
  5
233
330
22D
100
AcDbEntity
  8
0
  6
Continuous
 62
     7
370
     0
100
AcDbLine
 10
217.3304268199
 20
218.6788707807
 30
0.0
 11
239.9531138318
 21
218.6788707807
 31
0.0
  0
LINE
  5
234
330
22D
100
AcDbEntity
  8
0
  6
Continuous
 62
     7
370
     0
100
AcDbLine
 10
241.4771138318
 20
218.6788707807
 30
0.0
 11
247.9531138318
 21
218.6788707807
 31
0.0
  0
LINE
  5
235
330
22D
100
AcDbEntity
  8
0
  6
Continuous
 62
     7
370
     0
100
AcDbLine
 10
249.4771138318
 20
218.6788707807
 30
0.0
 11
265.2151138318
 21
218.6788707807
 31
0.0
  0
LINE
  5
236
330
22D
100
AcDbEntity
  8
0
  6
Continuous
 62
     7
370
     0
100
AcDbLine
 10
191.8684268199
 20
160.4788707807
 30
0.0
 11
215.8064268199
 21
160.4788707807
 31
0.0
  0
LINE
  5
237
330
22D
100
AcDbEntity
  8
0
  6
Continuous
 62
     7
370
     0
100
AcDbLine
 10
217.3304268199
 20
160.4788707807
 30
0.0
 11
239.9531138318
 21
160.4788707807
 31
0.0
  0
LINE
  5
238
330
22D
100
AcDbEntity
  8
0
  6
Continuous
 62
     7
370
     0
100
AcDbLine
 10
241.4771138318
 20
160.4788707807
 30
0.0
 11
247.9531138318
 21
160.4788707807
 31
0.0
  0
LINE
  5
239
330
22D
100
AcDbEntity
  8
0
  6
Continuous
 62
     7
370
     0
100
AcDbLine
 10
249.4771138318
 20
160.4788707807
 30
0.0
 11
265.2151138318
 21
160.4788707807
 31
0.0
  0
LINE
  5
23A
330
22D
100
AcDbEntity
  8
0
  6
Continuous
 62
     7
370
     0
100
AcDbLine
 10
264.7151138318
 20
218.6788707807
 30
0.0
 11
264.7151138318
 21
160.4788707807
 31
0.0
  0
MTEXT
  5
23B
330
22D
100
AcDbEntity
  8
0
  6
Continuous
 62
     7
370
    18
100
AcDbMText
 10
254.8318487634
 20
180.9601211026
 30
0.0
 40
3.5
 41
0.0
 71
     1
 72
     1
  1
RZ = 58
  7
SLDTEXTSTYLE1
 11
-7.044195017643634E-15
 21
1.0
 31
0.0
 73
     1
 44
1.0
  0
MTEXT
  5
23C
330
22D
100
AcDbEntity
  8
0
  6
Continuous
 62
     7
370
    18
100
AcDbMText
 10
260.2033765098
 20
181.0913705304
 30
0.0
 40
3.5
 41
0.0
 71
     1
 72
     1
  1
PZ = 56
  7
SLDTEXTSTYLE1
 11
-7.044195017643634E-15
 21
1.0
 31
0.0
 73
     1
 44
1.0
  0
ENDBLK
  5
22F
330
22D
100
AcDbEntity
  8
0
100
AcDbBlockEnd
  0
BLOCK
  5
23F
330
23E
100
AcDbEntity
  8
0
100
AcDbBlockBegin
  2
_D_9
 70
     0
 10
0.0
 20
0.0
 30
0.0
  3
_D_9
  1

  0
SOLID
  5
241
330
23E
100
AcDbEntity
  8
0
  6
Continuous
 62
     7
370
    18
100
AcDbTrace
 10
264.7151138318
 20
249.2788707807
 30
0.0
 11
264.2151138318
 21
246.2788707807
 31
0.0
 12
265.2151138318
 22
246.2788707807
 32
0.0
 13
265.2151138318
 23
246.2788707807
 33
0.0
  0
SOLID
  5
242
330
23E
100
AcDbEntity
  8
0
  6
Continuous
 62
     7
370
    18
100
AcDbTrace
 10
264.7151138318
 20
218.6788707807
 30
0.0
 11
265.2151138318
 21
221.6788707807
 31
0.0
 12
264.2151138318
 22
221.6788707807
 32
0.0
 13
264.2151138318
 23
221.6788707807
 33
0.0
  0
LINE
  5
243
330
23E
100
AcDbEntity
  8
0
  6
Continuous
 62
     7
370
     0
100
AcDbLine
 10
228.2684268199
 20
249.2788707807
 30
0.0
 11
265.2151138318
 21
249.2788707807
 31
0.0
  0
LINE
  5
244
330
23E
100
AcDbEntity
  8
0
  6
Continuous
 62
     7
370
     0
100
AcDbLine
 10
178.2684268199
 20
218.6788707807
 30
0.0
 11
215.8064268199
 21
218.6788707807
 31
0.0
  0
LINE
  5
245
330
23E
100
AcDbEntity
  8
0
  6
Continuous
 62
     7
370
     0
100
AcDbLine
 10
217.3304268199
 20
218.6788707807
 30
0.0
 11
239.9531138318
 21
218.6788707807
 31
0.0
  0
LINE
  5
246
330
23E
100
AcDbEntity
  8
0
  6
Continuous
 62
     7
370
     0
100
AcDbLine
 10
241.4771138318
 20
218.6788707807
 30
0.0
 11
247.9531138318
 21
218.6788707807
 31
0.0
  0
LINE
  5
247
330
23E
100
AcDbEntity
  8
0
  6
Continuous
 62
     7
370
     0
100
AcDbLine
 10
249.4771138318
 20
218.6788707807
 30
0.0
 11
265.2151138318
 21
218.6788707807
 31
0.0
  0
LINE
  5
248
330
23E
100
AcDbEntity
  8
0
  6
Continuous
 62
     7
370
     0
100
AcDbLine
 10
264.7151138318
 20
249.2788707807
 30
0.0
 11
264.7151138318
 21
218.6788707807
 31
0.0
  0
MTEXT
  5
249
330
23E
100
AcDbEntity
  8
0
  6
Continuous
 62
     7
370
    18
100
AcDbMText
 10
260.2033765098
 20
231.3052597358
 30
0.0
 40
3.5
 41
0.0
 71
     1
 72
     1
  1
30
  7
SLDTEXTSTYLE0
 11
-7.932373437343760E-15
 21
1.0
 31
0.0
 73
     1
 44
1.0
  0
ENDBLK
  5
240
330
23E
100
AcDbEntity
  8
0
100
AcDbBlockEnd
  0
BLOCK
  5
24C
330
24B
100
AcDbEntity
  8
0
100
AcDbBlockBegin
  2
_D_10
 70
     0
 10
0.0
 20
0.0
 30
0.0
  3
_D_10
  1

  0
SOLID
  5
24E
330
24B
100
AcDbEntity
  8
0
  6
Continuous
 62
     7
370
    18
100
AcDbTrace
 10
272.7151138318
 20
249.2788707807
 30
0.0
 11
272.2151138318
 21
246.2788707807
 31
0.0
 12
273.2151138318
 22
246.2788707807
 32
0.0
 13
273.2151138318
 23
246.2788707807
 33
0.0
  0
SOLID
  5
24F
330
24B
100
AcDbEntity
  8
0
  6
Continuous
 62
     7
370
    18
100
AcDbTrace
 10
272.7151138318
 20
133.7788707807
 30
0.0
 11
273.2151138318
 21
136.7788707807
 31
0.0
 12
272.2151138318
 22
136.7788707807
 32
0.0
 13
272.2151138318
 23
136.7788707807
 33
0.0
  0
LINE
  5
250
330
24B
100
AcDbEntity
  8
0
  6
Continuous
 62
     7
370
     0
100
AcDbLine
 10
228.2684268199
 20
249.2788707807
 30
0.0
 11
273.2151138318
 21
249.2788707807
 31
0.0
  0
LINE
  5
251
330
24B
100
AcDbEntity
  8
0
  6
Continuous
 62
     7
370
     0
100
AcDbLine
 10
228.2684268199
 20
133.7788707807
 30
0.0
 11
273.2151138318
 21
133.7788707807
 31
0.0
  0
LINE
  5
252
330
24B
100
AcDbEntity
  8
0
  6
Continuous
 62
     7
370
     0
100
AcDbLine
 10
272.7151138318
 20
249.2788707807
 30
0.0
 11
272.7151138318
 21
133.7788707807
 31
0.0
  0
MTEXT
  5
253
330
24B
100
AcDbEntity
  8
0
  6
Continuous
 62
     7
370
    18
100
AcDbMText
 10
268.2033765098
 20
187.5184542134
 30
0.0
 40
3.5
 41
0.0
 71
     1
 72
     1
  1
115
  7
SLDTEXTSTYLE0
 11
-6.156016597943509E-15
 21
1.0
 31
0.0
 73
     1
 44
1.0
  0
ENDBLK
  5
24D
330
24B
100
AcDbEntity
  8
0
100
AcDbBlockEnd
  0
BLOCK
  5
256
330
255
100
AcDbEntity
  8
0
100
AcDbBlockBegin
  2
_D_11
 70
     0
 10
0.0
 20
0.0
 30
0.0
  3
_D_11
  1

  0
SOLID
  5
258
330
255
100
AcDbEntity
  8
0
  6
Continuous
 62
     7
370
    18
100
AcDbTrace
 10
69.7265125302
 20
191.8788707807
 30
0.0
 11
69.2265125302
 21
188.8788707807
 31
0.0
 12
70.2265125302
 22
188.8788707807
 32
0.0
 13
70.2265125302
 23
188.8788707807
 33
0.0
  0
SOLID
  5
259
330
255
100
AcDbEntity
  8
0
  6
Continuous
 62
     7
370
    18
100
AcDbTrace
 10
69.7265125302
 20
163.3788707807
 30
0.0
 11
70.2265125302
 21
166.3788707807
 31
0.0
 12
69.2265125302
 22
166.3788707807
 32
0.0
 13
69.2265125302
 23
166.3788707807
 33
0.0
  0
LINE
  5
25A
330
255
100
AcDbEntity
  8
0
  6
Continuous
 62
     7
370
     0
100
AcDbLine
 10
79.564035997
 20
191.8788707807
 30
0.0
 11
69.2265125302
 21
191.8788707807
 31
0.0
  0
LINE
  5
25B
330
255
100
AcDbEntity
  8
0
  6
Continuous
 62
     7
370
     0
100
AcDbLine
 10
79.564035997
 20
163.3788707807
 30
0.0
 11
69.2265125302
 21
163.3788707807
 31
0.0
  0
LINE
  5
25C
330
255
100
AcDbEntity
  8
0
  6
Continuous
 62
     7
370
     0
100
AcDbLine
 10
69.7265125302
 20
191.8788707807
 30
0.0
 11
69.7265125302
 21
163.3788707807
 31
0.0
  0
MTEXT
  5
25D
330
255
100
AcDbEntity
  8
0
  6
Continuous
 62
     7
370
    18
100
AcDbMText
 10
65.2147752081
 20
174.9552597358
 30
0.0
 40
3.5
 41
0.0
 71
     1
 72
     1
  1
29
  7
SLDTEXTSTYLE0
 11
-7.044195017643634E-15
 21
1.0
 31
0.0
 73
     1
 44
1.0
  0
ENDBLK
  5
257
330
255
100
AcDbEntity
  8
0
100
AcDbBlockEnd
  0
BLOCK
  5
260
330
25F
100
AcDbEntity
  8
0
100
AcDbBlockBegin
  2
_D_12
 70
     0
 10
0.0
 20
0.0
 30
0.0
  3
_D_12
  1

  0
SOLID
  5
262
330
25F
100
AcDbEntity
  8
0
  6
Continuous
 62
     7
370
    18
100
AcDbTrace
 10
79.764035997
 20
115.4288707807
 30
0.0
 11
82.764035997
 21
114.9288707807
 31
0.0
 12
82.764035997
 22
115.9288707807
 32
0.0
 13
82.764035997
 23
115.9288707807
 33
0.0
  0
SOLID
  5
263
330
25F
100
AcDbEntity
  8
0
  6
Continuous
 62
     7
370
    18
100
AcDbTrace
 10
108.0684268199
 20
115.4288707807
 30
0.0
 11
105.0684268199
 21
115.9288707807
 31
0.0
 12
105.0684268199
 22
114.9288707807
 32
0.0
 13
105.0684268199
 23
114.9288707807
 33
0.0
  0
LINE
  5
264
330
25F
100
AcDbEntity
  8
0
  6
Continuous
 62
     7
370
     0
100
AcDbLine
 10
79.764035997
 20
163.1788707807
 30
0.0
 11
79.764035997
 21
114.9288707807
 31
0.0
  0
LINE
  5
265
330
25F
100
AcDbEntity
  8
0
  6
Continuous
 62
     7
370
     0
100
AcDbLine
 10
108.0684268199
 20
133.5788707807
 30
0.0
 11
108.0684268199
 21
114.9288707807
 31
0.0
  0
LINE
  5
266
330
25F
100
AcDbEntity
  8
0
  6
Continuous
 62
     7
370
     0
100
AcDbLine
 10
79.764035997
 20
115.4288707807
 30
0.0
 11
108.0684268199
 21
115.4288707807
 31
0.0
  0
MTEXT
  5
268
330
25F
100
AcDbEntity
  8
0
  6
Continuous
 62
     7
370
    18
100
AcDbMText
 10
87.3658844416
 20
119.9406081028
 30
0.0
 40
3.5
 41
0.0
 71
     1
 72
     1
  1
2 x 14
  7
SLDTEXTSTYLE2
 73
     1
 44
1.0
  0
ENDBLK
  5
261
330
25F
100
AcDbEntity
  8
0
100
AcDbBlockEnd
  0
BLOCK
  5
26C
330
26B
100
AcDbEntity
  8
0
100
AcDbBlockBegin
  2
_D_13
 70
     0
 10
0.0
 20
0.0
 30
0.0
  3
_D_13
  1

  0
SOLID
  5
26E
330
26B
100
AcDbEntity
  8
0
  6
Continuous
 62
     7
370
    18
100
AcDbTrace
 10
173.5684268199
 20
195.4933043207
 30
0.0
 11
170.5684268199
 21
195.9933043207
 31
0.0
 12
170.5684268199
 22
194.9933043207
 32
0.0
 13
170.5684268199
 23
194.9933043207
 33
0.0
  0
SOLID
  5
26F
330
26B
100
AcDbEntity
  8
0
  6
Continuous
 62
     7
370
    18
100
AcDbTrace
 10
182.5684268199
 20
195.4933043207
 30
0.0
 11
185.5684268199
 21
194.9933043207
 31
0.0
 12
185.5684268199
 22
195.9933043207
 32
0.0
 13
185.5684268199
 23
195.9933043207
 33
0.0
  0
LINE
  5
270
330
26B
100
AcDbEntity
  8
0
  6
Continuous
 62
     7
370
     0
100
AcDbLine
 10
173.5684268199
 20
213.9788707807
 30
0.0
 11
173.5684268199
 21
194.9933043207
 31
0.0
  0
LINE
  5
271
330
26B
100
AcDbEntity
  8
0
  6
Continuous
 62
     7
370
     0
100
AcDbLine
 10
182.5684268199
 20
213.9788707807
 30
0.0
 11
182.5684268199
 21
194.9933043207
 31
0.0
  0
LINE
  5
272
330
26B
100
AcDbEntity
  8
0
  6
Continuous
 62
     7
370
     0
100
AcDbLine
 10
173.5684268199
 20
195.4933043207
 30
0.0
 11
168.0684268199
 21
195.4933043207
 31
0.0
  0
LINE
  5
273
330
26B
100
AcDbEntity
  8
0
  6
Continuous
 62
     7
370
     0
100
AcDbLine
 10
173.5684268199
 20
195.4933043207
 30
0.0
 11
182.5684268199
 21
195.4933043207
 31
0.0
  0
LINE
  5
274
330
26B
100
AcDbEntity
  8
0
  6
Continuous
 62
     7
370
     0
100
AcDbLine
 10
182.5684268199
 20
195.4933043207
 30
0.0
 11
188.0684268199
 21
195.4933043207
 31
0.0
  0
INSERT
  5
27C
330
26B
100
AcDbEntity
  8
0
  6
Continuous
 62
     7
370
    18
100
AcDbBlockReference
  2
SW_SYMBOL_MOD_BOX
 10
174.3144338582
 20
195.9991728653
 30
0.0
 41
0.0045117371
 42
0.0045117371
 43
0.0045117371
 50
0.0
  0
MTEXT
  5
27D
330
26B
100
AcDbEntity
  8
0
  6
Continuous
 62
     7
370
    18
100
AcDbMText
 10
179.1488087367
 20
200.0147637191
 30
0.0
 40
3.5
 41
0.0
 71
     1
 72
     1
  1
9
  7
SLDTEXTSTYLE0
 73
     1
 44
1.0
  0
ENDBLK
  5
26D
330
26B
100
AcDbEntity
  8
0
100
AcDbBlockEnd
  0
BLOCK
  5
276
330
275
100
AcDbEntity
  8
0
100
AcDbBlockBegin
  2
SW_SYMBOL_MOD_BOX
 70
     0
 10
0.0
 20
0.0
 30
0.0
  3
SW_SYMBOL_MOD_BOX
  1

  0
LINE
  5
278
330
275
100
AcDbEntity
  8
0
  6
Continuous
 62
     0
370
    18
100
AcDbLine
 10
200.0
 20
200.0
 30
0.0
 11
800.0
 21
200.0
 31
0.0
  0
LINE
  5
279
330
275
100
AcDbEntity
  8
0
  6
Continuous
 62
     0
370
    18
100
AcDbLine
 10
200.0
 20
200.0
 30
0.0
 11
200.0
 21
800.0
 31
0.0
  0
LINE
  5
27A
330
275
100
AcDbEntity
  8
0
  6
Continuous
 62
     0
370
    18
100
AcDbLine
 10
200.0
 20
800.0
 30
0.0
 11
800.0
 21
800.0
 31
0.0
  0
LINE
  5
27B
330
275
100
AcDbEntity
  8
0
  6
Continuous
 62
     0
370
    18
100
AcDbLine
 10
800.0
 20
800.0
 30
0.0
 11
800.0
 21
200.0
 31
0.0
  0
ENDBLK
  5
277
330
275
100
AcDbEntity
  8
0
100
AcDbBlockEnd
  0
BLOCK
  5
281
330
280
100
AcDbEntity
  8
0
100
AcDbBlockBegin
  2
_D_14
 70
     0
 10
0.0
 20
0.0
 30
0.0
  3
_D_14
  1

  0
SOLID
  5
283
330
280
100
AcDbEntity
  8
0
  6
Continuous
 62
     7
370
    18
100
AcDbTrace
 10
240.7151138318
 20
155.9788707807
 30
0.0
 11
241.2151138318
 21
158.9788707807
 31
0.0
 12
240.2151138318
 22
158.9788707807
 32
0.0
 13
240.2151138318
 23
158.9788707807
 33
0.0
  0
SOLID
  5
284
330
280
100
AcDbEntity
  8
0
  6
Continuous
 62
     7
370
    18
100
AcDbTrace
 10
240.7151138318
 20
239.4788707807
 30
0.0
 11
240.2151138318
 21
236.4788707807
 31
0.0
 12
241.2151138318
 22
236.4788707807
 32
0.0
 13
241.2151138318
 23
236.4788707807
 33
0.0
  0
LINE
  5
285
330
280
100
AcDbEntity
  8
0
  6
Continuous
 62
     7
370
     0
100
AcDbLine
 10
138.7684268199
 20
155.9788707807
 30
0.0
 11
241.2151138318
 21
155.9788707807
 31
0.0
  0
LINE
  5
286
330
280
100
AcDbEntity
  8
0
  6
Continuous
 62
     7
370
     0
100
AcDbLine
 10
138.7684268199
 20
239.4788707807
 30
0.0
 11
241.2151138318
 21
239.4788707807
 31
0.0
  0
LINE
  5
287
330
280
100
AcDbEntity
  8
0
  6
Continuous
 62
     7
370
     0
100
AcDbLine
 10
240.7151138318
 20
155.9788707807
 30
0.0
 11
240.7151138318
 21
239.4788707807
 31
0.0
  0
MTEXT
  5
288
330
280
100
AcDbEntity
  8
0
  6
Continuous
 62
     7
370
    18
100
AcDbMText
 10
236.2033765098
 20
193.0500514522
 30
0.0
 40
3.5
 41
0.0
 71
     1
 72
     1
  1
83.5
  7
SLDTEXTSTYLE0
 11
6.123233995736766E-17
 21
1.0
 31
0.0
 73
     1
 44
1.0
  0
ENDBLK
  5
282
330
280
100
AcDbEntity
  8
0
100
AcDbBlockEnd
  0
BLOCK
  5
28B
330
28A
100
AcDbEntity
  8
0
100
AcDbBlockBegin
  2
_D_15
 70
     0
 10
0.0
 20
0.0
 30
0.0
  3
_D_15
  1

  0
SOLID
  5
28D
330
28A
100
AcDbEntity
  8
0
  6
Continuous
 62
     7
370
    18
100
AcDbTrace
 10
248.7151138318
 20
239.4788707807
 30
0.0
 11
248.2151138318
 21
236.4788707807
 31
0.0
 12
249.2151138318
 22
236.4788707807
 32
0.0
 13
249.2151138318
 23
236.4788707807
 33
0.0
  0
SOLID
  5
28E
330
28A
100
AcDbEntity
  8
0
  6
Continuous
 62
     7
370
    18
100
AcDbTrace
 10
248.7151138318
 20
142.7788707807
 30
0.0
 11
249.2151138318
 21
145.7788707807
 31
0.0
 12
248.2151138318
 22
145.7788707807
 32
0.0
 13
248.2151138318
 23
145.7788707807
 33
0.0
  0
LINE
  5
28F
330
28A
100
AcDbEntity
  8
0
  6
Continuous
 62
     7
370
     0
100
AcDbLine
 10
138.7684268199
 20
239.4788707807
 30
0.0
 11
249.2151138318
 21
239.4788707807
 31
0.0
  0
LINE
  5
290
330
28A
100
AcDbEntity
  8
0
  6
Continuous
 62
     7
370
     0
100
AcDbLine
 10
219.2684268199
 20
142.7788707807
 30
0.0
 11
249.2151138318
 21
142.7788707807
 31
0.0
  0
LINE
  5
291
330
28A
100
AcDbEntity
  8
0
  6
Continuous
 62
     7
370
     0
100
AcDbLine
 10
248.7151138318
 20
239.4788707807
 30
0.0
 11
248.7151138318
 21
142.7788707807
 31
0.0
  0
MTEXT
  5
292
330
28A
100
AcDbEntity
  8
0
  6
Continuous
 62
     7
370
    18
100
AcDbMText
 10
244.2033765098
 20
186.4500514522
 30
0.0
 40
3.5
 41
0.0
 71
     1
 72
     1
  1
96.5
  7
SLDTEXTSTYLE0
 11
-7.044195017643634E-15
 21
1.0
 31
0.0
 73
     1
 44
1.0
  0
ENDBLK
  5
28C
330
28A
100
AcDbEntity
  8
0
100
AcDbBlockEnd
  0
BLOCK
  5
295
330
294
100
AcDbEntity
  8
0
100
AcDbBlockBegin
  2
_D_16
 70
     0
 10
0.0
 20
0.0
 30
0.0
  3
_D_16
  1

  0
SOLID
  5
297
330
294
100
AcDbEntity
  8
0
  6
Continuous
 62
     7
370
    18
100
AcDbTrace
 10
136.0684268199
 20
259.288845905
 30
0.0
 11
139.0684268199
 21
258.788845905
 31
0.0
 12
139.0684268199
 22
259.788845905
 32
0.0
 13
139.0684268199
 23
259.788845905
 33
0.0
  0
SOLID
  5
298
330
294
100
AcDbEntity
  8
0
  6
Continuous
 62
     7
370
    18
100
AcDbTrace
 10
216.5684268199
 20
259.288845905
 30
0.0
 11
213.5684268199
 21
259.788845905
 31
0.0
 12
213.5684268199
 22
258.788845905
 32
0.0
 13
213.5684268199
 23
258.788845905
 33
0.0
  0
LINE
  5
299
330
294
100
AcDbEntity
  8
0
  6
Continuous
 62
     7
370
     0
100
AcDbLine
 10
136.0684268199
 20
158.6788707807
 30
0.0
 11
136.0684268199
 21
259.788845905
 31
0.0
  0
LINE
  5
29A
330
294
100
AcDbEntity
  8
0
  6
Continuous
 62
     7
370
     0
100
AcDbLine
 10
216.5684268199
 20
145.4788707807
 30
0.0
 11
216.5684268199
 21
259.788845905
 31
0.0
  0
LINE
  5
29B
330
294
100
AcDbEntity
  8
0
  6
Continuous
 62
     7
370
     0
100
AcDbLine
 10
136.0684268199
 20
259.288845905
 30
0.0
 11
216.5684268199
 21
259.288845905
 31
0.0
  0
MTEXT
  5
29C
330
294
100
AcDbEntity
  8
0
  6
Continuous
 62
     7
370
    18
100
AcDbMText
 10
171.6396074914
 20
263.800583227
 30
0.0
 40
3.5
 41
0.0
 71
     1
 72
     1
  1
80.5
  7
SLDTEXTSTYLE0
 73
     1
 44
1.0
  0
ENDBLK
  5
296
330
294
100
AcDbEntity
  8
0
100
AcDbBlockEnd
  0
BLOCK
  5
2A0
330
29F
100
AcDbEntity
  8
0
100
AcDbBlockBegin
  2
_D_17
 70
     0
 10
0.0
 20
0.0
 30
0.0
  3
_D_17
  1

  0
SOLID
  5
2A2
330
29F
100
AcDbEntity
  8
0
  6
Continuous
 62
     7
370
    18
100
AcDbTrace
 10
216.5684268199
 20
259.288845905
 30
0.0
 11
213.5684268199
 21
259.788845905
 31
0.0
 12
213.5684268199
 22
258.788845905
 32
0.0
 13
213.5684268199
 23
258.788845905
 33
0.0
  0
SOLID
  5
2A3
330
29F
100
AcDbEntity
  8
0
  6
Continuous
 62
     7
370
    18
100
AcDbTrace
 10
228.0684268199
 20
259.288845905
 30
0.0
 11
231.0684268199
 21
258.788845905
 31
0.0
 12
231.0684268199
 22
259.788845905
 32
0.0
 13
231.0684268199
 23
259.788845905
 33
0.0
  0
LINE
  5
2A4
330
29F
100
AcDbEntity
  8
0
  6
Continuous
 62
     7
370
     0
100
AcDbLine
 10
216.5684268199
 20
242.1788707807
 30
0.0
 11
216.5684268199
 21
259.788845905
 31
0.0
  0
LINE
  5
2A5
330
29F
100
AcDbEntity
  8
0
  6
Continuous
 62
     7
370
     0
100
AcDbLine
 10
228.0684268199
 20
249.4788707807
 30
0.0
 11
228.0684268199
 21
259.788845905
 31
0.0
  0
LINE
  5
2A6
330
29F
100
AcDbEntity
  8
0
  6
Continuous
 62
     7
370
     0
100
AcDbLine
 10
216.5684268199
 20
259.288845905
 30
0.0
 11
211.0684268199
 21
259.288845905
 31
0.0
  0
LINE
  5
2A7
330
29F
100
AcDbEntity
  8
0
  6
Continuous
 62
     7
370
     0
100
AcDbLine
 10
216.5684268199
 20
259.288845905
 30
0.0
 11
228.0684268199
 21
259.288845905
 31
0.0
  0
LINE
  5
2A8
330
29F
100
AcDbEntity
  8
0
  6
Continuous
 62
     7
370
     0
100
AcDbLine
 10
228.0684268199
 20
259.288845905
 30
0.0
 11
233.5684268199
 21
259.288845905
 31
0.0
  0
MTEXT
  5
2A9
330
29F
100
AcDbEntity
  8
0
  6
Continuous
 62
     7
370
    18
100
AcDbMText
 10
217.6396074914
 20
263.800583227
 30
0.0
 40
3.5
 41
0.0
 71
     1
 72
     1
  1
11.5
  7
SLDTEXTSTYLE0
 73
     1
 44
1.0
  0
ENDBLK
  5
2A1
330
29F
100
AcDbEntity
  8
0
100
AcDbBlockEnd
  0
BLOCK
  5
2AD
330
2AC
100
AcDbEntity
  8
0
100
AcDbBlockBegin
  2
_D_18
 70
     0
 10
0.0
 20
0.0
 30
0.0
  3
_D_18
  1

  0
SOLID
  5
2AF
330
2AC
100
AcDbEntity
  8
0
  6
Continuous
 62
     7
370
    18
100
AcDbTrace
 10
248.7151138318
 20
239.4788707807
 30
0.0
 11
248.2151138318
 21
236.4788707807
 31
0.0
 12
249.2151138318
 22
236.4788707807
 32
0.0
 13
249.2151138318
 23
236.4788707807
 33
0.0
  0
SOLID
  5
2B0
330
2AC
100
AcDbEntity
  8
0
  6
Continuous
 62
     7
370
    18
100
AcDbTrace
 10
248.7151138318
 20
249.2788707807
 30
0.0
 11
249.2151138318
 21
252.2788707807
 31
0.0
 12
248.2151138318
 22
252.2788707807
 32
0.0
 13
248.2151138318
 23
252.2788707807
 33
0.0
  0
LINE
  5
2B1
330
2AC
100
AcDbEntity
  8
0
  6
Continuous
 62
     7
370
     0
100
AcDbLine
 10
219.2684268199
 20
239.4788707807
 30
0.0
 11
249.2151138318
 21
239.4788707807
 31
0.0
  0
LINE
  5
2B2
330
2AC
100
AcDbEntity
  8
0
  6
Continuous
 62
     7
370
     0
100
AcDbLine
 10
228.2684268199
 20
249.2788707807
 30
0.0
 11
249.2151138318
 21
249.2788707807
 31
0.0
  0
LINE
  5
2B3
330
2AC
100
AcDbEntity
  8
0
  6
Continuous
 62
     7
370
     0
100
AcDbLine
 10
248.7151138318
 20
239.4788707807
 30
0.0
 11
248.7151138318
 21
233.9788707807
 31
0.0
  0
LINE
  5
2B4
330
2AC
100
AcDbEntity
  8
0
  6
Continuous
 62
     7
370
     0
100
AcDbLine
 10
248.7151138318
 20
239.4788707807
 30
0.0
 11
248.7151138318
 21
249.2788707807
 31
0.0
  0
LINE
  5
2B5
330
2AC
100
AcDbEntity
  8
0
  6
Continuous
 62
     7
370
     0
100
AcDbLine
 10
248.7151138318
 20
249.2788707807
 30
0.0
 11
248.7151138318
 21
254.7788707807
 31
0.0
  0
MTEXT
  5
2B6
330
2AC
100
AcDbEntity
  8
0
  6
Continuous
 62
     7
370
    18
100
AcDbMText
 10
244.2033765098
 20
241.7052597358
 30
0.0
 40
3.5
 41
0.0
 71
     1
 72
     1
  1
10
  7
SLDTEXTSTYLE0
 11
-6.049014748177263E-16
 21
1.0
 31
0.0
 73
     1
 44
1.0
  0
ENDBLK
  5
2AE
330
2AC
100
AcDbEntity
  8
0
100
AcDbBlockEnd
  0
BLOCK
  5
2B8
330
2B7
100
AcDbEntity
  8
0
100
AcDbBlockBegin
  2
SW_CENTERMARKSYMBOL_0
 70
     0
 10
0.0
 20
0.0
 30
0.0
  3
SW_CENTERMARKSYMBOL_0
  1

  0
LINE
  5
2BA
330
2B7
100
AcDbEntity
  8
0
  6
Continuous
 62
     0
370
    18
100
AcDbLine
 10
0.0
 20
0.0
 30
0.0
 11
0.0
 21
2.5
 31
0.0
  0
LINE
  5
2BB
330
2B7
100
AcDbEntity
  8
0
  6
Continuous
 62
     0
370
    18
100
AcDbLine
 10
0.0
 20
0.0
 30
0.0
 11
-2.5
 21
0.0
 31
0.0
  0
LINE
  5
2BC
330
2B7
100
AcDbEntity
  8
0
  6
Continuous
 62
     0
370
    18
100
AcDbLine
 10
0.0
 20
0.0
 30
0.0
 11
0.0
 21
-2.5
 31
0.0
  0
LINE
  5
2BD
330
2B7
100
AcDbEntity
  8
0
  6
Continuous
 62
     0
370
    18
100
AcDbLine
 10
0.0
 20
0.0
 30
0.0
 11
2.5
 21
0.0
 31
0.0
  0
LINE
  5
2BE
330
2B7
100
AcDbEntity
  8
0
  6
Continuous
 62
     0
370
    18
100
AcDbLine
 10
0.0
 20
5.0
 30
0.0
 11
0.0
 21
11.35
 31
0.0
  0
LINE
  5
2BF
330
2B7
100
AcDbEntity
  8
0
  6
Continuous
 62
     0
370
    18
100
AcDbLine
 10
-5.0
 20
0.0
 30
0.0
 11
-11.35
 21
0.0
 31
0.0
  0
LINE
  5
2C0
330
2B7
100
AcDbEntity
  8
0
  6
Continuous
 62
     0
370
    18
100
AcDbLine
 10
0.0
 20
-5.0
 30
0.0
 11
0.0
 21
-11.35
 31
0.0
  0
LINE
  5
2C1
330
2B7
100
AcDbEntity
  8
0
  6
Continuous
 62
     0
370
    18
100
AcDbLine
 10
5.0
 20
0.0
 30
0.0
 11
11.35
 21
0.0
 31
0.0
  0
ENDBLK
  5
2B9
330
2B7
100
AcDbEntity
  8
0
100
AcDbBlockEnd
  0
BLOCK
  5
2C4
330
2C3
100
AcDbEntity
  8
0
100
AcDbBlockBegin
  2
SW_CENTERMARKSYMBOL_1
 70
     0
 10
0.0
 20
0.0
 30
0.0
  3
SW_CENTERMARKSYMBOL_1
  1

  0
LINE
  5
2C6
330
2C3
100
AcDbEntity
  8
0
  6
Continuous
 62
     0
370
    18
100
AcDbLine
 10
0.0
 20
0.0
 30
0.0
 11
0.0
 21
2.5
 31
0.0
  0
LINE
  5
2C7
330
2C3
100
AcDbEntity
  8
0
  6
Continuous
 62
     0
370
    18
100
AcDbLine
 10
0.0
 20
0.0
 30
0.0
 11
-2.5
 21
0.0
 31
0.0
  0
LINE
  5
2C8
330
2C3
100
AcDbEntity
  8
0
  6
Continuous
 62
     0
370
    18
100
AcDbLine
 10
0.0
 20
0.0
 30
0.0
 11
0.0
 21
-2.5
 31
0.0
  0
LINE
  5
2C9
330
2C3
100
AcDbEntity
  8
0
  6
Continuous
 62
     0
370
    18
100
AcDbLine
 10
0.0
 20
0.0
 30
0.0
 11
2.5
 21
0.0
 31
0.0
  0
LINE
  5
2CA
330
2C3
100
AcDbEntity
  8
0
  6
Continuous
 62
     0
370
    18
100
AcDbLine
 10
0.0
 20
5.0
 30
0.0
 11
0.0
 21
13.6
 31
0.0
  0
LINE
  5
2CB
330
2C3
100
AcDbEntity
  8
0
  6
Continuous
 62
     0
370
    18
100
AcDbLine
 10
-5.0
 20
0.0
 30
0.0
 11
-13.6
 21
0.0
 31
0.0
  0
LINE
  5
2CC
330
2C3
100
AcDbEntity
  8
0
  6
Continuous
 62
     0
370
    18
100
AcDbLine
 10
0.0
 20
-5.0
 30
0.0
 11
0.0
 21
-13.6
 31
0.0
  0
LINE
  5
2CD
330
2C3
100
AcDbEntity
  8
0
  6
Continuous
 62
     0
370
    18
100
AcDbLine
 10
5.0
 20
0.0
 30
0.0
 11
13.6
 21
0.0
 31
0.0
  0
ENDBLK
  5
2C5
330
2C3
100
AcDbEntity
  8
0
100
AcDbBlockEnd
  0
BLOCK
  5
2D0
330
2CF
100
AcDbEntity
  8
0
100
AcDbBlockBegin
  2
SW_CENTERMARKSYMBOL_2
 70
     0
 10
0.0
 20
0.0
 30
0.0
  3
SW_CENTERMARKSYMBOL_2
  1

  0
LINE
  5
2D2
330
2CF
100
AcDbEntity
  8
0
  6
Continuous
 62
     0
370
    18
100
AcDbLine
 10
0.0
 20
0.0
 30
0.0
 11
0.0
 21
2.5
 31
0.0
  0
LINE
  5
2D3
330
2CF
100
AcDbEntity
  8
0
  6
Continuous
 62
     0
370
    18
100
AcDbLine
 10
0.0
 20
0.0
 30
0.0
 11
-2.5
 21
0.0
 31
0.0
  0
LINE
  5
2D4
330
2CF
100
AcDbEntity
  8
0
  6
Continuous
 62
     0
370
    18
100
AcDbLine
 10
0.0
 20
0.0
 30
0.0
 11
0.0
 21
-2.5
 31
0.0
  0
LINE
  5
2D5
330
2CF
100
AcDbEntity
  8
0
  6
Continuous
 62
     0
370
    18
100
AcDbLine
 10
0.0
 20
0.0
 30
0.0
 11
2.5
 21
0.0
 31
0.0
  0
ENDBLK
  5
2D1
330
2CF
100
AcDbEntity
  8
0
100
AcDbBlockEnd
  0
BLOCK
  5
2D8
330
2D7
100
AcDbEntity
  8
0
100
AcDbBlockBegin
  2
SW_CENTERMARKSYMBOL_3
 70
     0
 10
0.0
 20
0.0
 30
0.0
  3
SW_CENTERMARKSYMBOL_3
  1

  0
LINE
  5
2DA
330
2D7
100
AcDbEntity
  8
0
  6
Continuous
 62
     0
370
    18
100
AcDbLine
 10
0.0
 20
0.0
 30
0.0
 11
0.0
 21
2.5
 31
0.0
  0
LINE
  5
2DB
330
2D7
100
AcDbEntity
  8
0
  6
Continuous
 62
     0
370
    18
100
AcDbLine
 10
0.0
 20
0.0
 30
0.0
 11
-2.5
 21
0.0
 31
0.0
  0
LINE
  5
2DC
330
2D7
100
AcDbEntity
  8
0
  6
Continuous
 62
     0
370
    18
100
AcDbLine
 10
0.0
 20
0.0
 30
0.0
 11
0.0
 21
-2.5
 31
0.0
  0
LINE
  5
2DD
330
2D7
100
AcDbEntity
  8
0
  6
Continuous
 62
     0
370
    18
100
AcDbLine
 10
0.0
 20
0.0
 30
0.0
 11
2.5
 21
0.0
 31
0.0
  0
ENDBLK
  5
2D9
330
2D7
100
AcDbEntity
  8
0
100
AcDbBlockEnd
  0
BLOCK
  5
2E0
330
2DF
100
AcDbEntity
  8
0
100
AcDbBlockBegin
  2
SW_CENTERMARKSYMBOL_4
 70
     0
 10
0.0
 20
0.0
 30
0.0
  3
SW_CENTERMARKSYMBOL_4
  1

  0
LINE
  5
2E2
330
2DF
100
AcDbEntity
  8
0
  6
Continuous
 62
     0
370
    18
100
AcDbLine
 10
0.0
 20
0.0
 30
0.0
 11
0.0
 21
2.5
 31
0.0
  0
LINE
  5
2E3
330
2DF
100
AcDbEntity
  8
0
  6
Continuous
 62
     0
370
    18
100
AcDbLine
 10
0.0
 20
0.0
 30
0.0
 11
-2.5
 21
0.0
 31
0.0
  0
LINE
  5
2E4
330
2DF
100
AcDbEntity
  8
0
  6
Continuous
 62
     0
370
    18
100
AcDbLine
 10
0.0
 20
0.0
 30
0.0
 11
0.0
 21
-2.5
 31
0.0
  0
LINE
  5
2E5
330
2DF
100
AcDbEntity
  8
0
  6
Continuous
 62
     0
370
    18
100
AcDbLine
 10
0.0
 20
0.0
 30
0.0
 11
2.5
 21
0.0
 31
0.0
  0
ENDBLK
  5
2E1
330
2DF
100
AcDbEntity
  8
0
100
AcDbBlockEnd
  0
BLOCK
  5
2E8
330
2E7
100
AcDbEntity
  8
0
100
AcDbBlockBegin
  2
SW_CENTERMARKSYMBOL_5
 70
     0
 10
0.0
 20
0.0
 30
0.0
  3
SW_CENTERMARKSYMBOL_5
  1

  0
LINE
  5
2EA
330
2E7
100
AcDbEntity
  8
0
  6
Continuous
 62
     0
370
    18
100
AcDbLine
 10
0.0
 20
0.0
 30
0.0
 11
0.0
 21
2.5
 31
0.0
  0
LINE
  5
2EB
330
2E7
100
AcDbEntity
  8
0
  6
Continuous
 62
     0
370
    18
100
AcDbLine
 10
0.0
 20
0.0
 30
0.0
 11
-2.5
 21
0.0
 31
0.0
  0
LINE
  5
2EC
330
2E7
100
AcDbEntity
  8
0
  6
Continuous
 62
     0
370
    18
100
AcDbLine
 10
0.0
 20
0.0
 30
0.0
 11
0.0
 21
-2.5
 31
0.0
  0
LINE
  5
2ED
330
2E7
100
AcDbEntity
  8
0
  6
Continuous
 62
     0
370
    18
100
AcDbLine
 10
0.0
 20
0.0
 30
0.0
 11
2.5
 21
0.0
 31
0.0
  0
ENDBLK
  5
2E9
330
2E7
100
AcDbEntity
  8
0
100
AcDbBlockEnd
  0
BLOCK
  5
330
330
32F
100
AcDbEntity
  8
0
100
AcDbBlockBegin
  2
_D_19
 70
     0
 10
0.0
 20
0.0
 30
0.0
  3
_D_19
  1

  0
SOLID
  5
332
330
32F
100
AcDbEntity
  8
0
  6
Continuous
 62
     7
370
    18
100
AcDbTrace
 10
61.7265125302
 20
49.9164514376
 30
0.0
 11
62.2265125302
 21
52.9164514376
 31
0.0
 12
61.2265125302
 22
52.9164514376
 32
0.0
 13
61.2265125302
 23
52.9164514376
 33
0.0
  0
SOLID
  5
333
330
32F
100
AcDbEntity
  8
0
  6
Continuous
 62
     7
370
    18
100
AcDbTrace
 10
61.7265125302
 20
75.9164514376
 30
0.0
 11
61.2265125302
 21
72.9164514376
 31
0.0
 12
62.2265125302
 22
72.9164514376
 32
0.0
 13
62.2265125302
 23
72.9164514376
 33
0.0
  0
LINE
  5
334
330
32F
100
AcDbEntity
  8
0
  6
Continuous
 62
     7
370
     0
100
AcDbLine
 10
106.8684268199
 20
49.9164514376
 30
0.0
 11
61.2265125302
 21
49.9164514376
 31
0.0
  0
LINE
  5
335
330
32F
100
AcDbEntity
  8
0
  6
Continuous
 62
     7
370
     0
100
AcDbLine
 10
94.8684268199
 20
75.9164514376
 30
0.0
 11
61.2265125302
 21
75.9164514376
 31
0.0
  0
LINE
  5
336
330
32F
100
AcDbEntity
  8
0
  6
Continuous
 62
     7
370
     0
100
AcDbLine
 10
61.7265125302
 20
49.9164514376
 30
0.0
 11
61.7265125302
 21
75.9164514376
 31
0.0
  0
MTEXT
  5
337
330
32F
100
AcDbEntity
  8
0
  6
Continuous
 62
     7
370
    18
100
AcDbMText
 10
57.2147752081
 20
60.2428403927
 30
0.0
 40
3.5
 41
0.0
 71
     1
 72
     1
  1
26
  7
SLDTEXTSTYLE0
 11
3.613946018757869E-15
 21
1.0
 31
0.0
 73
     1
 44
1.0
  0
ENDBLK
  5
331
330
32F
100
AcDbEntity
  8
0
100
AcDbBlockEnd
  0
BLOCK
  5
33A
330
339
100
AcDbEntity
  8
0
100
AcDbBlockBegin
  2
_D_20
 70
     0
 10
0.0
 20
0.0
 30
0.0
  3
_D_20
  1

  0
SOLID
  5
33C
330
339
100
AcDbEntity
  8
0
  6
Continuous
 62
     7
370
    18
100
AcDbTrace
 10
61.7265125302
 20
81.1164514376
 30
0.0
 11
62.2265125302
 21
84.1164514376
 31
0.0
 12
61.2265125302
 22
84.1164514376
 32
0.0
 13
61.2265125302
 23
84.1164514376
 33
0.0
  0
SOLID
  5
33D
330
339
100
AcDbEntity
  8
0
  6
Continuous
 62
     7
370
    18
100
AcDbTrace
 10
61.7265125302
 20
75.9164514376
 30
0.0
 11
61.2265125302
 21
72.9164514376
 31
0.0
 12
62.2265125302
 22
72.9164514376
 32
0.0
 13
62.2265125302
 23
72.9164514376
 33
0.0
  0
LINE
  5
33E
330
339
100
AcDbEntity
  8
0
  6
Continuous
 62
     7
370
     0
100
AcDbLine
 10
109.8784268199
 20
81.1164514376
 30
0.0
 11
61.2265125302
 21
81.1164514376
 31
0.0
  0
LINE
  5
33F
330
339
100
AcDbEntity
  8
0
  6
Continuous
 62
     7
370
     0
100
AcDbLine
 10
94.8684268199
 20
75.9164514376
 30
0.0
 11
61.2265125302
 21
75.9164514376
 31
0.0
  0
LINE
  5
340
330
339
100
AcDbEntity
  8
0
  6
Continuous
 62
     7
370
     0
100
AcDbLine
 10
61.7265125302
 20
81.1164514376
 30
0.0
 11
61.7265125302
 21
90.6079701857
 31
0.0
  0
LINE
  5
341
330
339
100
AcDbEntity
  8
0
  6
Continuous
 62
     7
370
     0
100
AcDbLine
 10
61.7265125302
 20
81.1164514376
 30
0.0
 11
61.7265125302
 21
75.9164514376
 31
0.0
  0
LINE
  5
342
330
339
100
AcDbEntity
  8
0
  6
Continuous
 62
     7
370
     0
100
AcDbLine
 10
61.7265125302
 20
75.9164514376
 30
0.0
 11
61.7265125302
 21
70.4164514376
 31
0.0
  0
MTEXT
  5
343
330
339
100
AcDbEntity
  8
0
  6
Continuous
 62
     7
370
    18
100
AcDbMText
 10
57.2147752081
 20
87.9343591408
 30
0.0
 40
3.5
 41
0.0
 71
     1
 72
     1
  1
5
  7
SLDTEXTSTYLE0
 11
-7.044195017643634E-15
 21
1.0
 31
0.0
 73
     1
 44
1.0
  0
ENDBLK
  5
33B
330
339
100
AcDbEntity
  8
0
100
AcDbBlockEnd
  0
BLOCK
  5
346
330
345
100
AcDbEntity
  8
0
100
AcDbBlockBegin
  2
_D_21
 70
     0
 10
0.0
 20
0.0
 30
0.0
  3
_D_21
  1

  0
SOLID
  5
348
330
345
100
AcDbEntity
  8
0
  6
Continuous
 62
     7
370
    18
100
AcDbTrace
 10
69.7265125302
 20
75.6164514376
 30
0.0
 11
69.2265125302
 21
72.6164514376
 31
0.0
 12
70.2265125302
 22
72.6164514376
 32
0.0
 13
70.2265125302
 23
72.6164514376
 33
0.0
  0
SOLID
  5
349
330
345
100
AcDbEntity
  8
0
  6
Continuous
 62
     7
370
    18
100
AcDbTrace
 10
69.7265125302
 20
64.6164514376
 30
0.0
 11
70.2265125302
 21
67.6164514376
 31
0.0
 12
69.2265125302
 22
67.6164514376
 32
0.0
 13
69.2265125302
 23
67.6164514376
 33
0.0
  0
LINE
  5
34A
330
345
100
AcDbEntity
  8
0
  6
Continuous
 62
     7
370
     0
100
AcDbLine
 10
80.0349883241
 20
75.6164514376
 30
0.0
 11
69.2265125302
 21
75.6164514376
 31
0.0
  0
LINE
  5
34B
330
345
100
AcDbEntity
  8
0
  6
Continuous
 62
     7
370
     0
100
AcDbLine
 10
80.0349883241
 20
64.6164514376
 30
0.0
 11
69.2265125302
 21
64.6164514376
 31
0.0
  0
LINE
  5
34C
330
345
100
AcDbEntity
  8
0
  6
Continuous
 62
     7
370
     0
100
AcDbLine
 10
69.7265125302
 20
75.6164514376
 30
0.0
 11
69.7265125302
 21
64.6164514376
 31
0.0
  0
MTEXT
  5
34D
330
345
100
AcDbEntity
  8
0
  6
Continuous
 62
     7
370
    18
100
AcDbMText
 10
65.2147752081
 20
67.4428403927
 30
0.0
 40
3.5
 41
0.0
 71
     1
 72
     1
  1
11
  7
SLDTEXTSTYLE0
 11
-7.044195017643634E-15
 21
1.0
 31
0.0
 73
     1
 44
1.0
  0
ENDBLK
  5
347
330
345
100
AcDbEntity
  8
0
100
AcDbBlockEnd
  0
BLOCK
  5
350
330
34F
100
AcDbEntity
  8
0
100
AcDbBlockBegin
  2
_D_22
 70
     0
 10
0.0
 20
0.0
 30
0.0
  3
_D_22
  1

  0
SOLID
  5
352
330
34F
100
AcDbEntity
  8
0
  6
Continuous
 62
     7
370
    18
100
AcDbTrace
 10
69.7265125302
 20
56.1164514376
 30
0.0
 11
70.2265125302
 21
59.1164514376
 31
0.0
 12
69.2265125302
 22
59.1164514376
 32
0.0
 13
69.2265125302
 23
59.1164514376
 33
0.0
  0
SOLID
  5
353
330
34F
100
AcDbEntity
  8
0
  6
Continuous
 62
     7
370
    18
100
AcDbTrace
 10
69.7265125302
 20
64.6164514376
 30
0.0
 11
69.2265125302
 21
61.6164514376
 31
0.0
 12
70.2265125302
 22
61.6164514376
 32
0.0
 13
70.2265125302
 23
61.6164514376
 33
0.0
  0
LINE
  5
354
330
34F
100
AcDbEntity
  8
0
  6
Continuous
 62
     7
370
     0
100
AcDbLine
 10
110.0684268199
 20
56.1164514376
 30
0.0
 11
69.2265125302
 21
56.1164514376
 31
0.0
  0
LINE
  5
355
330
34F
100
AcDbEntity
  8
0
  6
Continuous
 62
     7
370
     0
100
AcDbLine
 10
80.0349883241
 20
64.6164514376
 30
0.0
 11
69.2265125302
 21
64.6164514376
 31
0.0
  0
LINE
  5
356
330
34F
100
AcDbEntity
  8
0
  6
Continuous
 62
     7
370
     0
100
AcDbLine
 10
69.7265125302
 20
56.1164514376
 30
0.0
 11
69.7265125302
 21
64.6164514376
 31
0.0
  0
MTEXT
  5
357
330
34F
100
AcDbEntity
  8
0
  6
Continuous
 62
     7
370
    18
100
AcDbMText
 10
65.2147752081
 20
59.0296459152
 30
0.0
 40
3.5
 41
0.0
 71
     1
 72
     1
  1
9
  7
SLDTEXTSTYLE0
 11
6.123233995736766E-17
 21
1.0
 31
0.0
 73
     1
 44
1.0
  0
ENDBLK
  5
351
330
34F
100
AcDbEntity
  8
0
100
AcDbBlockEnd
  0
BLOCK
  5
35A
330
359
100
AcDbEntity
  8
0
100
AcDbBlockBegin
  2
_D_23
 70
     0
 10
0.0
 20
0.0
 30
0.0
  3
_D_23
  1

  0
SOLID
  5
35C
330
359
100
AcDbEntity
  8
0
  6
Continuous
 62
     7
370
    18
100
AcDbTrace
 10
248.5256909027
 20
36.1164514376
 30
0.0
 11
249.0256909027
 21
39.1164514376
 31
0.0
 12
248.0256909027
 22
39.1164514376
 32
0.0
 13
248.0256909027
 23
39.1164514376
 33
0.0
  0
SOLID
  5
35D
330
359
100
AcDbEntity
  8
0
  6
Continuous
 62
     7
370
    18
100
AcDbTrace
 10
248.5256909027
 20
81.1164514376
 30
0.0
 11
248.0256909027
 21
78.1164514376
 31
0.0
 12
249.0256909027
 22
78.1164514376
 32
0.0
 13
249.0256909027
 23
78.1164514376
 33
0.0
  0
LINE
  5
35E
330
359
100
AcDbEntity
  8
0
  6
Continuous
 62
     7
370
     0
100
AcDbLine
 10
110.2684268199
 20
36.1164514376
 30
0.0
 11
249.0256909027
 21
36.1164514376
 31
0.0
  0
LINE
  5
35F
330
359
100
AcDbEntity
  8
0
  6
Continuous
 62
     7
370
     0
100
AcDbLine
 10
228.2684268199
 20
81.1164514376
 30
0.0
 11
249.0256909027
 21
81.1164514376
 31
0.0
  0
LINE
  5
360
330
359
100
AcDbEntity
  8
0
  6
Continuous
 62
     7
370
     0
100
AcDbLine
 10
248.5256909027
 20
36.1164514376
 30
0.0
 11
248.5256909027
 21
81.1164514376
 31
0.0
  0
MTEXT
  5
361
330
359
100
AcDbEntity
  8
0
  6
Continuous
 62
     7
370
    18
100
AcDbMText
 10
244.0139535807
 20
55.9428403927
 30
0.0
 40
3.5
 41
0.0
 71
     1
 72
     1
  1
45
  7
SLDTEXTSTYLE0
 11
-1.608122649676637E-16
 21
1.0
 31
0.0
 73
     1
 44
1.0
  0
ENDBLK
  5
35B
330
359
100
AcDbEntity
  8
0
100
AcDbBlockEnd
  0
BLOCK
  5
364
330
363
100
AcDbEntity
  8
0
100
AcDbBlockBegin
  2
_D_24
 70
     0
 10
0.0
 20
0.0
 30
0.0
  3
_D_24
  1

  0
SOLID
  5
366
330
363
100
AcDbEntity
  8
0
  6
Continuous
 62
     7
370
    18
100
AcDbTrace
 10
238.0784019447
 20
81.1164514376
 30
0.0
 11
237.5784019447
 21
78.1164514376
 31
0.0
 12
238.5784019447
 22
78.1164514376
 32
0.0
 13
238.5784019447
 23
78.1164514376
 33
0.0
  0
SOLID
  5
367
330
363
100
AcDbEntity
  8
0
  6
Continuous
 62
     7
370
    18
100
AcDbTrace
 10
238.0784019447
 20
56.1164514376
 30
0.0
 11
238.5784019447
 21
59.1164514376
 31
0.0
 12
237.5784019447
 22
59.1164514376
 32
0.0
 13
237.5784019447
 23
59.1164514376
 33
0.0
  0
LINE
  5
368
330
363
100
AcDbEntity
  8
0
  6
Continuous
 62
     7
370
     0
100
AcDbLine
 10
228.2684268199
 20
81.1164514376
 30
0.0
 11
238.5784019447
 21
81.1164514376
 31
0.0
  0
LINE
  5
369
330
363
100
AcDbEntity
  8
0
  6
Continuous
 62
     7
370
     0
100
AcDbLine
 10
228.2684268199
 20
56.1164514376
 30
0.0
 11
238.5784019447
 21
56.1164514376
 31
0.0
  0
LINE
  5
36A
330
363
100
AcDbEntity
  8
0
  6
Continuous
 62
     7
370
     0
100
AcDbLine
 10
238.0784019447
 20
81.1164514376
 30
0.0
 11
238.0784019447
 21
56.1164514376
 31
0.0
  0
MTEXT
  5
36B
330
363
100
AcDbEntity
  8
0
  6
Continuous
 62
     7
370
    18
100
AcDbMText
 10
233.5666646227
 20
65.9428403927
 30
0.0
 40
3.5
 41
0.0
 71
     1
 72
     1
  1
25
  7
SLDTEXTSTYLE0
 11
-7.044195017643634E-15
 21
1.0
 31
0.0
 73
     1
 44
1.0
  0
ENDBLK
  5
365
330
363
100
AcDbEntity
  8
0
100
AcDbBlockEnd
  0
BLOCK
  5
3C9
330
3C8
100
AcDbEntity
  8
0
100
AcDbBlockBegin
  2
_D_25
 70
     0
 10
0.0
 20
0.0
 30
0.0
  3
_D_25
  1

  0
SOLID
  5
3CB
330
3C8
100
AcDbEntity
  8
0
  6
Continuous
 62
     7
370
    18
100
AcDbTrace
 10
330.3626489446
 20
123.4288707807
 30
0.0
 11
327.3626489446
 21
123.9288707807
 31
0.0
 12
327.3626489446
 22
122.9288707807
 32
0.0
 13
327.3626489446
 23
122.9288707807
 33
0.0
  0
SOLID
  5
3CC
330
3C8
100
AcDbEntity
  8
0
  6
Continuous
 62
     7
370
    18
100
AcDbTrace
 10
344.8626489446
 20
123.4288707807
 30
0.0
 11
347.8626489446
 21
122.9288707807
 31
0.0
 12
347.8626489446
 22
123.9288707807
 32
0.0
 13
347.8626489446
 23
123.9288707807
 33
0.0
  0
LINE
  5
3CD
330
3C8
100
AcDbEntity
  8
0
  6
Continuous
 62
     7
370
     0
100
AcDbLine
 10
330.3626489446
 20
134.6788707807
 30
0.0
 11
330.3626489446
 21
122.9288707807
 31
0.0
  0
LINE
  5
3CE
330
3C8
100
AcDbEntity
  8
0
  6
Continuous
 62
     7
370
     0
100
AcDbLine
 10
344.8626489446
 20
133.5788707807
 30
0.0
 11
344.8626489446
 21
122.9288707807
 31
0.0
  0
LINE
  5
3CF
330
3C8
100
AcDbEntity
  8
0
  6
Continuous
 62
     7
370
     0
100
AcDbLine
 10
330.3626489446
 20
123.4288707807
 30
0.0
 11
324.8626489446
 21
123.4288707807
 31
0.0
  0
LINE
  5
3D0
330
3C8
100
AcDbEntity
  8
0
  6
Continuous
 62
     7
370
     0
100
AcDbLine
 10
330.3626489446
 20
123.4288707807
 30
0.0
 11
344.8626489446
 21
123.4288707807
 31
0.0
  0
LINE
  5
3D1
330
3C8
100
AcDbEntity
  8
0
  6
Continuous
 62
     7
370
     0
100
AcDbLine
 10
344.8626489446
 20
123.4288707807
 30
0.0
 11
350.3626489446
 21
123.4288707807
 31
0.0
  0
MTEXT
  5
3D2
330
3C8
100
AcDbEntity
  8
0
  6
Continuous
 62
     7
370
    18
100
AcDbMText
 10
332.9338296161
 20
127.9406081028
 30
0.0
 40
3.5
 41
0.0
 71
     1
 72
     1
  1
14.5
  7
SLDTEXTSTYLE0
 73
     1
 44
1.0
  0
ENDBLK
  5
3CA
330
3C8
100
AcDbEntity
  8
0
100
AcDbBlockEnd
  0
BLOCK
  5
3D4
330
3D3
100
AcDbEntity
  8
0
100
AcDbBlockBegin
  2
SW_CENTERMARKSYMBOL_6
 70
     0
 10
0.0
 20
0.0
 30
0.0
  3
SW_CENTERMARKSYMBOL_6
  1

  0
LINE
  5
3D6
330
3D3
100
AcDbEntity
  8
0
  6
Continuous
 62
     0
370
    18
100
AcDbLine
 10
0.0
 20
0.0
 30
0.0
 11
0.0
 21
2.5
 31
0.0
  0
LINE
  5
3D7
330
3D3
100
AcDbEntity
  8
0
  6
Continuous
 62
     0
370
    18
100
AcDbLine
 10
0.0
 20
0.0
 30
0.0
 11
-2.5
 21
0.0
 31
0.0
  0
LINE
  5
3D8
330
3D3
100
AcDbEntity
  8
0
  6
Continuous
 62
     0
370
    18
100
AcDbLine
 10
0.0
 20
0.0
 30
0.0
 11
0.0
 21
-2.5
 31
0.0
  0
LINE
  5
3D9
330
3D3
100
AcDbEntity
  8
0
  6
Continuous
 62
     0
370
    18
100
AcDbLine
 10
0.0
 20
0.0
 30
0.0
 11
2.5
 21
0.0
 31
0.0
  0
LINE
  5
3DA
330
3D3
100
AcDbEntity
  8
0
  6
Continuous
 62
     0
370
    18
100
AcDbLine
 10
0.0
 20
5.0
 30
0.0
 11
0.0
 21
7.5
 31
0.0
  0
LINE
  5
3DB
330
3D3
100
AcDbEntity
  8
0
  6
Continuous
 62
     0
370
    18
100
AcDbLine
 10
-5.0
 20
0.0
 30
0.0
 11
-7.5
 21
0.0
 31
0.0
  0
LINE
  5
3DC
330
3D3
100
AcDbEntity
  8
0
  6
Continuous
 62
     0
370
    18
100
AcDbLine
 10
0.0
 20
-5.0
 30
0.0
 11
0.0
 21
-7.5
 31
0.0
  0
LINE
  5
3DD
330
3D3
100
AcDbEntity
  8
0
  6
Continuous
 62
     0
370
    18
100
AcDbLine
 10
5.0
 20
0.0
 30
0.0
 11
7.5
 21
0.0
 31
0.0
  0
ENDBLK
  5
3D5
330
3D3
100
AcDbEntity
  8
0
100
AcDbBlockEnd
  0
ENDSEC
  0
SECTION
  2
ENTITIES
  0
MTEXT
  5
77
330
1F
100
AcDbEntity
  8
0
  6
Continuous
 62
     7
370
     0
100
AcDbMText
 10
299.2383781589
 20
107.8372192501
 30
0.0
 40
5.2916666667
 41
0.0
 71
     1
 72
     1
  1
Abbildung: DIN links
  7
SLDTEXTSTYLE0
 73
     1
 44
1.0
  0
ARC
  5
78
330
1F
100
AcDbEntity
  8
0
  6
Continuous
 62
     7
100
AcDbCircle
 10
178.0684268199
 20
142.4788707807
 30
0.0
 40
5.100000000000023
100
AcDbArc
 50
180.0
 51
0.0
  0
ARC
  5
79
330
1F
100
AcDbEntity
  8
0
  6
Continuous
 62
     7
100
AcDbCircle
 10
178.0684268199
 20
162.4788707807
 30
0.0
 40
8.600000000000028
100
AcDbArc
 50
306.3718424099
 51
233.6281575901
  0
LINE
  5
7A
330
1F
100
AcDbEntity
  8
0
  6
Continuous
 62
     7
100
AcDbLine
 10
93.764035997
 20
191.8788707807
 30
0.0
 11
93.764035997
 21
163.3788707807
 31
0.0
  0
LINE
  5
7B
330
1F
100
AcDbEntity
  8
0
  6
Continuous
 62
     7
100
AcDbLine
 10
183.1684268199
 20
155.5542769298
 30
0.0
 11
183.1684268199
 21
142.4788707807
 31
0.0
  0
LINE
  5
7C
330
1F
100
AcDbEntity
  8
0
  6
Continuous
 62
     7
100
AcDbLine
 10
172.9684268199
 20
155.5542769298
 30
0.0
 11
172.9684268199
 21
142.4788707807
 31
0.0
  0
LINE
  5
7D
330
1F
100
AcDbEntity
  8
0
  6
Continuous
 62
     7
370
    50
100
AcDbLine
 10
79.7265147887
 20
191.8788716033
 30
0.0
 11
79.7265147887
 21
163.3788697257
 31
0.0
  0
LINE
  5
7E
330
1F
100
AcDbEntity
  8
0
  6
Continuous
 62
     7
370
    50
100
AcDbLine
 10
79.7640359126
 20
191.8788716033
 30
0.0
 11
80.2349871121
 21
191.8788716033
 31
0.0
  0
LINE
  5
7F
330
1F
100
AcDbEntity
  8
0
  6
Continuous
 62
     7
370
    50
100
AcDbLine
 10
80.2349871121
 20
191.8788716033
 30
0.0
 11
80.2349871121
 21
163.3788697257
 31
0.0
  0
LINE
  5
80
330
1F
100
AcDbEntity
  8
0
  6
Continuous
 62
     7
370
    50
100
AcDbLine
 10
79.7640359126
 20
163.3788697257
 30
0.0
 11
80.2349871121
 21
163.3788697257
 31
0.0
  0
LINE
  5
81
330
1F
100
AcDbEntity
  8
0
  6
Continuous
 62
     7
370
    50
100
AcDbLine
 10
79.7640359126
 20
191.8788716033
 30
0.0
 11
79.7640359126
 21
163.3788697257
 31
0.0
  0
LINE
  5
82
330
1F
100
AcDbEntity
  8
0
  6
Continuous
 62
     7
370
    50
100
AcDbLine
 10
111.2265115701
 20
163.3788697257
 30
0.0
 11
111.2265115701
 21
191.8788716033
 31
0.0
  0
LINE
  5
83
330
1F
100
AcDbEntity
  8
0
  6
Continuous
 62
     7
370
    50
100
AcDbLine
 10
80.2349871121
 20
163.3788697257
 30
0.0
 11
108.0684265219
 21
163.3788697257
 31
0.0
  0
LINE
  5
84
330
1F
100
AcDbEntity
  8
0
  6
Continuous
 62
     7
370
    50
100
AcDbLine
 10
110.0684231244
 20
163.3788697257
 30
0.0
 11
111.2265115701
 21
163.3788697257
 31
0.0
  0
LINE
  5
85
330
1F
100
AcDbEntity
  8
0
  6
Continuous
 62
     7
370
    50
100
AcDbLine
 10
111.2265115701
 20
191.8788716033
 30
0.0
 11
110.0684231244
 21
191.8788716033
 31
0.0
  0
LINE
  5
86
330
1F
100
AcDbEntity
  8
0
  6
Continuous
 62
     7
370
    50
100
AcDbLine
 10
108.0684265219
 20
191.8788716033
 30
0.0
 11
80.2349871121
 21
191.8788716033
 31
0.0
  0
LINE
  5
87
330
1F
100
AcDbEntity
  8
0
  6
Continuous
 62
     7
370
    50
100
AcDbLine
 10
79.7265147887
 20
163.3788697257
 30
0.0
 11
79.7640359126
 21
163.3788697257
 31
0.0
  0
LINE
  5
88
330
1F
100
AcDbEntity
  8
0
  6
Continuous
 62
     7
370
    50
100
AcDbLine
 10
79.7265147887
 20
191.8788716033
 30
0.0
 11
79.7640359126
 21
191.8788716033
 31
0.0
  0
LINE
  5
89
330
1F
100
AcDbEntity
  8
0
  6
Continuous
 62
     7
370
    50
100
AcDbLine
 10
114.2265101992
 20
193.3788709178
 30
0.0
 11
114.2265101992
 21
192.8788699045
 31
0.0
  0
ARC
  5
8A
330
1F
100
AcDbEntity
  8
0
  6
Continuous
 62
     7
370
    50
100
AcDbCircle
 10
136.8103339358
 20
165.8788707807
 30
0.0
 40
6.000000000000017
100
AcDbArc
 50
90.0
 51
130.0
  0
LINE
  5
8B
330
1F
100
AcDbEntity
  8
0
  6
Continuous
 62
     7
370
    50
100
AcDbLine
 10
122.7089775823
 20
161.8788704112
 30
0.0
 11
132.9536078595
 21
170.4751379624
 31
0.0
  0
LINE
  5
8C
330
1F
100
AcDbEntity
  8
0
  6
Continuous
 62
     7
370
    50
100
AcDbLine
 10
114.2265101992
 20
161.8788704112
 30
0.0
 11
122.7089775823
 21
161.8788704112
 31
0.0
  0
LINE
  5
8D
330
1F
100
AcDbEntity
  8
0
  6
Continuous
 62
     7
370
    50
100
AcDbLine
 10
113.2265156232
 20
191.8788716033
 30
0.0
 11
111.2265115701
 21
191.8788716033
 31
0.0
  0
CIRCLE
  5
8E
330
1F
100
AcDbEntity
  8
0
  6
Continuous
 62
     7
370
    50
100
AcDbCircle
 10
121.4265125302
 20
167.1788707807
 30
0.0
 40
2.0
  0
CIRCLE
  5
8F
330
1F
100
AcDbEntity
  8
0
  6
Continuous
 62
     7
370
    50
100
AcDbCircle
 10
129.4265125302
 20
172.5788707807
 30
0.0
 40
1.300000000000011
  0
ARC
  5
90
330
1F
100
AcDbEntity
  8
0
  6
Continuous
 62
     7
370
    50
100
AcDbCircle
 10
131.6265125302
 20
186.6788707807
 30
0.0
 40
2.000000000000021
100
AcDbArc
 50
22.975687163
 51
67.024312837
  0
CIRCLE
  5
91
330
1F
100
AcDbEntity
  8
0
  6
Continuous
 62
     7
370
    50
100
AcDbCircle
 10
117.9265125302
 20
187.7788707807
 30
0.0
 40
2.0
  0
LINE
  5
92
330
1F
100
AcDbEntity
  8
0
  6
Continuous
 62
     7
370
    50
100
AcDbLine
 10
140.7564295553
 20
193.3788709178
 30
0.0
 11
114.2265101992
 21
193.3788709178
 31
0.0
  0
LINE
  5
93
330
1F
100
AcDbEntity
  8
0
  6
Continuous
 62
     7
370
    50
100
AcDbLine
 10
136.8103338502
 20
171.8788720503
 30
0.0
 11
141.0684263431
 21
171.8788720503
 31
0.0
  0
LINE
  5
94
330
1F
100
AcDbEntity
  8
0
  6
Continuous
 62
     7
370
    50
100
AcDbLine
 10
114.2265101992
 20
162.3788714245
 30
0.0
 11
114.2265101992
 21
161.8788704112
 31
0.0
  0
ARC
  5
95
330
1F
100
AcDbEntity
  8
0
  6
Continuous
 62
     7
370
    50
100
AcDbCircle
 10
113.2265125302
 20
192.8788707807
 30
0.0
 40
1.0
100
AcDbArc
 50
270.0
 51
0.0
  0
LINE
  5
96
330
1F
100
AcDbEntity
  8
0
  6
Continuous
 62
     7
370
    50
100
AcDbLine
 10
111.2265115701
 20
163.3788697257
 30
0.0
 11
113.2265156232
 21
163.3788697257
 31
0.0
  0
ARC
  5
97
330
1F
100
AcDbEntity
  8
0
  6
Continuous
 62
     7
370
    50
100
AcDbCircle
 10
113.2265125302
 20
162.3788707807
 30
0.0
 40
1.0
100
AcDbArc
 50
0.0
 51
90.0
  0
LINE
  5
98
330
1F
100
AcDbEntity
  8
0
  6
Continuous
 62
     7
370
    50
100
AcDbLine
 10
165.4184268884
 20
233.7788712069
 30
0.0
 11
165.4184268884
 21
232.1288712158
 31
0.0
  0
LINE
  5
99
330
1F
100
AcDbEntity
  8
0
  6
Continuous
 62
     7
370
    50
100
AcDbLine
 10
165.4184268884
 20
232.1288712158
 30
0.0
 11
166.4184270524
 21
232.1288712158
 31
0.0
  0
LINE
  5
9A
330
1F
100
AcDbEntity
  8
0
  6
Continuous
 62
     7
370
    50
100
AcDbLine
 10
166.4184270524
 20
232.1288712158
 30
0.0
 11
166.4184270524
 21
233.7788712069
 31
0.0
  0
LINE
  5
9B
330
1F
100
AcDbEntity
  8
0
  6
Continuous
 62
     7
370
    50
100
AcDbLine
 10
166.4184270524
 20
233.7788712069
 30
0.0
 11
168.0684270434
 21
233.7788712069
 31
0.0
  0
LINE
  5
9C
330
1F
100
AcDbEntity
  8
0
  6
Continuous
 62
     7
370
    50
100
AcDbLine
 10
168.0684270434
 20
233.7788712069
 30
0.0
 11
168.0684270434
 21
234.7788713708
 31
0.0
  0
LINE
  5
9D
330
1F
100
AcDbEntity
  8
0
  6
Continuous
 62
     7
370
    50
100
AcDbLine
 10
166.4184270524
 20
234.7788713708
 30
0.0
 11
166.4184270524
 21
236.4288713619
 31
0.0
  0
LINE
  5
9E
330
1F
100
AcDbEntity
  8
0
  6
Continuous
 62
     7
370
    50
100
AcDbLine
 10
166.4184270524
 20
236.4288713619
 30
0.0
 11
165.4184268884
 21
236.4288713619
 31
0.0
  0
LINE
  5
9F
330
1F
100
AcDbEntity
  8
0
  6
Continuous
 62
     7
370
    50
100
AcDbLine
 10
165.4184268884
 20
236.4288713619
 30
0.0
 11
165.4184268884
 21
234.7788713708
 31
0.0
  0
LINE
  5
A0
330
1F
100
AcDbEntity
  8
0
  6
Continuous
 62
     7
370
    50
100
AcDbLine
 10
165.4184268884
 20
234.7788713708
 30
0.0
 11
163.7684268974
 21
234.7788713708
 31
0.0
  0
LINE
  5
A1
330
1F
100
AcDbEntity
  8
0
  6
Continuous
 62
     7
370
    50
100
AcDbLine
 10
163.7684268974
 20
234.7788713708
 30
0.0
 11
163.7684268974
 21
233.7788712069
 31
0.0
  0
LINE
  5
A2
330
1F
100
AcDbEntity
  8
0
  6
Continuous
 62
     7
370
    50
100
AcDbLine
 10
168.0684270434
 20
234.7788713708
 30
0.0
 11
166.4184270524
 21
234.7788713708
 31
0.0
  0
LINE
  5
A3
330
1F
100
AcDbEntity
  8
0
  6
Continuous
 62
     7
370
    50
100
AcDbLine
 10
163.7684268974
 20
233.7788712069
 30
0.0
 11
165.4184268884
 21
233.7788712069
 31
0.0
  0
CIRCLE
  5
A4
330
1F
100
AcDbEntity
  8
0
  6
Continuous
 62
     7
370
    50
100
AcDbCircle
 10
165.9184268199
 20
234.2788707807
 30
0.0
 40
3.5
  0
LINE
  5
A5
330
1F
100
AcDbEntity
  8
0
  6
Continuous
 62
     7
370
    50
100
AcDbLine
 10
140.3655013166
 20
172.9590833023
 30
0.0
 11
140.394212129
 21
174.4588069453
 31
0.0
  0
LINE
  5
A6
330
1F
100
AcDbEntity
  8
0
  6
Continuous
 62
     7
370
    50
100
AcDbLine
 10
140.394212129
 20
174.4588069453
 30
0.0
 11
141.0684263431
 21
174.4458988145
 31
0.0
  0
LINE
  5
A7
330
1F
100
AcDbEntity
  8
0
  6
Continuous
 62
     7
370
    50
100
AcDbLine
 10
140.3655013166
 20
172.9590833023
 30
0.0
 11
141.0684263431
 21
172.9456275537
 31
0.0
  0
LINE
  5
A8
330
1F
100
AcDbEntity
  8
0
  6
Continuous
 62
     7
370
    50
100
AcDbLine
 10
140.7387530528
 20
192.4555111512
 30
0.0
 11
141.0684263431
 21
192.4491986468
 31
0.0
  0
LINE
  5
A9
330
1F
100
AcDbEntity
  8
0
  6
Continuous
 62
     7
370
    50
100
AcDbLine
 10
140.7674638651
 20
193.9552347943
 30
0.0
 11
140.7387530528
 21
192.4555111512
 31
0.0
  0
LINE
  5
AA
330
1F
100
AcDbEntity
  8
0
  6
Continuous
 62
     7
370
    50
100
AcDbLine
 10
141.0684263431
 20
193.9494736328
 30
0.0
 11
140.7674638651
 21
193.9552347943
 31
0.0
  0
LINE
  5
AB
330
1F
100
AcDbEntity
  8
0
  6
Continuous
 62
     7
370
    50
100
AcDbLine
 10
139.91467041
 20
174.4679897859
 30
0.0
 11
139.8859558724
 21
172.9682624176
 31
0.0
  0
LWPOLYLINE
  5
AC
330
1F
100
AcDbEntity
  8
0
  6
Continuous
 62
     7
370
    50
100
AcDbPolyline
 90
        9
 70
   128
 43
0.0
 10
139.91467041
 20
174.4679897859
 10
140.0260640405
 20
174.4658551946
 10
140.1231004022
 20
174.464
 10
140.2055671536
 20
174.4624204769
 10
140.2732817553
 20
174.4611240759
 10
140.3261026465
 20
174.460110797
 10
140.363914343
 20
174.4593880906
 10
140.3866348885
 20
174.4589522317
 10
140.394212129
 20
174.4588069453
  0
LWPOLYLINE
  5
AD
330
1F
100
AcDbEntity
  8
0
  6
Continuous
 62
     7
370
    50
100
AcDbPolyline
 90
        9
 70
   128
 43
0.0
 10
139.8859558724
 20
172.9682624176
 10
139.9973532282
 20
172.9661315515
 10
140.0943895899
 20
172.9642726317
 10
140.1768526159
 20
172.9626931086
 10
140.244570943
 20
172.9613967076
 10
140.2973918341
 20
172.9603871539
 10
140.3352035307
 20
172.9596644476
 10
140.3579240762
 20
172.9592285886
 10
140.3655013166
 20
172.9590833023
  0
SPLINE
  5
AE
330
1F
100
AcDbEntity
  8
0
  6
Continuous
 62
     7
370
    50
100
AcDbSpline
210
0.0
220
0.0
230
1.0
 70
     8
 71
     3
 72
    11
 73
     7
 74
     0
 42
0.000000001
 43
0.00000001
 40
0.0
 40
0.0
 40
0.0
 40
0.0
 40
0.2499998321994439
 40
0.4999993139233814
 40
0.7499998554416953
 40
1.0
 40
1.0
 40
1.0
 40
1.0
 10
139.8859558723974
 20
172.9682624175798
 30
0.0
 10
139.848284785902
 20
172.9952946218715
 30
0.0
 10
139.7729426657224
 20
173.0493589925583
 30
0.0
 10
139.6661602529481
 20
173.4561605429357
 30
0.0
 10
139.5627059138854
 20
174.0367030864582
 30
0.0
 10
139.4951334761986
 20
174.4967110988578
 30
0.0
 10
139.4613472841787
 20
174.7267149224531
 30
0.0
  0
SPLINE
  5
AF
330
1F
100
AcDbEntity
  8
0
  6
Continuous
 62
     7
370
    50
100
AcDbSpline
210
0.0
220
0.0
230
1.0
 70
     8
 71
     3
 72
    11
 73
     7
 74
     0
 42
0.000000001
 43
0.00000001
 40
0.0
 40
0.0
 40
0.0
 40
0.0
 40
0.2500029711094511
 40
0.4999982805204631
 40
0.7499955495774445
 40
1.0
 40
1.0
 40
1.0
 40
1.0
 10
139.9146704100179
 20
174.4679897859346
 30
0.0
 10
139.8765657032082
 20
174.4724777676325
 30
0.0
 10
139.8003574573619
 20
174.4814535934875
 30
0.0
 10
139.6869385878481
 20
174.5414476072426
 30
0.0
 10
139.5739937175888
 20
174.6262606464008
 30
0.0
 10
139.4988964548481
 20
174.6932298431499
 30
0.0
 10
139.4613472841787
 20
174.7267149224531
 30
0.0
  0
LWPOLYLINE
  5
B0
330
1F
100
AcDbEntity
  8
0
  6
Continuous
 62
     7
370
    50
100
AcDbPolyline
 90
        9
 70
   128
 43
0.0
 10
140.7339697801
 20
192.2055553481
 10
140.7349011026
 20
192.2543193981
 10
140.7357988976
 20
192.3012096271
 10
140.7366259121
 20
192.3444229945
 10
140.7373523437
 20
192.3822998836
 10
140.7379483901
 20
192.4133855685
 10
140.7383879744
 20
192.436484231
 10
140.7386599206
 20
192.4507073894
 10
140.7387530528
 20
192.4555111512
  0
LINE
  5
B1
330
1F
100
AcDbEntity
  8
0
  6
Continuous
 62
     7
370
    50
100
AcDbLine
 10
130.7649625562
 20
179.9817211762
 30
0.0
 11
136.0097019099
 21
177.8115272358
 31
0.0
  0
ARC
  5
B2
330
1F
100
AcDbEntity
  8
0
  6
Continuous
 62
     7
370
    50
100
AcDbCircle
 10
132.1264209259
 20
186.6693002089
 30
0.0
 40
6.700000000000036
100
AcDbArc
 50
88.90322627
 51
130.4587331688
  0
LINE
  5
B3
330
1F
100
AcDbEntity
  8
0
  6
Continuous
 62
     7
370
    50
100
AcDbLine
 10
139.7532908343
 20
193.2245135143
 30
0.0
 11
132.2546651684
 21
193.3680731639
 31
0.0
  0
LINE
  5
B4
330
1F
100
AcDbEntity
  8
0
  6
Continuous
 62
     7
370
    50
100
AcDbLine
 10
139.7532908343
 20
193.2245135143
 30
0.0
 11
139.7303244196
 21
192.0247334823
 31
0.0
  0
ARC
  5
B5
330
1F
100
AcDbEntity
  8
0
  6
Continuous
 62
     7
370
    50
100
AcDbCircle
 10
140.2302315486
 20
192.0151634126
 30
0.0
 40
0.5000000000000103
100
AcDbArc
 50
178.90322627
 51
358.90322627
  0
LINE
  5
B6
330
1F
100
AcDbEntity
  8
0
  6
Continuous
 62
     7
370
    50
100
AcDbLine
 10
140.7339697801
 20
192.2055553481
 30
0.0
 11
140.7301401816
 21
192.0055929407
 31
0.0
  0
LINE
  5
B7
330
1F
100
AcDbEntity
  8
0
  6
Continuous
 62
     7
370
    50
100
AcDbLine
 10
134.7259445213
 20
186.6195328369
 30
0.0
 11
134.7111178659
 21
186.9874387815
 31
0.0
  0
ARC
  5
B8
330
1F
100
AcDbEntity
  8
0
  6
Continuous
 62
     7
370
    50
100
AcDbCircle
 10
131.6265125302
 20
186.6788707807
 30
0.0
 40
3.100000000000027
100
AcDbArc
 50
321.1207777602
 51
358.90322627
  0
ARC
  5
B9
330
1F
100
AcDbEntity
  8
0
  6
Continuous
 62
     7
370
    50
100
AcDbCircle
 10
133.3332866144
 20
171.343391583
 30
0.0
 40
6.999999999999986
100
AcDbArc
 50
28.90322627
 51
67.5209740009
  0
LINE
  5
BA
330
1F
100
AcDbEntity
  8
0
  6
Continuous
 62
     7
370
    50
100
AcDbLine
 10
107.7247014366
 20
236.8288706824
 30
0.0
 11
108.0684265219
 21
236.8288706824
 31
0.0
  0
LINE
  5
BB
330
1F
100
AcDbEntity
  8
0
  6
Continuous
 62
     7
370
    50
100
AcDbLine
 10
110.0684231244
 20
236.8288706824
 30
0.0
 11
116.5684251212
 21
236.8288706824
 31
0.0
  0
LINE
  5
BC
330
1F
100
AcDbEntity
  8
0
  6
Continuous
 62
     7
370
    50
100
AcDbLine
 10
116.5684251212
 20
219.128870773
 30
0.0
 11
116.5684251212
 21
236.8288706824
 31
0.0
  0
LINE
  5
BD
330
1F
100
AcDbEntity
  8
0
  6
Continuous
 62
     7
370
    50
100
AcDbLine
 10
116.5684251212
 20
219.128870773
 30
0.0
 11
110.0684231244
 21
219.128870773
 31
0.0
  0
LINE
  5
BE
330
1F
100
AcDbEntity
  8
0
  6
Continuous
 62
     7
370
    50
100
AcDbLine
 10
108.0684265219
 20
219.128870773
 30
0.0
 11
107.7247014366
 21
219.128870773
 31
0.0
  0
SPLINE
  5
BF
330
1F
100
AcDbEntity
  8
0
  6
Continuous
 62
     7
370
    50
100
AcDbSpline
210
0.0
220
0.0
230
1.0
 70
     8
 71
     3
 72
    11
 73
     7
 74
     0
 42
0.000000001
 43
0.00000001
 40
0.0
 40
0.0
 40
0.0
 40
0.0
 40
0.2511483953019619
 40
0.5022967573245232
 40
0.7504723215811483
 40
0.9999999999999999
 40
0.9999999999999999
 40
0.9999999999999999
 40
0.9999999999999999
 10
107.7247014366198
 20
219.1288707730014
 30
0.0
 10
107.5366031852136
 20
220.6045671278968
 30
0.0
 10
107.1604067073259
 20
223.5559596421448
 30
0.0
 10
107.0214954876532
 20
228.0021291636395
 30
0.0
 10
107.1644356877783
 20
232.4383955733996
 30
0.0
 10
107.5376082534291
 20
235.3627307915236
 30
0.0
 10
107.7247014366198
 20
236.8288706823837
 30
0.0
  0
SPLINE
  5
C0
330
1F
100
AcDbEntity
  8
0
  6
Continuous
 62
     7
370
    50
100
AcDbSpline
210
0.0
220
0.0
230
1.0
 70
    24
 71
     3
 72
    11
 73
     7
 74
     0
 42
0.000000001
 43
0.00000001
 40
0.0
 40
0.0
 40
0.0
 40
0.0
 40
0.2497573933555116
 40
0.4995518464097762
 40
0.747741512227084
 40
1.0
 40
1.0
 40
1.0
 40
1.0
 10
95.06842997894763
 20
219.1288707730014
 30
0.0
 10
95.06842997894762
 20
220.58441376117
 30
0.0
 10
95.06842997894763
 20
223.4957157150362
 30
0.0
 10
95.06842997894762
 20
227.9612488626292
 30
0.0
 10
95.06842997894763
 20
232.4417736198884
 30
0.0
 10
95.06842997894762
 20
235.3586000485364
 30
0.0
 10
95.06842997894763
 20
236.8288706823837
 30
0.0
  0
LINE
  5
C1
330
1F
100
AcDbEntity
  8
0
  6
Continuous
 62
     7
370
    50
100
AcDbLine
 10
107.7247014366
 20
219.128870773
 30
0.0
 11
95.0684299789
 21
219.128870773
 31
0.0
  0
LINE
  5
C2
330
1F
100
AcDbEntity
  8
0
  6
Continuous
 62
     7
370
    50
100
AcDbLine
 10
107.7247014366
 20
236.8288706824
 30
0.0
 11
95.0684299789
 21
236.8288706824
 31
0.0
  0
SPLINE
  5
C3
330
1F
100
AcDbEntity
  8
0
  6
Continuous
 62
     7
370
    50
100
AcDbSpline
210
0.0
220
0.0
230
1.0
 70
     8
 71
     3
 72
    11
 73
     7
 74
     0
 42
0.000000001
 43
0.00000001
 40
0.0
 40
0.0
 40
0.0
 40
0.0
 40
0.4514052029682786
 40
0.7258321626176144
 40
0.9477074155424582
 40
0.9999999999999999
 40
0.9999999999999999
 40
0.9999999999999999
 40
0.9999999999999999
 10
116.7066110395002
 20
236.8288706823837
 30
0.0
 10
116.8565153771215
 20
236.4784411710964
 30
0.0
 10
117.0975524516744
 20
235.9149717907036
 30
0.0
 10
117.7630500264055
 20
235.2973350208428
 30
0.0
 10
118.2527186964926
 20
235.0180501915086
 30
0.0
 10
118.5178553923673
 20
234.9192825151333
 30
0.0
 10
118.5684254489946
 20
234.9004443570625
 30
0.0
  0
SPLINE
  5
C4
330
1F
100
AcDbEntity
  8
0
  6
Continuous
 62
     7
370
    50
100
AcDbSpline
210
0.0
220
0.0
230
1.0
 70
     8
 71
     3
 72
    12
 73
     8
 74
     0
 42
0.000000001
 43
0.00000001
 40
0.0
 40
0.0
 40
0.0
 40
0.0
 40
0.1664797272922524
 40
0.370452545101654
 40
0.6541718142721166
 40
0.9974286231935552
 40
1.0
 40
1.0
 40
1.0
 40
1.0
 10
118.5684254489946
 20
226.5572981744658
 30
0.0
 10
118.350552557633
 20
226.4621704792814
 30
0.0
 10
117.8657393709086
 20
226.2504912714648
 30
0.0
 10
117.2178763297562
 20
225.6636533118113
 30
0.0
 10
116.6999201444425
 20
224.8108949631016
 30
0.0
 10
116.5689196575185
 20
224.1120895061744
 30
0.0
 10
116.5684287711142
 20
223.7316989465087
 30
0.0
 10
116.5684251211691
 20
223.728870584036
 30
0.0
  0
LINE
  5
C5
330
1F
100
AcDbEntity
  8
0
  6
Continuous
 62
     7
370
    50
100
AcDbLine
 10
116.5684251212
 20
236.8288706824
 30
0.0
 11
116.7066110395
 21
236.8288706824
 31
0.0
  0
SPLINE
  5
C6
330
1F
100
AcDbEntity
  8
0
  6
Continuous
 62
     7
370
    50
100
AcDbSpline
210
0.0
220
0.0
230
1.0
 70
     8
 71
     3
 72
     9
 73
     5
 74
     0
 42
0.000000001
 43
0.00000001
 40
0.0
 40
0.0
 40
0.0
 40
0.0
 40
0.5597884129741106
 40
1.0
 40
1.0
 40
1.0
 40
1.0
 10
134.705414446454
 20
231.5274584874164
 30
0.0
 10
134.7021726834124
 20
231.5800914501796
 30
0.0
 10
134.6963816327824
 20
231.6741144087535
 30
0.0
 10
134.6646818128941
 20
231.7626639679929
 30
0.0
 10
134.6507271848726
 20
231.8016445099961
 30
0.0
  0
SPLINE
  5
C7
330
1F
100
AcDbEntity
  8
0
  6
Continuous
 62
     7
370
    50
100
AcDbSpline
210
0.0
220
0.0
230
1.0
 70
     8
 71
     3
 72
     9
 73
     5
 74
     0
 42
0.000000001
 43
0.00000001
 40
0.0
 40
0.0
 40
0.0
 40
0.0
 40
0.558919768923779
 40
1.0
 40
1.0
 40
1.0
 40
1.0
 10
134.5128839932489
 20
231.0172911569129
 30
0.0
 10
134.5758261366899
 20
231.1028302338223
 30
0.0
 10
134.6884400518538
 20
231.2558738040543
 30
0.0
 10
134.7002189897881
 20
231.4443329040444
 30
0.0
 10
134.705414446454
 20
231.5274584874164
 30
0.0
  0
SPLINE
  5
C8
330
1F
100
AcDbEntity
  8
0
  6
Continuous
 62
     7
370
    50
100
AcDbSpline
210
0.0
220
0.0
230
1.0
 70
     8
 71
     3
 72
     9
 73
     5
 74
     0
 42
0.000000001
 43
0.00000001
 40
0.0
 40
0.0
 40
0.0
 40
0.0
 40
0.5591097727500286
 40
1.0
 40
1.0
 40
1.0
 40
1.0
 10
133.9937275372553
 20
230.7528430431734
 30
0.0
 10
134.1044501074527
 20
230.7761555606673
 30
0.0
 10
134.3024837952792
 20
230.817851339618
 30
0.0
 10
134.4485047717496
 20
230.9562656431667
 30
0.0
 10
134.5128839932489
 20
231.0172911569129
 30
0.0
  0
LINE
  5
C9
330
1F
100
AcDbEntity
  8
0
  6
Continuous
 62
     7
370
    50
100
AcDbLine
 10
133.1232203268
 20
230.7528430432
 30
0.0
 11
133.9937275373
 21
230.7528430432
 31
0.0
  0
LINE
  5
CA
330
1F
100
AcDbEntity
  8
0
  6
Continuous
 62
     7
370
    50
100
AcDbLine
 10
133.1232203268
 20
232.2870898828
 30
0.0
 11
133.1232203268
 21
230.7528430432
 31
0.0
  0
LINE
  5
CB
330
1F
100
AcDbEntity
  8
0
  6
Continuous
 62
     7
370
    50
100
AcDbLine
 10
133.9982202374
 20
232.2870898828
 30
0.0
 11
133.1232203268
 21
232.2870898828
 31
0.0
  0
SPLINE
  5
CC
330
1F
100
AcDbEntity
  8
0
  6
Continuous
 62
     7
370
    50
100
AcDbSpline
210
0.0
220
0.0
230
1.0
 70
     8
 71
     3
 72
    11
 73
     7
 74
     0
 42
0.000000001
 43
0.00000001
 40
0.0
 40
0.0
 40
0.0
 40
0.0
 40
0.279778064480991
 40
0.5598778237876918
 40
0.7800718957666181
 40
1.0
 40
1.0
 40
1.0
 40
1.0
 10
134.6507271848726
 20
231.8016445099961
 30
0.0
 10
134.6146473604762
 20
231.8738335223447
 30
0.0
 10
134.5424462263265
 20
232.0182945515182
 30
0.0
 10
134.3696052014932
 20
232.1648626799356
 30
0.0
 10
134.1879911511197
 20
232.2688192333573
 30
0.0
 10
134.061451719167
 20
232.2810021203472
 30
0.0
 10
133.9982202373552
 20
232.2870898827564
 30
0.0
  0
SPLINE
  5
CD
330
1F
100
AcDbEntity
  8
0
  6
Continuous
 62
     7
370
    50
100
AcDbSpline
210
0.0
220
0.0
230
1.0
 70
     8
 71
     3
 72
    10
 73
     6
 74
     0
 42
0.000000001
 43
0.00000001
 40
0.0
 40
0.0
 40
0.0
 40
0.0
 40
0.2810316538888082
 40
0.562246389020492
 40
1.0
 40
1.0
 40
1.0
 40
1.0
 10
122.0261542223501
 20
231.9799406289708
 30
0.0
 10
122.0691810321887
 20
232.0636880135669
 30
0.0
 10
122.1552626821667
 20
232.2312373409379
 30
0.0
 10
122.4165743122376
 20
232.4590501548186
 30
0.0
 10
122.6577000078614
 20
232.5011704977378
 30
0.0
 10
122.8045126520204
 20
232.5268160387527
 30
0.0
  0
SPLINE
  5
CE
330
1F
100
AcDbEntity
  8
0
  6
Continuous
 62
     7
370
    50
100
AcDbSpline
210
0.0
220
0.0
230
1.0
 70
     8
 71
     3
 72
     9
 73
     5
 74
     0
 42
0.000000001
 43
0.00000001
 40
0.0
 40
0.0
 40
0.0
 40
0.0
 40
0.5594596594657674
 40
1.0
 40
1.0
 40
1.0
 40
1.0
 10
121.9864500783491
 20
231.8510884254824
 30
0.0
 10
121.9926043022565
 20
231.8755087141426
 30
0.0
 10
122.0036046019266
 20
231.9191584898627
 30
0.0
 10
122.0192581867579
 20
231.9613524759648
 30
0.0
 10
122.0261542223501
 20
231.9799406289708
 30
0.0
  0
SPLINE
  5
CF
330
1F
100
AcDbEntity
  8
0
  6
Continuous
 62
     7
370
    50
100
AcDbSpline
210
0.0
220
0.0
230
1.0
 70
     8
 71
     3
 72
    11
 73
     7
 74
     0
 42
0.000000001
 43
0.00000001
 40
0.0
 40
0.0
 40
0.0
 40
0.0
 40
0.2794817707495373
 40
0.560312927670135
 40
0.7794144319738895
 40
1.0
 40
1.0
 40
1.0
 40
1.0
 10
122.1010698102522
 20
231.7469572484146
 30
0.0
 10
122.0850283279176
 20
231.7486637914987
 30
0.0
 10
122.0528679122063
 20
231.7520851171509
 30
0.0
 10
122.0152405116366
 20
231.7786506149498
 30
0.0
 10
121.9910666381291
 20
231.8132574784533
 30
0.0
 10
121.9879923904171
 20
231.8384497661933
 30
0.0
 10
121.9864500783491
 20
231.8510884254824
 30
0.0
  0
SPLINE
  5
D0
330
1F
100
AcDbEntity
  8
0
  6
Continuous
 62
     7
370
    50
100
AcDbSpline
210
0.0
220
0.0
230
1.0
 70
     8
 71
     3
 72
    10
 73
     6
 74
     0
 42
0.000000001
 43
0.00000001
 40
0.0
 40
0.0
 40
0.0
 40
0.0
 40
0.2812065903705629
 40
0.5615036870436373
 40
1.0
 40
1.0
 40
1.0
 40
1.0
 10
122.1999539159346
 20
231.8113833501588
 30
0.0
 10
122.194398547132
 20
231.8010238888512
 30
0.0
 10
122.1833057770039
 20
231.7803384713709
 30
0.0
 10
122.1506091996633
 20
231.7514689317852
 30
0.0
 10
122.1198402522417
 20
231.7486667222695
 30
0.0
 10
122.1010698102522
 20
231.7469572484146
 30
0.0
  0
SPLINE
  5
D1
330
1F
100
AcDbEntity
  8
0
  6
Continuous
 62
     7
370
    50
100
AcDbSpline
210
0.0
220
0.0
230
1.0
 70
     8
 71
     3
 72
    10
 73
     6
 74
     0
 42
0.000000001
 43
0.00000001
 40
0.0
 40
0.0
 40
0.0
 40
0.0
 40
0.2808830088443715
 40
0.5614624884974782
 40
1.0
 40
1.0
 40
1.0
 40
1.0
 10
122.7400874815988
 20
232.2870898827564
 30
0.0
 10
122.6697922357624
 20
232.2725582523393
 30
0.0
 10
122.529277706887
 20
232.2435106947477
 30
0.0
 10
122.3119715013156
 20
232.0909109148273
 30
0.0
 10
122.2423879176378
 20
231.9172727345344
 30
0.0
 10
122.1999539159346
 20
231.8113833501588
 30
0.0
  0
LINE
  5
D2
330
1F
100
AcDbEntity
  8
0
  6
Continuous
 62
     7
370
    50
100
AcDbLine
 10
122.8194957696
 20
232.2870898828
 30
0.0
 11
122.7400874816
 21
232.2870898828
 31
0.0
  0
SPLINE
  5
D3
330
1F
100
AcDbEntity
  8
0
  6
Continuous
 62
     7
370
    50
100
AcDbSpline
210
0.0
220
0.0
230
1.0
 70
     8
 71
     3
 72
    11
 73
     7
 74
     0
 42
0.000000001
 43
0.00000001
 40
0.0
 40
0.0
 40
0.0
 40
0.0
 40
0.2791869522752748
 40
0.5587408255414036
 40
0.7794988001273649
 40
1.0
 40
1.0
 40
1.0
 40
1.0
 10
123.4382888399172
 20
231.685527211393
 30
0.0
 10
123.4268541509371
 20
231.7750401770221
 30
0.0
 10
123.4039697449558
 20
231.9541837505474
 30
0.0
 10
123.2323569562999
 20
232.1486248182805
 30
0.0
 10
123.0297275425245
 20
232.2626940847882
 30
0.0
 10
122.8895458360284
 20
232.2789611054338
 30
0.0
 10
122.8194957696009
 20
232.2870898827564
 30
0.0
  0
SPLINE
  5
D4
330
1F
100
AcDbEntity
  8
0
  6
Continuous
 62
     7
370
    50
100
AcDbSpline
210
0.0
220
0.0
230
1.0
 70
     8
 71
     3
 72
     9
 73
     5
 74
     0
 42
0.000000001
 43
0.00000001
 40
0.0
 40
0.0
 40
0.0
 40
0.0
 40
0.559627104012497
 40
1.0
 40
1.0
 40
1.0
 40
1.0
 10
123.3738636694956
 20
231.4023511320006
 30
0.0
 10
123.3951497926345
 20
231.4532075912446
 30
0.0
 10
123.4331860546137
 20
231.5440832098116
 30
0.0
 10
123.4367287381213
 20
231.642282781586
 30
0.0
 10
123.4382888399172
 20
231.685527211393
 30
0.0
  0
LINE
  5
D5
330
1F
100
AcDbEntity
  8
0
  6
Continuous
 62
     7
370
    50
100
AcDbLine
 10
122.0119198881
 20
229.2508097201
 30
0.0
 11
123.3738636695
 21
231.402351132
 31
0.0
  0
SPLINE
  5
D6
330
1F
100
AcDbEntity
  8
0
  6
Continuous
 62
     7
370
    50
100
AcDbSpline
210
0.0
220
0.0
230
1.0
 70
     8
 71
     3
 72
     9
 73
     5
 74
     0
 42
0.000000001
 43
0.00000001
 40
0.0
 40
0.0
 40
0.0
 40
0.0
 40
0.5594589991070205
 40
1.0
 40
1.0
 40
1.0
 40
1.0
 10
121.9864500783491
 20
229.1526725351464
 30
0.0
 10
121.9875555194321
 20
229.171984113127
 30
0.0
 10
121.9895314302401
 20
229.2065024210127
 30
0.0
 10
122.0050731314938
 20
229.2372598233246
 30
0.0
 10
122.0119198881197
 20
229.2508097201239
 30
0.0
  0
SPLINE
  5
D7
330
1F
100
AcDbEntity
  8
0
  6
Continuous
 62
     7
370
    50
100
AcDbSpline
210
0.0
220
0.0
230
1.0
 70
     8
 71
     3
 72
    10
 73
     6
 74
     0
 42
0.000000001
 43
0.00000001
 40
0.0
 40
0.0
 40
0.0
 40
0.0
 40
0.2803372783425773
 40
0.5608612699738235
 40
1.0
 40
1.0
 40
1.0
 40
1.0
 10
122.0658583663511
 20
229.0747608825218
 30
0.0
 10
122.0555189866911
 20
229.0782180389874
 30
0.0
 10
122.0348333410249
 20
229.0851346544917
 30
0.0
 10
122.0041557533055
 20
229.1107579494023
 30
0.0
 10
121.9931598107224
 20
229.1367886078986
 30
0.0
 10
121.9864500783491
 20
229.1526725351464
 30
0.0
  0
LINE
  5
D8
330
1F
100
AcDbEntity
  8
0
  6
Continuous
 62
     7
370
    50
100
AcDbLine
 10
123.5911151491
 20
229.0747608825
 30
0.0
 11
122.0658583664
 21
229.0747608825
 31
0.0
  0
LINE
  5
D9
330
1F
100
AcDbEntity
  8
0
  6
Continuous
 62
     7
370
    50
100
AcDbLine
 10
123.6293217264
 20
229.0882455021
 30
0.0
 11
123.5911151491
 21
229.0747608825
 31
0.0
  0
SPLINE
  5
DA
330
1F
100
AcDbEntity
  8
0
  6
Continuous
 62
     7
370
    50
100
AcDbSpline
210
0.0
220
0.0
230
1.0
 70
     8
 71
     3
 72
    10
 73
     6
 74
     0
 42
0.000000001
 43
0.00000001
 40
0.0
 40
0.0
 40
0.0
 40
0.0
 40
0.2800685908149059
 40
0.560750102032032
 40
1.0
 40
1.0
 40
1.0
 40
1.0
 10
123.6780149959135
 20
229.1684044360768
 30
0.0
 10
123.6772727174761
 20
229.1592349838887
 30
0.0
 10
123.6757865361508
 20
229.1408760124842
 30
0.0
 10
123.6597873042938
 20
229.1112510649849
 30
0.0
 10
123.6408660826753
 20
229.0969630263327
 30
0.0
 10
123.6293217264223
 20
229.0882455020796
 30
0.0
  0
SPLINE
  5
DB
330
1F
100
AcDbEntity
  8
0
  6
Continuous
 62
     7
370
    50
100
AcDbSpline
210
0.0
220
0.0
230
1.0
 70
     8
 71
     3
 72
    10
 73
     6
 74
     0
 42
0.000000001
 43
0.00000001
 40
0.0
 40
0.0
 40
0.0
 40
0.0
 40
0.2845514464984277
 40
0.5543282217768863
 40
0.9999999999999999
 40
0.9999999999999999
 40
0.9999999999999999
 40
0.9999999999999999
 10
123.6735222958136
 20
229.1818890556346
 30
0.0
 10
123.6744687682412
 20
229.1808506898369
 30
0.0
 10
123.6763125697198
 20
229.1788278729673
 30
0.0
 10
123.678383964882
 20
229.1742083859931
 30
0.0
 10
123.6781566169426
 20
229.1706321609811
 30
0.0
 10
123.6780149959135
 20
229.1684044360768
 30
0.0
  0
LINE
  5
DC
330
1F
100
AcDbEntity
  8
0
  6
Continuous
 62
     7
370
    50
100
AcDbLine
 10
123.6735222958
 20
229.1953736752
 30
0.0
 11
123.6735222958
 21
229.1818890556
 31
0.0
  0
SPLINE
  5
DD
330
1F
100
AcDbEntity
  8
0
  6
Continuous
 62
     7
370
    50
100
AcDbSpline
210
0.0
220
0.0
230
1.0
 70
     8
 71
     3
 72
     9
 73
     5
 74
     0
 42
0.000000001
 43
0.00000001
 40
0.0
 40
0.0
 40
0.0
 40
0.0
 40
0.5596933637265452
 40
1.0
 40
1.0
 40
1.0
 40
1.0
 10
123.5941102825212
 20
229.2665416210543
 30
0.0
 10
123.6151710811038
 20
229.2597286257601
 30
0.0
 10
123.6528002544112
 20
229.2475558973773
 30
0.0
 10
123.6671874972944
 20
229.2113259579529
 30
0.0
 10
123.6735222958136
 20
229.1953736751925
 30
0.0
  0
LINE
  5
DE
330
1F
100
AcDbEntity
  8
0
  6
Continuous
 62
     7
370
    50
100
AcDbLine
 10
122.3160712145
 20
229.2717858985
 30
0.0
 11
123.5941102825
 21
229.2665416211
 31
0.0
  0
LINE
  5
DF
330
1F
100
AcDbEntity
  8
0
  6
Continuous
 62
     7
370
    50
100
AcDbLine
 10
123.5102092944
 20
231.1888454318
 30
0.0
 11
122.3160712145
 21
229.2717858985
 31
0.0
  0
SPLINE
  5
E0
330
1F
100
AcDbEntity
  8
0
  6
Continuous
 62
     7
370
    50
100
AcDbSpline
210
0.0
220
0.0
230
1.0
 70
     8
 71
     3
 72
     9
 73
     5
 74
     0
 42
0.000000001
 43
0.00000001
 40
0.0
 40
0.0
 40
0.0
 40
0.0
 40
0.5599106490559569
 40
1.0
 40
1.0
 40
1.0
 40
1.0
 10
123.6780149959135
 20
231.7095003857862
 30
0.0
 10
123.6708818569133
 20
231.6039713829484
 30
0.0
 10
123.6581420759997
 20
231.4154966628913
 30
0.0
 10
123.5554173516738
 20
231.2581097403558
 30
0.0
 10
123.5102092944193
 20
231.18884543177
 30
0.0
  0
SPLINE
  5
E1
330
1F
100
AcDbEntity
  8
0
  6
Continuous
 62
     7
370
    50
100
AcDbSpline
210
0.0
220
0.0
230
1.0
 70
     8
 71
     3
 72
     9
 73
     5
 74
     0
 42
0.000000001
 43
0.00000001
 40
0.0
 40
0.0
 40
0.0
 40
0.0
 40
0.5596362975477512
 40
1.0
 40
1.0
 40
1.0
 40
1.0
 10
123.5798796735811
 20
232.0758314638983
 30
0.0
 10
123.6117978830783
 20
232.0109018462902
 30
0.0
 10
123.6688317274467
 20
231.8948807484938
 30
0.0
 10
123.6752073869077
 20
231.766176892383
 30
0.0
 10
123.6780149959135
 20
231.7095003857862
 30
0.0
  0
SPLINE
  5
E2
330
1F
100
AcDbEntity
  8
0
  6
Continuous
 62
     7
370
    50
100
AcDbSpline
210
0.0
220
0.0
230
1.0
 70
     8
 71
     3
 72
    10
 73
     6
 74
     0
 42
0.000000001
 43
0.00000001
 40
0.0
 40
0.0
 40
0.0
 40
0.0
 40
0.2807461817447024
 40
0.561118890156867
 40
1.0
 40
1.0
 40
1.0
 40
1.0
 10
122.8045126520204
 20
232.5268160387527
 30
0.0
 10
122.8925428013865
 20
232.5208603692041
 30
0.0
 10
123.0684859946498
 20
232.5089569528638
 30
0.0
 10
123.3654353663468
 20
232.3777848761986
 30
0.0
 10
123.4986149148081
 20
232.1902582422434
 30
0.0
 10
123.5798796735811
 20
232.0758314638983
 30
0.0
  0
SPLINE
  5
E3
330
1F
100
AcDbEntity
  8
0
  6
Continuous
 62
     7
370
    50
100
AcDbSpline
210
0.0
220
0.0
230
1.0
 70
     8
 71
     3
 72
    10
 73
     6
 74
     0
 42
0.000000001
 43
0.00000001
 40
0.0
 40
0.0
 40
0.0
 40
0.0
 40
0.2796813278097167
 40
0.560580264929424
 40
1.0
 40
1.0
 40
1.0
 40
1.0
 10
126.7262822114038
 20
232.2473857387554
 30
0.0
 10
126.7558127658085
 20
232.2935805467673
 30
0.0
 10
126.8150024376445
 20
232.3861712746378
 30
0.0
 10
126.9830305493152
 20
232.4971921804611
 30
0.0
 10
127.123678339388
 20
232.51559169033
 30
0.0
 10
127.2094784401464
 20
232.5268160387527
 30
0.0
  0
SPLINE
  5
E4
330
1F
100
AcDbEntity
  8
0
  6
Continuous
 62
     7
370
    50
100
AcDbSpline
210
0.0
220
0.0
230
1.0
 70
     8
 71
     3
 72
     9
 73
     5
 74
     0
 42
0.000000001
 43
0.00000001
 40
0.0
 40
0.0
 40
0.0
 40
0.0
 40
0.5593729477736865
 40
1.0
 40
1.0
 40
1.0
 40
1.0
 10
126.3629471980143
 20
230.8067815214049
 30
0.0
 10
126.3886861066518
 20
231.0865677813889
 30
0.0
 10
126.4346999668859
 20
231.5867461705971
 30
0.0
 10
126.6370995012188
 20
232.0453239594407
 30
0.0
 10
126.7262822114038
 20
232.2473857387554
 30
0.0
  0
SPLINE
  5
E5
330
1F
100
AcDbEntity
  8
0
  6
Continuous
 62
     7
370
    50
100
AcDbSpline
210
0.0
220
0.0
230
1.0
 70
     8
 71
     3
 72
     9
 73
     5
 74
     0
 42
0.000000001
 43
0.00000001
 40
0.0
 40
0.0
 40
0.0
 40
0.0
 40
0.5596801896946543
 40
1.0
 40
1.0
 40
1.0
 40
1.0
 10
126.7217857860136
 20
229.3159855365406
 30
0.0
 10
126.6059541942436
 20
229.5830896676599
 30
0.0
 10
126.3989938731481
 20
230.0603338796893
 30
0.0
 10
126.3739670180872
 20
230.578585198858
 30
0.0
 10
126.3629471980143
 20
230.8067815214049
 30
0.0
  0
SPLINE
  5
E6
330
1F
100
AcDbEntity
  8
0
  6
Continuous
 62
     7
370
    50
100
AcDbSpline
210
0.0
220
0.0
230
1.0
 70
     8
 71
     3
 72
    10
 73
     6
 74
     0
 42
0.000000001
 43
0.00000001
 40
0.0
 40
0.0
 40
0.0
 40
0.0
 40
0.2814423759113496
 40
0.5622489618726415
 40
1.0
 40
1.0
 40
1.0
 40
1.0
 10
127.194495322566
 20
229.0268163963806
 30
0.0
 10
127.1396902918724
 20
229.0304112692886
 30
0.0
 10
127.0302040373128
 20
229.0375928941384
 30
0.0
 10
126.8482426181569
 20
229.1249026626768
 30
0.0
 10
126.7696593437909
 20
229.2436460919481
 30
0.0
 10
126.7217857860136
 20
229.3159855365406
 30
0.0
  0
SPLINE
  5
E7
330
1F
100
AcDbEntity
  8
0
  6
Continuous
 62
     7
370
    50
100
AcDbSpline
210
0.0
220
0.0
230
1.0
 70
     8
 71
     3
 72
    10
 73
     6
 74
     0
 42
0.000000001
 43
0.00000001
 40
0.0
 40
0.0
 40
0.0
 40
0.0
 40
0.278908252693292
 40
0.5601132116255302
 40
1.0
 40
1.0
 40
1.0
 40
1.0
 10
127.6776952765989
 20
229.3062466963779
 30
0.0
 10
127.6494504672014
 20
229.2590450295777
 30
0.0
 10
127.5927282628543
 20
229.1642530077201
 30
0.0
 10
127.420503913203
 20
229.0580185426024
 30
0.0
 10
127.2801284243202
 20
229.0386386751481
 30
0.0
 10
127.194495322566
 20
229.0268163963806
 30
0.0
  0
SPLINE
  5
E8
330
1F
100
AcDbEntity
  8
0
  6
Continuous
 62
     7
370
    50
100
AcDbSpline
210
0.0
220
0.0
230
1.0
 70
     8
 71
     3
 72
     9
 73
     5
 74
     0
 42
0.000000001
 43
0.00000001
 40
0.0
 40
0.0
 40
0.0
 40
0.0
 40
0.5595296869370465
 40
1.0
 40
1.0
 40
1.0
 40
1.0
 10
128.0410302899885
 20
230.7565888225685
 30
0.0
 10
128.0182783005127
 20
230.4741463312047
 30
0.0
 10
127.9776155975196
 20
229.969360798001
 30
0.0
 10
127.7694055995759
 20
229.5090152458507
 30
0.0
 10
127.6776952765989
 20
229.3062466963779
 30
0.0
  0
SPLINE
  5
E9
330
1F
100
AcDbEntity
  8
0
  6
Continuous
 62
     7
370
    50
100
AcDbSpline
210
0.0
220
0.0
230
1.0
 70
     8
 71
     3
 72
     9
 73
     5
 74
     0
 42
0.000000001
 43
0.00000001
 40
0.0
 40
0.0
 40
0.0
 40
0.0
 40
0.5602006637195995
 40
1.0
 40
1.0
 40
1.0
 40
1.0
 10
127.6672085844088
 20
232.2773510425936
 30
0.0
 10
127.7840231569675
 20
232.0042436657928
 30
0.0
 10
127.9925458884172
 20
231.5167266125506
 30
0.0
 10
128.0262203042539
 20
230.9887795779688
 30
0.0
 10
128.0410302899885
 20
230.7565888225685
 30
0.0
  0
SPLINE
  5
EA
330
1F
100
AcDbEntity
  8
0
  6
Continuous
 62
     7
370
    50
100
AcDbSpline
210
0.0
220
0.0
230
1.0
 70
     8
 71
     3
 72
    10
 73
     6
 74
     0
 42
0.000000001
 43
0.00000001
 40
0.0
 40
0.0
 40
0.0
 40
0.0
 40
0.2807827011837085
 40
0.5614903604101221
 40
1.0
 40
1.0
 40
1.0
 40
1.0
 10
127.2094784401464
 20
232.5268160387527
 30
0.0
 10
127.2601804415346
 20
232.5229525012393
 30
0.0
 10
127.3615708936989
 20
232.5152264587812
 30
0.0
 10
127.5301353631794
 20
232.4380252943959
 30
0.0
 10
127.6152896673958
 20
232.3382092690993
 30
0.0
 10
127.6672085844088
 20
232.2773510425936
 30
0.0
  0
LINE
  5
EB
330
1F
100
AcDbEntity
  8
0
  6
Continuous
 62
     7
370
    50
100
AcDbLine
 10
132.959158542
 20
232.5215717613
 30
0.0
 11
132.9696452342
 21
232.5268160388
 31
0.0
  0
SPLINE
  5
EC
330
1F
100
AcDbEntity
  8
0
  6
Continuous
 62
     7
370
    50
100
AcDbSpline
210
0.0
220
0.0
230
1.0
 70
     8
 71
     3
 72
    11
 73
     7
 74
     0
 42
0.000000001
 43
0.00000001
 40
0.0
 40
0.0
 40
0.0
 40
0.0
 40
0.2801585141201422
 40
0.559971322950717
 40
0.7794374104537533
 40
0.9999999999999999
 40
0.9999999999999999
 40
0.9999999999999999
 40
0.9999999999999999
 10
132.8834941707659
 20
232.4466580360781
 30
0.0
 10
132.8862621923864
 20
232.4571224192364
 30
0.0
 10
132.8917948199905
 20
232.4780382728894
 30
0.0
 10
132.9095821751675
 20
232.5031889582019
 30
0.0
 10
132.9336940030153
 20
232.5184544299557
 30
0.0
 10
132.9506562729931
 20
232.5205309260769
 30
0.0
 10
132.9591585420179
 20
232.521571761335
 30
0.0
  0
LINE
  5
ED
330
1F
100
AcDbEntity
  8
0
  6
Continuous
 62
     7
370
    50
100
AcDbLine
 10
132.8834941708
 20
229.1114689618
 30
0.0
 11
132.8834941708
 21
232.4466580361
 31
0.0
  0
SPLINE
  5
EE
330
1F
100
AcDbEntity
  8
0
  6
Continuous
 62
     7
370
    50
100
AcDbSpline
210
0.0
220
0.0
230
1.0
 70
     8
 71
     3
 72
    10
 73
     6
 74
     0
 42
0.000000001
 43
0.00000001
 40
0.0
 40
0.0
 40
0.0
 40
0.0
 40
0.2808283776973783
 40
0.5609422690572345
 40
0.9999999999999999
 40
0.9999999999999999
 40
0.9999999999999999
 40
0.9999999999999999
 10
133.1232203267622
 20
229.1084728970777
 30
0.0
 10
133.1176253938517
 20
229.0952222031109
 30
0.0
 10
133.1064497627145
 20
229.068754527724
 30
0.0
 10
133.0669093707122
 20
229.0324702291105
 30
0.0
 10
133.0293092805293
 20
229.0289596324871
 30
0.0
 10
133.0063542448091
 20
229.0268163963806
 30
0.0
  0
LINE
  5
EF
330
1F
100
AcDbEntity
  8
0
  6
Continuous
 62
     7
370
    50
100
AcDbLine
 10
133.1232203268
 20
230.5131178185
 30
0.0
 11
133.1232203268
 21
229.1084728971
 31
0.0
  0
LINE
  5
F0
330
1F
100
AcDbEntity
  8
0
  6
Continuous
 62
     7
370
    50
100
AcDbLine
 10
134.0341804646
 20
230.5131178185
 30
0.0
 11
133.1232203268
 21
230.5131178185
 31
0.0
  0
LINE
  5
F1
330
1F
100
AcDbEntity
  8
0
  6
Continuous
 62
     7
370
    50
100
AcDbLine
 10
134.7451185905
 20
229.0777578786
 30
0.0
 11
134.0341804646
 21
230.5131178185
 31
0.0
  0
SPLINE
  5
F2
330
1F
100
AcDbEntity
  8
0
  6
Continuous
 62
     7
370
    50
100
AcDbSpline
210
0.0
220
0.0
230
1.0
 70
     8
 71
     3
 72
     9
 73
     5
 74
     0
 42
0.000000001
 43
0.00000001
 40
0.0
 40
0.0
 40
0.0
 40
0.0
 40
0.5565309480125654
 40
1.0
 40
1.0
 40
1.0
 40
1.0
 10
134.8050510607767
 20
229.0268163963806
 30
0.0
 10
134.7907105224797
 20
229.032668726052
 30
0.0
 10
134.7649427941112
 20
229.0431844569243
 30
0.0
 10
134.7512090714319
 20
229.0671360765278
 30
0.0
 10
134.745118590455
 20
229.0777578785669
 30
0.0
  0
SPLINE
  5
F3
330
1F
100
AcDbEntity
  8
0
  6
Continuous
 62
     7
370
    50
100
AcDbSpline
210
0.0
220
0.0
230
1.0
 70
     8
 71
     3
 72
    10
 73
     6
 74
     0
 42
0.000000001
 43
0.00000001
 40
0.0
 40
0.0
 40
0.0
 40
0.0
 40
0.2826513827561062
 40
0.5592690447407231
 40
1.0
 40
1.0
 40
1.0
 40
1.0
 10
134.9451406024504
 20
229.1616616606366
 30
0.0
 10
134.9449917895162
 20
229.1401581073219
 30
0.0
 10
134.9446973403375
 20
229.0976100341317
 30
0.0
 10
134.8998597083507
 20
229.0265311910606
 30
0.0
 10
134.8411324379154
 20
229.0267078556411
 30
0.0
 10
134.8050510607767
 20
229.0268163963806
 30
0.0
  0
LINE
  5
F4
330
1F
100
AcDbEntity
  8
0
  6
Continuous
 62
     7
370
    50
100
AcDbLine
 10
134.2319524013
 20
230.5266015067
 30
0.0
 11
134.9451406025
 21
229.1616616606
 31
0.0
  0
LINE
  5
F5
330
1F
100
AcDbEntity
  8
0
  6
Continuous
 62
     7
370
    50
100
AcDbLine
 10
134.2267109178
 20
230.5415846243
 30
0.0
 11
134.2319524013
 21
230.5266015067
 31
0.0
  0
SPLINE
  5
F6
330
1F
100
AcDbEntity
  8
0
  6
Continuous
 62
     7
370
    50
100
AcDbSpline
210
0.0
220
0.0
230
1.0
 70
     8
 71
     3
 72
    11
 73
     7
 74
     0
 42
0.000000001
 43
0.00000001
 40
0.0
 40
0.0
 40
0.0
 40
0.0
 40
0.2795989442459957
 40
0.5594912225002815
 40
0.7797303960117171
 40
1.0
 40
1.0
 40
1.0
 40
1.0
 10
134.9451406024504
 20
231.5064823090683
 30
0.0
 10
134.9326316570037
 20
231.3861534977301
 30
0.0
 10
134.9076006426734
 20
231.1453696351901
 30
0.0
 10
134.721074078252
 20
230.8576702920539
 30
0.0
 10
134.4914987876977
 20
230.646062787237
 30
0.0
 10
134.3149776058187
 20
230.5764122824484
 30
0.0
 10
134.2267109178114
 20
230.5415846243154
 30
0.0
  0
SPLINE
  5
F7
330
1F
100
AcDbEntity
  8
0
  6
Continuous
 62
     7
370
    50
100
AcDbSpline
210
0.0
220
0.0
230
1.0
 70
     8
 71
     3
 72
     9
 73
     5
 74
     0
 42
0.000000001
 43
0.00000001
 40
0.0
 40
0.0
 40
0.0
 40
0.0
 40
0.5599535415923872
 40
1.0
 40
1.0
 40
1.0
 40
1.0
 10
134.8897008322286
 20
231.836854091252
 30
0.0
 10
134.9071190261697
 20
231.7763070895526
 30
0.0
 10
134.9382255245615
 20
231.6681784731549
 30
0.0
 10
134.943027507059
 20
231.5558930929559
 30
0.0
 10
134.9451406024504
 20
231.5064823090683
 30
0.0
  0
SPLINE
  5
F8
330
1F
100
AcDbEntity
  8
0
  6
Continuous
 62
     7
370
    50
100
AcDbSpline
210
0.0
220
0.0
230
1.0
 70
     8
 71
     3
 72
    10
 73
     6
 74
     0
 42
0.000000001
 43
0.00000001
 40
0.0
 40
0.0
 40
0.0
 40
0.0
 40
0.2802408491004205
 40
0.5614353126916752
 40
1.0
 40
1.0
 40
1.0
 40
1.0
 10
134.0004703126955
 20
232.5268160387527
 30
0.0
 10
134.1115488490717
 20
232.5120532975835
 30
0.0
 10
134.3340839041997
 20
232.4824775800135
 30
0.0
 10
134.6721753855445
 20
232.2465942916315
 30
0.0
 10
134.80734132588
 20
231.9919899668419
 30
0.0
 10
134.8897008322286
 20
231.836854091252
 30
0.0
  0
LINE
  5
F9
330
1F
100
AcDbEntity
  8
0
  6
Continuous
 62
     7
370
    50
100
AcDbLine
 10
132.9696452342
 20
232.5268160388
 30
0.0
 11
134.0004703127
 21
232.5268160388
 31
0.0
  0
LINE
  5
FA
330
1F
100
AcDbEntity
  8
0
  6
Continuous
 62
     7
370
    50
100
AcDbLine
 10
138.2233662628
 20
234.7288705244
 30
0.0
 11
119.5684274756
 21
234.7288705244
 31
0.0
  0
ARC
  5
FB
330
1F
100
AcDbEntity
  8
0
  6
Continuous
 62
     7
370
    50
100
AcDbCircle
 10
138.2233676482
 20
237.7288707807
 30
0.0
 40
3.0
100
AcDbArc
 50
270.0
 51
341.5053098653
  0
SPLINE
  5
FC
330
1F
100
AcDbEntity
  8
0
  6
Continuous
 62
     7
370
    50
100
AcDbSpline
210
0.0
220
0.0
230
1.0
 70
     8
 71
     3
 72
     9
 73
     5
 74
     0
 42
0.000000001
 43
0.00000001
 40
0.0
 40
0.0
 40
0.0
 40
0.0
 40
0.5599294572142106
 40
1.0
 40
1.0
 40
1.0
 40
1.0
 10
128.9534879945326
 20
232.5103344231497
 30
0.0
 10
128.9611474142845
 20
232.5131449161165
 30
0.0
 10
128.974826672722
 20
232.5181642858434
 30
0.0
 10
128.9880998066371
 20
232.5241721532723
 30
0.0
 10
128.9939409218836
 20
232.5268160387527
 30
0.0
  0
SPLINE
  5
FD
330
1F
100
AcDbEntity
  8
0
  6
Continuous
 62
     7
370
    50
100
AcDbSpline
210
0.0
220
0.0
230
1.0
 70
     8
 71
     3
 72
     9
 73
     5
 74
     0
 42
0.000000001
 43
0.00000001
 40
0.0
 40
0.0
 40
0.0
 40
0.0
 40
0.5610546161226829
 40
1.0
 40
1.0
 40
1.0
 40
1.0
 10
128.9040422164011
 20
232.3739906608712
 30
0.0
 10
128.9053497595182
 20
232.4026110312348
 30
0.0
 10
128.9076802690257
 20
232.4536227679557
 30
0.0
 10
128.9395145040288
 20
232.4930347260672
 30
0.0
 10
128.9534879945326
 20
232.5103344231497
 30
0.0
  0
SPLINE
  5
FE
330
1F
100
AcDbEntity
  8
0
  6
Continuous
 62
     7
370
    50
100
AcDbSpline
210
0.0
220
0.0
230
1.0
 70
     8
 71
     3
 72
    10
 73
     6
 74
     0
 42
0.000000001
 43
0.00000001
 40
0.0
 40
0.0
 40
0.0
 40
0.0
 40
0.2803359099690684
 40
0.5606630253539149
 40
1.0
 40
1.0
 40
1.0
 40
1.0
 10
128.9871981464433
 20
232.2870898827564
 30
0.0
 10
128.9760371976642
 20
232.2910057916559
 30
0.0
 10
128.9537156502426
 20
232.2988374866066
 30
0.0
 10
128.9213705461117
 20
232.3277953285023
 30
0.0
 10
128.9106107832323
 20
232.3564796177978
 30
0.0
 10
128.9040422164011
 20
232.3739906608712
 30
0.0
  0
LINE
  5
FF
330
1F
100
AcDbEntity
  8
0
  6
Continuous
 62
     7
370
    50
100
AcDbLine
 10
129.7678066515
 20
232.2870898828
 30
0.0
 11
128.9871981464
 21
232.2870898828
 31
0.0
  0
SPLINE
  5
100
330
1F
100
AcDbEntity
  8
0
  6
Continuous
 62
     7
370
    50
100
AcDbSpline
210
0.0
220
0.0
230
1.0
 70
     8
 71
     3
 72
     9
 73
     5
 74
     0
 42
0.000000001
 43
0.00000001
 40
0.0
 40
0.0
 40
0.0
 40
0.0
 40
0.5601408471747007
 40
1.0
 40
1.0
 40
1.0
 40
1.0
 10
129.9543431125688
 20
232.2481345221053
 30
0.0
 10
129.9204164767438
 20
232.2599776432306
 30
0.0
 10
129.8598484321241
 20
232.2811207560475
 30
0.0
 10
129.7959242764249
 20
232.2852663884152
 30
0.0
 10
129.767806651454
 20
232.2870898827564
 30
0.0
  0
SPLINE
  5
101
330
1F
100
AcDbEntity
  8
0
  6
Continuous
 62
     7
370
    50
100
AcDbSpline
210
0.0
220
0.0
230
1.0
 70
     8
 71
     3
 72
    10
 73
     6
 74
     0
 42
0.000000001
 43
0.00000001
 40
0.0
 40
0.0
 40
0.0
 40
0.0
 40
0.2809180882844287
 40
0.5621784121838567
 40
1.0
 40
1.0
 40
1.0
 40
1.0
 10
130.342399152379
 20
231.6862769260656
 30
0.0
 10
130.3351561567129
 20
231.7536348800052
 30
0.0
 10
130.3206613414166
 20
231.8884328484273
 30
0.0
 10
130.1992025796835
 20
232.1064415938606
 30
0.0
 10
130.0470083700664
 20
232.19451187955
 30
0.0
 10
129.9543431125688
 20
232.2481345221053
 30
0.0
  0
SPLINE
  5
102
330
1F
100
AcDbEntity
  8
0
  6
Continuous
 62
     7
370
    50
100
AcDbSpline
210
0.0
220
0.0
230
1.0
 70
     8
 71
     3
 72
    10
 73
     6
 74
     0
 42
0.000000001
 43
0.00000001
 40
0.0
 40
0.0
 40
0.0
 40
0.0
 40
0.2807817583052315
 40
0.5611503706940195
 40
1.0
 40
1.0
 40
1.0
 40
1.0
 10
130.0637176357317
 20
231.1776080935847
 30
0.0
 10
130.1093001849995
 20
231.2113679282361
 30
0.0
 10
130.2003982127818
 20
231.2788379228807
 30
0.0
 10
130.3180101391441
 20
231.4501750108932
 30
0.0
 10
130.3331569398237
 20
231.5968061441309
 30
0.0
 10
130.342399152379
 20
231.6862769260656
 30
0.0
  0
SPLINE
  5
103
330
1F
100
AcDbEntity
  8
0
  6
Continuous
 62
     7
370
    50
100
AcDbSpline
210
0.0
220
0.0
230
1.0
 70
     8
 71
     3
 72
     9
 73
     5
 74
     0
 42
0.000000001
 43
0.00000001
 40
0.0
 40
0.0
 40
0.0
 40
0.0
 40
0.5610875930247868
 40
1.0
 40
1.0
 40
1.0
 40
1.0
 10
129.6524381362009
 20
231.0749754145395
 30
0.0
 10
129.734199374373
 20
231.0762929511826
 30
0.0
 10
129.879918579696
 20
231.0786411347096
 30
0.0
 10
130.0076532876217
 20
231.1474201364024
 30
0.0
 10
130.0637176357317
 20
231.1776080935847
 30
0.0
  0
LINE
  5
104
330
1F
100
AcDbEntity
  8
0
  6
Continuous
 62
     7
370
    50
100
AcDbLine
 10
129.3445391677
 20
231.0749754145
 30
0.0
 11
129.6524381362
 21
231.0749754145
 31
0.0
  0
LINE
  5
105
330
1F
100
AcDbEntity
  8
0
  6
Continuous
 62
     7
370
    50
100
AcDbLine
 10
129.3145729326
 20
231.059992297
 30
0.0
 11
129.3445391677
 21
231.0749754145
 31
0.0
  0
SPLINE
  5
106
330
1F
100
AcDbEntity
  8
0
  6
Continuous
 62
     7
370
    50
100
AcDbSpline
210
0.0
220
0.0
230
1.0
 70
     8
 71
     3
 72
    10
 73
     6
 74
     0
 42
0.000000001
 43
0.00000001
 40
0.0
 40
0.0
 40
0.0
 40
0.0
 40
0.2802205697860368
 40
0.5604539590512386
 40
0.9999999999999999
 40
0.9999999999999999
 40
0.9999999999999999
 40
0.9999999999999999
 10
129.2658796630907
 20
230.9708442374717
 30
0.0
 10
129.2665212481718
 20
230.9807330759748
 30
0.0
 10
129.2678044476851
 20
231.0005112053736
 30
0.0
 10
129.2831844546721
 20
231.0332802037686
 30
0.0
 10
129.3026723218045
 20
231.0498646881906
 30
0.0
 10
129.3145729325819
 20
231.0599922969591
 30
0.0
  0
SPLINE
  5
107
330
1F
100
AcDbEntity
  8
0
  6
Continuous
 62
     7
370
    50
100
AcDbSpline
210
0.0
220
0.0
230
1.0
 70
     8
 71
     3
 72
     9
 73
     5
 74
     0
 42
0.000000001
 43
0.00000001
 40
0.0
 40
0.0
 40
0.0
 40
0.0
 40
0.5619610976755384
 40
1.0
 40
1.0
 40
1.0
 40
1.0
 10
129.2711248718309
 20
230.9408789336335
 30
0.0
 10
129.2707726619419
 20
230.9466086875433
 30
0.0
 10
129.2701459105699
 20
230.9568046849773
 30
0.0
 10
129.267179198423
 20
230.9665676701592
 30
0.0
 10
129.2658796630907
 20
230.9708442374717
 30
0.0
  0
SPLINE
  5
108
330
1F
100
AcDbEntity
  8
0
  6
Continuous
 62
     7
370
    50
100
AcDbSpline
210
0.0
220
0.0
230
1.0
 70
     8
 71
     3
 72
    10
 73
     6
 74
     0
 42
0.000000001
 43
0.00000001
 40
0.0
 40
0.0
 40
0.0
 40
0.0
 40
0.2800585853351905
 40
0.5605403020794029
 40
1.0
 40
1.0
 40
1.0
 40
1.0
 10
129.3497843764829
 20
230.8622184976589
 30
0.0
 10
129.3387040482205
 20
230.8643071676189
 30
0.0
 10
129.3165266507879
 20
230.8684876632424
 30
0.0
 10
129.2852705055828
 20
230.8962923255694
 30
0.0
 10
129.276486636511
 20
230.923978814168
 30
0.0
 10
129.2711248718309
 20
230.9408789336335
 30
0.0
  0
SPLINE
  5
109
330
1F
100
AcDbEntity
  8
0
  6
Continuous
 62
     7
370
    50
100
AcDbSpline
210
0.0
220
0.0
230
1.0
 70
     8
 71
     3
 72
     9
 73
     5
 74
     0
 42
0.000000001
 43
0.00000001
 40
0.0
 40
0.0
 40
0.0
 40
0.0
 40
0.5600341441028064
 40
1.0
 40
1.0
 40
1.0
 40
1.0
 10
129.4726444505262
 20
230.8569742202412
 30
0.0
 10
129.4496683797747
 20
230.8570649095523
 30
0.0
 10
129.4086421834376
 20
230.8572268448773
 30
0.0
 10
129.3677677372043
 20
230.860693352615
 30
0.0
 10
129.3497843764829
 20
230.8622184976589
 30
0.0
  0
LINE
  5
10A
330
1F
100
AcDbEntity
  8
0
  6
Continuous
 62
     7
370
    50
100
AcDbLine
 10
129.6839019381
 20
230.8569742202
 30
0.0
 11
129.4726444505
 21
230.8569742202
 31
0.0
  0
SPLINE
  5
10B
330
1F
100
AcDbEntity
  8
0
  6
Continuous
 62
     7
370
    50
100
AcDbSpline
210
0.0
220
0.0
230
1.0
 70
     8
 71
     3
 72
     9
 73
     5
 74
     0
 42
0.000000001
 43
0.00000001
 40
0.0
 40
0.0
 40
0.0
 40
0.0
 40
0.5598673405746764
 40
1.0
 40
1.0
 40
1.0
 40
1.0
 10
129.8412209473657
 20
230.8472353800784
 30
0.0
 10
129.8119514789909
 20
230.8506153664359
 30
0.0
 10
129.7596721866415
 20
230.8566524865044
 30
0.0
 10
129.7070588054478
 20
230.8568758921294
 30
0.0
 10
129.6839019380617
 20
230.8569742202412
 30
0.0
  0
SPLINE
  5
10C
330
1F
100
AcDbEntity
  8
0
  6
Continuous
 62
     7
370
    50
100
AcDbSpline
210
0.0
220
0.0
230
1.0
 70
     8
 71
     3
 72
    11
 73
     7
 74
     0
 42
0.000000001
 43
0.00000001
 40
0.0
 40
0.0
 40
0.0
 40
0.0
 40
0.2794687516343761
 40
0.5595075301479685
 40
0.7797885190987628
 40
1.0
 40
1.0
 40
1.0
 40
1.0
 10
130.342399152379
 20
230.3318247034799
 30
0.0
 10
130.3267984525992
 20
230.4027481673489
 30
0.0
 10
130.2955652326012
 20
230.5447397562719
 30
0.0
 10
130.1599989266498
 20
230.6996690556853
 30
0.0
 10
130.0073423704309
 20
230.807830059601
 30
0.0
 10
129.8965889295624
 20
230.8341016551055
 30
0.0
 10
129.8412209473657
 20
230.8472353800784
 30
0.0
  0
LINE
  5
10D
330
1F
100
AcDbEntity
  8
0
  6
Continuous
 62
     7
370
    50
100
AcDbLine
 10
130.3423991524
 20
229.9654936254
 30
0.0
 11
130.3423991524
 21
230.3318247035
 31
0.0
  0
SPLINE
  5
10E
330
1F
100
AcDbEntity
  8
0
  6
Continuous
 62
     7
370
    50
100
AcDbSpline
210
0.0
220
0.0
230
1.0
 70
     8
 71
     3
 72
     9
 73
     5
 74
     0
 42
0.000000001
 43
0.00000001
 40
0.0
 40
0.0
 40
0.0
 40
0.0
 40
0.5591854831034161
 40
1.0
 40
1.0
 40
1.0
 40
1.0
 10
130.2884606741476
 20
229.6568458735596
 30
0.0
 10
130.3073758943126
 20
229.7129428037085
 30
0.0
 10
130.3412022734598
 20
229.8132618066941
 30
0.0
 10
130.3420329695037
 20
229.9189185840852
 30
0.0
 10
130.342399152379
 20
229.9654936253678
 30
0.0
  0
SPLINE
  5
10F
330
1F
100
AcDbEntity
  8
0
  6
Continuous
 62
     7
370
    50
100
AcDbSpline
210
0.0
220
0.0
230
1.0
 70
     8
 71
     3
 72
    10
 73
     6
 74
     0
 42
0.000000001
 43
0.00000001
 40
0.0
 40
0.0
 40
0.0
 40
0.0
 40
0.2806366117353212
 40
0.5608914987885564
 40
1.0
 40
1.0
 40
1.0
 40
1.0
 10
129.8022655867147
 20
229.3144870385181
 30
0.0
 10
129.8596866725162
 20
229.3242398262688
 30
0.0
 10
129.974450739393
 20
229.3437321359322
 30
0.0
 10
130.1580069004452
 20
229.452101316059
 30
0.0
 10
130.2390133275454
 20
229.5792392638594
 30
0.0
 10
130.2884606741476
 20
229.6568458735596
 30
0.0
  0
LINE
  5
110
330
1F
100
AcDbEntity
  8
0
  6
Continuous
 62
     7
370
    50
100
AcDbLine
 10
128.9871981464
 20
229.3144870385
 30
0.0
 11
129.8022655867
 21
229.3144870385
 31
0.0
  0
LINE
  5
111
330
1F
100
AcDbEntity
  8
0
  6
Continuous
 62
     7
370
    50
100
AcDbLine
 10
128.9534879945
 20
229.2980063542
 30
0.0
 11
128.9871981464
 21
229.3144870385
 31
0.0
  0
SPLINE
  5
112
330
1F
100
AcDbEntity
  8
0
  6
Continuous
 62
     7
370
    50
100
AcDbSpline
210
0.0
220
0.0
230
1.0
 70
     8
 71
     3
 72
    10
 73
     6
 74
     0
 42
0.000000001
 43
0.00000001
 40
0.0
 40
0.0
 40
0.0
 40
0.0
 40
0.5589401006467128
 40
0.7798441469140851
 40
1.0
 40
1.0
 40
1.0
 40
1.0
 10
128.9040422164011
 20
229.1639089420091
 30
0.0
 10
128.9057455673607
 20
229.1916004811422
 30
0.0
 10
128.9081221158934
 20
229.2302362574749
 30
0.0
 10
128.9283474900464
 20
229.2766252270388
 30
0.0
 10
128.9451173088801
 20
229.2908873763836
 30
0.0
 10
128.9534879945326
 20
229.2980063542377
 30
0.0
  0
SPLINE
  5
113
330
1F
100
AcDbEntity
  8
0
  6
Continuous
 62
     7
370
    50
100
AcDbSpline
210
0.0
220
0.0
230
1.0
 70
     8
 71
     3
 72
    10
 73
     6
 74
     0
 42
0.000000001
 43
0.00000001
 40
0.0
 40
0.0
 40
0.0
 40
0.0
 40
0.2800974045216722
 40
0.5606583571445874
 40
1.0
 40
1.0
 40
1.0
 40
1.0
 10
128.9834542296934
 20
229.0747608825218
 30
0.0
 10
128.9725248036324
 20
229.0790167796926
 30
0.0
 10
128.9506478638216
 20
229.0875356173449
 30
0.0
 10
128.9204006829346
 20
229.1180428946447
 30
0.0
 10
128.9102419069613
 20
229.1465261818159
 30
0.0
 10
128.9040422164011
 20
229.1639089420091
 30
0.0
  0
LINE
  5
114
330
1F
100
AcDbEntity
  8
0
  6
Continuous
 62
     7
370
    50
100
AcDbLine
 10
129.7153657399
 20
229.0268163964
 30
0.0
 11
128.9834542297
 21
229.0747608825
 31
0.0
  0
LINE
  5
115
330
1F
100
AcDbEntity
  8
0
  6
Continuous
 62
     7
370
    50
100
AcDbLine
 10
129.8299854718
 20
229.0747608825
 30
0.0
 11
129.7153657399
 21
229.0268163964
 31
0.0
  0
SPLINE
  5
116
330
1F
100
AcDbEntity
  8
0
  6
Continuous
 62
     7
370
    50
100
AcDbSpline
210
0.0
220
0.0
230
1.0
 70
     8
 71
     3
 72
    10
 73
     6
 74
     0
 42
0.000000001
 43
0.00000001
 40
0.0
 40
0.0
 40
0.0
 40
0.0
 40
0.2809040367298227
 40
0.5621205835692891
 40
1.0
 40
1.0
 40
1.0
 40
1.0
 10
130.5177001379537
 20
229.5871754943978
 30
0.0
 10
130.4799323110847
 20
229.5115838966175
 30
0.0
 10
130.4043546400518
 20
229.3603166042286
 30
0.0
 10
130.1736934687241
 20
229.1529342041877
 30
0.0
 10
129.9600683238422
 20
229.1043470682541
 30
0.0
 10
129.8299854718256
 20
229.0747608825218
 30
0.0
  0
SPLINE
  5
117
330
1F
100
AcDbEntity
  8
0
  6
Continuous
 62
     7
370
    50
100
AcDbSpline
210
0.0
220
0.0
230
1.0
 70
     8
 71
     3
 72
     9
 73
     5
 74
     0
 42
0.000000001
 43
0.00000001
 40
0.0
 40
0.0
 40
0.0
 40
0.0
 40
0.5603697381351769
 40
1.0
 40
1.0
 40
1.0
 40
1.0
 10
130.5821253083753
 20
229.9415204509746
 30
0.0
 10
130.581109117903
 20
229.8731694453932
 30
0.0
 10
130.5792956893696
 20
229.7511946117612
 30
0.0
 10
130.5365100151257
 20
229.6372631935991
 30
0.0
 10
130.5177001379537
 20
229.5871754943978
 30
0.0
  0
LINE
  5
118
330
1F
100
AcDbEntity
  8
0
  6
Continuous
 62
     7
370
    50
100
AcDbLine
 10
130.5821253084
 20
230.0501461908
 30
0.0
 11
130.5821253084
 21
229.941520451
 31
0.0
  0
SPLINE
  5
119
330
1F
100
AcDbEntity
  8
0
  6
Continuous
 62
     7
370
    50
100
AcDbSpline
210
0.0
220
0.0
230
1.0
 70
     8
 71
     3
 72
     9
 73
     5
 74
     0
 42
0.000000001
 43
0.00000001
 40
0.0
 40
0.0
 40
0.0
 40
0.0
 40
0.5599792165934709
 40
1.0
 40
1.0
 40
1.0
 40
1.0
 10
130.5821253083753
 20
230.163267424668
 30
0.0
 10
130.582525594621
 20
230.1421516125571
 30
0.0
 10
130.5832404180177
 20
230.104443405743
 30
0.0
 10
130.582466047498
 20
230.066737550674
 30
0.0
 10
130.5821253083753
 20
230.0501461907874
 30
0.0
  0
LINE
  5
11A
330
1F
100
AcDbEntity
  8
0
  6
Continuous
 62
     7
370
    50
100
AcDbLine
 10
130.5821253084
 20
230.2711434498
 30
0.0
 11
130.5821253084
 21
230.1632674247
 31
0.0
  0
SPLINE
  5
11B
330
1F
100
AcDbEntity
  8
0
  6
Continuous
 62
     7
370
    50
100
AcDbSpline
210
0.0
220
0.0
230
1.0
 70
     8
 71
     3
 72
    10
 73
     6
 74
     0
 42
0.000000001
 43
0.00000001
 40
0.0
 40
0.0
 40
0.0
 40
0.0
 40
0.2807855634184406
 40
0.5611186300297616
 40
1.0
 40
1.0
 40
1.0
 40
1.0
 10
130.1528675578642
 20
230.9753388002168
 30
0.0
 10
130.2212433027346
 20
230.9318072627341
 30
0.0
 10
130.357884602315
 20
230.8448143405268
 30
0.0
 10
130.5374389814693
 20
230.6074348857313
 30
0.0
 10
130.5651906158737
 20
230.3985871770648
 30
0.0
 10
130.5821253083753
 20
230.2711434498082
 30
0.0
  0
SPLINE
  5
11C
330
1F
100
AcDbEntity
  8
0
  6
Continuous
 62
     7
370
    50
100
AcDbSpline
210
0.0
220
0.0
230
1.0
 70
     8
 71
     3
 72
     9
 73
     5
 74
     0
 42
0.000000001
 43
0.00000001
 40
0.0
 40
0.0
 40
0.0
 40
0.0
 40
0.5599132939857036
 40
0.9999999999999999
 40
0.9999999999999999
 40
0.9999999999999999
 40
0.9999999999999999
 10
130.344645502429
 20
231.1236696153532
 30
0.0
 10
130.3106065347713
 20
231.0936926256808
 30
0.0
 10
130.2498132511979
 20
231.0401539974782
 30
0.0
 10
130.1824939065162
 20
230.9951461538597
 30
0.0
 10
130.1528675578642
 20
230.9753388002168
 30
0.0
  0
SPLINE
  5
11D
330
1F
100
AcDbEntity
  8
0
  6
Continuous
 62
     7
370
    50
100
AcDbSpline
210
0.0
220
0.0
230
1.0
 70
     8
 71
     3
 72
     9
 73
     5
 74
     0
 42
0.000000001
 43
0.00000001
 40
0.0
 40
0.0
 40
0.0
 40
0.0
 40
0.5591815487088233
 40
1.0
 40
1.0
 40
1.0
 40
1.0
 10
130.5821253083753
 20
231.7042561083685
 30
0.0
 10
130.5694387532712
 20
231.5822198476051
 30
0.0
 10
130.5467510320232
 20
231.363978989971
 30
0.0
 10
130.4064796956775
 20
231.1971922762095
 30
0.0
 10
130.344645502429
 20
231.1236696153532
 30
0.0
  0
SPLINE
  5
11E
330
1F
100
AcDbEntity
  8
0
  6
Continuous
 62
     7
370
    50
100
AcDbSpline
210
0.0
220
0.0
230
1.0
 70
     8
 71
     3
 72
     9
 73
     5
 74
     0
 42
0.000000001
 43
0.00000001
 40
0.0
 40
0.0
 40
0.0
 40
0.0
 40
0.5599636526708033
 40
1.0
 40
1.0
 40
1.0
 40
1.0
 10
130.5221928380537
 20
232.0046625867139
 30
0.0
 10
130.5410869704687
 20
231.9500366871833
 30
0.0
 10
130.5748286826762
 20
231.8524841062791
 30
0.0
 10
130.5798956559597
 20
231.7495505947844
 30
0.0
 10
130.5821253083753
 20
231.7042561083685
 30
0.0
  0
SPLINE
  5
11F
330
1F
100
AcDbEntity
  8
0
  6
Continuous
 62
     7
370
    50
100
AcDbSpline
210
0.0
220
0.0
230
1.0
 70
     8
 71
     3
 72
    10
 73
     6
 74
     0
 42
0.000000001
 43
0.00000001
 40
0.0
 40
0.0
 40
0.0
 40
0.0
 40
0.2803725480845189
 40
0.5612627325599817
 40
1.0
 40
1.0
 40
1.0
 40
1.0
 10
129.8202475629854
 20
232.521571761335
 30
0.0
 10
129.9061332235987
 20
232.5110810030521
 30
0.0
 10
130.0780631107893
 20
232.4900801179771
 30
0.0
 10
130.3421712252216
 20
232.3138133134335
 30
0.0
 10
130.4540086218268
 20
232.1217551939055
 30
0.0
 10
130.5221928380537
 20
232.0046625867139
 30
0.0
  0
LINE
  5
120
330
1F
100
AcDbEntity
  8
0
  6
Continuous
 62
     7
370
    50
100
AcDbLine
 10
128.9939409219
 20
232.5268160388
 30
0.0
 11
129.820247563
 21
232.5215717613
 31
0.0
  0
SPLINE
  5
121
330
1F
100
AcDbEntity
  8
0
  6
Continuous
 62
     7
370
    50
100
AcDbSpline
210
0.0
220
0.0
230
1.0
 70
     8
 71
     3
 72
     9
 73
     5
 74
     0
 42
0.000000001
 43
0.00000001
 40
0.0
 40
0.0
 40
0.0
 40
0.0
 40
0.5602563031595059
 40
1.0
 40
1.0
 40
1.0
 40
1.0
 10
125.3890594564485
 20
232.5268160387527
 30
0.0
 10
125.3957764605558
 20
232.5267167608923
 30
0.0
 10
125.4077656234966
 20
232.5265395601007
 30
0.0
 10
125.4192296617759
 20
232.5230890857027
 30
0.0
 10
125.4242709003496
 20
232.521571761335
 30
0.0
  0
SPLINE
  5
122
330
1F
100
AcDbEntity
  8
0
  6
Continuous
 62
     7
370
    50
100
AcDbSpline
210
0.0
220
0.0
230
1.0
 70
     8
 71
     3
 72
     9
 73
     5
 74
     0
 42
0.000000001
 43
0.00000001
 40
0.0
 40
0.0
 40
0.0
 40
0.0
 40
0.5597761077826497
 40
1.0
 40
1.0
 40
1.0
 40
1.0
 10
125.323136719327
 20
232.5020940810095
 30
0.0
 10
125.33445262682
 20
232.5094896956803
 30
0.0
 10
125.3546676866193
 20
232.5227014326015
 30
0.0
 10
125.3785471473164
 20
232.5255583537881
 30
0.0
 10
125.3890594564485
 20
232.5268160387527
 30
0.0
  0
LINE
  5
123
330
1F
100
AcDbEntity
  8
0
  6
Continuous
 62
     7
370
    50
100
AcDbLine
 10
124.5612552486
 20
231.7589433699
 30
0.0
 11
125.3231367193
 21
232.502094081
 31
0.0
  0
SPLINE
  5
124
330
1F
100
AcDbEntity
  8
0
  6
Continuous
 62
     7
370
    50
100
AcDbSpline
210
0.0
220
0.0
230
1.0
 70
     8
 71
     3
 72
     9
 73
     5
 74
     0
 42
0.000000001
 43
0.00000001
 40
0.0
 40
0.0
 40
0.0
 40
0.0
 40
0.5594936906619741
 40
1.0
 40
1.0
 40
1.0
 40
1.0
 10
124.5410306476164
 20
231.6750395878803
 30
0.0
 10
124.5418798154398
 20
231.6914400450915
 30
0.0
 10
124.5433975587809
 20
231.7207530784375
 30
0.0
 10
124.5557943735328
 20
231.7472647925931
 30
0.0
 10
124.5612552486467
 20
231.7589433699499
 30
0.0
  0
SPLINE
  5
125
330
1F
100
AcDbEntity
  8
0
  6
Continuous
 62
     7
370
    50
100
AcDbSpline
210
0.0
220
0.0
230
1.0
 70
     8
 71
     3
 72
    10
 73
     6
 74
     0
 42
0.000000001
 43
0.00000001
 40
0.0
 40
0.0
 40
0.0
 40
0.0
 40
0.2801229904776055
 40
0.560970868996872
 40
1.0
 40
1.0
 40
1.0
 40
1.0
 10
124.6196901522684
 20
231.5858915283929
 30
0.0
 10
124.6089530328172
 20
231.5903713059921
 30
0.0
 10
124.5874510089427
 20
231.5993424537313
 30
0.0
 10
124.557554546821
 20
231.6296268443866
 30
0.0
 10
124.5472904065864
 20
231.6578358501354
 30
0.0
 10
124.5410306476164
 20
231.6750395878803
 30
0.0
  0
SPLINE
  5
126
330
1F
100
AcDbEntity
  8
0
  6
Continuous
 62
     7
370
    50
100
AcDbSpline
210
0.0
220
0.0
230
1.0
 70
     8
 71
     3
 72
    10
 73
     6
 74
     0
 42
0.000000001
 43
0.00000001
 40
0.0
 40
0.0
 40
0.0
 40
0.0
 40
0.1354881536610957
 40
0.2377100027954209
 40
1.0
 40
1.0
 40
1.0
 40
1.0
 10
124.6509825907755
 20
231.5809378236185
 30
0.0
 10
124.6496300547429
 20
231.5814211472406
 30
0.0
 10
124.6472570698333
 20
231.5822691243991
 30
0.0
 10
124.6368983950406
 20
231.5845352013624
 30
0.0
 10
124.6277536244035
 20
231.5852559780139
 30
0.0
 10
124.6196901522684
 20
231.5858915283929
 30
0.0
  0
SPLINE
  5
127
330
1F
100
AcDbEntity
  8
0
  6
Continuous
 62
     7
370
    50
100
AcDbSpline
210
0.0
220
0.0
230
1.0
 70
     8
 71
     3
 72
     9
 73
     5
 74
     0
 42
0.000000001
 43
0.00000001
 40
0.0
 40
0.0
 40
0.0
 40
0.0
 40
0.5596072801511031
 40
1.0
 40
1.0
 40
1.0
 40
1.0
 10
124.7133327745008
 20
231.6001249313008
 30
0.0
 10
124.7019827733125
 20
231.5956122417181
 30
0.0
 10
124.6817006905183
 20
231.5875482122768
 30
0.0
 10
124.6603744929337
 20
231.5829589162
 30
0.0
 10
124.6509825907755
 20
231.5809378236185
 30
0.0
  0
LINE
  5
128
330
1F
100
AcDbEntity
  8
0
  6
Continuous
 62
     7
370
    50
100
AcDbLine
 10
125.2602091156
 20
232.1499964058
 30
0.0
 11
124.7133327745
 21
231.6001249313
 31
0.0
  0
LINE
  5
129
330
1F
100
AcDbEntity
  8
0
  6
Continuous
 62
     7
370
    50
100
AcDbLine
 10
125.2602091156
 20
229.1114689618
 30
0.0
 11
125.2602091156
 21
232.1499964058
 31
0.0
  0
SPLINE
  5
12A
330
1F
100
AcDbEntity
  8
0
  6
Continuous
 62
     7
370
    50
100
AcDbSpline
210
0.0
220
0.0
230
1.0
 70
     8
 71
     3
 72
    11
 73
     7
 74
     0
 42
0.000000001
 43
0.00000001
 40
0.0
 40
0.0
 40
0.0
 40
0.0
 40
0.2801666414130283
 40
0.5596743193493767
 40
0.779647955250909
 40
1.0
 40
1.0
 40
1.0
 40
1.0
 10
125.3830654643583
 20
229.0268163963806
 30
0.0
 10
125.367809175319
 20
229.0275845467875
 30
0.0
 10
125.3373324806604
 20
229.0291190408798
 30
0.0
 10
125.2964094654313
 20
229.0454610954938
 30
0.0
 10
125.2705307208021
 20
229.0767787797539
 30
0.0
 10
125.263651621267
 20
229.0998989447514
 30
0.0
 10
125.2602091156053
 20
229.1114689618002
 30
0.0
  0
SPLINE
  5
12B
330
1F
100
AcDbEntity
  8
0
  6
Continuous
 62
     7
370
    50
100
AcDbSpline
210
0.0
220
0.0
230
1.0
 70
     8
 71
     3
 72
    10
 73
     6
 74
     0
 42
0.000000001
 43
0.00000001
 40
0.0
 40
0.0
 40
0.0
 40
0.0
 40
0.2800419075511212
 40
0.5606185251598482
 40
1.0
 40
1.0
 40
1.0
 40
1.0
 10
125.4999352716017
 20
229.1062256157051
 30
0.0
 10
125.4955953834048
 20
229.0922501031736
 30
0.0
 10
125.4869073204588
 20
229.0642723933648
 30
0.0
 10
125.4434462647193
 20
229.0310798847862
 30
0.0
 10
125.40594935952
 20
229.0284322282529
 30
0.0
 10
125.3830654643583
 20
229.0268163963806
 30
0.0
  0
LINE
  5
12C
330
1F
100
AcDbEntity
  8
0
  6
Continuous
 62
     7
370
    50
100
AcDbLine
 10
125.4999352716
 20
232.4369182646
 30
0.0
 11
125.4999352716
 21
229.1062256157
 31
0.0
  0
LINE
  5
12D
330
1F
100
AcDbEntity
  8
0
  6
Continuous
 62
     7
370
    50
100
AcDbLine
 10
125.484952154
 20
232.4721287772
 30
0.0
 11
125.4999352716
 21
232.4369182646
 31
0.0
  0
SPLINE
  5
12E
330
1F
100
AcDbEntity
  8
0
  6
Continuous
 62
     7
370
    50
100
AcDbSpline
210
0.0
220
0.0
230
1.0
 70
     8
 71
     3
 72
     9
 73
     5
 74
     0
 42
0.000000001
 43
0.00000001
 40
0.0
 40
0.0
 40
0.0
 40
0.0
 40
0.5565786320081242
 40
1.0
 40
1.0
 40
1.0
 40
1.0
 10
125.4242709003496
 20
232.521571761335
 30
0.0
 10
125.4385966551387
 20
232.5159742003977
 30
0.0
 10
125.4643356144971
 20
232.5059171112185
 30
0.0
 10
125.4786187198891
 20
232.482508607786
 30
0.0
 10
125.4849521540213
 20
232.4721287771713
 30
0.0
  0
SPLINE
  5
12F
330
1F
100
AcDbEntity
  8
0
  6
Continuous
 62
     7
370
    50
100
AcDbSpline
210
0.0
220
0.0
230
1.0
 70
     8
 71
     3
 72
    11
 73
     7
 74
     0
 42
0.000000001
 43
0.00000001
 40
0.0
 40
0.0
 40
0.0
 40
0.0
 40
0.2801626781536542
 40
0.5596872432366905
 40
0.7796431032543232
 40
1.0
 40
1.0
 40
1.0
 40
1.0
 10
133.0063542448091
 20
229.0268163963806
 30
0.0
 10
132.9910981688786
 20
229.0275848462151
 30
0.0
 10
132.9606207650486
 20
229.029119995623
 30
0.0
 10
132.9196945214813
 20
229.0454585480907
 30
0.0
 10
132.893820551845
 20
229.0767808497991
 30
0.0
 10
132.8869383872167
 20
229.0998992390592
 30
0.0
 10
132.8834941707659
 20
229.1114689618002
 30
0.0
  0
LINE
  5
130
330
1F
100
AcDbEntity
  8
0
  6
Continuous
 62
     7
370
    50
100
AcDbLine
 10
119.5684274756
 20
226.7288710758
 30
0.0
 11
141.0684263431
 21
226.7288710758
 31
0.0
  0
ARC
  5
131
330
1F
100
AcDbEntity
  8
0
  6
Continuous
 62
     7
370
    50
100
AcDbCircle
 10
119.5684268199
 20
237.7288707807
 30
0.0
 40
3.0
100
AcDbArc
 50
250.5287793655
 51
270.0
  0
ARC
  5
132
330
1F
100
AcDbEntity
  8
0
  6
Continuous
 62
     7
370
    50
100
AcDbCircle
 10
119.5684268199
 20
223.7288707807
 30
0.0
 40
3.0
100
AcDbArc
 50
90.0
 51
109.4712206345
  0
SPLINE
  5
133
330
1F
100
AcDbEntity
  8
0
  6
Continuous
 62
     7
370
    50
100
AcDbSpline
210
0.0
220
0.0
230
1.0
 70
     8
 71
     3
 72
     9
 73
     5
 74
     0
 42
0.000000001
 43
0.00000001
 40
0.0
 40
0.0
 40
0.0
 40
0.0
 40
0.5599873762345975
 40
1.0
 40
1.0
 40
1.0
 40
1.0
 10
127.4499533794928
 20
229.3804116382848
 30
0.0
 10
127.5594755347318
 20
229.6258634036169
 30
0.0
 10
127.7550552207874
 20
230.0641800081492
 30
0.0
 10
127.7871722400701
 20
230.5418940505966
 30
0.0
 10
127.8013041339922
 20
230.7520942598235
 30
0.0
  0
SPLINE
  5
134
330
1F
100
AcDbEntity
  8
0
  6
Continuous
 62
     7
370
    50
100
AcDbSpline
210
0.0
220
0.0
230
1.0
 70
     8
 71
     3
 72
     9
 73
     5
 74
     0
 42
0.000000001
 43
0.00000001
 40
0.0
 40
0.0
 40
0.0
 40
0.0
 40
0.5592636086091979
 40
1.0
 40
1.0
 40
1.0
 40
1.0
 10
127.1997405313063
 20
229.2665416210543
 30
0.0
 10
127.253900176137
 20
229.2723922615002
 30
0.0
 10
127.3507411720412
 20
229.2828535902113
 30
0.0
 10
127.4196033233996
 20
229.3505676069159
 30
0.0
 10
127.4499533794928
 20
229.3804116382848
 30
0.0
  0
SPLINE
  5
135
330
1F
100
AcDbEntity
  8
0
  6
Continuous
 62
     7
370
    50
100
AcDbSpline
210
0.0
220
0.0
230
1.0
 70
     8
 71
     3
 72
    10
 73
     6
 74
     0
 42
0.000000001
 43
0.00000001
 40
0.0
 40
0.0
 40
0.0
 40
0.0
 40
0.2800096500578621
 40
0.5609885328307267
 40
1.0
 40
1.0
 40
1.0
 40
1.0
 10
126.9540203832197
 20
229.3849071323525
 30
0.0
 10
126.9704130106381
 20
229.3638027387958
 30
0.0
 10
127.0032550073436
 20
229.3215209003834
 30
0.0
 10
127.0893830150442
 20
229.2753838902625
 30
0.0
 10
127.1579388581664
 20
229.2698909320916
 30
0.0
 10
127.1997405313063
 20
229.2665416210543
 30
0.0
  0
SPLINE
  5
136
330
1F
100
AcDbEntity
  8
0
  6
Continuous
 62
     7
370
    50
100
AcDbSpline
210
0.0
220
0.0
230
1.0
 70
     8
 71
     3
 72
     9
 73
     5
 74
     0
 42
0.000000001
 43
0.00000001
 40
0.0
 40
0.0
 40
0.0
 40
0.0
 40
0.559908650791129
 40
0.9999999999999999
 40
0.9999999999999999
 40
0.9999999999999999
 40
0.9999999999999999
 10
126.9592655919599
 20
232.1784641429435
 30
0.0
 10
126.8471694837979
 20
231.9306681055053
 30
0.0
 10
126.6469652040396
 20
231.488102988699
 30
0.0
 10
126.6162089259373
 20
231.0045888107567
 30
0.0
 10
126.6026733540106
 20
230.7917984038245
 30
0.0
  0
SPLINE
  5
137
330
1F
100
AcDbEntity
  8
0
  6
Continuous
 62
     7
370
    50
100
AcDbSpline
210
0.0
220
0.0
230
1.0
 70
     8
 71
     3
 72
     9
 73
     5
 74
     0
 42
0.000000001
 43
0.00000001
 40
0.0
 40
0.0
 40
0.0
 40
0.0
 40
0.5591165344702691
 40
1.0
 40
1.0
 40
1.0
 40
1.0
 10
127.1997405313063
 20
232.2870898827564
 30
0.0
 10
127.147666640306
 20
232.2817898075774
 30
0.0
 10
127.0545306162577
 20
232.272310432792
 30
0.0
 10
126.9884149125406
 20
232.2071793572445
 30
0.0
 10
126.9592655919599
 20
232.1784641429435
 30
0.0
  0
SPLINE
  5
138
330
1F
100
AcDbEntity
  8
0
  6
Continuous
 62
     7
370
    50
100
AcDbSpline
210
0.0
220
0.0
230
1.0
 70
     8
 71
     3
 72
     9
 73
     5
 74
     0
 42
0.000000001
 43
0.00000001
 40
0.0
 40
0.0
 40
0.0
 40
0.0
 40
0.560676433911644
 40
1.0
 40
1.0
 40
1.0
 40
1.0
 10
127.4402154706526
 20
232.1882029831063
 30
0.0
 10
127.4000178266076
 20
232.2190207422209
 30
0.0
 10
127.3283229209299
 20
232.2739860613438
 30
0.0
 10
127.2389876299271
 20
232.283090213962
 30
0.0
 10
127.1997405313063
 20
232.2870898827564
 30
0.0
  0
SPLINE
  5
139
330
1F
100
AcDbEntity
  8
0
  6
Continuous
 62
     7
370
    50
100
AcDbSpline
210
0.0
220
0.0
230
1.0
 70
     8
 71
     3
 72
     9
 73
     5
 74
     0
 42
0.000000001
 43
0.00000001
 40
0.0
 40
0.0
 40
0.0
 40
0.0
 40
0.5597422621268077
 40
1.0
 40
1.0
 40
1.0
 40
1.0
 10
127.8013041339922
 20
230.7520942598235
 30
0.0
 10
127.7832467638327
 20
231.0332509643362
 30
0.0
 10
127.7509866123641
 20
231.5355476882684
 30
0.0
 10
127.5352119398597
 20
231.9886994247081
 30
0.0
 10
127.4402154706526
 20
232.1882029831063
 30
0.0
  0
SPLINE
  5
13A
330
1F
100
AcDbEntity
  8
0
  6
Continuous
 62
     7
370
    50
100
AcDbSpline
210
0.0
220
0.0
230
1.0
 70
     8
 71
     3
 72
     9
 73
     5
 74
     0
 42
0.000000001
 43
0.00000001
 40
0.0
 40
0.0
 40
0.0
 40
0.0
 40
0.5596484529603335
 40
1.0
 40
1.0
 40
1.0
 40
1.0
 10
126.6026733540106
 20
230.7917984038245
 30
0.0
 10
126.6219304692093
 20
230.5170605856403
 30
0.0
 10
126.6563397757961
 20
230.0261491630661
 30
0.0
 10
126.8630119649817
 20
229.5809508834992
 30
0.0
 10
126.9540203832197
 20
229.3849071323525
 30
0.0
  0
LINE
  5
13B
330
1F
100
AcDbEntity
  8
0
  6
Continuous
 62
     7
370
    50
100
AcDbLine
 10
95.0684299789
 20
216.2288707517
 30
0.0
 11
108.0684265219
 21
216.2288707517
 31
0.0
  0
LINE
  5
13C
330
1F
100
AcDbEntity
  8
0
  6
Continuous
 62
     7
370
    50
100
AcDbLine
 10
110.0684231244
 20
216.2288707517
 30
0.0
 11
116.5684251212
 21
216.2288707517
 31
0.0
  0
LINE
  5
13D
330
1F
100
AcDbEntity
  8
0
  6
Continuous
 62
     7
370
    50
100
AcDbLine
 10
95.0684299789
 20
219.128870773
 30
0.0
 11
95.0684299789
 21
216.2288707517
 31
0.0
  0
LINE
  5
13E
330
1F
100
AcDbEntity
  8
0
  6
Continuous
 62
     7
370
    50
100
AcDbLine
 10
116.5684251212
 20
216.2288707517
 30
0.0
 11
116.5684251212
 21
219.128870773
 31
0.0
  0
LINE
  5
13F
330
1F
100
AcDbEntity
  8
0
  6
Continuous
 62
     7
370
    50
100
AcDbLine
 10
116.5684251212
 20
237.7288710162
 30
0.0
 11
116.5684251212
 21
239.728871344
 31
0.0
  0
LINE
  5
140
330
1F
100
AcDbEntity
  8
0
  6
Continuous
 62
     7
370
    50
100
AcDbLine
 10
116.5684251212
 20
239.728871344
 30
0.0
 11
110.0684231244
 21
239.728871344
 31
0.0
  0
LINE
  5
141
330
1F
100
AcDbEntity
  8
0
  6
Continuous
 62
     7
370
    50
100
AcDbLine
 10
108.0684265219
 20
239.728871344
 30
0.0
 11
95.0684299789
 21
239.728871344
 31
0.0
  0
LINE
  5
142
330
1F
100
AcDbEntity
  8
0
  6
Continuous
 62
     7
370
    50
100
AcDbLine
 10
95.0684299789
 20
239.728871344
 30
0.0
 11
95.0684299789
 21
236.8288706824
 31
0.0
  0
ARC
  5
143
330
1F
100
AcDbEntity
  8
0
  6
Continuous
 62
     7
370
    50
100
AcDbCircle
 10
119.5684268199
 20
237.7288707807
 30
0.0
 40
3.0
100
AcDbArc
 50
180.0
 51
197.4576031237
  0
LINE
  5
144
330
1F
100
AcDbEntity
  8
0
  6
Continuous
 62
     7
370
    50
100
AcDbLine
 10
183.0684267081
 20
213.6788708925
 30
0.0
 11
173.0684269317
 21
213.6788708925
 31
0.0
  0
LINE
  5
145
330
1F
100
AcDbEntity
  8
0
  6
Continuous
 62
     7
370
    50
100
AcDbLine
 10
173.0684269317
 20
213.6788708925
 30
0.0
 11
173.5684270136
 21
214.1788709744
 31
0.0
  0
LINE
  5
146
330
1F
100
AcDbEntity
  8
0
  6
Continuous
 62
     7
370
    50
100
AcDbLine
 10
173.5684270136
 20
214.1788709744
 30
0.0
 11
182.5684266262
 21
214.1788709744
 31
0.0
  0
LINE
  5
147
330
1F
100
AcDbEntity
  8
0
  6
Continuous
 62
     7
370
    50
100
AcDbLine
 10
183.0684267081
 20
213.6788708925
 30
0.0
 11
182.5684266262
 21
214.1788709744
 31
0.0
  0
LINE
  5
148
330
1F
100
AcDbEntity
  8
0
  6
Continuous
 62
     7
370
    50
100
AcDbLine
 10
182.5684266262
 20
223.178870587
 30
0.0
 11
173.5684270136
 21
223.178870587
 31
0.0
  0
LINE
  5
149
330
1F
100
AcDbEntity
  8
0
  6
Continuous
 62
     7
370
    50
100
AcDbLine
 10
173.5684270136
 20
223.178870587
 30
0.0
 11
173.0684269317
 21
223.678870669
 31
0.0
  0
LINE
  5
14A
330
1F
100
AcDbEntity
  8
0
  6
Continuous
 62
     7
370
    50
100
AcDbLine
 10
173.0684269317
 20
223.678870669
 30
0.0
 11
183.0684267081
 21
223.678870669
 31
0.0
  0
LINE
  5
14B
330
1F
100
AcDbEntity
  8
0
  6
Continuous
 62
     7
370
    50
100
AcDbLine
 10
182.5684266262
 20
223.178870587
 30
0.0
 11
183.0684267081
 21
223.678870669
 31
0.0
  0
LINE
  5
14C
330
1F
100
AcDbEntity
  8
0
  6
Continuous
 62
     7
370
    50
100
AcDbLine
 10
173.5684270136
 20
223.178870587
 30
0.0
 11
173.5684270136
 21
214.1788709744
 31
0.0
  0
LINE
  5
14D
330
1F
100
AcDbEntity
  8
0
  6
Continuous
 62
     7
370
    50
100
AcDbLine
 10
173.0684269317
 20
213.6788708925
 30
0.0
 11
173.0684269317
 21
223.678870669
 31
0.0
  0
LINE
  5
14E
330
1F
100
AcDbEntity
  8
0
  6
Continuous
 62
     7
370
    50
100
AcDbLine
 10
182.5684266262
 20
214.1788709744
 30
0.0
 11
182.5684266262
 21
223.178870587
 31
0.0
  0
LINE
  5
14F
330
1F
100
AcDbEntity
  8
0
  6
Continuous
 62
     7
370
    50
100
AcDbLine
 10
183.0684267081
 20
223.678870669
 30
0.0
 11
183.0684267081
 21
213.6788708925
 31
0.0
  0
CIRCLE
  5
150
330
1F
100
AcDbEntity
  8
0
  6
Continuous
 62
     7
370
    50
100
AcDbCircle
 10
178.0684268199
 20
218.6788707807
 30
0.0
 40
8.849999999999994
  0
LINE
  5
151
330
1F
100
AcDbEntity
  8
0
  6
Continuous
 62
     7
370
    50
100
AcDbLine
 10
157.9360732906
 20
213.3288705557
 30
0.0
 11
158.0124026261
 21
213.4288708515
 31
0.0
  0
LINE
  5
152
330
1F
100
AcDbEntity
  8
0
  6
Continuous
 62
     7
370
    50
100
AcDbLine
 10
158.0184264206
 20
213.4367638103
 30
0.0
 11
158.1184262507
 21
213.5677771479
 31
0.0
  0
LINE
  5
153
330
1F
100
AcDbEntity
  8
0
  6
Continuous
 62
     7
370
    50
100
AcDbLine
 10
156.502784612
 20
213.4288708515
 30
0.0
 11
156.4264552765
 21
213.3288705557
 31
0.0
  0
LINE
  5
154
330
1F
100
AcDbEntity
  8
0
  6
Continuous
 62
     7
370
    50
100
AcDbLine
 10
156.3638666742
 20
218.0265429382
 30
0.0
 11
156.4918303959
 21
217.9288707742
 31
0.0
  0
LWPOLYLINE
  5
155
330
1F
100
AcDbEntity
  8
0
  6
Continuous
 62
     7
370
    50
100
AcDbPolyline
 90
        3
 70
   128
 43
0.0
 10
154.0623208605
 20
217.9288707742
 10
154.0814725779
 20
217.9459980292
 10
154.1826738142
 20
218.028870779
  0
LINE
  5
156
330
1F
100
AcDbEntity
  8
0
  6
Continuous
 62
     7
370
    50
100
AcDbLine
 10
153.4184267841
 20
217.1343264239
 30
0.0
 11
153.5184266143
 21
217.2653394121
 31
0.0
  0
LINE
  5
157
330
1F
100
AcDbEntity
  8
0
  6
Continuous
 62
     7
370
    50
100
AcDbLine
 10
153.5122072421
 20
214.2904979013
 30
0.0
 11
153.4184267841
 21
214.3672086134
 31
0.0
  0
LINE
  5
158
330
1F
100
AcDbEntity
  8
0
  6
Continuous
 62
     7
370
    50
100
AcDbLine
 10
153.5184266143
 20
214.2857504844
 30
0.0
 11
153.5122072421
 21
214.2904979013
 31
0.0
  0
LINE
  5
159
330
1F
100
AcDbEntity
  8
0
  6
Continuous
 62
     7
370
    50
100
AcDbLine
 10
153.7280524247
 20
213.3288705557
 30
0.0
 11
153.8043817602
 21
213.4288708515
 31
0.0
  0
LINE
  5
15A
330
1F
100
AcDbEntity
  8
0
  6
Continuous
 62
     7
370
    50
100
AcDbLine
 10
214.7059043966
 20
219.4929095752
 30
0.0
 11
212.0684286676
 21
229.2438294574
 31
0.0
  0
LINE
  5
15B
330
1F
100
AcDbEntity
  8
0
  6
Continuous
 62
     7
370
    50
100
AcDbLine
 10
215.0920270108
 20
219.5973504753
 30
0.0
 11
212.0684286676
 21
230.7757973507
 31
0.0
  0
ARC
  5
15C
330
1F
100
AcDbEntity
  8
0
  6
Continuous
 62
     7
370
    50
100
AcDbCircle
 10
212.7752817678
 20
218.9707052712
 30
0.0
 40
2.400000000000039
100
AcDbArc
 50
330.1354704252
 51
15.1354704252
  0
LINE
  5
15D
330
1F
100
AcDbEntity
  8
0
  6
Continuous
 62
     7
370
    50
100
AcDbLine
 10
212.0684286676
 20
212.9199324011
 30
0.0
 11
214.8565737628
 21
217.7756229251
 31
0.0
  0
ARC
  5
15E
330
1F
100
AcDbEntity
  8
0
  6
Continuous
 62
     7
370
    50
100
AcDbCircle
 10
217.6444700213
 20
208.2780234468
 30
0.0
 40
7.14701657897998
100
AcDbArc
 50
218.7218669818
 51
257.316456491
  0
ARC
  5
15F
330
1F
100
AcDbEntity
  8
0
  6
Continuous
 62
     7
370
    50
100
AcDbCircle
 10
217.554530999
 20
207.8783973767
 30
0.0
 40
6.737394773369123
100
AcDbArc
 50
257.316456491
 51
46.3835549138
  0
ARC
  5
160
330
1F
100
AcDbEntity
  8
0
  6
Continuous
 62
     7
370
    50
100
AcDbCircle
 10
217.9440638703
 20
208.2872121668
 30
0.0
 40
6.172713101573367
100
AcDbArc
 50
46.3835549138
 51
162.1519503168
  0
ARC
  5
161
330
1F
100
AcDbEntity
  8
0
  6
Continuous
 62
     7
370
    50
100
AcDbCircle
 10
217.3684940877
 20
208.194648832
 30
0.0
 40
5.589747797592296
100
AcDbArc
 50
198.5265610393
 51
356.5185309892
  0
ARC
  5
162
330
1F
100
AcDbEntity
  8
0
  6
Continuous
 62
     7
370
    50
100
AcDbCircle
 10
218.0373754365
 20
208.1539554353
 30
0.0
 40
4.919629739787782
100
AcDbArc
 50
356.5185309892
 51
197.8725192527
  0
ARC
  5
163
330
1F
100
AcDbEntity
  8
0
  6
Continuous
 62
     7
370
    50
100
AcDbCircle
 10
217.1361580696
 20
207.8633474274
 30
0.0
 40
3.97271593340185
100
AcDbArc
 50
197.8725192527
 51
309.3098063251
  0
ARC
  5
164
330
1F
100
AcDbEntity
  8
0
  6
Continuous
 62
     7
370
    50
100
AcDbCircle
 10
216.4684268199
 20
208.6788707807
 30
0.0
 40
5.026728913181843
100
AcDbArc
 50
309.3098063251
 51
345.1354704252
  0
ARC
  5
165
330
1F
100
AcDbEntity
  8
0
  6
Continuous
 62
     7
370
    50
100
AcDbCircle
 10
217.9440638703
 20
208.2872121668
 30
0.0
 40
3.50000000000003
100
AcDbArc
 50
345.1354704252
 51
106.6160150189
  0
ARC
  5
166
330
1F
100
AcDbEntity
  8
0
  6
Continuous
 62
     7
370
    50
100
AcDbCircle
 10
217.0749658998
 20
207.9363288314
 30
0.0
 40
2.56274315290398
100
AcDbArc
 50
237.1761408087
 51
255.1354704252
  0
ARC
  5
167
330
1F
100
AcDbEntity
  8
0
  6
Continuous
 62
     7
370
    50
100
AcDbCircle
 10
216.5073209769
 20
205.7976349537
 30
0.0
 40
0.3500000000000112
100
AcDbArc
 50
255.1354704252
 51
345.1354704252
  0
LINE
  5
168
330
1F
100
AcDbEntity
  8
0
  6
Continuous
 62
     7
370
    50
100
AcDbLine
 10
217.2945452951
 20
207.3992840781
 30
0.0
 11
216.8456068359
 21
205.7078476831
 31
0.0
  0
LINE
  5
169
330
1F
100
AcDbEntity
  8
0
  6
Continuous
 62
     7
370
    50
100
AcDbLine
 10
217.6811559223
 20
207.2966700256
 30
0.0
 11
217.2945452951
 21
207.3992840781
 31
0.0
  0
LINE
  5
16A
330
1F
100
AcDbEntity
  8
0
  6
Continuous
 62
     7
370
    50
100
AcDbLine
 10
217.2322211884
 20
205.6052336305
 30
0.0
 11
217.6811559223
 21
207.2966700256
 31
0.0
  0
ARC
  5
16B
330
1F
100
AcDbEntity
  8
0
  6
Continuous
 62
     7
370
    50
100
AcDbCircle
 10
216.5073209769
 20
205.7976349537
 30
0.0
 40
0.750000000000007
100
AcDbArc
 50
255.1354704252
 51
345.1354704252
  0
ARC
  5
16C
330
1F
100
AcDbEntity
  8
0
  6
Continuous
 62
     7
370
    50
100
AcDbCircle
 10
217.0749658998
 20
207.9363288314
 30
0.0
 40
2.962743152903983
100
AcDbArc
 50
212.1952435267
 51
255.1354704252
  0
ARC
  5
16D
330
1F
100
AcDbEntity
  8
0
  6
Continuous
 62
     7
370
    50
100
AcDbCircle
 10
217.9440638703
 20
208.2872121668
 30
0.0
 40
3.900000000000032
100
AcDbArc
 50
345.1354704252
 51
120.9601934572
  0
ARC
  5
16E
330
1F
100
AcDbEntity
  8
0
  6
Continuous
 62
     7
370
    50
100
AcDbCircle
 10
216.4684268199
 20
208.6788707807
 30
0.0
 40
5.426728913181862
100
AcDbArc
 50
309.3098063251
 51
345.1354704252
  0
ARC
  5
16F
330
1F
100
AcDbEntity
  8
0
  6
Continuous
 62
     7
370
    50
100
AcDbCircle
 10
217.1361580696
 20
207.8633474274
 30
0.0
 40
4.372715933401854
100
AcDbArc
 50
197.8725192527
 51
309.3098063251
  0
ARC
  5
170
330
1F
100
AcDbEntity
  8
0
  6
Continuous
 62
     7
370
    50
100
AcDbCircle
 10
218.0373754365
 20
208.1539554353
 30
0.0
 40
5.319629739787786
100
AcDbArc
 50
356.5185309892
 51
197.8725192527
  0
ARC
  5
171
330
1F
100
AcDbEntity
  8
0
  6
Continuous
 62
     7
370
    50
100
AcDbCircle
 10
217.3684940877
 20
208.194648832
 30
0.0
 40
5.989747797592294
100
AcDbArc
 50
207.7661327754
 51
356.5185309892
  0
ARC
  5
172
330
1F
100
AcDbEntity
  8
0
  6
Continuous
 62
     7
370
    50
100
AcDbCircle
 10
217.9440638703
 20
208.2872121668
 30
0.0
 40
6.572713101573228
100
AcDbArc
 50
46.3835549138
 51
153.3731028513
  0
ARC
  5
173
330
1F
100
AcDbEntity
  8
0
  6
Continuous
 62
     7
370
    50
100
AcDbCircle
 10
217.554530999
 20
207.8783973767
 30
0.0
 40
7.137394773369144
100
AcDbArc
 50
257.316456491
 51
46.3835549138
  0
ARC
  5
174
330
1F
100
AcDbEntity
  8
0
  6
Continuous
 62
     7
370
    50
100
AcDbCircle
 10
217.6444700213
 20
208.2780234468
 30
0.0
 40
7.547016578980029
100
AcDbArc
 50
222.3672434518
 51
257.316456491
  0
LINE
  5
175
330
1F
100
AcDbEntity
  8
0
  6
Continuous
 62
     7
370
    50
100
AcDbLine
 10
212.0684286676
 20
213.7232241988
 30
0.0
 11
214.5096933566
 21
217.9748033126
 31
0.0
  0
ARC
  5
176
330
1F
100
AcDbEntity
  8
0
  6
Continuous
 62
     7
370
    50
100
AcDbCircle
 10
212.7752817678
 20
218.9707052712
 30
0.0
 40
2.000000000000008
100
AcDbArc
 50
330.1354704252
 51
15.1354704252
  0
LINE
  5
177
330
1F
100
AcDbEntity
  8
0
  6
Continuous
 62
     7
370
    50
100
AcDbLine
 10
141.0684263431
 20
179.1866361931
 30
0.0
 11
130.4454928361
 21
180.8411344722
 31
0.0
  0
LINE
  5
178
330
1F
100
AcDbEntity
  8
0
  6
Continuous
 62
     7
370
    50
100
AcDbLine
 10
141.0684263431
 20
178.3769815996
 30
0.0
 11
130.322375717
 21
180.0506539479
 31
0.0
  0
SPLINE
  5
179
330
1F
100
AcDbEntity
  8
0
  6
Continuous
 62
     7
370
    50
100
AcDbSpline
210
0.0
220
0.0
230
1.0
 70
     8
 71
     3
 72
    86
 73
    82
 74
     0
 42
0.000000001
 43
0.00000001
 40
0.0
 40
0.0
 40
0.0
 40
0.0
 40
0.0004945906459327
 40
0.008732783426379
 40
0.0171072071949795
 40
0.0256150982415244
 40
0.0342590845816879
 40
0.0430386883920673
 40
0.0519519355314213
 40
0.0610018046315488
 40
0.0701863264106889
 40
0.0795052998415004
 40
0.0889609644461786
 40
0.098550420822429
 40
0.1082753081491018
 40
0.1181365625717506
 40
0.1281311708716437
 40
0.1382620118640944
 40
0.1485285824147582
 40
0.1589286829279124
 40
0.1694655602155473
 40
0.1801371447215144
 40
0.190943110580446
 40
0.2018859067918727
 40
0.2129624640159007
 40
0.2241744769040483
 40
0.2355230189749308
 40
0.2470047650739936
 40
0.258622865640954
 40
0.2703768057365998
 40
0.2822641030537651
 40
0.2942883530157704
 40
0.3064473520724527
 40
0.3187405992027447
 40
0.331170904320205
 40
0.3437348358192808
 40
0.3564342927102441
 40
0.3692703736812807
 40
0.3822395155627464
 40
0.395345159585139
 40
0.4085867470607443
 40
0.4219614851984534
 40
0.4354733503756292
 40
0.4491200138400392
 40
0.4629007372204658
 40
0.4768187301207984
 40
0.4908703218009721
 40
0.5050573597030097
 40
0.5193811945560566
 40
0.5338379709059932
 40
0.5484312798020627
 40
0.5631606924311167
 40
0.5780230318540942
 40
0.5930226726307114
 40
0.6081571621723495
 40
0.6234255406268078
 40
0.6388313854668135
 40
0.6526492194683934
 40
0.6665747395867752
 40
0.6806076282432543
 40
0.6947463420172747
 40
0.7089937653249218
 40
0.7233458341474753
 40
0.7378071108181333
 40
0.7523734149478325
 40
0.7670479406565283
 40
0.78182929666719
 40
0.7967169966399418
 40
0.8117131268707877
 40
0.8268139917390336
 40
0.8420241856136303
 40
0.8573390411269984
 40
0.8727626162196074
 40
0.8882924401858004
 40
0.9039290916308907
 40
0.9196739341311952
 40
0.9355237153000785
 40
0.9514827822115316
 40
0.9675471140303756
 40
0.983720027749812
 40
0.9999999999999999
 40
0.9999999999999999
 40
0.9999999999999999
 40
0.9999999999999999
 10
134.5506249092626
 20
186.0083803370248
 30
0.0
 10
134.5556968748879
 20
186.0265961300772
 30
0.0
 10
134.6452504839487
 20
186.3482248890797
 30
0.0
 10
134.7126469674169
 20
187.0117412737311
 30
0.0
 10
134.5060972788739
 20
187.9652539609657
 30
0.0
 10
134.0079458824893
 20
188.8233220717653
 30
0.0
 10
133.2578367299655
 20
189.4966042761905
 30
0.0
 10
132.3215997890128
 20
189.9105149255179
 30
0.0
 10
131.2879510048874
 20
190.0185301239411
 30
0.0
 10
130.2558207090454
 20
189.7985754657195
 30
0.0
 10
129.3289398194301
 20
189.2623375269329
 30
0.0
 10
128.6007761720173
 20
188.4557751236503
 30
0.0
 10
128.1516944648574
 20
187.4487964287158
 30
0.0
 10
128.0334759095687
 20
186.3370407565088
 30
0.0
 10
128.2657268491036
 20
185.2270766395034
 30
0.0
 10
128.8385969574765
 20
184.2301390840712
 30
0.0
 10
129.7017563805472
 20
183.4473072465987
 30
0.0
 10
130.7786349639719
 20
182.9615645926083
 30
0.0
 10
131.9685842552797
 20
182.8317920139139
 30
0.0
 10
133.1561979817015
 20
183.0766944659202
 30
0.0
 10
134.2242238156529
 20
183.6841456711106
 30
0.0
 10
135.0624344794375
 20
184.6036024530523
 30
0.0
 10
135.5847501652053
 20
185.7502191408044
 30
0.0
 10
135.7284231399856
 20
187.0180838957064
 30
0.0
 10
135.4709969665226
 20
188.2835486331527
 30
0.0
 10
134.8297163207042
 20
189.4228441852188
 30
0.0
 10
133.8552568335229
 20
190.3180254274448
 30
0.0
 10
132.6387248262305
 20
190.8765941778429
 30
0.0
 10
131.2933509613272
 20
191.035816996806
 30
0.0
 10
129.949500524515
 20
190.7672719136847
 30
0.0
 10
128.7393301647148
 20
190.0916994842397
 30
0.0
 10
127.7855249747681
 20
189.063994962509
 30
0.0
 10
127.1898292313377
 20
187.7776334210336
 30
0.0
 10
127.01536942436
 20
186.3549274736597
 30
0.0
 10
127.2924619291654
 20
184.9322426939777
 30
0.0
 10
128.0023071779154
 20
183.6509465609016
 30
0.0
 10
129.0826890017292
 20
182.6382811740459
 30
0.0
 10
130.4380128514661
 20
182.0033576853122
 30
0.0
 10
131.9381538839809
 20
181.8141088287529
 30
0.0
 10
133.4397266628357
 20
182.0981140291047
 30
0.0
 10
134.7931788453408
 20
182.8408866603521
 30
0.0
 10
135.8640382642391
 20
183.9744133320239
 30
0.0
 10
136.540359099022
 20
185.3974380461624
 30
0.0
 10
136.7453623855436
 20
186.9752144040097
 30
0.0
 10
136.4539388860782
 20
188.5553352530845
 30
0.0
 10
135.6807692051501
 20
189.9822071552888
 30
0.0
 10
134.4940245643437
 20
191.111541907518
 30
0.0
 10
133.003711804621
 20
191.8294411334017
 30
0.0
 10
131.348555000292
 20
192.0527103516642
 30
0.0
 10
129.6899067682571
 20
191.7533205963678
 30
0.0
 10
128.1891581154994
 20
190.951227954252
 30
0.0
 10
126.9998188452468
 20
189.712375447106
 30
0.0
 10
126.2412854692708
 20
188.1544405807857
 30
0.0
 10
125.997235794256
 20
186.4225156746905
 30
0.0
 10
126.3036537766593
 20
184.6847964846992
 30
0.0
 10
127.1351227740208
 20
183.110841523408
 30
0.0
 10
128.3764139677453
 20
181.9058386675022
 30
0.0
 10
129.8624655281941
 20
181.1426860214323
 30
0.0
 10
131.4491647176269
 20
180.8243512869565
 30
0.0
 10
133.0739973650496
 20
180.959403861317
 30
0.0
 10
134.612432059621
 20
181.5359463857241
 30
0.0
 10
135.9408637589224
 20
182.5238050296317
 30
0.0
 10
136.9564605760528
 20
183.8464915248692
 30
0.0
 10
137.5729945630187
 20
185.4097073631118
 30
0.0
 10
137.7369309203679
 20
187.094186383175
 30
0.0
 10
137.4317119277566
 20
188.7718802001372
 30
0.0
 10
136.668483330965
 20
190.3103839024224
 30
0.0
 10
135.5068531355217
 20
191.5923254331614
 30
0.0
 10
134.0246426263447
 20
192.5083893045298
 30
0.0
 10
132.3370899968923
 20
192.9889282989125
 30
0.0
 10
130.5696873927777
 20
192.9849729455831
 30
0.0
 10
128.859717721598
 20
192.492685547491
 30
0.0
 10
127.3391035598975
 20
191.5440371377661
 30
0.0
 10
126.1319796349566
 20
190.2029102019899
 30
0.0
 10
125.3301699433522
 20
188.572420105496
 30
0.0
 10
125.0099245548165
 20
186.7711246669512
 30
0.0
 10
125.1936696177495
 20
184.9391110421549
 30
0.0
 10
125.8813125878667
 20
183.2151624925737
 30
0.0
 10
127.0228308850426
 20
181.7446334547243
 30
0.0
 10
128.5298399795216
 20
180.601733020044
 30
0.0
 10
129.7235511635296
 20
180.2347505170001
 30
0.0
 10
130.3223757170248
 20
180.0506539478551
 30
0.0
  0
ARC
  5
17A
330
1F
100
AcDbEntity
  8
0
  6
Continuous
 62
     7
370
    50
100
AcDbCircle
 10
131.6265125302
 20
186.6788707807
 30
0.0
 40
3.000000000000018
100
AcDbArc
 50
30.5224878141
 51
59.4775121859
  0
SPLINE
  5
17B
330
1F
100
AcDbEntity
  8
0
  6
Continuous
 62
     7
370
    50
100
AcDbSpline
210
0.0
220
0.0
230
1.0
 70
     8
 71
     3
 72
    69
 73
    65
 74
     0
 42
0.000000001
 43
0.00000001
 40
0.0
 40
0.0
 40
0.0
 40
0.0
 40
0.0113305064763713
 40
0.0228789336718804
 40
0.0346325326544153
 40
0.0465750215182836
 40
0.0587301368171999
 40
0.0710401269044994
 40
0.0835534715511419
 40
0.0962638808000944
 40
0.1091337808145356
 40
0.1222193734775155
 40
0.1354806805054806
 40
0.1489142147121146
 40
0.1625673813106073
 40
0.1763813996980944
 40
0.1903821565502643
 40
0.2045972339793433
 40
0.2189670517213834
 40
0.2335383343319146
 40
0.2483095398556454
 40
0.2632386828219146
 40
0.2783824910497722
 40
0.29370481789472
 40
0.3091970906073049
 40
0.3249093294080039
 40
0.3407838270279006
 40
0.3568429117858528
 40
0.3731178893641411
 40
0.3895476387954296
 40
0.4061769518911678
 40
0.4230088566278634
 40
0.439997410047471
 40
0.4571993453159988
 40
0.4745827332273877
 40
0.4921338638560663
 40
0.5099050593224089
 40
0.52784022037672
 40
0.545957768663533
 40
0.5642925419277771
 40
0.580728531676181
 40
0.5973397325528723
 40
0.6140830184466584
 40
0.6309736780466497
 40
0.6480297846399156
 40
0.6652056762248729
 40
0.682565168273274
 40
0.7000361763463798
 40
0.7176869119049523
 40
0.7354629868982312
 40
0.753394113433207
 40
0.7714830336351243
 40
0.7896971218673138
 40
0.8080924392328857
 40
0.826599108065141
 40
0.8452886681529476
 40
0.8640980544747301
 40
0.8830701541341269
 40
0.9021911682733311
 40
0.9214437020161141
 40
0.9408697094535976
 40
0.960426174228573
 40
0.9801401659539305
 40
1.0
 40
1.0
 40
1.0
 40
1.0
 10
131.8807950340318
 20
183.6896665230047
 30
0.0
 10
132.1939778852847
 20
183.7282825654026
 30
0.0
 10
132.8263670636437
 20
183.8062573562503
 30
0.0
 10
133.6787856663142
 20
184.2911833792122
 30
0.0
 10
134.3566916398075
 20
185.0075142546626
 30
0.0
 10
134.7892972971605
 20
185.9178295959455
 30
0.0
 10
134.9196098973424
 20
186.931925957305
 30
0.0
 10
134.7279438299525
 20
187.9522878942494
 30
0.0
 10
134.2256133545418
 20
188.8790609730324
 30
0.0
 10
133.4477711319049
 20
189.6138327197562
 30
0.0
 10
132.4681641019681
 20
190.0813593769381
 30
0.0
 10
131.3762364924978
 20
190.227154491981
 30
0.0
 10
130.2779206069053
 20
190.0227840183327
 30
0.0
 10
129.2808403114254
 20
189.4851856235112
 30
0.0
 10
128.4876429602907
 20
188.6539048404777
 30
0.0
 10
127.9847515647132
 20
187.6037713941814
 30
0.0
 10
127.8243431448999
 20
186.4345423016194
 30
0.0
 10
128.0379609380095
 20
185.2574683906023
 30
0.0
 10
128.6114840691586
 20
184.1902391343988
 30
0.0
 10
129.4955281417763
 20
183.3384290174528
 30
0.0
 10
130.6151953605687
 20
182.797404991818
 30
0.0
 10
131.862089793022
 20
182.6239059253909
 30
0.0
 10
133.1179506916542
 20
182.84459977233
 30
0.0
 10
134.2565022015583
 20
183.4525200336584
 30
0.0
 10
135.1654919134268
 20
184.3905910274701
 30
0.0
 10
135.747604290866
 20
185.5780881886136
 30
0.0
 10
135.9348714299153
 20
186.9027493241841
 30
0.0
 10
135.7059899379118
 20
188.2368941048291
 30
0.0
 10
135.067008611097
 20
189.4485472559973
 30
0.0
 10
134.0743835202695
 20
190.4144876194861
 30
0.0
 10
132.8195383024325
 20
191.0377691153079
 30
0.0
 10
131.4172886348496
 20
191.2420700641196
 30
0.0
 10
130.004949093817
 20
191.0033969184831
 30
0.0
 10
128.7196207468232
 20
190.3353045105496
 30
0.0
 10
127.6949352199397
 20
189.289396348594
 30
0.0
 10
127.0323941457277
 20
187.9663252607866
 30
0.0
 10
126.8077033825926
 20
186.4872898890588
 30
0.0
 10
127.0553732363406
 20
184.9963636664116
 30
0.0
 10
127.7536635923568
 20
183.6383842232433
 30
0.0
 10
128.8095019241638
 20
182.5925844304647
 30
0.0
 10
130.0813354087029
 20
181.9232918188059
 30
0.0
 10
131.4448589478387
 20
181.6344908241487
 30
0.0
 10
132.847072585186
 20
181.7380191516389
 30
0.0
 10
134.1807503653814
 20
182.2213339714137
 30
0.0
 10
135.3366802071607
 20
183.0647542981245
 30
0.0
 10
136.2276591447036
 20
184.2004850346805
 30
0.0
 10
136.7745290127351
 20
185.5496767308777
 30
0.0
 10
136.9307209374796
 20
187.0097077926209
 30
0.0
 10
136.6802023591956
 20
188.4690475392175
 30
0.0
 10
136.0284393496828
 20
189.8123658095082
 30
0.0
 10
135.0289770830603
 20
190.9383122167017
 30
0.0
 10
133.7445712430132
 20
191.747270292581
 30
0.0
 10
132.2768278833717
 20
192.181021538346
 30
0.0
 10
130.7340331548446
 20
192.1910672118599
 30
0.0
 10
129.2354703402062
 20
191.7745186568147
 30
0.0
 10
127.8977591468067
 20
190.9570645567739
 30
0.0
 10
126.8308005809208
 20
189.7915502185951
 30
0.0
 10
126.1143146210312
 20
188.3692905280938
 30
0.0
 10
125.8207175194898
 20
186.7913345914473
 30
0.0
 10
125.9667915383823
 20
185.1810206846159
 30
0.0
 10
126.5587333087567
 20
183.6607473761092
 30
0.0
 10
127.5515340834331
 20
182.3578453704376
 30
0.0
 10
128.8700980186774
 20
181.3401488054791
 30
0.0
 10
129.9190726269597
 20
181.0078807549336
 30
0.0
 10
130.4454928360987
 20
180.8411344721567
 30
0.0
  0
LINE
  5
17C
330
1F
100
AcDbEntity
  8
0
  6
Continuous
 62
     7
370
    50
100
AcDbLine
 10
191.0684270881
 20
135.9288707211
 30
0.0
 11
212.0684286676
 21
135.9288707211
 31
0.0
  0
LINE
  5
17D
330
1F
100
AcDbEntity
  8
0
  6
Continuous
 62
     7
370
    50
100
AcDbLine
 10
191.0684270881
 20
133.4288731053
 30
0.0
 11
191.0684270881
 21
133.7788715794
 31
0.0
  0
LINE
  5
17E
330
1F
100
AcDbEntity
  8
0
  6
Continuous
 62
     7
370
    50
100
AcDbLine
 10
191.0684270881
 20
135.778868182
 30
0.0
 11
191.0684270881
 21
135.9288707211
 31
0.0
  0
LINE
  5
17F
330
1F
100
AcDbEntity
  8
0
  6
Continuous
 62
     7
370
    50
100
AcDbLine
 10
165.0684265517
 20
133.4288731053
 30
0.0
 11
191.0684270881
 21
133.4288731053
 31
0.0
  0
LINE
  5
180
330
1F
100
AcDbEntity
  8
0
  6
Continuous
 62
     7
370
    50
100
AcDbLine
 10
165.0684265517
 20
135.9288707211
 30
0.0
 11
165.0684265517
 21
135.778868182
 31
0.0
  0
LINE
  5
181
330
1F
100
AcDbEntity
  8
0
  6
Continuous
 62
     7
370
    50
100
AcDbLine
 10
165.0684265517
 20
133.7788715794
 30
0.0
 11
165.0684265517
 21
133.4288731053
 31
0.0
  0
LINE
  5
182
330
1F
100
AcDbEntity
  8
0
  6
Continuous
 62
     7
370
    50
100
AcDbLine
 10
141.0684263431
 20
246.2788704618
 30
0.0
 11
141.0684263431
 21
135.9288707211
 31
0.0
  0
LINE
  5
183
330
1F
100
AcDbEntity
  8
0
  6
Continuous
 62
     7
370
    50
100
AcDbLine
 10
212.0684286676
 20
246.2788704618
 30
0.0
 11
141.0684263431
 21
246.2788704618
 31
0.0
  0
LINE
  5
184
330
1F
100
AcDbEntity
  8
0
  6
Continuous
 62
     7
370
    50
100
AcDbLine
 10
212.0684286676
 20
135.9288707211
 30
0.0
 11
212.0684286676
 21
246.2788704618
 31
0.0
  0
LINE
  5
185
330
1F
100
AcDbEntity
  8
0
  6
Continuous
 62
     7
370
    50
100
AcDbLine
 10
153.4184267841
 20
213.3288705557
 30
0.0
 11
158.1184262507
 21
213.3288705557
 31
0.0
  0
LINE
  5
186
330
1F
100
AcDbEntity
  8
0
  6
Continuous
 62
     7
370
    50
100
AcDbLine
 10
158.1184262507
 20
213.3288705557
 30
0.0
 11
158.1184262507
 21
218.028870779
 31
0.0
  0
LINE
  5
187
330
1F
100
AcDbEntity
  8
0
  6
Continuous
 62
     7
370
    50
100
AcDbLine
 10
158.1184262507
 20
218.028870779
 30
0.0
 11
153.4184267841
 21
218.028870779
 31
0.0
  0
CIRCLE
  5
188
330
1F
100
AcDbEntity
  8
0
  6
Continuous
 62
     7
370
    50
100
AcDbCircle
 10
161.5684268199
 20
140.9288707807
 30
0.0
 40
1.5
  0
ARC
  5
189
330
1F
100
AcDbEntity
  8
0
  6
Continuous
 62
     7
370
    50
100
AcDbCircle
 10
178.0684268199
 20
160.4788707807
 30
0.0
 40
11.1
100
AcDbArc
 50
297.3522329091
 51
242.6477670909
  0
LINE
  5
18A
330
1F
100
AcDbEntity
  8
0
  6
Continuous
 62
     7
370
    50
100
AcDbLine
 10
172.9684266359
 20
150.6198659375
 30
0.0
 11
172.9684266359
 21
141.4788678124
 31
0.0
  0
ARC
  5
18B
330
1F
100
AcDbEntity
  8
0
  6
Continuous
 62
     7
370
    50
100
AcDbCircle
 10
178.0684268199
 20
141.4788707807
 30
0.0
 40
5.100000000000023
100
AcDbArc
 50
180.0
 51
0.0
  0
LINE
  5
18C
330
1F
100
AcDbEntity
  8
0
  6
Continuous
 62
     7
370
    50
100
AcDbLine
 10
183.1684270039
 20
141.4788678124
 30
0.0
 11
183.1684270039
 21
150.6198659375
 31
0.0
  0
LINE
  5
18D
330
1F
100
AcDbEntity
  8
0
  6
Continuous
 62
     7
370
    50
100
AcDbLine
 10
141.0684263431
 20
135.9288707211
 30
0.0
 11
165.0684265517
 21
135.9288707211
 31
0.0
  0
LINE
  5
18E
330
1F
100
AcDbEntity
  8
0
  6
Continuous
 62
     7
370
    50
100
AcDbLine
 10
153.4184267841
 20
218.028870779
 30
0.0
 11
153.4184267841
 21
213.3288705557
 31
0.0
  0
CIRCLE
  5
18F
330
1F
100
AcDbEntity
  8
0
  6
Continuous
 62
     7
370
    50
100
AcDbCircle
 10
178.0684268199
 20
218.6788707807
 30
0.0
 40
9.0
  0
LINE
  5
190
330
1F
100
AcDbEntity
  8
0
  6
Continuous
 62
     7
370
    50
100
AcDbLine
 10
131.8209780477
 20
185.8126759365
 30
0.0
 11
134.2108039282
 21
188.2024999544
 31
0.0
  0
ARC
  5
191
330
1F
100
AcDbEntity
  8
0
  6
Continuous
 62
     7
370
    50
100
AcDbCircle
 10
131.6265125302
 20
186.6788707807
 30
0.0
 40
3.000000000000014
100
AcDbArc
 50
59.4775121859
 51
30.5224878141
  0
LINE
  5
192
330
1F
100
AcDbEntity
  8
0
  6
Continuous
 62
     7
370
    50
100
AcDbLine
 10
130.7603171192
 20
186.873336865
 30
0.0
 11
131.8209780477
 21
185.8126759365
 31
0.0
  0
LINE
  5
193
330
1F
100
AcDbEntity
  8
0
  6
Continuous
 62
     7
370
    50
100
AcDbLine
 10
130.7603171192
 20
186.873336865
 30
0.0
 11
133.1501429997
 21
189.2631608829
 31
0.0
  0
SPLINE
  5
194
330
1F
100
AcDbEntity
  8
0
  6
Continuous
 62
     7
370
    50
100
AcDbSpline
210
0.0
220
0.0
230
1.0
 70
     8
 71
     3
 72
    12
 73
     8
 74
     0
 42
0.000000001
 43
0.00000001
 40
0.0
 40
0.0
 40
0.0
 40
0.0
 40
0.2195532581440661
 40
0.4188532039106553
 40
0.6190442574067136
 40
0.8020989465697059
 40
1.0
 40
1.0
 40
1.0
 40
1.0
 10
133.3912437878656
 20
187.3829416766416
 30
0.0
 10
133.3495683312073
 20
187.4758908096204
 30
0.0
 10
133.270061888473
 20
187.6532147194453
 30
0.0
 10
133.070989056824
 20
187.9282549569488
 30
0.0
 10
132.8327062333725
 20
188.1582540706736
 30
0.0
 10
132.5748486004614
 20
188.3351773099058
 30
0.0
 10
132.4140955122139
 20
188.4065351115709
 30
0.0
 10
132.3305865846681
 20
188.4436044677745
 30
0.0
  0
LINE
  5
195
330
1F
100
AcDbEntity
  8
0
  6
Continuous
 62
     7
370
    50
100
AcDbLine
 10
215.7636558734
 20
208.4223558962
 30
0.0
 11
217.1731976889
 21
208.9353861123
 31
0.0
  0
ARC
  5
196
330
1F
100
AcDbEntity
  8
0
  6
Continuous
 62
     7
370
    50
100
AcDbCircle
 10
216.4684268199
 20
208.6788707807
 30
0.0
 40
2.999999999999997
100
AcDbArc
 50
304.4775121859
 51
275.5224878141
  0
LINE
  5
197
330
1F
100
AcDbEntity
  8
0
  6
Continuous
 62
     7
370
    50
100
AcDbLine
 10
215.7636558734
 20
208.4223558962
 30
0.0
 11
216.7571349166
 21
205.6927956476
 31
0.0
  0
LINE
  5
198
330
1F
100
AcDbEntity
  8
0
  6
Continuous
 62
     7
370
    50
100
AcDbLine
 10
217.1731976889
 20
208.9353861123
 30
0.0
 11
218.1666767322
 21
206.2058258637
 31
0.0
  0
LINE
  5
199
330
1F
100
AcDbEntity
  8
0
  6
Continuous
 62
     7
370
    50
100
AcDbLine
 10
217.9063497208
 20
206.9210666999
 30
0.0
 11
217.5467250966
 21
206.7901749
 31
0.0
  0
LINE
  5
19A
330
1F
100
AcDbEntity
  8
0
  6
Continuous
 62
     7
370
    50
100
AcDbLine
 10
217.0886224233
 20
206.6234383568
 30
0.0
 11
216.4968079053
 21
206.4080364838
 31
0.0
  0
LINE
  5
19B
330
1F
100
AcDbEntity
  8
0
  6
Continuous
 62
     7
370
    50
100
AcDbLine
 10
108.0684265219
 20
249.0788712933
 30
0.0
 11
107.8259995304
 21
249.0788712933
 31
0.0
  0
LINE
  5
19C
330
1F
100
AcDbEntity
  8
0
  6
Continuous
 62
     7
370
    50
100
AcDbLine
 10
108.0684265219
 20
134.0788692072
 30
0.0
 11
107.8259995304
 21
134.0788692072
 31
0.0
  0
LINE
  5
19D
330
1F
100
AcDbEntity
  8
0
  6
Continuous
 62
     7
370
    50
100
AcDbLine
 10
107.8259995304
 20
249.0788712933
 30
0.0
 11
107.254569801
 21
249.0788712933
 31
0.0
  0
LINE
  5
19E
330
1F
100
AcDbEntity
  8
0
  6
Continuous
 62
     7
370
    50
100
AcDbLine
 10
107.8259995304
 20
134.0788692072
 30
0.0
 11
107.254569801
 21
134.0788692072
 31
0.0
  0
LINE
  5
19F
330
1F
100
AcDbEntity
  8
0
  6
Continuous
 62
     7
370
    50
100
AcDbLine
 10
107.254569801
 20
134.0788692072
 30
0.0
 11
99.5684241973
 21
134.0788692072
 31
0.0
  0
ARC
  5
1A0
330
1F
100
AcDbEntity
  8
0
  6
Continuous
 62
     7
370
    50
100
AcDbCircle
 10
99.5684268199
 20
243.0788707807
 30
0.0
 40
6.000000000000014
100
AcDbArc
 50
90.0
 51
180.0
  0
LINE
  5
1A1
330
1F
100
AcDbEntity
  8
0
  6
Continuous
 62
     7
370
    50
100
AcDbLine
 10
93.5684269391
 20
140.0788739159
 30
0.0
 11
93.5684269391
 21
163.3788697257
 31
0.0
  0
LINE
  5
1A2
330
1F
100
AcDbEntity
  8
0
  6
Continuous
 62
     7
370
    50
100
AcDbLine
 10
93.5684269391
 20
191.8788716033
 30
0.0
 11
93.5684269391
 21
243.0788703099
 31
0.0
  0
ARC
  5
1A3
330
1F
100
AcDbEntity
  8
0
  6
Continuous
 62
     7
370
    50
100
AcDbCircle
 10
99.5684268199
 20
140.0788707807
 30
0.0
 40
6.0
100
AcDbArc
 50
180.0
 51
270.0
  0
LINE
  5
1A4
330
1F
100
AcDbEntity
  8
0
  6
Continuous
 62
     7
370
    50
100
AcDbLine
 10
107.254569801
 20
249.0788712933
 30
0.0
 11
99.5684241973
 21
249.0788712933
 31
0.0
  0
LINE
  5
1A5
330
1F
100
AcDbEntity
  8
0
  6
Continuous
 62
     7
370
    50
100
AcDbLine
 10
158.0184264206
 20
217.9288707742
 30
0.0
 11
153.5184266143
 21
217.9288707742
 31
0.0
  0
LINE
  5
1A6
330
1F
100
AcDbEntity
  8
0
  6
Continuous
 62
     7
370
    50
100
AcDbLine
 10
153.5184266143
 20
213.4288708515
 30
0.0
 11
158.0184264206
 21
213.4288708515
 31
0.0
  0
LINE
  5
1A7
330
1F
100
AcDbEntity
  8
0
  6
Continuous
 62
     7
370
    50
100
AcDbLine
 10
153.5184266143
 20
217.9288707742
 30
0.0
 11
153.5184266143
 21
213.4288708515
 31
0.0
  0
LINE
  5
1A8
330
1F
100
AcDbEntity
  8
0
  6
Continuous
 62
     7
370
    50
100
AcDbLine
 10
158.0184264206
 20
213.4288708515
 30
0.0
 11
158.0184264206
 21
217.9288707742
 31
0.0
  0
LINE
  5
1A9
330
1F
100
AcDbEntity
  8
0
  6
Continuous
 62
     7
370
    50
100
AcDbLine
 10
108.0684265219
 20
133.7788715794
 30
0.0
 11
110.0684231244
 21
133.7788715794
 31
0.0
  0
LINE
  5
1AA
330
1F
100
AcDbEntity
  8
0
  6
Continuous
 62
     7
370
    50
100
AcDbLine
 10
108.0684265219
 20
133.7788715794
 30
0.0
 11
108.0684265219
 21
249.2788709536
 31
0.0
  0
LINE
  5
1AB
330
1F
100
AcDbEntity
  8
0
  6
Continuous
 62
     7
370
    50
100
AcDbLine
 10
108.0684265219
 20
249.2788709536
 30
0.0
 11
110.0684231244
 21
249.2788709536
 31
0.0
  0
LINE
  5
1AC
330
1F
100
AcDbEntity
  8
0
  6
Continuous
 62
     7
370
    50
100
AcDbLine
 10
110.0684231244
 20
133.7788715794
 30
0.0
 11
110.0684231244
 21
249.2788709536
 31
0.0
  0
LINE
  5
1AD
330
1F
100
AcDbEntity
  8
0
  6
Continuous
 62
     7
370
    50
100
AcDbLine
 10
228.068427565
 20
133.7788715794
 30
0.0
 11
110.26842651
 21
133.7788715794
 31
0.0
  0
LINE
  5
1AE
330
1F
100
AcDbEntity
  8
0
  6
Continuous
 62
     7
370
    50
100
AcDbLine
 10
110.26842651
 20
133.7788715794
 30
0.0
 11
110.26842651
 21
135.778868182
 31
0.0
  0
LINE
  5
1AF
330
1F
100
AcDbEntity
  8
0
  6
Continuous
 62
     7
370
    50
100
AcDbLine
 10
228.068427565
 20
135.778868182
 30
0.0
 11
110.26842651
 21
135.778868182
 31
0.0
  0
LINE
  5
1B0
330
1F
100
AcDbEntity
  8
0
  6
Continuous
 62
     7
370
    50
100
AcDbLine
 10
228.068427565
 20
133.7788715794
 30
0.0
 11
228.068427565
 21
135.778868182
 31
0.0
  0
LINE
  5
1B1
330
1F
100
AcDbEntity
  8
0
  6
Continuous
 62
     7
370
    50
100
AcDbLine
 10
228.068427565
 20
247.228871642
 30
0.0
 11
228.068427565
 21
135.8288690284
 31
0.0
  0
LINE
  5
1B2
330
1F
100
AcDbEntity
  8
0
  6
Continuous
 62
     7
370
    50
100
AcDbLine
 10
228.068427565
 20
135.8288690284
 30
0.0
 11
226.0684272371
 21
135.8288690284
 31
0.0
  0
LINE
  5
1B3
330
1F
100
AcDbEntity
  8
0
  6
Continuous
 62
     7
370
    50
100
AcDbLine
 10
226.0684272371
 20
247.228871642
 30
0.0
 11
226.0684272371
 21
135.8288690284
 31
0.0
  0
LINE
  5
1B4
330
1F
100
AcDbEntity
  8
0
  6
Continuous
 62
     7
370
    50
100
AcDbLine
 10
228.068427565
 20
247.228871642
 30
0.0
 11
226.0684272371
 21
247.228871642
 31
0.0
  0
LINE
  5
1B5
330
1F
100
AcDbEntity
  8
0
  6
Continuous
 62
     7
370
    50
100
AcDbLine
 10
110.26842651
 20
249.2788709536
 30
0.0
 11
228.068427565
 21
249.2788709536
 31
0.0
  0
LINE
  5
1B6
330
1F
100
AcDbEntity
  8
0
  6
Continuous
 62
     7
370
    50
100
AcDbLine
 10
228.068427565
 20
249.2788709536
 30
0.0
 11
228.068427565
 21
247.2788706258
 31
0.0
  0
LINE
  5
1B7
330
1F
100
AcDbEntity
  8
0
  6
Continuous
 62
     7
370
    50
100
AcDbLine
 10
110.26842651
 20
247.2788706258
 30
0.0
 11
228.068427565
 21
247.2788706258
 31
0.0
  0
LINE
  5
1B8
330
1F
100
AcDbEntity
  8
0
  6
Continuous
 62
     7
370
    50
100
AcDbLine
 10
110.26842651
 20
249.2788709536
 30
0.0
 11
110.26842651
 21
247.2788706258
 31
0.0
  0
LINE
  5
1B9
330
1F
100
AcDbEntity
  8
0
  6
Continuous
 62
     7
370
    50
100
AcDbLine
 10
110.0784292542
 20
133.7788715794
 30
0.0
 11
110.26842651
 21
133.7788715794
 31
0.0
  0
LINE
  5
1BA
330
1F
100
AcDbEntity
  8
0
  6
Continuous
 62
     7
370
    50
100
AcDbLine
 10
110.26842651
 20
249.2788709536
 30
0.0
 11
110.0784292542
 21
249.2788709536
 31
0.0
  0
LINE
  5
1BB
330
1F
100
AcDbEntity
  8
0
  6
Continuous
 62
     7
370
    50
100
AcDbLine
 10
228.068427565
 20
247.228871642
 30
0.0
 11
228.068427565
 21
247.268870084
 31
0.0
  0
CIRCLE
  5
1BC
330
1F
100
AcDbEntity
  8
0
  6
Continuous
 62
     7
370
    50
100
AcDbCircle
 10
136.0684268199
 20
239.4788707807
 30
0.0
 40
2.75
  0
CIRCLE
  5
1BD
330
1F
100
AcDbEntity
  8
0
  6
Continuous
 62
     7
370
    50
100
AcDbCircle
 10
136.0684268199
 20
155.9788707807
 30
0.0
 40
2.75
  0
CIRCLE
  5
1BE
330
1F
100
AcDbEntity
  8
0
  6
Continuous
 62
     7
370
    50
100
AcDbCircle
 10
216.5684268199
 20
142.7788707807
 30
0.0
 40
2.750000000000028
  0
CIRCLE
  5
1BF
330
1F
100
AcDbEntity
  8
0
  6
Continuous
 62
     7
370
    50
100
AcDbCircle
 10
216.5684268199
 20
239.4788707807
 30
0.0
 40
2.750000000000028
  0
LINE
  5
1C0
330
1F
100
AcDbEntity
  8
0
  6
Continuous
 62
     7
370
    50
100
AcDbLine
 10
121.0684267901
 20
226.5788703993
 30
0.0
 11
121.0627941512
 21
226.7288710758
 31
0.0
  0
ARC
  5
1C1
330
1F
100
AcDbEntity
  8
0
  6
Continuous
 62
     7
370
    50
100
AcDbCircle
 10
119.0684268199
 20
226.5788707807
 30
0.0
 40
2.000000000000011
100
AcDbArc
 50
207.1896023928
 51
0.0
  0
CIRCLE
  5
1C2
330
1F
100
AcDbEntity
  8
0
  6
Continuous
 62
     7
370
    50
100
AcDbCircle
 10
119.0684268199
 20
156.5788707807
 30
0.0
 40
2.0
  0
LINE
  5
1C3
330
1F
100
AcDbEntity
  8
0
  6
Continuous
 62
     7
370
    50
100
AcDbLine
 10
228.068427565
 20
135.7888743117
 30
0.0
 11
228.068427565
 21
135.8288690284
 31
0.0
  0
LINE
  5
1C4
330
1F
100
AcDbEntity
  8
0
  6
Continuous
 62
     7
370
    50
100
AcDbLine
 10
226.058428558
 20
135.8288690284
 30
0.0
 11
226.0684272371
 21
135.8288690284
 31
0.0
  0
LINE
  5
1C5
330
1F
100
AcDbEntity
  8
0
  6
Continuous
 62
     7
370
    50
100
AcDbLine
 10
226.0684272371
 20
247.228871642
 30
0.0
 11
226.058428558
 21
247.228871642
 31
0.0
  0
LINE
  5
1C6
330
1F
100
AcDbEntity
  8
0
  6
Continuous
 62
     7
370
    50
100
AcDbLine
 10
228.068427565
 20
247.268870084
 30
0.0
 11
228.068427565
 21
247.2788706258
 31
0.0
  0
LINE
  5
1C7
330
1F
100
AcDbEntity
  8
0
  6
Continuous
 62
     7
370
    50
100
AcDbLine
 10
110.26842651
 20
247.2788706258
 30
0.0
 11
110.26842651
 21
247.268870084
 31
0.0
  0
LINE
  5
1C8
330
1F
100
AcDbEntity
  8
0
  6
Continuous
 62
     7
370
    50
100
AcDbLine
 10
228.068427565
 20
135.778868182
 30
0.0
 11
228.068427565
 21
135.7888743117
 31
0.0
  0
LINE
  5
1C9
330
1F
100
AcDbEntity
  8
0
  6
Continuous
 62
     7
370
    50
100
AcDbLine
 10
110.26842651
 20
135.7888743117
 30
0.0
 11
110.26842651
 21
135.778868182
 31
0.0
  0
LINE
  5
1CA
330
1F
100
AcDbEntity
  8
0
  6
Continuous
 62
     7
370
    50
100
AcDbLine
 10
110.0784292542
 20
249.2788709536
 30
0.0
 11
110.0684231244
 21
249.2788709536
 31
0.0
  0
LINE
  5
1CB
330
1F
100
AcDbEntity
  8
0
  6
Continuous
 62
     7
370
    50
100
AcDbLine
 10
110.0684231244
 20
133.7788715794
 30
0.0
 11
110.0784292542
 21
133.7788715794
 31
0.0
  0
LINE
  5
1CC
330
1F
100
AcDbEntity
  8
0
  6
Continuous
 62
     7
370
    18
100
AcDbLine
 10
141.0684263431
 20
174.6959477499
 30
0.0
 11
139.4613472842
 21
174.7267149225
 31
0.0
  0
LINE
  5
1CD
330
1F
100
AcDbEntity
  8
0
  6
Continuous
 62
     7
370
    18
100
AcDbLine
 10
141.0684263431
 20
192.1991534367
 30
0.0
 11
140.7339697801
 21
192.2055553481
 31
0.0
  0
LINE
  5
1CE
330
1F
100
AcDbEntity
  8
0
  6
Continuous
 62
     7
370
    18
100
AcDbLine
 10
118.568425449
 20
234.9004443571
 30
0.0
 11
118.568425449
 21
226.5572981745
 31
0.0
  0
LINE
  5
1CF
330
1F
100
AcDbEntity
  8
0
  6
Continuous
 62
     7
370
    18
100
AcDbLine
 10
226.058428558
 20
247.228871642
 30
0.0
 11
226.058428558
 21
135.8288690284
 31
0.0
  0
LINE
  5
1D0
330
1F
100
AcDbEntity
  8
0
  6
Continuous
 62
     7
370
    18
100
AcDbLine
 10
228.068427565
 20
135.7888743117
 30
0.0
 11
191.0684270881
 21
135.7888743117
 31
0.0
  0
LINE
  5
1D1
330
1F
100
AcDbEntity
  8
0
  6
Continuous
 62
     7
370
    18
100
AcDbLine
 10
165.0684265517
 20
135.7888743117
 30
0.0
 11
110.26842651
 21
135.7888743117
 31
0.0
  0
LINE
  5
1D2
330
1F
100
AcDbEntity
  8
0
  6
Continuous
 62
     7
370
    18
100
AcDbLine
 10
110.0784292542
 20
133.7788715794
 30
0.0
 11
110.0784292542
 21
163.3788697257
 31
0.0
  0
LINE
  5
1D3
330
1F
100
AcDbEntity
  8
0
  6
Continuous
 62
     7
370
    18
100
AcDbLine
 10
110.0784292542
 20
191.8788716033
 30
0.0
 11
110.0784292542
 21
216.2288707517
 31
0.0
  0
LINE
  5
1D4
330
1F
100
AcDbEntity
  8
0
  6
Continuous
 62
     7
370
    18
100
AcDbLine
 10
110.0784292542
 20
239.728871344
 30
0.0
 11
110.0784292542
 21
249.2788709536
 31
0.0
  0
LINE
  5
1D5
330
1F
100
AcDbEntity
  8
0
  6
Continuous
 62
     7
370
    18
100
AcDbLine
 10
110.26842651
 20
247.268870084
 30
0.0
 11
228.068427565
 21
247.268870084
 31
0.0
  0
DIMENSION
  5
1D6
330
1F
100
AcDbEntity
  8
0
  6
Continuous
 62
     7
370
    18
100
AcDbDimension
  2
_D
 10
69.7265125302
 20
239.7288707807
 30
0.0
 11
69.7265125302
 21
244.5038707807
 31
0.0
 70
   160
  1
9
 71
     2
 42
-1.0
  3
SLDDIMSTYLE0
100
AcDbAlignedDimension
 13
108.0684268199
 23
249.2788707807
 33
0.0
 14
95.0684268199
 24
239.7288707807
 34
0.0
 50
90.0
100
AcDbRotatedDimension
  0
DIMENSION
  5
1E1
330
1F
100
AcDbEntity
  8
0
  6
Continuous
 62
     7
370
    18
100
AcDbDimension
  2
_D_1
 10
69.9516095894
 20
216.2288707807
 30
0.0
 11
69.9516095894
 21
227.9788707807
 31
0.0
 70
   160
  1
23
 71
     2
 42
-1.0
  3
SLDDIMSTYLE0
100
AcDbAlignedDimension
 13
95.0684268199
 23
239.7288707807
 33
0.0
 14
95.0684268199
 24
216.2288707807
 34
0.0
 50
90.0
100
AcDbRotatedDimension
  0
DIMENSION
  5
1EB
330
1F
100
AcDbEntity
  8
0
  6
Continuous
 62
     7
370
    18
100
AcDbDimension
  2
_D_2
 10
108.0684268199
 20
197.7288707807
 30
0.0
 11
101.5684268199
 21
197.7288707807
 31
0.0
 70
   160
  1
<>
 71
     2
 42
-1.0
  3
SLDDIMSTYLE1
100
AcDbAlignedDimension
 13
95.0684268199
 23
216.2288707807
 33
0.0
 14
108.0684268199
 24
249.2788707807
 34
0.0
100
AcDbRotatedDimension
  0
DIMENSION
  5
1F5
330
1F
100
AcDbEntity
  8
0
  6
Continuous
 62
     7
370
    18
100
AcDbDimension
  2
_D_3
 10
69.9516095894
 20
191.8788707807
 30
0.0
 11
69.9516095894
 21
204.0538707807
 31
0.0
 70
   160
  1
<>
 71
     2
 42
-1.0
  3
SLDDIMSTYLE1
100
AcDbAlignedDimension
 13
95.0684268199
 23
216.2288707807
 33
0.0
 14
80.2349883241
 24
191.8788707807
 34
0.0
 50
90.0
100
AcDbRotatedDimension
  0
DIMENSION
  5
1FF
330
1F
100
AcDbEntity
  8
0
  6
Continuous
 62
     7
370
    18
100
AcDbDimension
  2
_D_4
 10
93.5684268199
 20
123.4288707807
 30
0.0
 11
100.8184268199
 21
123.4288707807
 31
0.0
 70
   160
  1
<>
 71
     2
 42
-1.0
  3
SLDDIMSTYLE1
100
AcDbAlignedDimension
 13
108.0684268199
 23
133.7788707807
 33
0.0
 14
93.5684268199
 24
140.0788707807
 34
0.0
100
AcDbRotatedDimension
  0
DIMENSION
  5
209
330
1F
100
AcDbEntity
  8
0
  6
Continuous
 62
     7
370
    18
100
AcDbDimension
  2
_D_5
 10
178.0684268199
 20
123.4288707807
 30
0.0
 11
143.0684268199
 21
123.4288707807
 31
0.0
 70
   160
  1
<>
 71
     2
 42
-1.0
  3
SLDDIMSTYLE0
100
AcDbAlignedDimension
 13
108.0684268199
 23
133.7788707807
 33
0.0
 14
178.0684268199
 24
146.8788707807
 34
0.0
100
AcDbRotatedDimension
  0
DIMENSION
  5
213
330
1F
100
AcDbEntity
  8
0
  6
Continuous
 62
     7
370
    18
100
AcDbDimension
  2
_D_6
 10
228.0684268199
 20
115.4288707807
 30
0.0
 11
168.0684268199
 21
115.4288707807
 31
0.0
 70
   160
  1
<>
 71
     2
 42
-1.0
  3
SLDDIMSTYLE0
100
AcDbAlignedDimension
 13
108.0684268199
 23
133.7788707807
 33
0.0
 14
228.0684268199
 24
133.7788707807
 34
0.0
100
AcDbRotatedDimension
  0
DIMENSION
  5
21D
330
1F
100
AcDbEntity
  8
0
  6
Continuous
 62
     7
370
    18
100
AcDbDimension
  2
_D_7
 10
264.7151138318
 20
133.7788707807
 30
0.0
 11
264.7151138318
 21
147.1288707807
 31
0.0
 70
   160
  1
RZ = 27\PPZ = 29
 71
     2
 42
-1.0
  3
SLDDIMSTYLE0
100
AcDbAlignedDimension
 13
191.6684268199
 23
160.4788707807
 33
0.0
 14
228.0684268199
 24
133.7788707807
 34
0.0
 50
90.0
100
AcDbRotatedDimension
  0
DIMENSION
  5
22C
330
1F
100
AcDbEntity
  8
0
  6
Continuous
 62
     7
370
    18
100
AcDbDimension
  2
_D_8
 10
264.7151138318
 20
160.4788707807
 30
0.0
 11
264.7151138318
 21
189.5788707807
 31
0.0
 70
   160
  1
RZ = 58\PPZ = 56
 71
     2
 42
-1.0
  3
SLDDIMSTYLE0
100
AcDbAlignedDimension
 13
178.0684268199
 23
218.6788707807
 33
0.0
 14
191.6684268199
 24
160.4788707807
 34
0.0
 50
90.0
100
AcDbRotatedDimension
  0
DIMENSION
  5
23D
330
1F
100
AcDbEntity
  8
0
  6
Continuous
 62
     7
370
    18
100
AcDbDimension
  2
_D_9
 10
264.7151138318
 20
218.6788707807
 30
0.0
 11
264.7151138318
 21
233.9788707807
 31
0.0
 70
   160
  1
30
 71
     2
 42
-1.0
  3
SLDDIMSTYLE0
100
AcDbAlignedDimension
 13
228.0684268199
 23
249.2788707807
 33
0.0
 14
178.0684268199
 24
218.6788707807
 34
0.0
 50
90.0
100
AcDbRotatedDimension
  0
DIMENSION
  5
24A
330
1F
100
AcDbEntity
  8
0
  6
Continuous
 62
     7
370
    18
100
AcDbDimension
  2
_D_10
 10
272.7151138318
 20
133.7788707807
 30
0.0
 11
272.7151138318
 21
191.5288707807
 31
0.0
 70
   160
  1
115
 71
     2
 42
-1.0
  3
SLDDIMSTYLE0
100
AcDbAlignedDimension
 13
228.0684268199
 23
249.2788707807
 33
0.0
 14
228.0684268199
 24
133.7788707807
 34
0.0
 50
90.0
100
AcDbRotatedDimension
  0
DIMENSION
  5
254
330
1F
100
AcDbEntity
  8
0
  6
Continuous
 62
     7
370
    18
100
AcDbDimension
  2
_D_11
 10
69.7265125302
 20
163.3788707807
 30
0.0
 11
69.7265125302
 21
177.6288707807
 31
0.0
 70
   160
  1
<>
 71
     2
 42
-1.0
  3
SLDDIMSTYLE1
100
AcDbAlignedDimension
 13
79.764035997
 23
191.8788707807
 33
0.0
 14
79.764035997
 24
163.3788707807
 34
0.0
 50
90.0
100
AcDbRotatedDimension
  0
DIMENSION
  5
25E
330
1F
100
AcDbEntity
  8
0
  6
Continuous
 62
     7
370
    18
100
AcDbDimension
  2
_D_12
 10
108.0684268199
 20
115.4288707807
 30
0.0
 11
93.9162314085
 21
115.4288707807
 31
0.0
 70
   160
  1
<>
 71
     2
 42
-1.0
  3
SLDDIMSTYLE0
100
AcDbAlignedDimension
 13
79.764035997
 23
163.3788707807
 33
0.0
 14
108.0684268199
 24
133.7788707807
 34
0.0
100
AcDbRotatedDimension
  0
DIMENSION
  5
269
330
1F
100
AcDbEntity
  8
0
  6
Continuous
 62
     7
370
    18
100
AcDbDimension
  2
_D_13
 10
182.5684268199
 20
195.4933043207
 30
0.0
 11
178.0684268199
 21
195.4933043207
 31
0.0
 70
   160
  1
{\fGDT;o}<>
 71
     2
 42
-1.0
  3
SLDDIMSTYLE2
100
AcDbAlignedDimension
 13
173.5684268199
 23
214.1788707807
 33
0.0
 14
182.5684268199
 24
214.1788707807
 34
0.0
100
AcDbRotatedDimension
  0
DIMENSION
  5
27E
330
1F
100
AcDbEntity
  8
0
  6
Continuous
 62
     7
370
    18
100
AcDbDimension
  2
_D_14
 10
240.7151138318
 20
239.4788707807
 30
0.0
 11
240.7151138318
 21
197.7288707807
 31
0.0
 70
   160
  1
<>
 71
     2
 42
-1.0
  3
SLDDIMSTYLE3
100
AcDbAlignedDimension
 13
138.5684268199
 23
155.9788707807
 33
0.0
 14
138.5684268199
 24
239.4788707807
 34
0.0
 50
90.0
100
AcDbRotatedDimension
  0
DIMENSION
  5
289
330
1F
100
AcDbEntity
  8
0
  6
Continuous
 62
     7
370
    18
100
AcDbDimension
  2
_D_15
 10
248.7151138318
 20
142.7788707807
 30
0.0
 11
248.7151138318
 21
191.1288707807
 31
0.0
 70
   160
  1
<>
 71
     2
 42
-1.0
  3
SLDDIMSTYLE3
100
AcDbAlignedDimension
 13
138.5684268199
 23
239.4788707807
 33
0.0
 14
219.0684268199
 24
142.7788707807
 34
0.0
 50
90.0
100
AcDbRotatedDimension
  0
DIMENSION
  5
293
330
1F
100
AcDbEntity
  8
0
  6
Continuous
 62
     7
370
    18
100
AcDbDimension
  2
_D_16
 10
216.5684268199
 20
259.288845905
 30
0.0
 11
176.3184268199
 21
259.288845905
 31
0.0
 70
   160
  1
<>
 71
     2
 42
-1.0
  3
SLDDIMSTYLE3
100
AcDbAlignedDimension
 13
136.0684268199
 23
158.4788707807
 33
0.0
 14
216.5684268199
 24
145.2788707807
 34
0.0
100
AcDbRotatedDimension
  0
DIMENSION
  5
29D
330
1F
100
AcDbEntity
  8
0
  6
Continuous
 62
     7
370
    18
100
AcDbDimension
  2
_D_17
 10
228.0684268199
 20
259.288845905
 30
0.0
 11
222.3184268199
 21
259.288845905
 31
0.0
 70
   160
  1
<>
 71
     2
 42
-1.0
  3
SLDDIMSTYLE4
100
AcDbAlignedDimension
 13
216.5684268199
 23
241.9788707807
 33
0.0
 14
228.0684268199
 24
249.2788707807
 34
0.0
100
AcDbRotatedDimension
  0
DIMENSION
  5
2AA
330
1F
100
AcDbEntity
  8
0
  6
Continuous
 62
     7
370
    18
100
AcDbDimension
  2
_D_18
 10
248.7151138318
 20
249.2788707807
 30
0.0
 11
248.7151138318
 21
244.3788707807
 31
0.0
 70
   160
  1
<>
 71
     2
 42
-1.0
  3
SLDDIMSTYLE5
100
AcDbAlignedDimension
 13
219.0684268199
 23
239.4788707807
 33
0.0
 14
228.0684268199
 24
249.2788707807
 34
0.0
 50
90.0
100
AcDbRotatedDimension
  0
INSERT
  5
2C2
330
1F
100
AcDbEntity
  8
0
  6
Continuous
 62
     7
370
     0
100
AcDbBlockReference
  2
SW_CENTERMARKSYMBOL_0
 10
178.0684268199
 20
218.6788707807
 30
0.0
  0
INSERT
  5
2CE
330
1F
100
AcDbEntity
  8
0
  6
Continuous
 62
     7
370
     0
100
AcDbBlockReference
  2
SW_CENTERMARKSYMBOL_1
 10
178.0684268199
 20
160.4788707807
 30
0.0
  0
INSERT
  5
2D6
330
1F
100
AcDbEntity
  8
0
  6
Continuous
 62
     7
370
     0
100
AcDbBlockReference
  2
SW_CENTERMARKSYMBOL_2
 10
136.0684268199
 20
155.9788707807
 30
0.0
  0
INSERT
  5
2DE
330
1F
100
AcDbEntity
  8
0
  6
Continuous
 62
     7
370
     0
100
AcDbBlockReference
  2
SW_CENTERMARKSYMBOL_3
 10
216.5684268199
 20
142.7788707807
 30
0.0
  0
INSERT
  5
2E6
330
1F
100
AcDbEntity
  8
0
  6
Continuous
 62
     7
370
     0
100
AcDbBlockReference
  2
SW_CENTERMARKSYMBOL_4
 10
216.5684268199
 20
239.4788707807
 30
0.0
  0
INSERT
  5
2EE
330
1F
100
AcDbEntity
  8
0
  6
Continuous
 62
     7
370
     0
100
AcDbBlockReference
  2
SW_CENTERMARKSYMBOL_5
 10
136.0684268199
 20
239.4788707807
 30
0.0
  0
LINE
  5
2EF
330
1F
100
AcDbEntity
  8
0
  6
Continuous
 62
     7
370
    50
100
AcDbLine
 10
95.0682064615
 20
70.7014453365
 30
0.0
 11
107.0684244953
 21
49.9164507492
 31
0.0
  0
LINE
  5
2F0
330
1F
100
AcDbEntity
  8
0
  6
Continuous
 62
     7
370
    50
100
AcDbLine
 10
169.2184269525
 20
83.8164513698
 30
0.0
 11
169.2184269525
 21
83.1164516276
 31
0.0
  0
LINE
  5
2F1
330
1F
100
AcDbEntity
  8
0
  6
Continuous
 62
     7
370
    50
100
AcDbLine
 10
186.9184266873
 20
83.1164516276
 30
0.0
 11
186.9184266873
 21
83.8164513698
 31
0.0
  0
LINE
  5
2F2
330
1F
100
AcDbEntity
  8
0
  6
Continuous
 62
     7
370
    50
100
AcDbLine
 10
197.068426209
 20
81.1164515326
 30
0.0
 11
197.068426209
 21
83.1164516276
 31
0.0
  0
LINE
  5
2F3
330
1F
100
AcDbEntity
  8
0
  6
Continuous
 62
     7
370
    50
100
AcDbLine
 10
159.0684274308
 20
83.1164516276
 30
0.0
 11
159.0684274308
 21
81.1164515326
 31
0.0
  0
LINE
  5
2F4
330
1F
100
AcDbEntity
  8
0
  6
Continuous
 62
     7
370
    50
100
AcDbLine
 10
98.5813787304
 20
64.6164518549
 30
0.0
 11
80.2349871121
 21
64.6164518549
 31
0.0
  0
ARC
  5
2F5
330
1F
100
AcDbEntity
  8
0
  6
Continuous
 62
     7
370
    50
100
AcDbCircle
 10
109.7265125302
 20
70.1164514376
 30
0.0
 40
30.0
100
AcDbArc
 50
182.8659839826
 51
190.5639775891
  0
LINE
  5
2F6
330
1F
100
AcDbEntity
  8
0
  6
Continuous
 62
     7
370
    50
100
AcDbLine
 10
96.2719744168
 20
68.6164515792
 30
0.0
 11
79.7640359126
 21
68.6164515792
 31
0.0
  0
LINE
  5
2F7
330
1F
100
AcDbEntity
  8
0
  6
Continuous
 62
     7
370
    50
100
AcDbLine
 10
95.0684299789
 20
72.6164513035
 30
0.0
 11
79.83086017
 21
72.6164513035
 31
0.0
  0
ARC
  5
2F8
330
1F
100
AcDbEntity
  8
0
  6
Continuous
 62
     7
370
    50
100
AcDbCircle
 10
109.7265125302
 20
70.1164514376
 30
0.0
 40
30.0
100
AcDbArc
 50
175.2198081528
 51
182.8659839826
  0
ARC
  5
2F9
330
1F
100
AcDbEntity
  8
0
  6
Continuous
 62
     7
370
    50
100
AcDbCircle
 10
109.7265125302
 20
70.1164514376
 30
0.0
 40
30.0
100
AcDbArc
 50
169.4360224109
 51
175.2198081528
  0
LINE
  5
2FA
330
1F
100
AcDbEntity
  8
0
  6
Continuous
 62
     7
370
    50
100
AcDbLine
 10
95.0684299789
 20
75.6164513296
 30
0.0
 11
80.2349871121
 21
75.6164513296
 31
0.0
  0
LINE
  5
2FB
330
1F
100
AcDbEntity
  8
0
  6
Continuous
 62
     7
370
    50
100
AcDbLine
 10
110.26842651
 20
72.1164512216
 30
0.0
 11
110.0684231244
 21
72.1164512216
 31
0.0
  0
LINE
  5
2FC
330
1F
100
AcDbEntity
  8
0
  6
Continuous
 62
     7
370
    50
100
AcDbLine
 10
108.0684265219
 20
72.1164512216
 30
0.0
 11
95.0684299789
 21
72.1164512216
 31
0.0
  0
LINE
  5
2FD
330
1F
100
AcDbEntity
  8
0
  6
Continuous
 62
     7
370
    50
100
AcDbLine
 10
95.0684299789
 20
72.1164512216
 30
0.0
 11
95.0684299789
 21
75.9164515185
 31
0.0
  0
LINE
  5
2FE
330
1F
100
AcDbEntity
  8
0
  6
Continuous
 62
     7
370
    50
100
AcDbLine
 10
95.0684299789
 20
75.9164515185
 30
0.0
 11
108.0684265219
 21
75.9164515185
 31
0.0
  0
LINE
  5
2FF
330
1F
100
AcDbEntity
  8
0
  6
Continuous
 62
     7
370
    50
100
AcDbLine
 10
110.0684231244
 20
75.9164515185
 30
0.0
 11
110.26842651
 21
75.9164515185
 31
0.0
  0
LINE
  5
300
330
1F
100
AcDbEntity
  8
0
  6
Continuous
 62
     7
370
    50
100
AcDbLine
 10
107.7247014366
 20
49.9164507492
 30
0.0
 11
95.0684299789
 21
71.837765514
 31
0.0
  0
SPLINE
  5
301
330
1F
100
AcDbEntity
  8
0
  6
Continuous
 62
     7
370
    50
100
AcDbSpline
210
0.0
220
0.0
230
1.0
 70
    24
 71
     3
 72
    10
 73
     6
 74
     0
 42
0.000000001
 43
0.00000001
 40
0.0
 40
0.0
 40
0.0
 40
0.0
 40
0.0044937528990218
 40
0.500894626775534
 40
1.0
 40
1.0
 40
1.0
 40
1.0
 10
107.0698997102785
 20
49.91645074919783
 30
0.0
 10
107.0694091477095
 20
49.91645074919783
 30
0.0
 10
107.0147287590872
 20
49.91645074919795
 30
0.0
 10
107.1876858436987
 20
49.91645074919779
 30
0.0
 10
107.5453723291197
 20
49.91645074919781
 30
0.0
 10
107.7247014366198
 20
49.91645074919783
 30
0.0
  0
SPLINE
  5
302
330
1F
100
AcDbEntity
  8
0
  6
Continuous
 62
     7
370
    50
100
AcDbSpline
210
0.0
220
0.0
230
1.0
 70
    24
 71
     3
 72
     9
 73
     5
 74
     0
 42
0.000000001
 43
0.00000001
 40
0.0
 40
0.0
 40
0.0
 40
0.0
 40
0.4954817078247447
 40
0.9999999999999999
 40
0.9999999999999999
 40
0.9999999999999999
 40
0.9999999999999999
 10
95.06842997894762
 20
70.70157385901534
 30
0.0
 10
95.06842997894763
 20
70.7495715858765
 30
0.0
 10
95.06842997894763
 20
70.84644242107214
 30
0.0
 10
95.06842997894763
 20
71.50533975588641
 30
0.0
 10
95.06842997894763
 20
71.83776551396572
 30
0.0
  0
LINE
  5
303
330
1F
100
AcDbEntity
  8
0
  6
Continuous
 62
     7
370
    50
100
AcDbLine
 10
107.7247014366
 20
49.9164507492
 30
0.0
 11
108.0684265219
 21
49.9164507492
 31
0.0
  0
LINE
  5
304
330
1F
100
AcDbEntity
  8
0
  6
Continuous
 62
     7
370
    50
100
AcDbLine
 10
110.0684231244
 20
49.9164507492
 30
0.0
 11
116.5684251212
 21
49.9164507492
 31
0.0
  0
LINE
  5
305
330
1F
100
AcDbEntity
  8
0
  6
Continuous
 62
     7
370
    50
100
AcDbLine
 10
116.5684251212
 20
56.1164513929
 30
0.0
 11
116.5684251212
 21
49.9164507492
 31
0.0
  0
LINE
  5
306
330
1F
100
AcDbEntity
  8
0
  6
Continuous
 62
     7
370
    50
100
AcDbLine
 10
95.0684299789
 20
72.1164512216
 30
0.0
 11
95.0684299789
 21
71.837765514
 31
0.0
  0
LINE
  5
307
330
1F
100
AcDbEntity
  8
0
  6
Continuous
 62
     7
370
    50
100
AcDbLine
 10
186.9184266873
 20
83.8164513698
 30
0.0
 11
169.2184269525
 21
83.8164513698
 31
0.0
  0
LINE
  5
308
330
1F
100
AcDbEntity
  8
0
  6
Continuous
 62
     7
370
    50
100
AcDbLine
 10
159.0684274308
 20
83.1164516276
 30
0.0
 11
197.068426209
 21
83.1164516276
 31
0.0
  0
LINE
  5
309
330
1F
100
AcDbEntity
  8
0
  6
Continuous
 62
     7
370
    50
100
AcDbLine
 10
99.5684241973
 20
83.1164516276
 30
0.0
 11
93.5684269391
 21
83.1164516276
 31
0.0
  0
LINE
  5
30A
330
1F
100
AcDbEntity
  8
0
  6
Continuous
 62
     7
370
    50
100
AcDbLine
 10
93.5684269391
 20
83.1164516276
 30
0.0
 11
93.5684269391
 21
85.1164514898
 31
0.0
  0
LINE
  5
30B
330
1F
100
AcDbEntity
  8
0
  6
Continuous
 62
     7
370
    50
100
AcDbLine
 10
93.5684269391
 20
85.1164514898
 30
0.0
 11
99.5684241973
 21
85.1164514898
 31
0.0
  0
LINE
  5
30C
330
1F
100
AcDbEntity
  8
0
  6
Continuous
 62
     7
370
    50
100
AcDbLine
 10
107.254569801
 20
83.1164516276
 30
0.0
 11
99.5684241973
 21
83.1164516276
 31
0.0
  0
LINE
  5
30D
330
1F
100
AcDbEntity
  8
0
  6
Continuous
 62
     7
370
    50
100
AcDbLine
 10
107.254569801
 20
85.1164514898
 30
0.0
 11
99.5684241973
 21
85.1164514898
 31
0.0
  0
ARC
  5
30E
330
1F
100
AcDbEntity
  8
0
  6
Continuous
 62
     7
370
    50
100
AcDbCircle
 10
107.2545674815
 20
82.1164514376
 30
0.0
 40
1.000000000000004
100
AcDbArc
 50
55.150095421
 51
90.0
  0
ARC
  5
30F
330
1F
100
AcDbEntity
  8
0
  6
Continuous
 62
     7
370
    50
100
AcDbCircle
 10
107.2545674815
 20
82.1164514376
 30
0.0
 40
3.000000000000006
100
AcDbArc
 50
55.150095421
 51
90.0
  0
LINE
  5
310
330
1F
100
AcDbEntity
  8
0
  6
Continuous
 62
     7
370
    50
100
AcDbLine
 10
127.0684277736
 20
81.1164515326
 30
0.0
 11
111.3822883092
 21
81.1164515326
 31
0.0
  0
LINE
  5
311
330
1F
100
AcDbEntity
  8
0
  6
Continuous
 62
     7
370
    50
100
AcDbLine
 10
127.0684277736
 20
83.1164516276
 30
0.0
 11
111.3822883092
 21
83.1164516276
 31
0.0
  0
LINE
  5
312
330
1F
100
AcDbEntity
  8
0
  6
Continuous
 62
     7
370
    50
100
AcDbLine
 10
127.0684277736
 20
83.1164516276
 30
0.0
 11
127.0684277736
 21
81.1164515326
 31
0.0
  0
LINE
  5
313
330
1F
100
AcDbEntity
  8
0
  6
Continuous
 62
     7
370
    50
100
AcDbLine
 10
109.6679991208
 20
81.6544959089
 30
0.0
 11
107.8259995304
 21
82.937103347
 31
0.0
  0
LINE
  5
314
330
1F
100
AcDbEntity
  8
0
  6
Continuous
 62
     7
370
    50
100
AcDbLine
 10
110.8108585797
 20
83.2957996754
 30
0.0
 11
108.9688515388
 21
84.5784068807
 31
0.0
  0
ARC
  5
315
330
1F
100
AcDbEntity
  8
0
  6
Continuous
 62
     7
370
    50
100
AcDbCircle
 10
111.3822861583
 20
84.1164514376
 30
0.0
 40
3.0
100
AcDbArc
 50
235.150095421
 51
270.0
  0
ARC
  5
316
330
1F
100
AcDbEntity
  8
0
  6
Continuous
 62
     7
370
    50
100
AcDbCircle
 10
111.3822861583
 20
84.1164514376
 30
0.0
 40
1.000000000000007
100
AcDbArc
 50
235.150095421
 51
270.0
  0
LINE
  5
317
330
1F
100
AcDbEntity
  8
0
  6
Continuous
 62
     7
370
    50
100
AcDbLine
 10
228.068427565
 20
81.1164515326
 30
0.0
 11
228.068427565
 21
79.1064514379
 31
0.0
  0
LINE
  5
318
330
1F
100
AcDbEntity
  8
0
  6
Continuous
 62
     7
370
    50
100
AcDbLine
 10
110.26842651
 20
79.1064514379
 30
0.0
 11
110.26842651
 21
79.1164514376
 31
0.0
  0
LINE
  5
319
330
1F
100
AcDbEntity
  8
0
  6
Continuous
 62
     7
370
    50
100
AcDbLine
 10
110.26842651
 20
81.1164515326
 30
0.0
 11
111.3822883092
 21
81.1164515326
 31
0.0
  0
LINE
  5
31A
330
1F
100
AcDbEntity
  8
0
  6
Continuous
 62
     7
370
    50
100
AcDbLine
 10
127.0684277736
 20
81.1164515326
 30
0.0
 11
228.068427565
 21
81.1164515326
 31
0.0
  0
LINE
  5
31B
330
1F
100
AcDbEntity
  8
0
  6
Continuous
 62
     7
370
    50
100
AcDbLine
 10
110.26842651
 20
79.1164514376
 30
0.0
 11
110.0784292542
 21
79.1164514376
 31
0.0
  0
LINE
  5
31C
330
1F
100
AcDbEntity
  8
0
  6
Continuous
 62
     7
370
    50
100
AcDbLine
 10
110.26842651
 20
81.1164515326
 30
0.0
 11
110.0784292542
 21
81.1164515326
 31
0.0
  0
LINE
  5
31D
330
1F
100
AcDbEntity
  8
0
  6
Continuous
 62
     7
370
    50
100
AcDbLine
 10
110.26842651
 20
79.1164514376
 30
0.0
 11
110.26842651
 21
81.1164515326
 31
0.0
  0
LINE
  5
31E
330
1F
100
AcDbEntity
  8
0
  6
Continuous
 62
     7
370
    50
100
AcDbLine
 10
228.068427565
 20
56.1164513929
 30
0.0
 11
228.068427565
 21
79.1064514379
 31
0.0
  0
LINE
  5
31F
330
1F
100
AcDbEntity
  8
0
  6
Continuous
 62
     7
370
    50
100
AcDbLine
 10
110.26842651
 20
56.1164513929
 30
0.0
 11
228.068427565
 21
56.1164513929
 31
0.0
  0
LINE
  5
320
330
1F
100
AcDbEntity
  8
0
  6
Continuous
 62
     7
370
    50
100
AcDbLine
 10
110.26842651
 20
79.1064514379
 30
0.0
 11
110.26842651
 21
56.1164513929
 31
0.0
  0
ARC
  5
321
330
1F
100
AcDbEntity
  8
0
  6
Continuous
 62
     7
370
    50
100
AcDbCircle
 10
110.0784268199
 20
79.1064514376
 30
0.0
 40
0.0100000000000051
100
AcDbArc
 50
90.0
 51
180.0
  0
ARC
  5
322
330
1F
100
AcDbEntity
  8
0
  6
Continuous
 62
     7
370
    50
100
AcDbCircle
 10
110.0784268199
 20
79.1064514376
 30
0.0
 40
2.010000000000005
100
AcDbArc
 50
90.0
 51
180.0
  0
LINE
  5
323
330
1F
100
AcDbEntity
  8
0
  6
Continuous
 62
     7
370
    50
100
AcDbLine
 10
110.0684231244
 20
36.1164499773
 30
0.0
 11
110.0684231244
 21
79.1064514379
 31
0.0
  0
LINE
  5
324
330
1F
100
AcDbEntity
  8
0
  6
Continuous
 62
     7
370
    50
100
AcDbLine
 10
108.0684265219
 20
36.1164499773
 30
0.0
 11
110.0684231244
 21
36.1164499773
 31
0.0
  0
LINE
  5
325
330
1F
100
AcDbEntity
  8
0
  6
Continuous
 62
     7
370
    50
100
AcDbLine
 10
108.0684265219
 20
36.1164499773
 30
0.0
 11
108.0684265219
 21
79.1064514379
 31
0.0
  0
LINE
  5
326
330
1F
100
AcDbEntity
  8
0
  6
Continuous
 62
     7
370
    18
100
AcDbLine
 10
99.5684241973
 20
85.1164514898
 30
0.0
 11
99.5684241973
 21
83.1164516276
 31
0.0
  0
LINE
  5
327
330
1F
100
AcDbEntity
  8
0
  6
Continuous
 62
     7
370
    18
100
AcDbLine
 10
107.254569801
 20
85.1164514898
 30
0.0
 11
107.254569801
 21
83.1164516276
 31
0.0
  0
LINE
  5
328
330
1F
100
AcDbEntity
  8
0
  6
Continuous
 62
     7
370
    18
100
AcDbLine
 10
108.9688515388
 20
84.5784068807
 30
0.0
 11
107.8259995304
 21
82.937103347
 31
0.0
  0
LINE
  5
329
330
1F
100
AcDbEntity
  8
0
  6
Continuous
 62
     7
370
    18
100
AcDbLine
 10
111.3822883092
 20
83.1164516276
 30
0.0
 11
111.3822883092
 21
81.1164515326
 31
0.0
  0
LINE
  5
32A
330
1F
100
AcDbEntity
  8
0
  6
Continuous
 62
     7
370
    18
100
AcDbLine
 10
110.8108585797
 20
83.2957996754
 30
0.0
 11
109.6679991208
 21
81.6544959089
 31
0.0
  0
LINE
  5
32B
330
1F
100
AcDbEntity
  8
0
  6
Continuous
 62
     7
370
    18
100
AcDbLine
 10
110.26842651
 20
79.1064514379
 30
0.0
 11
228.068427565
 21
79.1064514379
 31
0.0
  0
LINE
  5
32C
330
1F
100
AcDbEntity
  8
0
  6
Continuous
 62
     7
370
    18
100
AcDbLine
 10
110.0784292542
 20
79.1164514376
 30
0.0
 11
110.0784292542
 21
81.1164515326
 31
0.0
  0
LINE
  5
32D
330
1F
100
AcDbEntity
  8
0
  6
Continuous
 62
     7
370
    18
100
AcDbLine
 10
110.0684231244
 20
79.1064514379
 30
0.0
 11
108.0684265219
 21
79.1064514379
 31
0.0
  0
DIMENSION
  5
32E
330
1F
100
AcDbEntity
  8
0
  6
Continuous
 62
     7
370
    18
100
AcDbDimension
  2
_D_19
 10
61.7265125302
 20
75.9164514376
 30
0.0
 11
61.7265125302
 21
62.9164514376
 31
0.0
 70
   160
  1
<>
 71
     2
 42
-1.0
  3
SLDDIMSTYLE0
100
AcDbAlignedDimension
 13
107.0684268199
 23
49.9164514376
 33
0.0
 14
95.0684268199
 24
75.9164514376
 34
0.0
 50
90.0
100
AcDbRotatedDimension
  0
DIMENSION
  5
338
330
1F
100
AcDbEntity
  8
0
  6
Continuous
 62
     7
370
    18
100
AcDbDimension
  2
_D_20
 10
61.7265125302
 20
75.9164514376
 30
0.0
 11
61.7265125302
 21
89.2711646632
 31
0.0
 70
   160
  1
<>
 71
     2
 42
-1.0
  3
SLDDIMSTYLE5
100
AcDbAlignedDimension
 13
110.0784268199
 23
81.1164514376
 33
0.0
 14
95.0684268199
 24
75.9164514376
 34
0.0
 50
90.0
100
AcDbRotatedDimension
  0
DIMENSION
  5
344
330
1F
100
AcDbEntity
  8
0
  6
Continuous
 62
     7
370
    18
100
AcDbDimension
  2
_D_21
 10
69.7265125302
 20
64.6164514376
 30
0.0
 11
69.7265125302
 21
70.1164514376
 31
0.0
 70
   160
  1
<>
 71
     2
 42
-1.0
  3
SLDDIMSTYLE0
100
AcDbAlignedDimension
 13
80.2349883241
 23
75.6164514376
 33
0.0
 14
80.2349883241
 24
64.6164514376
 34
0.0
 50
90.0
100
AcDbRotatedDimension
  0
DIMENSION
  5
34E
330
1F
100
AcDbEntity
  8
0
  6
Continuous
 62
     7
370
    18
100
AcDbDimension
  2
_D_22
 10
69.7265125302
 20
64.6164514376
 30
0.0
 11
69.7265125302
 21
60.3664514376
 31
0.0
 70
   160
  1
<>
 71
     2
 42
-1.0
  3
SLDDIMSTYLE1
100
AcDbAlignedDimension
 13
110.2684268199
 23
56.1164514376
 33
0.0
 14
80.2349883241
 24
64.6164514376
 34
0.0
 50
90.0
100
AcDbRotatedDimension
  0
DIMENSION
  5
358
330
1F
100
AcDbEntity
  8
0
  6
Continuous
 62
     7
370
    18
100
AcDbDimension
  2
_D_23
 10
248.5256909027
 20
81.1164514376
 30
0.0
 11
248.5256909027
 21
58.6164514376
 31
0.0
 70
   160
  1
<>
 71
     2
 42
-1.0
  3
SLDDIMSTYLE0
100
AcDbAlignedDimension
 13
110.0684268199
 23
36.1164514376
 33
0.0
 14
228.0684268199
 24
81.1164514376
 34
0.0
 50
90.0
100
AcDbRotatedDimension
  0
DIMENSION
  5
362
330
1F
100
AcDbEntity
  8
0
  6
Continuous
 62
     7
370
    18
100
AcDbDimension
  2
_D_24
 10
238.0784019447
 20
56.1164514376
 30
0.0
 11
238.0784019447
 21
68.6164514376
 31
0.0
 70
   160
  1
<>
 71
     2
 42
-1.0
  3
SLDDIMSTYLE0
100
AcDbAlignedDimension
 13
228.0684268199
 23
81.1164514376
 33
0.0
 14
228.0684268199
 24
56.1164514376
 34
0.0
 50
90.0
100
AcDbRotatedDimension
  0
LINE
  5
36C
330
1F
100
AcDbEntity
  8
0
  6
Continuous
 62
     7
100
AcDbLine
 10
344.8626489446
 20
133.7788707807
 30
0.0
 11
344.8626489446
 21
249.2788707807
 31
0.0
  0
LINE
  5
36D
330
1F
100
AcDbEntity
  8
0
  6
Continuous
 62
     7
370
    50
100
AcDbLine
 10
341.2187655971
 20
237.1167089626
 30
0.0
 11
341.1940762357
 21
237.1788710191
 31
0.0
  0
ARC
  5
36E
330
1F
100
AcDbEntity
  8
0
  6
Continuous
 62
     7
370
    50
100
AcDbCircle
 10
333.3126489446
 20
234.2788707807
 30
0.0
 40
8.400000000000057
100
AcDbArc
 50
17.6722382585
 51
19.7451981006
  0
LINE
  5
36F
330
1F
100
AcDbEntity
  8
0
  6
Continuous
 62
     7
370
    50
100
AcDbLine
 10
332.3626488031
 20
191.8788716033
 30
0.0
 11
336.3626485274
 21
191.8788716033
 31
0.0
  0
LINE
  5
370
330
1F
100
AcDbEntity
  8
0
  6
Continuous
 62
     7
370
    50
100
AcDbLine
 10
336.3626485274
 20
191.8788716033
 30
0.0
 11
336.3626485274
 21
163.3788697257
 31
0.0
  0
LINE
  5
371
330
1F
100
AcDbEntity
  8
0
  6
Continuous
 62
     7
370
    50
100
AcDbLine
 10
332.3626488031
 20
163.3788697257
 30
0.0
 11
336.3626485274
 21
163.3788697257
 31
0.0
  0
LINE
  5
372
330
1F
100
AcDbEntity
  8
0
  6
Continuous
 62
     7
370
    50
100
AcDbLine
 10
332.3626488031
 20
191.8788716033
 30
0.0
 11
332.3626488031
 21
163.3788697257
 31
0.0
  0
LINE
  5
373
330
1F
100
AcDbEntity
  8
0
  6
Continuous
 62
     7
370
    50
100
AcDbLine
 10
328.3626490787
 20
163.3788697257
 30
0.0
 11
332.3626488031
 21
163.3788697257
 31
0.0
  0
LINE
  5
374
330
1F
100
AcDbEntity
  8
0
  6
Continuous
 62
     7
370
    50
100
AcDbLine
 10
328.3626490787
 20
191.8788716033
 30
0.0
 11
328.3626490787
 21
163.3788697257
 31
0.0
  0
LINE
  5
375
330
1F
100
AcDbEntity
  8
0
  6
Continuous
 62
     7
370
    50
100
AcDbLine
 10
328.3626490787
 20
191.8788716033
 30
0.0
 11
332.3626488031
 21
191.8788716033
 31
0.0
  0
LINE
  5
376
330
1F
100
AcDbEntity
  8
0
  6
Continuous
 62
     7
370
    50
100
AcDbLine
 10
325.3626490527
 20
163.3788697257
 30
0.0
 11
328.3626490787
 21
163.3788697257
 31
0.0
  0
LINE
  5
377
330
1F
100
AcDbEntity
  8
0
  6
Continuous
 62
     7
370
    50
100
AcDbLine
 10
325.3626490527
 20
191.8788716033
 30
0.0
 11
325.3626490527
 21
163.3788697257
 31
0.0
  0
LINE
  5
378
330
1F
100
AcDbEntity
  8
0
  6
Continuous
 62
     7
370
    50
100
AcDbLine
 10
325.3626490527
 20
191.8788716033
 30
0.0
 11
328.3626490787
 21
191.8788716033
 31
0.0
  0
LINE
  5
379
330
1F
100
AcDbEntity
  8
0
  6
Continuous
 62
     7
370
    50
100
AcDbLine
 10
328.3626490787
 20
163.3788697257
 30
0.0
 11
328.3626490787
 21
163.1288692191
 31
0.0
  0
LINE
  5
37A
330
1F
100
AcDbEntity
  8
0
  6
Continuous
 62
     7
370
    50
100
AcDbLine
 10
328.3626490787
 20
192.1288702473
 30
0.0
 11
328.3626490787
 21
191.8788716033
 31
0.0
  0
LINE
  5
37B
330
1F
100
AcDbEntity
  8
0
  6
Continuous
 62
     7
370
    50
100
AcDbLine
 10
329.8626493246
 20
192.1288702473
 30
0.0
 11
329.8626493246
 21
191.8788716033
 31
0.0
  0
LINE
  5
37C
330
1F
100
AcDbEntity
  8
0
  6
Continuous
 62
     7
370
    50
100
AcDbLine
 10
328.8626491607
 20
219.128870773
 30
0.0
 11
328.8626491607
 21
216.2288707517
 31
0.0
  0
LINE
  5
37D
330
1F
100
AcDbEntity
  8
0
  6
Continuous
 62
     7
370
    50
100
AcDbLine
 10
328.8626491607
 20
216.2288707517
 30
0.0
 11
325.0626488638
 21
216.2288707517
 31
0.0
  0
LINE
  5
37E
330
1F
100
AcDbEntity
  8
0
  6
Continuous
 62
     7
370
    50
100
AcDbLine
 10
325.0626488638
 20
216.2288707517
 30
0.0
 11
325.0626488638
 21
239.728871344
 31
0.0
  0
LINE
  5
37F
330
1F
100
AcDbEntity
  8
0
  6
Continuous
 62
     7
370
    50
100
AcDbLine
 10
328.8626491607
 20
239.728871344
 30
0.0
 11
325.0626488638
 21
239.728871344
 31
0.0
  0
LINE
  5
380
330
1F
100
AcDbEntity
  8
0
  6
Continuous
 62
     7
370
    50
100
AcDbLine
 10
328.8626491607
 20
239.728871344
 30
0.0
 11
328.8626491607
 21
236.8288706824
 31
0.0
  0
LINE
  5
381
330
1F
100
AcDbEntity
  8
0
  6
Continuous
 62
     7
370
    50
100
AcDbLine
 10
328.8626491607
 20
236.8288706824
 30
0.0
 11
329.1413348683
 21
236.8288706824
 31
0.0
  0
SPLINE
  5
382
330
1F
100
AcDbEntity
  8
0
  6
Continuous
 62
     7
370
    50
100
AcDbSpline
210
0.0
220
0.0
230
1.0
 70
     8
 71
     3
 72
    11
 73
     7
 74
     0
 42
0.000000001
 43
0.00000001
 40
0.0
 40
0.0
 40
0.0
 40
0.0
 40
0.2497573933555116
 40
0.4995518464097762
 40
0.747741512227084
 40
1.0
 40
1.0
 40
1.0
 40
1.0
 10
329.1413348682958
 20
219.1288707730013
 30
0.0
 10
329.4638647676712
 20
220.58441376117
 30
0.0
 10
330.1089724243082
 20
223.4957157150362
 30
0.0
 10
330.3614739442285
 20
227.9612488626292
 30
0.0
 10
330.1120000445291
 20
232.4417736198884
 30
0.0
 10
329.4666389323692
 20
235.3586000485363
 30
0.0
 10
329.1413348682958
 20
236.8288706823837
 30
0.0
  0
LINE
  5
383
330
1F
100
AcDbEntity
  8
0
  6
Continuous
 62
     7
370
    50
100
AcDbLine
 10
328.8626491607
 20
219.128870773
 30
0.0
 11
329.1413348683
 21
219.128870773
 31
0.0
  0
LINE
  5
384
330
1F
100
AcDbEntity
  8
0
  6
Continuous
 62
     7
370
    50
100
AcDbLine
 10
351.0626496331
 20
236.8288706824
 30
0.0
 11
329.1413348683
 21
236.8288706824
 31
0.0
  0
SPLINE
  5
385
330
1F
100
AcDbEntity
  8
0
  6
Continuous
 62
     7
370
    50
100
AcDbSpline
210
0.0
220
0.0
230
1.0
 70
    24
 71
     3
 72
    11
 73
     7
 74
     0
 42
0.000000001
 43
0.00000001
 40
0.0
 40
0.0
 40
0.0
 40
0.0
 40
0.2511483953019619
 40
0.5022967573245232
 40
0.7504723215811483
 40
0.9999999999999999
 40
0.9999999999999999
 40
0.9999999999999999
 40
0.9999999999999999
 10
351.0626496330636
 20
219.1288707730013
 30
0.0
 10
351.0626496330636
 20
220.6045671278968
 30
0.0
 10
351.0626496330636
 20
223.5559596421447
 30
0.0
 10
351.0626496330636
 20
228.0021291636395
 30
0.0
 10
351.0626496330636
 20
232.4383955733996
 30
0.0
 10
351.0626496330636
 20
235.3627307915235
 30
0.0
 10
351.0626496330636
 20
236.8288706823837
 30
0.0
  0
LINE
  5
386
330
1F
100
AcDbEntity
  8
0
  6
Continuous
 62
     7
370
    50
100
AcDbLine
 10
351.0626496331
 20
219.128870773
 30
0.0
 11
329.1413348683
 21
219.128870773
 31
0.0
  0
LINE
  5
387
330
1F
100
AcDbEntity
  8
0
  6
Continuous
 62
     7
370
    50
100
AcDbLine
 10
336.562649119
 20
237.2079264208
 30
0.0
 11
336.562649119
 21
236.8288706824
 31
0.0
  0
LINE
  5
388
330
1F
100
AcDbEntity
  8
0
  6
Continuous
 62
     7
370
    50
100
AcDbLine
 10
336.4626492888
 20
219.128870773
 30
0.0
 11
336.4626492888
 21
218.7788707782
 31
0.0
  0
LINE
  5
389
330
1F
100
AcDbEntity
  8
0
  6
Continuous
 62
     7
370
    50
100
AcDbLine
 10
341.1626496867
 20
219.128870773
 30
0.0
 11
341.1626496867
 21
218.7788707782
 31
0.0
  0
LINE
  5
38A
330
1F
100
AcDbEntity
  8
0
  6
Continuous
 62
     7
370
    50
100
AcDbLine
 10
334.8626492129
 20
218.7788707782
 30
0.0
 11
334.8626492129
 21
219.128870773
 31
0.0
  0
LINE
  5
38B
330
1F
100
AcDbEntity
  8
0
  6
Continuous
 62
     7
370
    50
100
AcDbLine
 10
329.8626493246
 20
192.1288702473
 30
0.0
 11
329.8626493246
 21
191.8788716033
 31
0.0
  0
LINE
  5
38C
330
1F
100
AcDbEntity
  8
0
  6
Continuous
 62
     7
370
    50
100
AcDbLine
 10
333.5626486272
 20
192.1288702473
 30
0.0
 11
333.5626486272
 21
191.8788716033
 31
0.0
  0
LINE
  5
38D
330
1F
100
AcDbEntity
  8
0
  6
Continuous
 62
     7
370
    50
100
AcDbLine
 10
339.0126486824
 20
237.1788710191
 30
0.0
 11
339.0126486824
 21
236.8288706824
 31
0.0
  0
LINE
  5
38E
330
1F
100
AcDbEntity
  8
0
  6
Continuous
 62
     7
370
    50
100
AcDbLine
 10
339.0126486824
 20
219.128870773
 30
0.0
 11
339.0126486824
 21
218.7788707782
 31
0.0
  0
LINE
  5
38F
330
1F
100
AcDbEntity
  8
0
  6
Continuous
 62
     7
370
    50
100
AcDbLine
 10
337.2626488612
 20
237.1788710191
 30
0.0
 11
337.2626488612
 21
236.8288706824
 31
0.0
  0
LINE
  5
390
330
1F
100
AcDbEntity
  8
0
  6
Continuous
 62
     7
370
    50
100
AcDbLine
 10
337.2626488612
 20
219.128870773
 30
0.0
 11
337.2626488612
 21
218.7788707782
 31
0.0
  0
LINE
  5
391
330
1F
100
AcDbEntity
  8
0
  6
Continuous
 62
     7
370
    50
100
AcDbLine
 10
337.2626488612
 20
133.4288731053
 30
0.0
 11
339.0126486824
 21
133.4288731053
 31
0.0
  0
LINE
  5
392
330
1F
100
AcDbEntity
  8
0
  6
Continuous
 62
     7
370
    50
100
AcDbLine
 10
339.0126486824
 20
133.7788715794
 30
0.0
 11
339.0126486824
 21
133.4288731053
 31
0.0
  0
LINE
  5
393
330
1F
100
AcDbEntity
  8
0
  6
Continuous
 62
     7
370
    50
100
AcDbLine
 10
337.2626488612
 20
133.7788715794
 30
0.0
 11
337.2626488612
 21
133.4288731053
 31
0.0
  0
LINE
  5
394
330
1F
100
AcDbEntity
  8
0
  6
Continuous
 62
     7
370
    50
100
AcDbLine
 10
333.362648967
 20
141.2653192714
 30
0.0
 11
333.362648967
 21
143.4924244716
 31
0.0
  0
ARC
  5
395
330
1F
100
AcDbEntity
  8
0
  6
Continuous
 62
     7
370
    50
100
AcDbCircle
 10
330.6126489446
 20
142.0288707807
 30
0.0
 40
3.499999999999962
100
AcDbArc
 50
82.3435483751
 51
141.7867892983
  0
LINE
  5
396
330
1F
100
AcDbEntity
  8
0
  6
Continuous
 62
     7
370
    50
100
AcDbLine
 10
327.8626489968
 20
144.1939338877
 30
0.0
 11
327.8626489968
 21
140.3813749388
 31
0.0
  0
LINE
  5
397
330
1F
100
AcDbEntity
  8
0
  6
Continuous
 62
     7
370
    50
100
AcDbLine
 10
315.8626488925
 20
249.0788712933
 30
0.0
 11
317.8626487546
 21
249.0788712933
 31
0.0
  0
LINE
  5
398
330
1F
100
AcDbEntity
  8
0
  6
Continuous
 62
     7
370
    50
100
AcDbLine
 10
317.8626487546
 20
249.0788712933
 30
0.0
 11
317.8626487546
 21
243.0788703099
 31
0.0
  0
LINE
  5
399
330
1F
100
AcDbEntity
  8
0
  6
Continuous
 62
     7
370
    50
100
AcDbLine
 10
315.8626488925
 20
243.0788703099
 30
0.0
 11
315.8626488925
 21
249.0788712933
 31
0.0
  0
LINE
  5
39A
330
1F
100
AcDbEntity
  8
0
  6
Continuous
 62
     7
370
    50
100
AcDbLine
 10
317.8626487546
 20
140.0788739159
 30
0.0
 11
317.8626487546
 21
243.0788703099
 31
0.0
  0
LINE
  5
39B
330
1F
100
AcDbEntity
  8
0
  6
Continuous
 62
     7
370
    50
100
AcDbLine
 10
315.8626488925
 20
140.0788739159
 30
0.0
 11
315.8626488925
 21
243.0788703099
 31
0.0
  0
LINE
  5
39C
330
1F
100
AcDbEntity
  8
0
  6
Continuous
 62
     7
370
    50
100
AcDbLine
 10
317.8626487546
 20
134.0788692072
 30
0.0
 11
315.8626488925
 21
134.0788692072
 31
0.0
  0
LINE
  5
39D
330
1F
100
AcDbEntity
  8
0
  6
Continuous
 62
     7
370
    50
100
AcDbLine
 10
317.8626487546
 20
140.0788739159
 30
0.0
 11
317.8626487546
 21
134.0788692072
 31
0.0
  0
LINE
  5
39E
330
1F
100
AcDbEntity
  8
0
  6
Continuous
 62
     7
370
    50
100
AcDbLine
 10
315.8626488925
 20
134.0788692072
 30
0.0
 11
315.8626488925
 21
140.0788739159
 31
0.0
  0
LINE
  5
39F
330
1F
100
AcDbEntity
  8
0
  6
Continuous
 62
     7
370
    50
100
AcDbLine
 10
318.0419970353
 20
134.0788692072
 30
0.0
 11
317.8626487546
 21
134.0788692072
 31
0.0
  0
LINE
  5
3A0
330
1F
100
AcDbEntity
  8
0
  6
Continuous
 62
     7
370
    50
100
AcDbLine
 10
318.0419970353
 20
249.0788712933
 30
0.0
 11
317.8626487546
 21
249.0788712933
 31
0.0
  0
LINE
  5
3A1
330
1F
100
AcDbEntity
  8
0
  6
Continuous
 62
     7
370
    50
100
AcDbLine
 10
319.3246044733
 20
134.0788692072
 30
0.0
 11
318.0419970353
 21
134.0788692072
 31
0.0
  0
LINE
  5
3A2
330
1F
100
AcDbEntity
  8
0
  6
Continuous
 62
     7
370
    50
100
AcDbLine
 10
319.3246044733
 20
249.0788712933
 30
0.0
 11
318.0419970353
 21
249.0788712933
 31
0.0
  0
LINE
  5
3A3
330
1F
100
AcDbEntity
  8
0
  6
Continuous
 62
     7
370
    50
100
AcDbLine
 10
319.8626488496
 20
134.0788692072
 30
0.0
 11
319.3246044733
 21
134.0788692072
 31
0.0
  0
LINE
  5
3A4
330
1F
100
AcDbEntity
  8
0
  6
Continuous
 62
     7
370
    50
100
AcDbLine
 10
319.8626488496
 20
249.0788712933
 30
0.0
 11
319.3246044733
 21
249.0788712933
 31
0.0
  0
CIRCLE
  5
3A5
330
1F
100
AcDbEntity
  8
0
  6
Continuous
 62
     7
370
    50
100
AcDbCircle
 10
330.3626489446
 20
142.3788707807
 30
0.0
 40
5.000000000000057
  0
LINE
  5
3A6
330
1F
100
AcDbEntity
  8
0
  6
Continuous
 62
     7
370
    50
100
AcDbLine
 10
364.8626504049
 20
133.7788715794
 30
0.0
 11
364.8626504049
 21
249.2788709536
 31
0.0
  0
CIRCLE
  5
3A7
330
1F
100
AcDbEntity
  8
0
  6
Continuous
 62
     7
370
    50
100
AcDbCircle
 10
356.8626489446
 20
241.2788707807
 30
0.0
 40
1.75
  0
CIRCLE
  5
3A8
330
1F
100
AcDbEntity
  8
0
  6
Continuous
 62
     7
370
    50
100
AcDbCircle
 10
356.8626489446
 20
141.7788707807
 30
0.0
 40
1.75
  0
LINE
  5
3A9
330
1F
100
AcDbEntity
  8
0
  6
Continuous
 62
     7
370
    50
100
AcDbLine
 10
329.2626489469
 20
237.1788710191
 30
0.0
 11
351.8626482741
 21
237.1788710191
 31
0.0
  0
LINE
  5
3AA
330
1F
100
AcDbEntity
  8
0
  6
Continuous
 62
     7
370
    50
100
AcDbLine
 10
329.2626489469
 20
239.978869988
 30
0.0
 11
329.2626489469
 21
237.1788710191
 31
0.0
  0
LINE
  5
3AB
330
1F
100
AcDbEntity
  8
0
  6
Continuous
 62
     7
370
    50
100
AcDbLine
 10
325.0626488638
 20
239.978869988
 30
0.0
 11
329.2626489469
 21
239.978869988
 31
0.0
  0
LINE
  5
3AC
330
1F
100
AcDbEntity
  8
0
  6
Continuous
 62
     7
370
    50
100
AcDbLine
 10
325.0626488638
 20
215.9788707107
 30
0.0
 11
325.0626488638
 21
216.2288707517
 31
0.0
  0
LINE
  5
3AD
330
1F
100
AcDbEntity
  8
0
  6
Continuous
 62
     7
370
    50
100
AcDbLine
 10
325.0626488638
 20
239.728871344
 30
0.0
 11
325.0626488638
 21
239.978869988
 31
0.0
  0
LINE
  5
3AE
330
1F
100
AcDbEntity
  8
0
  6
Continuous
 62
     7
370
    50
100
AcDbLine
 10
329.2626489469
 20
215.9788707107
 30
0.0
 11
325.0626488638
 21
215.9788707107
 31
0.0
  0
LINE
  5
3AF
330
1F
100
AcDbEntity
  8
0
  6
Continuous
 62
     7
370
    50
100
AcDbLine
 10
329.2626489469
 20
218.7788707782
 30
0.0
 11
329.2626489469
 21
215.9788707107
 31
0.0
  0
LINE
  5
3B0
330
1F
100
AcDbEntity
  8
0
  6
Continuous
 62
     7
370
    50
100
AcDbLine
 10
351.8626482741
 20
218.7788707782
 30
0.0
 11
329.2626489469
 21
218.7788707782
 31
0.0
  0
LINE
  5
3B1
330
1F
100
AcDbEntity
  8
0
  6
Continuous
 62
     7
370
    50
100
AcDbLine
 10
351.8626482741
 20
237.1788710191
 30
0.0
 11
351.8626482741
 21
218.7788707782
 31
0.0
  0
LINE
  5
3B2
330
1F
100
AcDbEntity
  8
0
  6
Continuous
 62
     7
370
    50
100
AcDbLine
 10
336.8626486094
 20
163.1288692191
 30
0.0
 11
336.8626486094
 21
192.1288702473
 31
0.0
  0
LINE
  5
3B3
330
1F
100
AcDbEntity
  8
0
  6
Continuous
 62
     7
370
    50
100
AcDbLine
 10
336.8626486094
 20
192.1288702473
 30
0.0
 11
325.3626490527
 21
192.1288702473
 31
0.0
  0
LINE
  5
3B4
330
1F
100
AcDbEntity
  8
0
  6
Continuous
 62
     7
370
    50
100
AcDbLine
 10
325.3626490527
 20
192.1288702473
 30
0.0
 11
325.3626490527
 21
191.8788716033
 31
0.0
  0
LINE
  5
3B5
330
1F
100
AcDbEntity
  8
0
  6
Continuous
 62
     7
370
    50
100
AcDbLine
 10
325.3626490527
 20
163.3788697257
 30
0.0
 11
325.3626490527
 21
163.1288692191
 31
0.0
  0
LINE
  5
3B6
330
1F
100
AcDbEntity
  8
0
  6
Continuous
 62
     7
370
    50
100
AcDbLine
 10
325.3626490527
 20
163.1288692191
 30
0.0
 11
336.8626486094
 21
163.1288692191
 31
0.0
  0
LINE
  5
3B7
330
1F
100
AcDbEntity
  8
0
  6
Continuous
 62
     7
370
    50
100
AcDbLine
 10
321.8726489444
 20
133.7788715794
 30
0.0
 11
364.8626504049
 21
133.7788715794
 31
0.0
  0
LINE
  5
3B8
330
1F
100
AcDbEntity
  8
0
  6
Continuous
 62
     7
370
    50
100
AcDbLine
 10
364.8626504049
 20
249.2788709536
 30
0.0
 11
321.8726489444
 21
249.2788709536
 31
0.0
  0
CIRCLE
  5
3B9
330
1F
100
AcDbEntity
  8
0
  6
Continuous
 62
     7
370
    50
100
AcDbCircle
 10
330.3626489446
 20
142.3788707807
 30
0.0
 40
3.199999999999989
  0
LINE
  5
3BA
330
1F
100
AcDbEntity
  8
0
  6
Continuous
 62
     7
370
    50
100
AcDbLine
 10
319.8626488496
 20
133.7788715794
 30
0.0
 11
319.8626488496
 21
249.2788709536
 31
0.0
  0
LINE
  5
3BB
330
1F
100
AcDbEntity
  8
0
  6
Continuous
 62
     7
370
    50
100
AcDbLine
 10
319.8626488496
 20
249.2788709536
 30
0.0
 11
321.8726489444
 21
249.2788709536
 31
0.0
  0
LINE
  5
3BC
330
1F
100
AcDbEntity
  8
0
  6
Continuous
 62
     7
370
    50
100
AcDbLine
 10
321.8726489444
 20
133.7788715794
 30
0.0
 11
319.8626488496
 21
133.7788715794
 31
0.0
  0
LINE
  5
3BD
330
1F
100
AcDbEntity
  8
0
  6
Continuous
 62
     7
370
    50
100
AcDbLine
 10
344.8626489893
 20
237.1788710191
 30
0.0
 11
344.8626489893
 21
236.8288706824
 31
0.0
  0
LINE
  5
3BE
330
1F
100
AcDbEntity
  8
0
  6
Continuous
 62
     7
370
    50
100
AcDbLine
 10
344.8626489893
 20
219.128870773
 30
0.0
 11
344.8626489893
 21
218.7788707782
 31
0.0
  0
LINE
  5
3BF
330
1F
100
AcDbEntity
  8
0
  6
Continuous
 62
     7
370
    18
100
AcDbLine
 10
340.27756169
 20
237.1788710191
 30
0.0
 11
340.27756169
 21
236.8288706824
 31
0.0
  0
LINE
  5
3C0
330
1F
100
AcDbEntity
  8
0
  6
Continuous
 62
     7
370
    18
100
AcDbLine
 10
341.2187655971
 20
237.1167089626
 30
0.0
 11
341.2187655971
 21
236.8288706824
 31
0.0
  0
LINE
  5
3C1
330
1F
100
AcDbEntity
  8
0
  6
Continuous
 62
     7
370
    18
100
AcDbLine
 10
328.8626491607
 20
237.2079264208
 30
0.0
 11
329.2626489469
 21
237.2079264208
 31
0.0
  0
LINE
  5
3C2
330
1F
100
AcDbEntity
  8
0
  6
Continuous
 62
     7
370
    18
100
AcDbLine
 10
317.8626487546
 20
243.0788703099
 30
0.0
 11
315.8626488925
 21
243.0788703099
 31
0.0
  0
LINE
  5
3C3
330
1F
100
AcDbEntity
  8
0
  6
Continuous
 62
     7
370
    18
100
AcDbLine
 10
315.8626488925
 20
140.0788739159
 30
0.0
 11
317.8626487546
 21
140.0788739159
 31
0.0
  0
LINE
  5
3C4
330
1F
100
AcDbEntity
  8
0
  6
Continuous
 62
     7
370
    18
100
AcDbLine
 10
318.0419970353
 20
134.0788692072
 30
0.0
 11
318.0419970353
 21
249.0788712933
 31
0.0
  0
LINE
  5
3C5
330
1F
100
AcDbEntity
  8
0
  6
Continuous
 62
     7
370
    18
100
AcDbLine
 10
319.3246044733
 20
134.0788692072
 30
0.0
 11
319.3246044733
 21
249.0788712933
 31
0.0
  0
LINE
  5
3C6
330
1F
100
AcDbEntity
  8
0
  6
Continuous
 62
     7
370
    18
100
AcDbLine
 10
321.8726489444
 20
133.7788715794
 30
0.0
 11
321.8726489444
 21
249.2788709536
 31
0.0
  0
DIMENSION
  5
3C7
330
1F
100
AcDbEntity
  8
0
  6
Continuous
 62
     7
370
    18
100
AcDbDimension
  2
_D_25
 10
344.8626489446
 20
123.4288707807
 30
0.0
 11
337.6126489446
 21
123.4288707807
 31
0.0
 70
   160
  1
<>
 71
     2
 42
-1.0
  3
SLDDIMSTYLE4
100
AcDbAlignedDimension
 13
330.3626489446
 23
134.8788707807
 33
0.0
 14
344.8626489446
 24
133.7788707807
 34
0.0
100
AcDbRotatedDimension
  0
INSERT
  5
3DE
330
1F
100
AcDbEntity
  8
0
  6
Continuous
 62
     7
370
     0
100
AcDbBlockReference
  2
SW_CENTERMARKSYMBOL_6
 10
330.3626489446
 20
142.3788707807
 30
0.0
  0
ENDSEC
  0
SECTION
  2
OBJECTS
  0
DICTIONARY
  5
C
330
0
100
AcDbDictionary
281
     1
  3
ACAD_GROUP
350
D
  3
ACAD_LAYOUT
350
1A
  3
ACAD_MLINESTYLE
350
17
  3
ACAD_PLOTSETTINGS
350
19
  3
ACAD_PLOTSTYLENAME
350
E
  3
ACAD_SCALELIST
350
47
  0
DICTIONARY
  5
D
102
{ACAD_REACTORS
330
C
102
}
330
C
100
AcDbDictionary
281
     1
  0
DICTIONARY
  5
1A
102
{ACAD_REACTORS
330
C
102
}
330
C
100
AcDbDictionary
281
     1
  3
Layout1
350
1E
  3
Layout2
350
26
  3
Model
350
22
  0
DICTIONARY
  5
17
102
{ACAD_REACTORS
330
C
102
}
330
C
100
AcDbDictionary
281
     1
  3
Standard
350
18
  0
DICTIONARY
  5
19
102
{ACAD_REACTORS
330
C
102
}
330
C
100
AcDbDictionary
281
     1
  0
ACDBDICTIONARYWDFLT
  5
E
102
{ACAD_REACTORS
330
C
102
}
330
C
100
AcDbDictionary
281
     1
  3
Normal
350
F
100
AcDbDictionaryWithDefault
340
F
  0
DICTIONARY
  5
47
102
{ACAD_REACTORS
330
C
102
}
330
C
100
AcDbDictionary
281
     1
  3
A0
350
48
  3
A1
350
49
  3
A2
350
4A
  3
A3
350
4B
  3
A4
350
4C
  3
A5
350
4D
  3
A6
350
4E
  3
A7
350
4F
  3
A8
350
50
  3
A9
350
51
  3
B0
350
52
  3
B1
350
53
  3
B2
350
54
  3
B3
350
55
  3
B4
350
56
  3
B5
350
57
  3
B6
350
58
  3
B7
350
59
  3
B8
350
5A
  3
B9
350
5B
  3
C0
350
5C
  3
C1
350
5D
  3
C2
350
5E
  3
C3
350
5F
  3
C4
350
60
  3
C5
350
61
  3
C6
350
62
  3
C7
350
63
  3
C8
350
64
  3
C9
350
65
  3
D0
350
66
  3
D1
350
67
  3
D2
350
68
  0
LAYOUT
  5
1E
102
{ACAD_REACTORS
330
1A
102
}
330
1A
100
AcDbPlotSettings
  1

  2
none_device
  4

  6

 40
0.0
 41
0.0
 42
0.0
 43
0.0
 44
0.0
 45
0.0
 46
0.0
 47
0.0
 48
0.0
 49
0.0
140
0.0
141
0.0
142
1.0
143
1.0
 70
   688
 72
     1
 73
     0
 74
     5
  7

 75
    16
147
1.0
148
0.0
149
0.0
100
AcDbLayout
  1
Layout1
 70
     1
 71
     1
 10
0.0
 20
0.0
 11
420.0
 21
297.0
 12
0.0
 22
0.0
 32
0.0
 14
1.0000000000E+20
 24
1.0000000000E+20
 34
1.0000000000E+20
 15
-1.0000000000E+20
 25
-1.0000000000E+20
 35
-1.0000000000E+20
146
0.0
 13
0.0
 23
0.0
 33
0.0
 16
1.0
 26
0.0
 36
0.0
 17
0.0
 27
1.0
 37
0.0
 76
     0
330
1B
  0
LAYOUT
  5
26
102
{ACAD_REACTORS
330
1A
102
}
330
1A
100
AcDbPlotSettings
  1

  2
none_device
  4

  6

 40
0.0
 41
0.0
 42
0.0
 43
0.0
 44
0.0
 45
0.0
 46
0.0
 47
0.0
 48
0.0
 49
0.0
140
0.0
141
0.0
142
1.0
143
1.0
 70
   688
 72
     1
 73
     0
 74
     5
  7

 75
    16
147
1.0
148
0.0
149
0.0
100
AcDbLayout
  1
Layout2
 70
     1
 71
     2
 10
0.0
 20
0.0
 11
0.0
 21
0.0
 12
0.0
 22
0.0
 32
0.0
 14
0.0
 24
0.0
 34
0.0
 15
0.0
 25
0.0
 35
0.0
146
0.0
 13
0.0
 23
0.0
 33
0.0
 16
1.0
 26
0.0
 36
0.0
 17
0.0
 27
1.0
 37
0.0
 76
     0
330
23
  0
LAYOUT
  5
22
102
{ACAD_REACTORS
330
1A
102
}
330
1A
100
AcDbPlotSettings
  1

  2
none_device
  4
Letter_(8.50_x_11.00_Inches)
  6

 40
6.35
 41
6.35
 42
6.35000508
 43
6.35000508
 44
215.9
 45
279.4
 46
0.0
 47
0.0
 48
0.0
 49
0.0
140
0.0
141
0.0
142
1.0
143
1.0
 70
  1712
 72
     1
 73
     0
 74
     0
  7

 75
     0
147
1.0
148
0.0
149
0.0
100
AcDbLayout
  1
Model
 70
     1
 71
     0
 10
0.0
 20
0.0
 11
420.0
 21
297.0
 12
0.0
 22
0.0
 32
0.0
 14
0.0
 24
0.0
 34
0.0
 15
420.0
 25
297.0
 35
0.0
146
0.0
 13
0.0
 23
0.0
 33
0.0
 16
1.0
 26
0.0
 36
0.0
 17
0.0
 27
1.0
 37
0.0
 76
     0
330
1F
331
29
  0
MLINESTYLE
  5
18
102
{ACAD_REACTORS
330
17
102
}
330
17
100
AcDbMlineStyle
  2
Standard
 70
     0
  3

 62
   256
 51
90.0
 52
90.0
 71
     2
 49
0.5
 62
   256
  6
BYLAYER
 49
-0.5
 62
   256
  6
BYLAYER
  0
ACDBPLACEHOLDER
  5
F
102
{ACAD_REACTORS
330
E
102
}
330
E
  0
SCALE
  5
48
102
{ACAD_REACTORS
330
47
102
}
330
47
100
AcDbScale
 70
     0
300
1:1
140
1.0
141
1.0
290
     1
  0
SCALE
  5
49
102
{ACAD_REACTORS
330
47
102
}
330
47
100
AcDbScale
 70
     0
300
1:2
140
1.0
141
2.0
290
     0
  0
SCALE
  5
4A
102
{ACAD_REACTORS
330
47
102
}
330
47
100
AcDbScale
 70
     0
300
1:4
140
1.0
141
4.0
290
     0
  0
SCALE
  5
4B
102
{ACAD_REACTORS
330
47
102
}
330
47
100
AcDbScale
 70
     0
300
1:5
140
1.0
141
5.0
290
     0
  0
SCALE
  5
4C
102
{ACAD_REACTORS
330
47
102
}
330
47
100
AcDbScale
 70
     0
300
1:8
140
1.0
141
8.0
290
     0
  0
SCALE
  5
4D
102
{ACAD_REACTORS
330
47
102
}
330
47
100
AcDbScale
 70
     0
300
1:10
140
1.0
141
10.0
290
     0
  0
SCALE
  5
4E
102
{ACAD_REACTORS
330
47
102
}
330
47
100
AcDbScale
 70
     0
300
1:16
140
1.0
141
16.0
290
     0
  0
SCALE
  5
4F
102
{ACAD_REACTORS
330
47
102
}
330
47
100
AcDbScale
 70
     0
300
1:20
140
1.0
141
20.0
290
     0
  0
SCALE
  5
50
102
{ACAD_REACTORS
330
47
102
}
330
47
100
AcDbScale
 70
     0
300
1:30
140
1.0
141
30.0
290
     0
  0
SCALE
  5
51
102
{ACAD_REACTORS
330
47
102
}
330
47
100
AcDbScale
 70
     0
300
1:40
140
1.0
141
40.0
290
     0
  0
SCALE
  5
52
102
{ACAD_REACTORS
330
47
102
}
330
47
100
AcDbScale
 70
     0
300
1:50
140
1.0
141
50.0
290
     0
  0
SCALE
  5
53
102
{ACAD_REACTORS
330
47
102
}
330
47
100
AcDbScale
 70
     0
300
1:100
140
1.0
141
100.0
290
     0
  0
SCALE
  5
54
102
{ACAD_REACTORS
330
47
102
}
330
47
100
AcDbScale
 70
     0
300
2:1
140
2.0
141
1.0
290
     0
  0
SCALE
  5
55
102
{ACAD_REACTORS
330
47
102
}
330
47
100
AcDbScale
 70
     0
300
4:1
140
4.0
141
1.0
290
     0
  0
SCALE
  5
56
102
{ACAD_REACTORS
330
47
102
}
330
47
100
AcDbScale
 70
     0
300
8:1
140
8.0
141
1.0
290
     0
  0
SCALE
  5
57
102
{ACAD_REACTORS
330
47
102
}
330
47
100
AcDbScale
 70
     0
300
10:1
140
10.0
141
1.0
290
     0
  0
SCALE
  5
58
102
{ACAD_REACTORS
330
47
102
}
330
47
100
AcDbScale
 70
     0
300
100:1
140
100.0
141
1.0
290
     0
  0
SCALE
  5
59
102
{ACAD_REACTORS
330
47
102
}
330
47
100
AcDbScale
 70
     0
300
1/128" = 1'-0"
140
0.0078125
141
12.0
290
     0
  0
SCALE
  5
5A
102
{ACAD_REACTORS
330
47
102
}
330
47
100
AcDbScale
 70
     0
300
1/64" = 1'-0"
140
0.015625
141
12.0
290
     0
  0
SCALE
  5
5B
102
{ACAD_REACTORS
330
47
102
}
330
47
100
AcDbScale
 70
     0
300
1/32" = 1'-0"
140
0.03125
141
12.0
290
     0
  0
SCALE
  5
5C
102
{ACAD_REACTORS
330
47
102
}
330
47
100
AcDbScale
 70
     0
300
1/16" = 1'-0"
140
0.0625
141
12.0
290
     0
  0
SCALE
  5
5D
102
{ACAD_REACTORS
330
47
102
}
330
47
100
AcDbScale
 70
     0
300
3/32" = 1'-0"
140
0.09375
141
12.0
290
     0
  0
SCALE
  5
5E
102
{ACAD_REACTORS
330
47
102
}
330
47
100
AcDbScale
 70
     0
300
1/8" = 1'-0"
140
0.125
141
12.0
290
     0
  0
SCALE
  5
5F
102
{ACAD_REACTORS
330
47
102
}
330
47
100
AcDbScale
 70
     0
300
3/16" = 1'-0"
140
0.1875
141
12.0
290
     0
  0
SCALE
  5
60
102
{ACAD_REACTORS
330
47
102
}
330
47
100
AcDbScale
 70
     0
300
1/4" = 1'-0"
140
0.25
141
12.0
290
     0
  0
SCALE
  5
61
102
{ACAD_REACTORS
330
47
102
}
330
47
100
AcDbScale
 70
     0
300
3/8" = 1'-0"
140
0.375
141
12.0
290
     0
  0
SCALE
  5
62
102
{ACAD_REACTORS
330
47
102
}
330
47
100
AcDbScale
 70
     0
300
1/2" = 1'-0"
140
0.5
141
12.0
290
     0
  0
SCALE
  5
63
102
{ACAD_REACTORS
330
47
102
}
330
47
100
AcDbScale
 70
     0
300
3/4" = 1'-0"
140
0.75
141
12.0
290
     0
  0
SCALE
  5
64
102
{ACAD_REACTORS
330
47
102
}
330
47
100
AcDbScale
 70
     0
300
1" = 1'-0"
140
1.0
141
12.0
290
     0
  0
SCALE
  5
65
102
{ACAD_REACTORS
330
47
102
}
330
47
100
AcDbScale
 70
     0
300
1-1/2" = 1'-0"
140
1.5
141
12.0
290
     0
  0
SCALE
  5
66
102
{ACAD_REACTORS
330
47
102
}
330
47
100
AcDbScale
 70
     0
300
3" = 1'-0"
140
3.0
141
12.0
290
     0
  0
SCALE
  5
67
102
{ACAD_REACTORS
330
47
102
}
330
47
100
AcDbScale
 70
     0
300
6" = 1'-0"
140
6.0
141
12.0
290
     0
  0
SCALE
  5
68
102
{ACAD_REACTORS
330
47
102
}
330
47
100
AcDbScale
 70
     0
300
1'-0" = 1'-0"
140
12.0
141
12.0
290
     0
  0
ENDSEC
  0
EOF
